osu file format v14

[General]
AudioFilename: audio.ogg
AudioLeadIn: 0
PreviewTime: 122162
Countdown: 0
SampleSet: Soft
StackLeniency: 0.7
Mode: 0
LetterboxInBreaks: 1
EpilepsyWarning: 1
WidescreenStoryboard: 1

[Editor]
DistanceSpacing: 0.3
BeatDivisor: 4
GridSize: 32
TimelineZoom: 3.999998

[Metadata]
Title:IMAGE REBORN -DIVINITY-
TitleUnicode:IMAGE REBORN -DIVINITY-
Artist:Tatsh
ArtistUnicode:Tatsh
Creator:Nymphe
Version:Throne of the Forsaken -Feel in Image-
Source:The Roundtable II
Tags:scubdomino kiyoshi guarden binarie seiioh Tomomi Natori 名取友įžŽ female vocalist battle royale 1v1 finals tb tiebreaker English Rock Symphonic Metal btmc
BeatmapID:4212498
BeatmapSetID:2022551

[Difficulty]
HPDrainRate:5.6
CircleSize:4.3
OverallDifficulty:9.4
ApproachRate:9.7
SliderMultiplier:1.4
SliderTickRate:1

[Events]
//Background and Video events
0,0,"98646512_p0.jpg",0,0
//Break Periods
//Storyboard Layer 0 (Background)
//Storyboard Layer 1 (Fail)
//Storyboard Layer 2 (Pass)
//Storyboard Layer 3 (Foreground)
//Storyboard Layer 4 (Overlay)
//Storyboard Sound Samples

[TimingPoints]
1102,545.454545454545,4,2,2,70,1,0
1102,-92.5497454881999,4,2,2,70,0,0
1244,-92.5925925925926,4,2,2,30,0,0
9283,571.428571428571,4,2,2,30,1,0
9854,555.555555555556,4,2,2,30,1,0
10687,400,4,2,2,50,1,0
10687,-100,4,2,1,50,0,0
10887,545.454545454546,4,2,2,80,1,0
10887,-153.846153846154,4,2,2,80,0,0
10989,-153.846153846154,4,2,2,30,0,0
11125,-153.846153846154,4,2,2,40,0,0
11262,-153.846153846154,4,2,2,30,0,0
11398,-153.846153846154,4,2,2,40,0,0
11534,-153.846153846154,4,2,2,30,0,0
11670,-153.846153846154,4,2,2,40,0,0
11807,-153.846153846154,4,2,2,30,0,0
11943,-153.846153846154,4,2,2,60,0,0
12079,-153.846153846154,4,2,2,30,0,0
12215,-153.846153846154,4,2,2,40,0,0
12352,-153.846153846154,4,2,2,30,0,0
12489,-153.846153846154,4,2,2,40,0,0
12625,-153.846153846154,4,2,2,30,0,0
12761,-153.846153846154,4,2,2,40,0,0
12898,-153.846153846154,4,2,2,30,0,0
13068,-133.333333333334,4,2,2,80,0,0
13170,-133.333333333334,4,2,2,30,0,0
13306,-133.333333333334,4,2,2,40,0,0
13443,-133.333333333334,4,2,2,30,0,0
13579,-133.333333333334,4,2,2,40,0,0
13715,-133.333333333334,4,2,2,30,0,0
13851,-133.333333333334,4,2,2,40,0,0
13988,-133.333333333334,4,2,2,30,0,0
14124,-133.333333333334,4,2,2,60,0,0
14260,-133.333333333334,4,2,2,30,0,0
14396,-133.333333333334,4,2,2,40,0,0
14533,-133.333333333334,4,2,2,30,0,0
14670,-133.333333333334,4,2,2,40,0,0
14806,-133.333333333334,4,2,2,30,0,0
14942,-133.333333333334,4,2,2,40,0,0
15079,-133.333333333334,4,2,2,30,0,0
15250,-133.333333333334,4,2,2,80,0,0
15352,-133.333333333334,4,2,2,30,0,0
15488,-133.333333333334,4,2,2,40,0,0
15625,-133.333333333334,4,2,2,30,0,0
15761,-133.333333333334,4,2,2,40,0,0
15897,-133.333333333334,4,2,2,30,0,0
16033,-133.333333333334,4,2,2,40,0,0
16170,-133.333333333334,4,2,2,30,0,0
16306,-133.333333333334,4,2,2,60,0,0
16442,-133.333333333334,4,2,2,30,0,0
16578,-133.333333333334,4,2,2,40,0,0
16715,-133.333333333334,4,2,2,30,0,0
16852,-133.333333333334,4,2,2,40,0,0
16988,-133.333333333334,4,2,2,30,0,0
17124,-133.333333333334,4,2,2,40,0,0
17261,-133.333333333334,4,2,2,30,0,0
17432,-133.333333333334,4,2,2,80,0,0
17534,-133.333333333334,4,2,2,30,0,0
17670,-133.333333333334,4,2,2,40,0,0
17807,-133.333333333334,4,2,2,30,0,0
17943,-133.333333333334,4,2,2,40,0,0
18079,-133.333333333334,4,2,2,30,0,0
18215,-133.333333333334,4,2,2,40,0,0
18352,-133.333333333334,4,2,2,30,0,0
18488,-133.333333333334,4,2,2,60,0,0
18624,-133.333333333334,4,2,2,30,0,0
18760,-133.333333333334,4,2,2,40,0,0
18897,-133.333333333334,4,2,2,30,0,0
19034,-133.333333333334,4,2,2,40,0,0
19170,-133.333333333334,4,2,2,30,0,0
19306,-133.333333333334,4,2,2,40,0,0
19443,-133.333333333334,4,2,2,30,0,0
19614,-133.333333333334,4,2,2,80,0,0
19716,-133.333333333334,4,2,2,30,0,0
19852,-133.333333333334,4,2,2,40,0,0
19989,-133.333333333334,4,2,2,30,0,0
20023,-181.818181818183,4,2,2,30,0,0
20125,-181.818181818183,4,2,2,40,0,0
20261,-181.818181818183,4,2,2,30,0,0
20397,-181.818181818183,4,2,2,40,0,0
20534,-181.818181818183,4,2,2,30,0,0
20670,-181.818181818183,4,2,2,60,0,0
20806,-181.818181818183,4,2,2,30,0,0
20942,-181.818181818183,4,2,2,40,0,0
21079,-181.818181818183,4,2,2,30,0,0
21216,-181.818181818183,4,2,2,40,0,0
21352,-181.818181818183,4,2,2,30,0,0
21488,-181.818181818183,4,2,2,40,0,0
21625,-181.818181818183,4,2,2,30,0,0
21796,272.727272727273,4,2,2,90,1,0
21796,-64.5161290322581,4,2,2,90,0,0
21864,-64.5161290322581,4,2,1,5,0,0
23841,-64.5161290322581,4,2,1,90,0,0
24046,-64.5161290322581,4,2,1,5,0,0
25750,-64.5161290322581,4,2,1,90,0,0
26091,-64.5161290322581,4,2,1,5,0,0
26159,-64.5161290322581,4,2,1,90,0,0
26227,-64.5161290322581,4,2,1,5,0,0
28068,-64.5161290322581,4,2,1,90,0,0
28273,-64.5161290322581,4,2,1,5,0,0
28341,-64.5161290322581,4,2,1,90,0,0
28409,-64.5161290322581,4,2,1,5,0,0
29977,-64.5161290322581,4,2,1,90,0,0
30523,-57.1428571428571,4,2,1,90,0,0
30727,-64.5161290322581,4,2,1,5,0,0
30796,-57.1428571428571,4,2,1,90,0,0
31068,-57.1428571428571,4,2,1,90,0,0
31136,-64.5161290322581,4,2,1,5,0,0
31205,-57.1428571428571,4,2,1,90,0,0
31273,-64.5161290322581,4,2,1,5,0,0
31341,-57.1428571428571,4,2,1,90,0,0
31614,-37.7358490566038,4,2,1,90,0,0
31818,-64.5161290322581,4,2,1,5,0,0
31886,-57.1428571428571,4,2,1,90,0,0
32159,-57.1428571428571,4,2,1,90,0,0
32227,-64.5161290322581,4,2,1,5,0,0
32296,-57.1428571428571,4,2,1,90,0,0
32364,-64.5161290322581,4,2,1,5,0,0
32432,-57.1428571428571,4,2,1,90,0,0
33250,-57.1428571428571,4,2,1,90,0,0
33318,-64.5161290322581,4,2,1,5,0,0
33386,-57.1428571428571,4,2,1,90,0,0
33455,-64.5161290322581,4,2,1,5,0,0
33523,-57.1428571428571,4,2,1,90,0,0
33796,-44.4444444444445,4,2,1,90,0,0
34000,-64.5161290322581,4,2,1,5,0,0
34068,-57.1428571428571,4,2,1,90,0,0
34341,-57.1428571428571,4,2,1,90,0,0
34409,-64.5161290322581,4,2,1,5,0,0
34477,-57.1428571428571,4,2,1,90,0,0
34546,-64.5161290322581,4,2,1,5,0,0
34614,-57.1428571428571,4,2,1,90,0,0
35091,-64.5161290322581,4,2,1,5,0,0
35159,-57.1428571428571,4,2,1,90,0,0
35432,-57.1428571428571,4,2,1,90,0,0
35500,-64.5161290322581,4,2,1,5,0,0
35568,-57.1428571428571,4,2,1,90,0,0
35636,-64.5161290322581,4,2,1,5,0,0
35705,-57.1428571428571,4,2,1,90,0,0
36523,-57.1428571428571,4,2,1,90,0,0
36591,-64.5161290322581,4,2,1,5,0,0
36659,-57.1428571428571,4,2,1,90,0,0
36727,-64.5161290322581,4,2,1,5,0,0
36796,-57.1428571428571,4,2,1,90,0,0
37614,-42.5531914893617,4,2,1,90,0,0
37818,-64.5161290322581,4,2,1,5,0,0
37886,-60.6060606060606,4,2,1,90,0,0
39455,-64.5161290322581,4,2,1,5,0,0
39523,-60.6060606060606,4,2,1,90,0,0
39864,-64.5161290322581,4,2,1,5,0,0
39932,-60.6060606060606,4,2,1,90,0,0
40000,-64.5161290322581,4,2,1,5,0,0
40068,-60.6060606060606,4,2,1,90,0,0
40341,-60.6060606060606,4,2,1,90,0,0
40546,-64.5161290322581,4,2,1,5,0,0
40614,-60.6060606060606,4,2,1,90,0,0
40886,-60.6060606060606,4,2,1,90,0,0
40955,-64.5161290322581,4,2,1,5,0,0
41023,-60.6060606060606,4,2,1,90,0,0
41091,-64.5161290322581,4,2,1,5,0,0
41159,-60.6060606060606,4,2,1,90,0,0
42591,-64.5161290322581,4,2,1,5,0,0
42659,-60.6060606060606,4,2,1,90,0,0
42727,-64.5161290322581,4,2,1,5,0,0
42796,-60.6060606060606,4,2,1,90,0,0
43273,-64.5161290322581,4,2,1,5,0,0
43341,-60.6060606060606,4,2,1,90,0,0
43409,-64.5161290322581,4,2,1,5,0,0
43477,-60.6060606060606,4,2,1,90,0,0
43546,-64.5161290322581,4,2,1,5,0,0
43614,-46.5116279069767,4,2,1,90,0,0
43818,-46.5116279069767,4,2,1,90,0,0
43886,-60.6060606060606,4,2,1,90,0,0
44227,-64.5161290322581,4,2,1,5,0,0
44296,-60.6060606060606,4,2,1,90,0,0
44364,-64.5161290322581,4,2,1,5,0,0
44432,-60.6060606060606,4,2,1,90,0,0
45523,-68.9655172413793,4,2,1,90,0,0
47977,-68.9655172413793,4,2,1,80,0,0
48386,-57.1428571428571,4,2,1,80,0,0
48796,-68.9655172413793,4,2,1,80,0,0
50158,-54.054054054054,4,2,1,80,0,0
50364,-64.5161290322581,4,2,1,5,0,0
50431,-68.9655172413793,4,2,1,80,0,0
50500,-64.5161290322581,4,2,1,5,0,0
50568,-68.9655172413793,4,2,1,80,0,0
50636,-64.5161290322581,4,2,1,5,0,0
50705,-68.9655172413793,4,2,1,80,0,0
53091,-64.5161290322581,4,2,1,5,0,0
53159,-68.9655172413793,4,2,1,80,0,0
53227,-68.9655172413793,4,2,1,5,0,0
53296,-68.9655172413793,4,2,1,80,0,0
53364,-68.9655172413793,4,2,1,5,0,0
53432,-68.9655172413793,4,2,1,80,0,0
54727,-64.5161290322581,4,2,1,5,0,0
54796,-68.9655172413793,4,2,1,80,0,0
56704,-57.1428571428571,4,2,1,80,0,0
57114,-64.5161290322581,4,2,1,80,0,0
57795,-68.9655172413793,4,2,1,80,0,0
58886,-153.846153846154,4,2,1,80,0,0
58955,-64.5161290322581,4,2,1,5,0,0
59023,-153.846153846154,4,2,1,80,0,0
59091,-64.5161290322581,4,2,1,5,0,0
59158,-74.0740740740741,4,2,1,80,0,0
59364,-74.0740740740741,4,2,1,80,0,0
59431,-133.333333333333,4,2,1,80,0,0
59500,-64.5161290322581,4,2,1,5,0,0
59568,-133.333333333333,4,2,1,80,0,0
59636,-64.5161290322581,4,2,1,5,0,0
59704,-68.9655172413792,4,2,1,80,0,0
59909,-64.5161290322581,4,2,1,5,0,0
59977,-86.9565217391304,4,2,1,80,0,0
60046,-64.5161290322581,4,2,1,5,0,0
60114,-86.9565217391304,4,2,1,80,0,0
60182,-64.5161290322581,4,2,1,5,0,0
60249,-48.780487804878,4,2,1,80,0,0
60455,-64.5161290322581,4,2,1,5,0,0
60523,-48.780487804878,4,2,1,80,0,0
60727,-64.5161290322581,4,2,1,5,0,0
60795,-57.1428571428571,4,2,1,80,0,0
60864,-64.5161290322581,4,2,1,5,0,0
60932,-57.1428571428571,4,2,1,80,0,0
61000,-64.5161290322581,4,2,1,5,0,0
61068,-57.1428571428571,4,2,1,80,0,0
61273,-64.5161290322581,4,2,1,5,0,0
61341,-57.1428571428571,4,2,1,80,0,0
61614,-68.9655172413793,4,2,1,80,0,0
63250,-54.054054054054,4,2,1,80,0,0
64068,-181.818181818182,4,2,1,80,0,0
64477,-32.7868852459016,4,2,1,80,0,0
64682,-64.5161290322581,4,2,1,5,0,0
64750,-57.1428571428571,4,2,1,80,0,0
65432,-48.780487804878,4,2,1,80,0,1
65636,-64.5161290322581,4,2,1,5,0,1
65705,-48.780487804878,4,2,1,80,0,1
65909,-64.5161290322581,4,2,1,5,0,1
65977,-48.780487804878,4,2,1,80,0,1
66250,-64.5161290322581,4,2,1,80,0,1
67068,-42.5531914893617,4,2,1,80,0,1
67273,-64.5161290322581,4,2,1,5,0,1
67341,-86.9565217391304,4,2,1,80,0,1
67613,-51.2820512820513,4,2,1,80,0,1
67818,-64.5161290322581,4,2,1,5,0,1
67886,-68.9655172413793,4,2,1,80,0,1
68432,-64.5161290322581,4,2,1,80,0,1
69795,-54.054054054054,4,2,1,80,0,1
70000,-64.5161290322581,4,2,1,80,0,1
70068,-64.5161290322581,4,2,1,80,0,1
70613,-80,4,2,1,80,0,1
70682,-64.5161290322581,4,2,1,5,0,1
70750,-80,4,2,1,80,0,1
70818,-64.5161290322581,4,2,1,5,0,1
70886,-80,4,2,1,80,0,1
71977,-153.846153846154,4,2,1,80,0,1
72046,-64.5161290322581,4,2,1,5,0,1
72114,-153.846153846154,4,2,1,80,0,1
72182,-64.5161290322581,4,2,1,5,0,1
72250,-60.6060606060606,4,2,1,80,0,1
72455,-64.5161290322581,4,2,1,5,0,1
72523,-133.333333333333,4,2,1,80,0,1
72591,-64.5161290322581,4,2,1,5,0,1
72659,-133.333333333333,4,2,1,80,0,1
72727,-64.5161290322581,4,2,1,5,0,1
72795,-57.1428571428571,4,2,1,80,0,1
73000,-57.1428571428571,4,2,1,80,0,1
73068,-80,4,2,1,80,0,1
73136,-64.5161290322581,4,2,1,5,0,1
73205,-80,4,2,1,80,0,1
73273,-64.5161290322581,4,2,1,5,0,1
73341,-80,4,2,1,80,0,1
74159,-46.5116279069767,4,2,1,80,0,1
74364,-64.5161290322581,4,2,1,5,0,1
74432,-64.5161290322581,4,2,1,80,0,1
75046,-64.5161290322581,4,2,1,5,0,1
75114,-64.5161290322581,4,2,1,80,0,1
75182,-64.5161290322581,4,2,1,5,0,1
75250,-64.5161290322581,4,2,1,80,0,1
75795,-42.5531914893617,4,2,1,80,0,1
76000,-64.5161290322581,4,2,1,5,0,1
76068,-86.9565217391304,4,2,1,80,0,1
76341,-40.8163265306122,4,2,1,80,0,1
76546,-64.5161290322581,4,2,1,5,0,1
76613,-80,4,2,1,80,0,1
76955,-64.5161290322581,4,2,1,5,0,1
77023,-80,4,2,1,80,0,1
77091,-64.5161290322581,4,2,1,5,0,1
77159,-57.1428571428571,4,2,1,80,0,1
78523,-42.5531914893617,4,2,1,80,0,1
78727,-64.5161290322581,4,2,1,5,0,1
78795,-64.5161290322581,4,2,1,80,0,1
79000,-64.5161290322581,4,2,1,5,0,1
79068,-64.5161290322581,4,2,1,80,0,1
79136,-64.5161290322581,4,2,1,5,0,1
79205,-64.5161290322581,4,2,1,80,0,1
79273,-64.5161290322581,4,2,1,5,0,1
79341,-80,4,2,1,80,0,1
79750,-68.9655172413793,4,2,1,80,0,1
80023,-54.054054054054,4,2,1,80,0,1
80432,-74.0740740740741,4,2,1,80,0,1
80704,-153.846153846154,4,2,1,80,0,1
80773,-64.5161290322581,4,2,1,5,0,1
80841,-153.846153846154,4,2,1,80,0,1
80909,-64.5161290322581,4,2,1,5,0,1
80977,-60.6060606060606,4,2,1,80,0,1
81182,-64.5161290322581,4,2,1,5,0,1
81250,-133.333333333333,4,2,1,80,0,1
81318,-64.5161290322581,4,2,1,5,0,1
81386,-133.333333333333,4,2,1,80,0,1
81455,-64.5161290322581,4,2,1,5,0,1
81523,-57.1428571428571,4,2,1,80,0,1
81727,-64.5161290322581,4,2,1,5,0,1
81795,-80,4,2,1,80,0,1
81864,-64.5161290322581,4,2,1,5,0,1
81932,-80,4,2,1,80,0,1
82000,-64.5161290322581,4,2,1,5,0,1
82068,-80,4,2,1,80,0,1
82886,-74.0740740740742,4,2,1,80,0,0
83159,-74.0740740740742,4,2,1,75,0,0
85068,-57.1428571428571,4,2,1,90,0,0
85273,-64.5161290322581,4,2,1,5,0,0
85341,-57.1428571428571,4,2,1,90,0,0
86705,-44.4444444444445,4,2,1,90,0,0
86909,-64.5161290322581,4,2,1,5,0,0
86977,-57.1428571428571,4,2,1,90,0,0
87046,-64.5161290322581,4,2,1,5,0,0
87114,-57.1428571428571,4,2,1,90,0,0
87182,-64.5161290322581,4,2,1,5,0,0
87250,-48.780487804878,4,2,1,90,0,0
87455,-64.5161290322581,4,2,1,5,0,0
87523,-57.1428571428571,4,2,1,90,0,0
87659,-54.054054054054,4,2,1,90,0,0
88068,-48.780487804878,4,2,1,90,0,0
88886,-42.5531914893617,4,2,1,90,0,0
89091,-64.5161290322581,4,2,1,5,0,0
89159,-57.1428571428571,4,2,1,90,0,0
89227,-64.5161290322581,4,2,1,5,0,0
89296,-57.1428571428571,4,2,1,90,0,0
89364,-64.5161290322581,4,2,1,5,0,0
89432,-44.4444444444445,4,2,1,90,0,0
89636,-64.5161290322581,4,2,1,5,0,0
89705,-57.1428571428571,4,2,1,90,0,0
89841,-51.2820512820513,4,2,1,90,0,0
90796,-57.1428571428571,4,2,1,90,0,0
91068,-36.3636363636364,4,2,1,90,0,0
91273,-64.5161290322581,4,2,1,5,0,0
91341,-57.1428571428571,4,2,1,90,0,0
91614,-40.8163265306122,4,2,1,90,0,0
92636,-64.5161290322581,4,2,1,5,0,0
92705,-57.1428571428571,4,2,1,90,0,0
93796,-57.1428571428571,4,2,1,90,0,0
94000,-64.5161290322581,4,2,1,5,0,0
94068,-62.5,4,2,1,90,0,0
95636,-64.5161290322581,4,2,1,5,0,0
95705,-62.5,4,2,1,90,0,0
95773,-64.5161290322581,4,2,1,5,0,0
95841,-62.5,4,2,1,90,0,0
95909,-64.5161290322581,4,2,1,5,0,0
95977,-62.5,4,2,1,90,0,0
96182,-64.5161290322581,4,2,1,5,0,0
96250,-62.5,4,2,1,90,0,0
97818,-64.5161290322581,4,2,1,5,0,0
97886,-62.5,4,2,1,90,0,0
97955,-64.5161290322581,4,2,1,5,0,0
98023,-62.5,4,2,1,90,0,0
98091,-64.5161290322581,4,2,1,5,0,0
98159,-62.5,4,2,1,90,0,0
98364,-64.5161290322581,4,2,1,5,0,0
98432,-62.5,4,2,1,90,0,0
99182,-64.5161290322581,4,2,1,5,0,0
99250,-62.5,4,2,1,90,0,0
100341,-55.5555555555556,4,2,1,90,0,0
101705,-90.9090909090909,4,2,1,90,0,0
102250,-68.9655172413793,4,2,1,90,0,0
102523,-39.2156862745098,4,2,1,90,0,0
102796,-64.5161290322581,4,2,1,5,0,0
102932,-133.333333333333,4,2,1,90,0,0
103205,-64.5161290322581,4,2,1,5,0,0
103341,-40,4,2,1,90,0,0
103886,-68.9655172413793,4,2,1,90,0,0
104432,-181.818181818182,4,2,1,90,0,0
104636,-64.5161290322581,4,2,1,5,0,0
104705,-68.9655172413793,4,2,1,80,0,0
106886,-54.054054054054,4,2,1,80,0,0
107091,-64.5161290322581,4,2,1,5,0,0
107159,-68.9655172413793,4,2,1,80,0,0
109273,-64.5161290322581,4,2,1,5,0,0
109341,-68.9655172413793,4,2,1,80,0,0
109955,-68.9655172413793,4,2,1,5,0,0
110023,-68.9655172413793,4,2,1,80,0,0
110091,-68.9655172413793,4,2,1,5,0,0
110159,-68.9655172413793,4,2,1,80,0,0
111455,-64.5161290322581,4,2,1,5,0,0
111523,-68.9655172413793,4,2,1,80,0,0
113432,-57.1428571428571,4,2,1,80,0,0
114523,-68.9655172413793,4,2,1,80,0,0
115614,-153.846153846154,4,2,1,80,0,0
115682,-64.5161290322581,4,2,1,5,0,0
115750,-153.846153846154,4,2,1,80,0,0
115818,-64.5161290322581,4,2,1,5,0,0
115886,-74.0740740740741,4,2,1,80,0,0
116091,-64.5161290322581,4,2,1,5,0,0
116159,-133.333333333333,4,2,1,80,0,0
116227,-64.5161290322581,4,2,1,5,0,0
116296,-133.333333333333,4,2,1,80,0,0
116364,-64.5161290322581,4,2,1,5,0,0
116432,-68.9655172413792,4,2,1,80,0,0
116636,-64.5161290322581,4,2,1,5,0,0
116705,-86.9565217391304,4,2,1,80,0,0
116773,-64.5161290322581,4,2,1,5,0,0
116841,-86.9565217391304,4,2,1,80,0,0
116909,-64.5161290322581,4,2,1,5,0,0
116977,-48.780487804878,4,2,1,80,0,0
117182,-64.5161290322581,4,2,1,5,0,0
117250,-51.2820512820513,4,2,1,80,0,0
117455,-64.5161290322581,4,2,1,5,0,0
117523,-44.4444444444445,4,2,1,80,0,0
117727,-64.5161290322581,4,2,1,5,0,0
117796,-64.5161290322581,4,2,1,80,0,0
118000,-64.5161290322581,4,2,1,5,0,0
118068,-64.5161290322581,4,2,1,80,0,0
119977,-40.8163265306122,4,2,1,80,0,0
120795,-181.818181818182,4,2,1,80,0,0
121205,-51.2820512820513,4,2,1,80,0,0
121409,-64.5161290322581,4,2,1,5,0,0
121477,-51.2820512820513,4,2,1,80,0,0
122159,-48.780487804878,4,2,1,80,0,1
122364,-64.5161290322581,4,2,1,5,0,1
122432,-48.780487804878,4,2,1,80,0,1
122636,-64.5161290322581,4,2,1,5,0,1
122705,-48.780487804878,4,2,1,80,0,1
122977,-64.5161290322581,4,2,1,80,0,1
123795,-42.5531914893617,4,2,1,80,0,1
124000,-64.5161290322581,4,2,1,5,0,1
124068,-86.9565217391304,4,2,1,80,0,1
124340,-51.2820512820513,4,2,1,80,0,1
124546,-64.5161290322581,4,2,1,5,0,1
124613,-68.9655172413793,4,2,1,80,0,1
125159,-64.5161290322581,4,2,1,80,0,1
126522,-54.054054054054,4,2,1,80,0,1
126727,-64.5161290322581,4,2,1,5,0,1
126796,-54.054054054054,4,2,1,80,0,1
127340,-80,4,2,1,80,0,1
127409,-80,4,2,1,5,0,1
127477,-80,4,2,1,80,0,1
127546,-80,4,2,1,5,0,1
127614,-80,4,2,1,80,0,1
128704,-153.846153846154,4,2,1,80,0,1
128773,-64.5161290322581,4,2,1,5,0,1
128841,-153.846153846154,4,2,1,80,0,1
128909,-64.5161290322581,4,2,1,5,0,1
128977,-60.6060606060606,4,2,1,80,0,1
129182,-64.5161290322581,4,2,1,5,0,1
129250,-133.333333333333,4,2,1,80,0,1
129318,-64.5161290322581,4,2,1,5,0,1
129386,-133.333333333333,4,2,1,80,0,1
129455,-64.5161290322581,4,2,1,5,0,1
129522,-57.1428571428571,4,2,1,80,0,1
129727,-64.5161290322581,4,2,1,5,0,1
129795,-80,4,2,1,80,0,1
129864,-64.5161290322581,4,2,1,5,0,1
129932,-80,4,2,1,80,0,1
130000,-64.5161290322581,4,2,1,5,0,1
130068,-80,4,2,1,80,0,1
130886,-35.0877192982456,4,2,1,80,0,1
131091,-64.5161290322581,4,2,1,5,0,1
131159,-64.5161290322581,4,2,1,80,0,1
131773,-64.5161290322581,4,2,1,5,0,1
131841,-64.5161290322581,4,2,1,80,0,1
131909,-64.5161290322581,4,2,1,5,0,1
131977,-64.5161290322581,4,2,1,80,0,1
132522,-42.5531914893617,4,2,1,80,0,1
132727,-64.5161290322581,4,2,1,5,0,1
132795,-86.9565217391304,4,2,1,80,0,1
133068,-40.8163265306122,4,2,1,80,0,1
133273,-64.5161290322581,4,2,1,5,0,1
133340,-57.1428571428571,4,2,1,80,0,1
133682,-64.5161290322581,4,2,1,5,0,1
133750,-57.1428571428571,4,2,1,80,0,1
133818,-64.5161290322581,4,2,1,5,0,1
133886,-57.1428571428571,4,2,1,80,0,1
135250,-42.5531914893617,4,2,1,80,0,1
135455,-64.5161290322581,4,2,1,5,0,1
135522,-64.5161290322581,4,2,1,80,0,1
135864,-64.5161290322581,4,2,1,5,0,1
135932,-64.5161290322581,4,2,1,80,0,1
136000,-64.5161290322581,4,2,1,5,0,1
136068,-60.6060606060606,4,2,1,80,0,1
136477,-68.9655172413793,4,2,1,80,0,1
137431,-153.846153846154,4,2,1,80,0,1
137500,-64.5161290322581,4,2,1,5,0,1
137568,-153.846153846154,4,2,1,80,0,1
137636,-64.5161290322581,4,2,1,5,0,1
137704,-60.6060606060606,4,2,1,80,0,1
137909,-64.5161290322581,4,2,1,5,0,1
137977,-133.333333333333,4,2,1,80,0,1
138046,-64.5161290322581,4,2,1,5,0,1
138114,-133.333333333333,4,2,1,80,0,1
138182,-64.5161290322581,4,2,1,5,0,1
138250,-57.1428571428571,4,2,1,80,0,1
138455,-64.5161290322581,4,2,1,5,0,1
138522,-80,4,2,1,80,0,1
138591,-64.5161290322581,4,2,1,5,0,1
138659,-80,4,2,1,80,0,1
138727,-64.5161290322581,4,2,1,5,0,1
138796,-80,4,2,1,80,0,1
139614,430.570505920344,4,2,1,80,1,0
139614,-142.045454545455,4,2,1,80,0,0
139648,-227.272727272727,4,2,1,5,0,0
143058,588.235294117647,4,2,2,65,1,0
143058,-125,4,2,2,65,0,0
143352,-125,4,2,2,55,0,0
145484,-125,4,2,2,5,0,0
146538,-125,4,2,2,55,0,0
147763,-86.9565217391304,4,2,2,65,0,0
148057,-86.9565217391304,4,2,2,55,0,0
150116,-125,4,2,2,55,0,0
152322,-125,4,2,2,65,0,0
152616,-125,4,2,2,55,0,0
154822,-95.2380952380952,4,2,2,55,0,0
157028,-95.2380952380952,4,2,2,65,0,0
157175,-74.0740740740741,4,2,2,65,0,0
157322,-74.0740740740741,4,2,2,55,0,0
158058,-125,4,2,2,55,0,0
159602,-125,4,2,2,5,0,0
160705,-125,4,2,2,55,0,0
161734,-125,4,2,2,65,0,0
162028,-125,4,2,2,55,0,0
164087,-125,4,2,2,65,0,0
164381,-125,4,2,2,55,0,0
166440,-125,4,2,2,65,0,0
166734,-125,4,2,2,55,0,0
168793,-125,4,2,2,65,0,0
169087,-125,4,2,2,55,0,0
170705,-166.666666666667,4,2,2,55,0,0
171146,-166.666666666667,4,2,2,65,0,0
171293,-100,4,2,2,65,0,0
171440,-100,4,2,2,55,0,0
173499,-100,4,2,2,65,0,0
173793,-100,4,2,2,55,0,0
174234,-166.666666666667,4,2,2,55,0,0
175884,-166.666666666667,4,2,2,65,0,0
175999,-100,4,2,2,65,0,0
176178,-100,4,2,2,55,0,0
176881,-125,4,2,2,55,0,0
178226,-125,4,2,2,65,0,0
178352,-100,4,2,2,65,0,0
178520,-100,4,2,2,55,0,0
180705,-100,4,2,2,65,0,0
180741,-100,4,2,2,35,0,0
180815,-100,4,2,2,45,0,0
180888,-100,4,2,2,55,0,0
180999,-50,4,2,2,55,0,0
181035,-50,4,2,2,35,0,0
181109,-50,4,2,2,45,0,0
181182,-50,4,2,2,55,0,0
181330,-50,4,2,2,35,0,0
181404,-50,4,2,2,45,0,0
181477,-50,4,2,2,55,0,0
181624,-50,4,2,2,35,0,0
181698,-50,4,2,2,45,0,0
181771,-50,4,2,2,55,0,0
181918,-50,4,2,2,65,0,0
181991,-50,4,2,2,70,0,0
182065,-50,4,2,2,55,0,0
182138,-50,4,2,2,50,0,0
182212,-50,4,2,2,45,0,0
182285,-50,4,2,2,40,0,0
182359,-50,4,2,2,35,0,0
182432,-50,4,2,2,30,0,0
182506,-50,4,2,2,25,0,0
183058,-50,4,2,2,65,0,0
183094,-50,4,2,2,35,0,0
183168,-50,4,2,2,45,0,0
183241,-50,4,2,2,55,0,0
183388,-50,4,2,2,35,0,0
183462,-50,4,2,2,45,0,0
183535,-50,4,2,2,55,0,0
183683,-50,4,2,2,35,0,0
183757,-50,4,2,2,45,0,0
183830,-50,4,2,2,55,0,0
183977,-50,4,2,2,35,0,0
184051,-50,4,2,2,45,0,0
184124,-50,4,2,2,55,0,0
184271,-50,4,2,2,65,0,0
184344,-50,4,2,2,70,0,0
184418,-50,4,2,2,55,0,0
184491,-50,4,2,2,50,0,0
184565,-50,4,2,2,45,0,0
184638,-50,4,2,2,40,0,0
184712,-50,4,2,2,35,0,0
184785,-50,4,2,2,30,0,0
184859,-50,4,2,2,25,0,0
185410,-71.4285714285714,4,2,2,55,0,0
185999,-125,4,2,2,55,0,0
188352,-76.9230769230769,4,2,2,55,0,0
188940,-90.9090909090909,4,2,2,55,0,0
189528,-111.111111111111,4,2,2,55,0,0
195999,-111.111111111111,4,2,2,45,0,0
197175,-125,4,2,2,35,0,0
197763,-142.857142857143,4,2,2,35,0,0
198352,-333.333333333332,4,2,2,25,0,0
198499,-333.333333333332,4,2,2,5,0,0
200116,-64.5161290322581,4,2,2,25,0,0
201881,272.727272727273,4,2,1,90,1,0
201881,-83.3333333333333,4,2,1,90,0,0
201949,-83.3333333333333,4,2,1,5,0,0
203244,-64.5161290322581,4,2,1,20,0,0
203381,-83.3333333333333,4,2,1,90,0,0
203517,-111.111111111111,4,2,1,90,0,0
203585,-111.111111111111,4,2,1,5,0,0
203926,-64.5161290322581,4,2,1,20,0,0
204062,-80,4,2,1,90,0,0
204131,-80,4,2,1,5,0,0
205017,-64.5161290322581,4,2,1,20,0,0
205153,-80,4,2,1,90,0,0
205562,-51.2820512820513,4,2,1,90,0,0
205699,-64.5161290322581,4,2,1,90,0,0
205903,-64.5161290322581,4,2,1,5,0,0
205971,-55.5555555555556,4,2,1,90,0,0
206040,-64.5161290322581,4,2,1,5,0,0
206108,-62.5,4,2,1,90,0,0
206176,-64.5161290322581,4,2,1,5,0,0
206244,-125,4,2,1,90,0,0
206312,-125,4,2,1,5,0,0
207062,-64.5161290322581,4,2,1,20,0,0
207199,-125,4,2,1,90,0,0
207335,-86.9565217391304,4,2,1,90,0,0
207403,-86.9565217391304,4,2,1,5,0,0
207744,-64.5161290322581,4,2,1,20,0,0
207881,-333.333333333333,4,2,1,90,0,0
207949,-333.333333333333,4,2,1,5,0,0
208290,-64.5161290322581,4,2,1,20,0,0
208426,-80,4,2,1,90,0,0
210403,-80,4,2,1,5,0,0
210471,-80,4,2,1,90,0,0
210608,-57.1428571428571,4,2,1,90,0,0
211153,-68.9655172413793,4,2,1,90,0,0
214699,-60.6060606060606,4,2,1,90,0,0
214903,-64.5161290322581,4,2,1,5,0,0
214971,-57.1428571428571,4,2,1,90,0,0
216062,-39.2156862745098,4,2,1,90,0,0
216608,-64.5161290322581,4,2,1,90,0,0
217153,-44.4444444444445,4,2,1,90,0,0
217562,-68.9655172413793,4,2,1,90,0,0
220426,-64.5161290322581,4,2,1,90,0,0
220631,-64.5161290322581,4,2,1,5,0,0
220699,-57.1428571428571,4,2,1,90,0,0
220767,-57.1428571428571,4,2,1,5,0,0
221381,-57.1428571428571,4,2,1,35,0,0
221517,-64.5161290322581,4,2,1,90,0,0
226699,-86.9565217391304,4,2,1,90,0,0
227926,-64.5161290322581,4,2,1,90,0,0
227994,-64.5161290322581,4,2,1,90,0,0
228062,-74.0740740740741,4,2,1,80,0,0
228471,-57.1428571428571,4,2,1,80,0,0
228881,-74.0740740740741,4,2,1,80,0,0
229153,-68.9655172413793,4,2,1,80,0,0
230244,-153.846153846154,4,2,1,80,0,0
230312,-64.5161290322581,4,2,1,5,0,0
230381,-153.846153846154,4,2,1,80,0,0
230449,-64.5161290322581,4,2,1,5,0,0
230517,-74.0740740740741,4,2,1,80,0,0
230721,-64.5161290322581,4,2,1,5,0,0
230790,-133.333333333333,4,2,1,80,0,0
230858,-64.5161290322581,4,2,1,5,0,0
230926,-133.333333333333,4,2,1,80,0,0
230994,-64.5161290322581,4,2,1,5,0,0
231062,-68.9655172413792,4,2,1,80,0,0
231267,-64.5161290322581,4,2,1,5,0,0
231335,-86.9565217391304,4,2,1,80,0,0
231403,-64.5161290322581,4,2,1,5,0,0
231471,-86.9565217391304,4,2,1,80,0,0
231540,-64.5161290322581,4,2,1,5,0,0
231608,-60.6060606060606,4,2,1,80,0,0
231812,-64.5161290322581,4,2,1,5,0,0
231881,-80,4,2,1,80,0,0
231949,-64.5161290322581,4,2,1,5,0,0
232017,-80,4,2,1,80,0,0
232085,-64.5161290322581,4,2,1,5,0,0
232153,-44.4444444444445,4,2,1,80,0,0
232358,-64.5161290322581,4,2,1,5,0,0
232426,-74.0740740740741,4,2,1,80,0,0
232835,-54.054054054054,4,2,1,80,0,0
233244,-74.0740740740741,4,2,1,80,0,0
234608,-40.8163265306122,4,2,1,80,0,0
235426,-181.818181818182,4,2,1,80,0,0
235835,-30.7692307692308,4,2,1,80,0,0
236040,-64.5161290322581,4,2,1,5,0,0
236108,-30.7692307692308,4,2,1,80,0,0
236790,-48.780487804878,4,2,1,80,0,1
236994,-64.5161290322581,4,2,1,5,0,1
237062,-48.780487804878,4,2,1,80,0,1
237267,-64.5161290322581,4,2,1,5,0,1
237335,-48.780487804878,4,2,1,80,0,1
237608,-64.5161290322581,4,2,1,80,0,1
238426,-42.5531914893617,4,2,1,80,0,1
238631,-64.5161290322581,4,2,1,5,0,1
238699,-86.9565217391304,4,2,1,80,0,1
238971,-35.0877192982456,4,2,1,80,0,1
239176,-64.5161290322581,4,2,1,5,0,1
239244,-68.9655172413793,4,2,1,80,0,1
239449,-64.5161290322581,4,2,1,5,0,1
239517,-68.9655172413793,4,2,1,80,0,1
239790,-64.5161290322581,4,2,1,80,0,1
241153,-54.054054054054,4,2,1,80,0,1
241358,-64.5161290322581,4,2,1,5,0,1
241426,-54.054054054054,4,2,1,80,0,1
241631,-64.5161290322581,4,2,1,5,0,1
241699,-54.054054054054,4,2,1,80,0,1
241971,-80,4,2,1,80,0,1
242040,-64.5161290322581,4,2,1,5,0,1
242108,-80,4,2,1,80,0,1
242176,-64.5161290322581,4,2,1,5,0,1
242244,-80,4,2,1,80,0,1
243335,-153.846153846154,4,2,1,80,0,1
243403,-64.5161290322581,4,2,1,5,0,1
243471,-153.846153846154,4,2,1,80,0,1
243540,-64.5161290322581,4,2,1,5,0,1
243608,-60.6060606060606,4,2,1,80,0,1
243812,-64.5161290322581,4,2,1,5,0,1
243881,-133.333333333333,4,2,1,80,0,1
243949,-64.5161290322581,4,2,1,5,0,1
244017,-133.333333333333,4,2,1,80,0,1
244085,-64.5161290322581,4,2,1,5,0,1
244153,-57.1428571428571,4,2,1,80,0,1
244358,-64.5161290322581,4,2,1,5,0,1
244426,-80,4,2,1,80,0,1
244494,-64.5161290322581,4,2,1,5,0,1
244562,-80,4,2,1,80,0,1
244631,-64.5161290322581,4,2,1,5,0,1
244699,-80,4,2,1,80,0,1
245517,-42.5531914893617,4,2,1,80,0,1
245721,-64.5161290322581,4,2,1,5,0,1
245790,-48.780487804878,4,2,1,80,0,1
245994,-64.5161290322581,4,2,1,5,0,1
246062,-48.780487804878,4,2,1,80,0,1
246403,-64.5161290322581,4,2,1,5,0,1
246471,-48.780487804878,4,2,1,80,0,1
246540,-64.5161290322581,4,2,1,5,0,1
246608,-64.5161290322581,4,2,1,80,0,1
247153,-42.5531914893617,4,2,1,80,0,1
247358,-64.5161290322581,4,2,1,5,0,1
247426,-86.9565217391304,4,2,1,80,0,1
247699,-40.8163265306122,4,2,1,80,0,1
247903,-64.5161290322581,4,2,1,5,0,1
247971,-48.780487804878,4,2,1,80,0,1
248176,-64.5161290322581,4,2,1,5,0,1
248244,-48.780487804878,4,2,1,80,0,1
248517,-57.1428571428571,4,2,1,80,0,1
248585,-64.5161290322581,4,2,1,5,0,1
248653,-57.1428571428571,4,2,1,80,0,1
248721,-64.5161290322581,4,2,1,80,0,1
248790,-57.1428571428571,4,2,1,80,0,1
249881,-42.5531914893617,4,2,1,80,0,1
250085,-64.5161290322581,4,2,1,5,0,1
250153,-48.780487804878,4,2,1,80,0,1
250358,-64.5161290322581,4,2,1,5,0,1
250426,-48.780487804878,4,2,1,80,0,1
250699,-60.6060606060606,4,2,1,80,0,1
250767,-64.5161290322581,4,2,1,5,0,1
250835,-60.6060606060606,4,2,1,80,0,1
250903,-64.5161290322581,4,2,1,5,0,1
250971,-60.6060606060606,4,2,1,80,0,1
251517,-48.780487804878,4,2,1,80,0,1
251721,-64.5161290322581,4,2,1,5,0,1
251790,-105.263157894737,4,2,1,80,0,1
252062,-153.846153846154,4,2,1,80,0,1
252131,-64.5161290322581,4,2,1,5,0,1
252199,-153.846153846154,4,2,1,80,0,1
252267,-64.5161290322581,4,2,1,5,0,1
252335,-60.6060606060606,4,2,1,80,0,1
252540,-64.5161290322581,4,2,1,5,0,1
252608,-133.333333333333,4,2,1,80,0,1
252676,-64.5161290322581,4,2,1,5,0,1
252744,-133.333333333333,4,2,1,80,0,1
252812,-64.5161290322581,4,2,1,5,0,1
252881,-57.1428571428571,4,2,1,80,0,1
253085,-64.5161290322581,4,2,1,5,0,1
253153,-80,4,2,1,80,0,1
253221,-64.5161290322581,4,2,1,5,0,1
253290,-80,4,2,1,80,0,1
253358,-64.5161290322581,4,2,1,5,0,1
253426,-80,4,2,1,80,0,1
254244,-250,4,2,2,70,0,0
254278,-250,4,2,2,5,0,0
256290,-64.5161290322581,4,2,2,5,0,0
256426,-48.780487804878,4,2,2,90,0,0
256562,-48.780487804878,4,2,1,90,0,0
256631,-64.5161290322581,4,2,1,5,0,0
256699,-48.780487804878,4,2,1,90,0,0
256903,-64.5161290322581,4,2,1,5,0,0
256971,-48.780487804878,4,2,1,90,0,0
257790,-64.5161290322581,4,2,1,80,0,0
258062,-39.2156862745098,4,2,1,90,0,0
258267,-64.5161290322581,4,2,1,5,0,0
258335,-133.333333333334,4,2,1,90,0,0
258540,-64.5161290322581,4,2,1,5,0,0
258608,-51.2820512820513,4,2,1,90,0,0
258812,-64.5161290322581,4,2,1,5,0,0
258881,-51.2820512820513,4,2,1,90,0,0
259085,-64.5161290322581,4,2,1,5,0,0
259153,-51.2820512820513,4,2,1,90,0,0
259903,-64.5161290322581,4,2,1,5,0,0
259971,-51.2820512820513,4,2,1,90,0,0
260040,-64.5161290322581,4,2,1,5,0,0
260108,-51.2820512820513,4,2,1,90,0,0
260176,-64.5161290322581,4,2,1,5,0,0
260244,-64.5161290322581,4,2,1,90,0,0
260449,-64.5161290322581,4,2,1,5,0,0
260517,-133.333333333333,4,2,1,90,0,0
260721,-64.5161290322581,4,2,1,5,0,0
260790,-48.780487804878,4,2,1,90,0,0
261540,-64.5161290322581,4,2,1,5,0,0
261608,-48.780487804878,4,2,1,90,0,0
261676,-64.5161290322581,4,2,1,5,0,0
261744,-48.780487804878,4,2,1,90,0,0
261812,-64.5161290322581,4,2,1,5,0,0
261881,-48.780487804878,4,2,1,90,0,0
262085,-64.5161290322581,4,2,1,5,0,0
262153,-133.333333333333,4,2,1,90,0,0
262358,-64.5161290322581,4,2,1,5,0,0
262426,-80,4,2,1,90,0,0
262494,-64.5161290322581,4,2,1,5,0,0
262562,-80,4,2,1,90,0,0
262631,-64.5161290322581,4,2,1,5,0,0
262699,-57.1428571428571,4,2,1,90,0,0
263585,-64.5161290322581,4,2,1,5,0,0
263653,-57.1428571428571,4,2,1,90,0,0
263721,-64.5161290322581,4,2,1,5,0,0
263790,-57.1428571428571,4,2,1,90,0,0
265153,-42.5531914893617,4,2,1,90,0,0
265358,-64.5161290322581,4,2,1,5,0,0
265426,-42.5531914893617,4,2,1,90,0,0
265631,-64.5161290322581,4,2,1,5,0,0
265699,-42.5531914893617,4,2,1,90,0,0
265971,-57.1428571428571,4,2,1,90,0,0
266449,-64.5161290322581,4,2,1,5,0,0
266517,-57.1428571428571,4,2,1,90,0,0
266585,-64.5161290322581,4,2,1,5,0,0
266653,-57.1428571428571,4,2,1,90,0,0
266721,-64.5161290322581,4,2,1,5,0,0
266790,-57.1428571428571,4,2,1,90,0,0
267335,-40.8163265306122,4,2,1,90,0,0
267540,-64.5161290322581,4,2,1,5,0,0
267608,-60.6060606060606,4,2,1,90,0,0
267812,-64.5161290322581,4,2,1,5,0,0
267881,-60.6060606060606,4,2,1,90,0,0
268221,-64.5161290322581,4,2,1,5,0,0
268290,-60.6060606060606,4,2,1,90,0,0
268358,-64.5161290322581,4,2,1,5,0,0
268426,-60.6060606060606,4,2,1,90,0,0
269312,-64.5161290322581,4,2,1,5,0,0
269381,-60.6060606060606,4,2,1,90,0,0
269449,-64.5161290322581,4,2,1,5,0,0
269517,-37.7358490566038,4,2,1,90,0,0
269721,-64.5161290322581,4,2,1,5,0,0
269790,-57.1428571428571,4,2,1,90,0,0
269994,-64.5161290322581,4,2,1,5,0,0
270062,-57.1428571428571,4,2,1,90,0,0
271221,-64.5161290322581,4,2,1,5,0,0
271290,-57.1428571428571,4,2,1,90,0,0
271358,-64.5161290322581,4,2,1,5,0,0
271426,-57.1428571428571,4,2,1,90,0,0
271699,-39.2156862745098,4,2,1,90,0,0
271903,-64.5161290322581,4,2,1,5,0,0
271972,-133.333333333334,4,2,1,90,0,0
272176,-64.5161290322581,4,2,1,5,0,0
272244,-51.2820512820513,4,2,1,90,0,0
272449,-64.5161290322581,4,2,1,5,0,0
272517,-51.2820512820513,4,2,1,90,0,0
272721,-64.5161290322581,4,2,1,5,0,0
272790,-51.2820512820513,4,2,1,90,0,0
274085,-64.5161290322581,4,2,1,5,0,0
274153,-57.1428571428571,4,2,1,90,0,0
274699,-64.5161290322581,4,2,1,90,0,0
275721,-64.5161290322581,4,2,1,5,0,0
275790,-64.5161290322581,4,2,1,90,0,0
276062,-48.780487804878,4,2,1,90,0,0
276267,-64.5161290322581,4,2,1,5,0,0
276336,-64.5161290322581,4,2,1,90,0,0
277358,-64.5161290322581,4,2,1,5,0,0
277426,-64.5161290322581,4,2,1,90,0,0
278244,-44.4444444444445,4,2,1,90,0,0
278449,-64.5161290322581,4,2,1,5,0,0
278517,-64.5161290322581,4,2,1,90,0,0
279812,-64.5161290322581,4,2,1,5,0,0
279881,-48.780487804878,4,2,1,90,0,0
280085,-64.5161290322581,4,2,1,5,0,0
280154,-64.5161290322581,4,2,1,90,0,0
280426,-48.780487804878,4,2,1,90,0,0
280631,-64.5161290322581,4,2,1,5,0,0
280699,-64.5161290322581,4,2,1,90,0,0
282608,-39.2156862745098,4,2,1,90,0,0
282881,-64.5161290322581,4,2,1,90,0,0
283767,-64.5161290322581,4,2,1,5,0,0
283835,-64.5161290322581,4,2,1,90,0,0
283903,-64.5161290322581,4,2,1,5,0,0
283971,-64.5161290322581,4,2,1,90,0,0
284176,-64.5161290322581,4,2,1,5,0,0
284244,-64.5161290322581,4,2,1,90,0,0
284790,-48.780487804878,4,2,1,90,0,0
284994,-64.5161290322581,4,2,1,5,0,0
285062,-64.5161290322581,4,2,1,90,0,0
286971,-36.3636363636364,4,2,1,90,0,0
287176,-64.5161290322581,4,2,1,5,0,0
287244,-64.5161290322581,4,2,1,90,0,0
288267,-64.5161290322581,4,2,1,5,0,0
288335,-64.5161290322581,4,2,1,90,0,0
289971,-181.818181818182,4,2,1,90,0,0
290176,-181.818181818182,4,2,1,5,0,0
290244,-181.818181818182,4,2,1,90,0,0
291335,-48.7804878048781,4,2,1,90,0,0
291540,-64.5161290322581,4,2,1,5,0,0
291608,-48.7804878048781,4,2,1,90,0,0
291812,-64.5161290322581,4,2,1,5,0,0
291881,-48.7804878048781,4,2,1,90,0,0
292153,-60.6060606060606,4,2,1,90,0,0
293517,-48.780487804878,4,2,1,90,0,0
293721,-64.5161290322581,4,2,1,5,0,0
293790,-48.780487804878,4,2,1,90,0,0
293994,-64.5161290322581,4,2,1,5,0,0
294062,-48.780487804878,4,2,1,90,0,0
294131,-64.5161290322581,4,2,1,5,0,0
294199,-48.780487804878,4,2,1,90,0,0
294267,-64.5161290322581,4,2,1,5,0,0
294335,-42.5531914893617,4,2,1,90,0,0
294540,-64.5161290322581,4,2,1,5,0,0
294608,-48.780487804878,4,2,1,90,0,0
294881,-60.6060606060606,4,2,1,90,0,0
295699,-40.8163265306122,4,2,1,90,0,0
295903,-64.5161290322581,4,2,1,5,0,0
295971,-48.780487804878,4,2,1,90,0,0
296176,-64.5161290322581,4,2,1,5,0,0
296244,-48.780487804878,4,2,1,90,0,0
296517,-60.6060606060606,4,2,1,90,0,0
297881,-42.5531914893617,4,2,1,90,0,0
298085,-64.5161290322581,4,2,1,5,0,0
298153,-42.5531914893617,4,2,1,90,0,0
298358,-64.5161290322581,4,2,1,5,0,0
298426,-48.780487804878,4,2,1,90,0,0
299244,-60.6060606060606,4,2,1,90,0,0
300062,-42.5531914893617,4,2,1,90,0,0
300267,-64.5161290322581,4,2,1,5,0,0
300335,-42.5531914893617,4,2,1,90,0,0
300540,-64.5161290322581,4,2,1,5,0,0
300608,-48.780487804878,4,2,1,90,0,0
300881,-60.6060606060606,4,2,1,90,0,0
300949,-64.5161290322581,4,2,1,5,0,0
301017,-60.6060606060606,4,2,1,90,0,0
301085,-64.5161290322581,4,2,1,5,0,0
301153,-48.780487804878,4,2,1,90,0,0
301358,-64.5161290322581,4,2,1,5,0,0
301426,-48.780487804878,4,2,1,90,0,0
301631,-64.5161290322581,4,2,1,5,0,0
301699,-39.2156862745098,4,2,1,90,0,0
302449,-64.5161290322581,4,2,1,5,0,0
302517,-39.2156862745098,4,2,1,90,0,0
302721,-64.5161290322581,4,2,1,5,0,0
302790,-48.780487804878,4,2,1,90,0,0
303608,-60.6060606060606,4,2,1,90,0,0
304426,-39.2156862745098,4,2,1,90,0,0
304631,-64.5161290322581,4,2,1,5,0,0
304699,-42.5531914893617,4,2,1,90,0,0
304903,-64.5161290322581,4,2,1,5,0,0
304971,-60.6060606060606,4,2,1,90,0,0
305040,-64.5161290322581,4,2,1,5,0,0
305108,-60.6060606060606,4,2,1,90,0,0
305176,-64.5161290322581,4,2,1,5,0,0
305244,-60.6060606060606,4,2,1,90,0,0
306062,-36.3636363636364,4,2,1,90,0,0
306267,-64.5161290322581,4,2,1,5,0,0
306335,-60.6060606060606,4,2,1,90,0,0
306403,-64.5161290322581,4,2,1,5,0,0
306471,-60.6060606060606,4,2,1,90,0,0
306540,-64.5161290322581,4,2,1,5,0,0
306608,-48.780487804878,4,2,1,90,0,0
306812,-64.5161290322581,4,2,1,5,0,0
306881,-60.6060606060606,4,2,1,90,0,0
307971,-60.6060606060606,4,2,1,90,0,0
308381,-68.9655172413793,4,2,1,90,0,0
308790,-29.8507462686567,4,2,1,90,0,0
308994,-64.5161290322581,4,2,1,5,0,0
309062,-60.6060606060606,4,2,1,90,0,0
309403,-64.5161290322581,4,2,1,5,0,0
309471,-60.6060606060606,4,2,1,90,0,0
309540,-64.5161290322581,4,2,1,5,0,0
309608,-60.6060606060606,4,2,1,90,0,0
310971,-36.3636363636364,4,2,1,90,0,0
311176,-64.5161290322581,4,2,1,5,0,0
311244,-48.780487804878,4,2,1,90,0,0
312335,-60.6060606060606,4,2,1,90,0,0
312676,-64.5161290322581,4,2,1,5,0,0
312744,-60.6060606060606,4,2,1,90,0,0
312812,-64.5161290322581,4,2,1,5,0,0
312881,-74.0740740740741,4,2,1,90,0,0
313153,-48.780487804878,4,2,1,90,0,0
313358,-64.5161290322581,4,2,1,5,0,0
313426,-39.2156862745098,4,2,1,90,0,0
313631,-64.5161290322581,4,2,1,5,0,0
313699,-60.6060606060606,4,2,1,90,0,0
313971,-60.6060606060606,4,2,1,90,0,0
314040,-64.5161290322581,4,2,1,5,0,0
314108,-60.6060606060606,4,2,1,90,0,0
314176,-64.5161290322581,4,2,1,5,0,0
314244,-60.6060606060606,4,2,1,90,0,0
314858,-64.5161290322581,4,2,1,5,0,0
314926,-60.6060606060606,4,2,1,90,0,0
315131,-64.5161290322581,4,2,1,5,0,0
315199,-60.6060606060606,4,2,1,90,0,0
315267,-64.5161290322581,4,2,1,5,0,0
315335,-32.7868852459016,4,2,1,90,0,0
315540,-64.5161290322581,4,2,1,5,0,0
315608,-60.6060606060606,4,2,1,90,0,0
315881,-60.6060606060606,4,2,1,90,0,0
315949,-64.5161290322581,4,2,1,5,0,0
316017,-60.6060606060606,4,2,1,90,0,0
316085,-64.5161290322581,4,2,1,5,0,0
316153,-60.6060606060606,4,2,1,90,0,0
316494,-64.5161290322581,4,2,1,5,0,0
316562,-60.6060606060606,4,2,1,90,0,0
316631,-64.5161290322581,4,2,1,5,0,0
316699,-60.6060606060606,4,2,1,90,0,0
317108,-80,4,2,1,90,0,0
317517,-48.780487804878,4,2,1,90,0,1
317721,-64.5161290322581,4,2,1,5,0,1
317790,-48.780487804878,4,2,1,90,0,1
319699,-60.6060606060606,4,2,1,90,0,1
319903,-64.5161290322581,4,2,1,5,0,1
319971,-60.6060606060606,4,2,1,90,0,1
320040,-64.5161290322581,4,2,1,5,0,1
320108,-60.6060606060606,4,2,1,90,0,1
320176,-64.5161290322581,4,2,1,5,0,1
320244,-60.6060606060606,4,2,1,90,0,1
320790,-42.5531914893617,4,2,1,90,0,1
320994,-64.5161290322581,4,2,1,5,0,1
321062,-60.6060606060606,4,2,1,90,0,1
321131,-64.5161290322581,4,2,1,5,0,1
321199,-60.6060606060606,4,2,1,90,0,1
321267,-64.5161290322581,4,2,1,5,0,1
321335,-42.5531914893617,4,2,1,90,0,1
321540,-64.5161290322581,4,2,1,5,0,1
321607,-60.6060606060606,4,2,1,90,0,1
321676,-64.5161290322581,4,2,1,5,0,1
321744,-60.6060606060606,4,2,1,90,0,1
321812,-64.5161290322581,4,2,1,5,0,1
321881,-48.780487804878,4,2,1,90,0,1
322085,-64.5161290322581,4,2,1,5,0,1
322153,-48.780487804878,4,2,1,90,0,1
322358,-64.5161290322581,4,2,1,5,0,1
322426,-48.780487804878,4,2,1,90,0,1
322971,-60.6060606060606,4,2,1,90,0,1
324812,-64.5161290322581,4,2,1,5,0,1
324881,-60.6060606060606,4,2,1,90,0,1
324949,-64.5161290322581,4,2,1,5,0,1
325017,-60.6060606060606,4,2,1,90,0,1
325085,-64.5161290322581,4,2,1,5,0,1
325153,-60.6060606060606,4,2,1,90,0,1
325631,-64.5161290322581,4,2,1,5,0,1
325699,-60.6060606060606,4,2,1,90,0,1
326244,-42.5531914893617,4,2,1,90,0,1
326449,-64.5161290322581,4,2,1,5,0,1
326517,-60.6060606060606,4,2,1,90,0,1
326858,-64.5161290322581,4,2,1,5,0,1
326926,-60.6060606060606,4,2,1,90,0,1
326994,-64.5161290322581,4,2,1,5,0,1
327062,-60.6060606060606,4,2,1,90,0,1
328426,-39.2156862745098,4,2,1,90,0,1
328631,-64.5161290322581,4,2,1,5,0,1
328699,-51.2820512820513,4,2,1,90,0,1
328767,-64.5161290322581,4,2,1,5,0,1
328835,-51.2820512820513,4,2,1,90,0,1
328903,-64.5161290322581,4,2,1,5,0,1
328971,-51.2820512820513,4,2,1,90,0,1
331767,-64.5161290322581,4,2,1,5,0,1
331835,-51.2820512820513,4,2,1,90,0,1
331903,-64.5161290322581,4,2,1,5,0,1
331971,-51.2820512820513,4,2,1,90,0,1
332790,-51.2820512820513,4,2,1,90,0,1
332858,-64.5161290322581,4,2,1,5,0,1
332926,-51.2820512820513,4,2,1,90,0,1
332994,-64.5161290322581,4,2,1,5,0,1
333062,-51.2820512820513,4,2,1,90,0,1
333131,-64.5161290322581,4,2,1,5,0,1
333199,-51.2820512820513,4,2,1,90,0,1
333267,-64.5161290322581,4,2,1,5,0,1
333335,-51.2820512820513,4,2,1,90,0,1
333471,-60.6060606060606,4,2,1,90,0,1
334971,-60.6060606060606,4,2,1,90,0,1
335040,-60.6060606060606,4,2,1,90,0,0
337153,-60.6060606060606,4,2,1,15,0,0

[Colours]
Combo1 : 248,82,82
Combo2 : 164,221,255
Combo3 : 208,212,215
Combo4 : 215,179,255
Combo5 : 21,168,255
Combo6 : 160,160,160
Combo7 : 155,64,255
Combo8 : 248,105,105

[HitObjects]
300,176,1102,6,0,B|299:226|256:254|256:254|304:280|399:268|419:188|421:109|349:66|277:48|212:112|208:175|208:175|184:206|154:199|154:199|139:203|139:203|127:165|146:125|146:125|117:112|117:112|109:90|109:90|131:82|131:82|159:96|159:96|178:61|215:40|215:40|201:12|201:12|209:-9|209:-9|231:-2|231:-2|244:27|244:27|281:10|324:19|324:19|332:-11|332:-11|351:-22|351:-22|363:-3|363:-3|354:27|354:27|395:40|420:74|420:74|445:55|445:55|468:59|468:59|464:82|464:82|438:99|438:99|460:135|458:176|458:176|490:179|490:179|505:196|505:196|487:211|487:211|455:208|455:208|451:251|422:280|422:280|444:302|444:302|445:324|445:324|422:324|422:324|400:302|400:302|369:330|328:334|328:334|331:366|331:366|316:384|316:384|299:369|299:369|296:337|296:337|252:340|219:317|219:317|200:342|200:342|179:347|179:347|174:324|174:324|193:299|193:299|159:275|148:235|148:235|113:243|113:243|97:232|97:232|26:203|-20:267|-20:267|52:242|80:292|80:292|49:336|50:379|50:379|60:351|85:339,1,2658.24992597494,8|0,2:2|0:0,0:0:0:0:
12,158,10887,6,0,P|22:154|34:153,7,22.7499989585877,6|0|0|0|0|0|0|0,2:2|0:0|0:0|0:0|0:0|0:0|0:0|0:0,0:0:0:0:
88,50,11977,38,0,P|99:52|108:57,7,22.7499989585877,2|0|0|0|0|0|0|0,0:0|0:0|0:0|0:0|0:0|0:0|0:0|0:0,0:0:0:0:
230,4,13068,70,0,P|239:15|246:40,3,26.2500010013581,2|0|0|0,3:2|0:0|0:0|0:0,0:0:0:0:
311,51,13614,2,0,P|309:65|296:87,1,26.2500010013581
346,137,13887,2,0,P|335:146|310:153,1,26.2500010013581
161,241,14159,38,0,P|179:252|203:254,3,26.2500010013581,2|0|0|0,2:0|0:0|0:0|0:0,0:0:0:0:
222,316,14705,2,0,P|242:311|260:295,3,26.2500010013581
374,377,15250,70,0,P|367:359|369:343,5,26.2500010013581,10|0|0|0|0|0,3:2|0:0|0:0|0:0|0:0|0:0,0:0:0:0:
324,293,16068,2,0,P|332:276|344:265,1,26.2500010013581
489,238,16341,38,0,P|472:231|456:232,7,26.2500010013581,2|0|0|0|0|0|0|0,2:0|0:0|0:0|0:0|0:0|0:0|0:0|0:0,0:0:0:0:
470,82,17432,70,0,P|457:95|440:101,7,26.2500010013581,2|0|0|0|0|0|0|0,3:2|0:0|0:0|0:0|0:0|0:0|0:0|0:0,0:0:0:0:
433,170,18523,2,0,P|414:170|398:162,3,26.2500010013581,2|0|0|0,2:0|0:0|0:0|0:0,0:0:0:0:
353,215,19068,1,0,0:0:0:0:
353,215,19205,2,0,P|340:202|334:185,2,26.2500010013581
218,115,19614,37,2,3:2:0:0:
284,85,19750,1,0,0:0:0:0:
283,12,19887,1,0,0:0:0:0:
272,5,20023,1,0,0:0:0:0:
195,28,20159,70,0,P|157:25|112:12,1,77.0000023498536
405,275,21796,102,0,L|395:339,1,54.2500004138947,4|0,1:0|0:0,0:0:0:0:
81,222,23841,37,0,3:0:0:0:
74,229,23909,1,0,3:0:0:0:
68,237,23977,2,0,L|78:301,1,54.2500004138947,8|0,3:2|0:0,0:0:0:0:
425,142,25750,69,0,1:0:0:0:
416,136,25818,1,0,1:0:0:0:
408,130,25886,2,0,B|370:128|345:119|345:119|313:139|313:139|272:131|224:125,1,162.750001241684,4|0,3:1|0:0,0:0:0:0:
200,66,26159,38,0,P|207:36|215:-2,1,54.2500004138947,4|0,3:2|0:0,0:0:0:0:
6,234,28068,70,0,P|84:234|109:314,1,162.750001241684,4|0,1:1|0:0,0:0:0:0:
152,363,28341,38,0,P|180:362|205:371,1,54.2500004138947,4|0,1:2|0:0,0:0:0:0:
477,276,29977,69,2,1:2:0:0:
488,267,30046,1,0,1:0:0:0:
499,258,30114,2,0,P|507:219|513:193,1,54.2500004138947,8|0,3:2|0:0,0:0:0:0:
421,22,30250,37,8,1:3:0:0:
415,43,30318,1,8,1:3:0:0:
409,64,30386,1,4,1:3:0:0:
403,85,30455,1,0,1:0:0:0:
453,140,30523,70,0,B|427:105|385:107|359:137|361:141|363:144|344:170|316:178|288:158,1,183.750001752377,4|0,1:2|0:0,0:0:0:0:
236,105,30796,2,0,B|246:125|268:141|268:141|238:215,1,122.500001168251,10|0,0:2|0:0,0:0:0:0:
126,384,31068,38,0,P|112:348|84:337,1,61.2500005841255,2|0,1:2|0:0,0:0:0:0:
55,272,31205,2,0,P|16:266|-6:284,1,61.2500005841255
79,340,31341,2,0,B|142:318|142:318|148:321|148:321|215:300,1,122.500001168251,10|0,0:2|1:2,0:0:0:0:
469,373,31614,70,1,B|491:396|537:385|555:347|541:295|493:285|459:302|459:302|429:314|392:298|383:260,1,278.250011675835,0|0,1:2|0:0,0:0:0:0:
441,216,31886,2,0,P|419:273|408:335,1,122.500001168251,10|0,0:2|0:0,0:0:0:0:
358,93,32159,38,0,P|371:63|399:49,1,61.2500005841255,2|0,1:2|0:0,0:0:0:0:
444,0,32296,2,0,P|476:-3|502:13,1,61.2500005841255
361,108,32432,2,0,P|324:59|258:69,1,122.500001168251,10|0,0:2|1:2,0:0:0:0:
94,324,32705,69,4,1:1:0:0:
280,178,32841,1,0,0:0:0:0:
201,382,32977,2,0,P|193:311|181:257,1,122.500001168251,10|0,0:2|0:0,0:0:0:0:
5,40,33250,38,0,P|34:36|62:49,1,61.2500005841255,2|0,1:2|0:0,0:0:0:0:
193,81,33386,2,0,P|163:84|135:71,1,61.2500005841255
115,0,33523,2,0,P|102:59|87:124,1,122.500001168251,10|0,0:2|1:2,0:0:0:0:
91,327,33796,70,0,B|69:323|51:326|36:342|36:342|32:275|104:233|159:280,1,236.250009012223,0|0,1:2|0:0,0:0:0:0:
232,284,34068,2,0,P|288:263|296:206,1,122.500001168251,10|0,0:2|0:0,0:0:0:0:
448,81,34341,38,0,P|416:82|391:60,1,61.2500005841255,2|0,1:2|0:0,0:0:0:0:
320,67,34477,2,0,P|303:39|309:7,1,61.2500005841255
453,73,34614,2,0,P|399:92|382:167,1,122.500001168251,10|0,0:2|1:2,0:0:0:0:
512,364,34886,70,0,B|480:382|441:362|438:324|441:323|445:323|441:293|404:270|360:294,1,183.750001752377,4|0,1:2|0:0,0:0:0:0:
426,385,35159,2,0,P|444:326|479:274,1,122.500001168251,10|0,0:2|0:0,0:0:0:0:
320,67,35432,38,0,P|302:100|267:106,1,61.2500005841255,2|0,1:2|0:0,0:0:0:0:
250,172,35568,2,0,P|212:172|189:145,1,61.2500005841255
42,77,35705,2,0,B|104:66|104:66|109:70|109:70|164:59,1,122.500001168251,10|0,0:2|1:2,0:0:0:0:
391,142,35977,69,0,1:2:0:0:
213,267,36114,1,0,0:0:0:0:
481,244,36250,2,0,B|428:233|428:233|423:237|423:237|361:226,1,122.500001168251,10|0,0:2|0:0,0:0:0:0:
158,375,36523,38,0,P|197:367|217:344,1,61.2500005841255,2|0,1:2|0:0,0:0:0:0:
287,329,36659,2,0,P|299:291|289:262,1,61.2500005841255
102,123,36796,2,0,P|110:186|118:258,1,122.500001168251,10|0,0:2|1:2,0:0:0:0:
198,36,37068,69,4,1:1:0:0:
8,190,37205,1,0,0:0:0:0:
273,143,37341,2,0,P|281:80|289:8,1,122.500001168251,10|0,0:2|0:0,0:0:0:0:
460,337,37614,38,0,B|494:366|535:329|531:281|482:245|410:248|375:313,1,246.749996234894,2|0,1:2|0:0,0:0:0:0:
307,345,37886,2,0,P|247:330|241:284,1,115.500001101494,10|0,0:2|1:2,0:0:0:0:
383,30,38159,69,8,1:3:0:0:
126,205,38296,1,8,0:0:0:0:
198,24,38432,37,8,0:0:0:0:
355,142,38568,1,4,1:3:0:0:
102,298,38705,69,8,0:0:0:0:
275,81,38841,1,8,0:0:0:0:
171,384,38977,37,0,1:0:0:0:
41,95,39114,1,8,0:0:0:0:
462,260,39250,70,0,B|378:247|378:247|369:250|369:250|282:237,1,173.250001652241,4|0,1:2|0:0,0:0:0:0:
285,248,39523,2,0,B|351:256|351:256|356:260|356:260|401:265,1,115.500001101494,10|0,0:2|0:0,0:0:0:0:
139,377,39796,38,0,P|109:360|103:333,1,57.7500005507469,2|0,1:2|0:0,0:0:0:0:
52,272,39932,2,0,P|51:237|72:218,1,57.7500005507469
106,326,40068,2,0,P|52:346|8:383,1,115.500001101494,10|0,0:2|1:2,0:0:0:0:
200,197,40341,70,0,B|190:153|214:128|246:126|248:129|250:131|284:110|289:89|285:55,1,173.250001652241,0|0,1:2|0:0,0:0:0:0:
209,67,40614,2,0,P|240:117|263:188,1,115.500001101494,10|0,0:2|0:0,0:0:0:0:
498,381,40886,38,0,P|483:339|462:330,1,57.7500005507469,2|0,1:2|0:0,0:0:0:0:
423,261,41023,2,0,P|379:252|360:266,1,57.7500005507469
456,329,41159,2,0,P|459:265|513:235,1,115.500001101494,10|0,0:2|1:2,0:0:0:0:
374,41,41432,69,4,1:1:0:0:
234,255,41568,1,0,0:0:0:0:
446,129,41705,2,0,B|391:135|391:135|387:138|387:138|329:145,1,115.500001101494,10|0,0:2|0:0,0:0:0:0:
222,374,41977,37,2,1:2:0:0:
341,219,42114,1,0,0:0:0:0:
113,316,42250,2,0,P|106:256|99:193,1,115.500001101494,10|0,0:2|1:2,0:0:0:0:
294,12,42523,70,0,P|286:49|271:61,1,57.7500005507469,0|0,1:2|0:0,0:0:0:0:
277,134,42659,2,0,P|240:145|223:138,1,57.7500005507469
72,40,42796,2,0,B|127:46|127:46|131:49|131:49|189:56,1,115.500001101494,10|0,0:2|0:0,0:0:0:0:
370,350,43068,38,0,P|287:335|284:258,1,173.250001652241,2|0,1:2|0:0,0:0:0:0:
346,222,43341,2,0,P|376:205|385:172,1,57.7500005507469,10|0,0:2|0:0,0:0:0:0:
440,136,43477,2,0,P|440:101|416:77,1,57.7500005507469,0|0,1:2|0:0,0:0:0:0:
212,210,43614,70,0,P|310:239|427:301,1,225.750003444672,4|0,1:2|0:0,0:0:0:0:
468,355,43886,2,0,P|505:314|487:256,1,115.500001101494,10|0,0:2|0:0,0:0:0:0:
221,125,44159,38,0,P|190:114|176:84,1,57.7500005507469,2|0,1:2|0:0,0:0:0:0:
116,53,44296,2,0,P|110:20|129:-6,1,57.7500005507469
348,0,44432,2,0,P|333:73|319:133,1,115.500001101494,10|0,0:2|1:2,0:0:0:0:
119,267,44705,69,0,1:2:0:0:
408,160,44841,1,0,0:0:0:0:
279,384,44977,2,0,P|264:311|250:251,1,115.500001101494,10|0,0:2|0:0,0:0:0:0:
13,73,45250,37,2,1:2:0:0:
207,167,45386,1,0,0:0:0:0:
37,294,45523,2,0,P|28:238|57:200,1,101.500003097534,10|0,0:2|1:2,0:0:0:0:
280,32,45796,69,4,1:1:0:0:
178,341,45932,1,0,0:0:0:0:
169,94,46068,37,10,0:2:0:0:
258,278,46205,1,0,0:0:0:0:
411,30,46341,69,2,1:2:0:0:
365,158,46477,1,0,0:0:0:0:
182,9,46614,37,10,0:2:0:0:
486,122,46750,1,0,1:2:0:0:
486,122,46818,1,0,0:0:0:0:
486,122,46886,1,8,1:3:0:0:
165,260,47023,69,8,0:0:0:0:
337,59,47159,1,8,0:0:0:0:
289,375,47296,37,4,1:3:0:0:
111,81,47432,1,8,0:0:0:0:
67,55,47500,1,0,0:0:0:0:
19,68,47568,1,8,0:0:0:0:
372,300,47705,2,0,B|413:293|413:293|422:296|422:296|480:283,1,101.500003097534,0|8,1:0|0:0,0:0:0:0:
99,207,47977,70,0,B|86:166|120:143|161:158|161:158|172:197|211:212|260:193,1,203.000006195069,4|10,1:2|0:2,0:0:0:0:
371,90,48386,2,0,B|363:73|371:50|371:50|309:34|267:90|278:124|278:124|319:132|330:173,1,245.000002336502
439,321,48796,2,0,B|446:295|424:284|424:284|384:278|385:229,1,101.500003097534,10|0,0:2|1:2,0:0:0:0:
380,377,49068,38,0,P|415:280|482:188,1,203.000006195069,0|10,1:2|0:2,0:0:0:0:
471,198,49477,1,0,0:0:0:0:
505,7,49614,2,0,P|489:56|444:70,1,101.500003097534,2|0,1:2|0:0,0:0:0:0:
277,129,49886,2,0,P|327:137|376:165,1,101.500003097534,10|0,0:2|1:2,0:0:0:0:
264,323,50159,70,0,B|223:359|180:329|180:302|182:300|185:298|182:278|145:242|95:279,1,194.249999258995,4|0,1:1|0:0,0:0:0:0:
99,288,50432,38,0,P|126:264|129:241,1,50.7500015487671,10|0,0:2|0:0,0:0:0:0:
184,195,50568,2,0,P|176:159|158:145,1,50.7500015487671
67,57,50705,2,0,P|78:109|92:167,1,101.500003097534,2|0,1:2|0:0,0:0:0:0:
156,0,50977,1,10,0:2:0:0:
0,192,51114,1,0,1:2:0:0:
191,87,51250,69,0,1:2:0:0:
2,10,51386,1,0,0:0:0:0:
184,195,51523,2,0,B|242:184|242:184|248:185|248:185|299:175,1,101.500003097534,10|0,0:2|0:0,0:0:0:0:
401,349,51796,2,0,P|346:326|338:283,1,101.500003097534,2|0,1:2|0:0,0:0:0:0:
374,13,52068,37,10,0:2:0:0:
512,150,52205,1,0,1:2:0:0:
403,212,52341,70,0,P|417:128|481:18,1,203.000006195069,4|10,1:2|0:2,0:0:0:0:
499,17,52750,1,0,0:0:0:0:
339,101,52886,2,0,P|278:103|257:20,1,152.250004646301,2|0,1:2|0:0,0:0:0:0:
266,17,53159,2,0,P|257:38|231:59,1,50.7500015487671,10|0,0:2|0:0,0:0:0:0:
213,142,53296,2,0,P|191:150|158:146,1,50.7500015487671
0,289,53432,38,0,P|73:277|103:395,1,203.000006195069,0|10,1:2|0:2,0:0:0:0:
109,384,53841,1,0,0:0:0:0:
91,270,53977,2,0,P|82:217|129:185,1,101.500003097534,2|0,1:2|0:0,0:0:0:0:
248,198,54250,2,0,P|256:250|209:282,1,101.500003097534,10|0,0:2|1:2,0:0:0:0:
19,70,54523,70,0,B|64:88|94:59|84:42|114:9|169:43,1,152.250004646301,4|0,1:1|0:0,0:0:0:0:
165,45,54796,1,8,3:2:0:0:
401,211,54932,1,8,3:2:0:0:
206,123,55068,37,4,1:2:0:0:
307,52,55205,1,8,3:2:0:0:
308,384,55341,70,0,P|316:333|329:273,1,101.500003097534,8|0,3:2|1:3,0:0:0:0:
442,92,55614,37,4,1:2:0:0:
205,221,55750,1,8,3:2:0:0:
446,324,55886,69,8,3:2:0:0:
335,147,56023,1,0,1:0:0:0:
226,348,56159,37,8,3:2:0:0:
512,220,56296,2,0,P|459:206|412:194,1,101.500003097534,8|8,3:2|1:3,0:0:0:0:
201,57,56568,1,0,1:0:0:0:
201,57,56636,1,0,1:0:0:0:
201,57,56705,70,0,B|200:33|180:19|162:15|162:15|222:-27|272:7|296:48|275:99,1,245.000002336502,4|10,1:2|1:2,0:0:0:0:
177,216,57114,2,0,B|142:250|99:238|86:200|87:194|91:191|81:157|33:142|0:178,1,217.000001655579,2|2,1:3|1:3,0:0:0:0:
272,373,57523,2,0,P|286:318|304:264,1,108.500000827789,10|2,1:2|1:3,0:0:0:0:
441,81,57796,38,0,B|485:68|514:117|500:156|438:185|399:172|375:131,1,203.000006195069,2|10,1:3|1:2,0:0:0:0:
385,144,58205,1,2,1:3:0:0:
254,81,58341,2,0,P|310:64|336:21,1,101.500003097534,2|2,1:3|1:3,0:0:0:0:
501,241,58614,2,0,P|445:258|419:301,1,101.500003097534,10|2,1:2|1:3,0:0:0:0:
273,186,58886,70,0,P|257:183|246:178,1,22.7499989585877,0|0,1:0|0:0,0:0:0:0:
202,232,59023,2,0,P|186:235|175:240,1,22.7499989585877,0|0,1:0|0:0,0:0:0:0:
76,202,59159,38,0,P|31:169|66:96,1,141.750000540733,12|0,0:0|0:0,0:0:0:0:
173,7,59432,70,0,P|166:28|165:46,1,26.2500010013581,0|0,1:0|0:0,0:0:0:0:
232,48,59568,2,0,P|234:35|239:22,1,26.2500010013581,0|0,1:0|0:0,0:0:0:0:
167,120,59705,38,0,P|228:78|321:83,1,152.250004646301,12|0,0:0|0:0,0:0:0:0:
379,74,59977,70,0,P|371:42|352:24,1,40.2500007677078,0|0,1:0|0:0,0:0:0:0:
369,236,60114,2,0,P|380:266|401:282,1,40.2500007677078,0|0,1:0|0:0,0:0:0:0:
276,218,60250,38,0,B|313:247|355:231|364:191|361:185|357:183|363:148|409:127|447:159,1,217.000001655579,12|0,0:0|0:0,0:0:0:0:
274,137,60523,70,0,P|361:179|481:247,1,215.250003284454,0|0,1:0|0:0,0:0:0:0:
511,295,60796,2,0,P|483:321|458:318,1,61.2500005841255,12|0,0:0|0:0,0:0:0:0:
405,361,60932,2,0,P|368:349|358:326,1,61.2500005841255,0|0,1:0|0:0,0:0:0:0:
181,129,61068,38,0,P|250:125|261:15,1,183.750001752377,4|0,1:1|0:0,0:0:0:0:
270,26,61341,1,10,3:2:0:0:
48,205,61477,1,2,1:3:0:0:
165,309,61614,2,0,P|158:254|151:199,1,101.500003097534,2|2,1:3|1:3,0:0:0:0:
104,18,61886,2,0,P|97:73|90:128,1,101.500003097534,10|2,3:2|1:3,0:0:0:0:
101,369,62159,70,0,B|166:341|166:341|223:369|223:369|298:339,1,203.000006195069,2|10,1:3|3:2,0:0:0:0:
286,343,62568,1,2,1:3:0:0:
241,115,62705,2,0,B|216:149|216:149|240:228,1,101.500003097534,2|2,1:3|1:3,0:0:0:0:
394,384,62977,2,0,B|419:350|419:350|395:271,1,101.500003097534,10|2,3:2|1:3,0:0:0:0:
465,139,63250,38,0,B|486:151|507:141|521:128|521:128|517:165|472:181|431:163|433:159|436:155|411:130|378:125|335:179,1,258.999999011993,4|8,1:0|3:2,0:0:0:0:
54,241,63659,70,0,B|32:228|11:238|-2:251|-2:251|1:214|46:198|87:216|85:220|82:224|107:249|140:254|183:200,1,258.999999011993,4|8,1:2|0:3,0:0:0:0:
195,144,64000,37,4,0:3:0:0:
197,130,64068,2,0,P|191:93|176:56,1,77.0000023498536,4|0,1:0|0:0,0:0:0:0:
376,377,64477,70,0,B|416:388|447:348|437:289|383:257|347:292|346:294|345:297|314:322|267:322|236:275|245:237|279:216,1,320.250009162426,4|0,1:2|0:0,0:0:0:0:
290,213,64750,1,8,0:0:0:0:
120,384,64886,37,8,0:0:0:0:
430,200,65023,1,8,1:3:0:0:
87,53,65159,1,4,0:3:0:0:
239,339,65296,1,8,0:0:0:0:
239,339,65364,1,8,0:0:0:0:
239,339,65432,70,0,P|253:228|280:95,1,215.250003284454,4|0,1:1|0:0,0:0:0:0:
355,101,65705,2,0,B|329:129|286:127|263:99|265:76|267:73|270:70|269:38|232:11|192:38,1,215.250003284454,10|0,3:2|0:0,0:0:0:0:
186,50,65977,1,2,1:2:0:0:
21,170,66114,1,0,1:2:0:0:
153,269,66250,2,0,P|144:211|137:161,1,108.500000827789,10|0,3:2|1:0,0:0:0:0:
51,291,66523,37,2,1:2:0:0:
232,183,66659,1,0,1:0:0:0:
85,2,66796,2,0,P|76:60|69:110,1,108.500000827789,10|0,3:2|1:0,0:0:0:0:
197,325,67068,70,0,B|226:325|244:360|244:360|295:347|329:289|294:239|294:239|280:257|254:262,1,246.749996234894,2|0,1:2|0:0,0:0:0:0:
232,183,67341,2,0,B|191:175|191:175|184:175|184:175|136:166,1,80.5000015354157,10|0,3:2|1:0,0:0:0:0:
367,27,67614,38,0,B|344:-5|298:15|288:73|343:121|400:106|420:81,1,204.750000781059,4|0,1:2|0:0,0:0:0:0:
482,117,67886,2,0,P|495:63|506:12,1,101.500003097534,10|0,3:2|1:0,0:0:0:0:
327,177,68159,1,2,1:2:0:0:
491,290,68296,1,0,1:0:0:0:
422,170,68432,2,0,P|409:224|398:275,1,108.500000827789,10|0,3:2|0:0,0:0:0:0:
274,109,68705,69,2,1:2:0:0:
433,349,68841,1,0,1:0:0:0:
202,274,68977,37,10,3:2:0:0:
259,219,69114,1,0,1:0:0:0:
313,368,69250,69,2,1:2:0:0:
143,163,69386,1,0,1:2:0:0:
276,32,69523,37,10,3:2:0:0:
158,336,69659,1,0,1:2:0:0:
1,123,69796,70,0,B|40:147|83:128|87:93|86:90|84:88|90:57|141:46|173:80,1,194.249999258995,4|0,1:1|0:0,0:0:0:0:
171,83,70068,2,0,P|122:42|140:5,1,108.500000827789,10|0,3:2|1:0,0:0:0:0:
328,114,70341,37,2,1:2:0:0:
135,244,70477,1,0,1:2:0:0:
214,149,70614,70,0,P|245:158|267:163,1,43.75,10|0,3:2|0:0,0:0:0:0:
288,226,70750,2,0,P|310:231|330:237,1,43.75,0|0,1:0|0:0,0:0:0:0:
387,188,70886,37,2,1:2:0:0:
240,361,71023,2,0,P|212:328|222:279,1,87.5,0|10,1:0|3:2,0:0:0:0:
480,206,71296,2,0,P|507:238|503:280,1,87.5,0|2,1:0|1:2,0:0:0:0:
275,57,71568,1,0,1:0:0:0:
398,377,71705,2,0,L|364:279,1,87.5,10|0,3:2|1:0,0:0:0:0:
74,126,71977,70,0,P|92:120|100:110,1,22.7499989585877,4|0,1:2|0:0,0:0:0:0:
163,95,72114,2,0,P|166:76|162:64,1,22.7499989585877,0|0,1:0|0:0,0:0:0:0:
96,22,72250,38,0,L|151:205,1,173.250001652241,10|0,3:2|0:0,0:0:0:0:
53,350,72523,70,0,P|66:329|76:324,1,26.2500010013581,2|0,1:2|0:0,0:0:0:0:
111,269,72659,2,0,P|135:269|145:275,1,26.2500010013581,0|0,1:0|0:0,0:0:0:0:
285,310,72796,38,0,P|360:298|378:197,1,183.750001752377,10|0,3:2|0:0,0:0:0:0:
273,127,73068,70,0,P|294:141|329:140,1,43.75,8|0,1:3|0:0,0:0:0:0:
461,127,73205,2,0,P|440:113|405:114,1,43.75,8|0,0:0|0:0,0:0:0:0:
216,63,73341,37,8,0:0:0:0:
505,214,73477,1,4,1:3:0:0:
213,278,73614,69,8,0:0:0:0:
371,1,73750,2,0,P|360:65|356:103,1,87.5,8|0,0:0|1:0,0:0:0:0:
419,373,74023,37,8,0:0:0:0:
6,237,74159,70,0,B|111:210|111:210|124:213|124:213|231:186,1,225.750003444672,4|0,1:1|0:0,0:0:0:0:
278,240,74432,2,0,B|302:235|317:217|314:192|314:192|303:219|275:227,1,108.500000827789,10|0,3:2|1:0,0:0:0:0:
99,102,74705,1,2,1:2:0:0:
278,0,74841,1,0,1:2:0:0:
173,0,74977,38,0,L|187:62,1,54.2500004138947,10|0,3:2|0:0,0:0:0:0:
255,77,75114,2,0,L|269:139,1,54.2500004138947,0|0,1:0|0:0,0:0:0:0:
95,9,75250,69,2,1:2:0:0:
336,64,75386,1,0,1:0:0:0:
179,215,75523,2,0,B|115:206|115:206|111:210|111:210|58:203,1,108.500000827789,10|0,3:2|1:0,0:0:0:0:
304,365,75796,38,0,B|280:299|343:238|419:274|419:274|384:292|380:327,1,246.749996234894,2|0,1:2|0:0,0:0:0:0:
381,317,76068,2,0,L|365:222,1,80.5000015354157,10|0,3:2|1:0,0:0:0:0:
173,0,76341,70,0,B|98:-12|90:73|148:116|188:78|186:72|215:44|253:52|274:95,1,257.250002453327,4|0,1:2|0:0,0:0:0:0:
272,101,76614,1,10,3:2:0:0:
464,252,76750,1,0,1:0:0:0:
462,112,76886,38,0,P|439:127|416:128,1,43.75,2|0,1:2|0:0,0:0:0:0:
299,185,77023,2,0,P|322:170|345:169,1,43.75,0|0,1:0|0:0,0:0:0:0:
399,54,77159,69,10,3:2:0:0:
331,25,77296,1,0,1:2:0:0:
214,153,77432,37,2,1:2:0:0:
480,9,77568,1,0,1:0:0:0:
379,233,77705,69,10,3:2:0:0:
194,68,77841,1,0,1:0:0:0:
452,158,77977,37,2,1:2:0:0:
320,307,78114,1,0,1:2:0:0:
326,14,78250,69,10,3:2:0:0:
401,378,78386,1,0,1:2:0:0:
18,214,78523,38,0,B|56:254|113:232|117:193|114:189|110:185|113:139|162:127|211:146|223:188,1,246.749996234894,4|0,1:1|0:0,0:0:0:0:
139,270,78796,70,0,P|113:178|60:132,1,162.750001241684,10|0,3:2|0:0,0:0:0:0:
18,78,79068,38,0,P|54:60|78:63,1,54.2500004138947,2|0,1:2|0:0,0:0:0:0:
115,7,79205,2,0,P|148:29|157:51,1,54.2500004138947,0|0,1:2|0:0,0:0:0:0:
233,60,79341,2,0,P|230:129|198:156,1,87.5,10|0,3:2|1:0,0:0:0:0:
87,355,79614,69,2,1:2:0:0:
392,284,79750,2,0,B|339:277|339:277|331:279|331:279|283:272,1,101.500003097534,0|10,1:0|3:2,0:0:0:0:
69,233,80023,38,0,B|22:217|33:159|79:124|137:149|179:209|136:274,1,258.999999011993,0|0,1:0|1:0,0:0:0:0:
281,357,80432,2,0,P|234:342|219:295,1,94.5000003604889,10|0,3:2|1:0,0:0:0:0:
406,118,80705,70,0,P|409:101|413:89,1,22.7499989585877,4|0,1:2|0:0,0:0:0:0:
479,117,80841,2,0,P|476:127|474:139,1,22.7499989585877,0|0,1:0|0:0,0:0:0:0:
422,2,80977,38,0,P|400:63|299:60,1,173.250001652241,10|0,3:2|0:0,0:0:0:0:
231,80,81250,70,0,P|211:65|207:52,1,26.2500010013581,2|0,1:2|0:0,0:0:0:0:
155,25,81386,2,0,P|157:0|167:-9,1,26.2500010013581,0|0,1:0|0:0,0:0:0:0:
245,235,81523,38,0,B|222:205|235:160|277:152|280:156|284:161|315:155|334:124|318:80,1,183.750001752377,10|0,3:2|0:0,0:0:0:0:
317,272,81796,70,0,P|343:274|372:287,1,43.75,2|0,1:2|0:0,0:0:0:0:
213,162,81932,2,0,P|192:168|170:169,1,43.75,8|0,0:0|0:0,0:0:0:0:
193,337,82068,37,8,0:3:0:0:
390,162,82205,1,4,1:3:0:0:
54,175,82341,69,8,0:0:0:0:
512,247,82477,2,0,P|468:241|417:235,1,87.5,8|4,0:0|1:3,0:0:0:0:
98,370,82750,37,8,0:0:0:0:
148,18,82886,70,0,P|157:65|167:120,1,94.5000003604889,0|0,1:1|0:0,0:0:0:0:
230,255,83159,2,0,P|239:208|249:153,1,94.5000003604889,8|0,3:2|0:0,0:0:0:0:
264,145,83364,1,0,1:1:0:0:
264,145,83432,1,8,3:2:0:0:
119,258,83568,37,0,1:1:0:0:
108,260,83636,1,0,0:0:0:0:
95,264,83705,1,0,1:1:0:0:
295,329,83841,1,8,3:2:0:0:
128,117,83977,69,0,1:1:0:0:
193,362,84114,1,0,1:1:0:0:
358,160,84250,2,0,L|335:52,1,94.5000003604889,8|0,3:2|0:0,0:0:0:0:
326,53,84455,1,0,3:2:0:0:
321,48,84523,37,8,3:2:0:0:
56,89,84659,1,0,3:2:0:0:
53,96,84727,1,0,3:2:0:0:
49,103,84796,2,0,P|82:97|114:92,1,47.2500001802444,8|0,3:2|0:0,0:0:0:0:
208,50,84932,2,0,P|184:46|161:41,1,47.2500001802444,0|0,3:2|0:0,0:0:0:0:
21,234,85068,54,0,B|50:242|50:242|137:220|137:220|153:257|197:262,1,183.750001752377,4|0,1:2|0:0,0:0:0:0:
197,269,85341,1,10,0:2:0:0:
243,375,85477,2,0,B|193:337|193:337|230:225|230:225|268:217|282:181,1,245.000002336502
390,103,85886,2,0,B|351:124|351:124|257:89,1,122.500001168251,10|0,0:2|1:2,0:0:0:0:
61,74,86159,101,0,1:2:0:0:
208,150,86296,1,0,0:0:0:0:
16,7,86432,2,0,B|55:-14|55:-14|149:21,1,122.500001168251,10|0,0:2|0:0,0:0:0:0:
434,234,86705,6,0,B|406:213|366:220|349:261|349:261|347:245|347:245|335:304|283:321|248:290,1,236.250009012223,2|0,1:2|0:0,0:0:0:0:
330,173,86977,102,0,B|345:204|345:204|343:206|343:206|357:233,1,61.2500005841255,10|0,0:2|0:0,0:0:0:0:
369,306,87114,2,0,B|353:274|353:274|355:272|355:272|341:245,1,61.2500005841255,0|0,1:2|0:0,0:0:0:0:
487,56,87250,6,0,B|495:29|515:17|515:17|463:1|418:17|398:72|419:112,1,215.250003284454,4|0,1:1|0:0,0:0:0:0:
421,111,87523,1,10,0:2:0:0:
496,163,87659,2,0,B|367:130|367:130|357:133|357:133|221:100,1,258.999999011993
109,13,88068,2,0,B|131:1|131:1|204:28|204:28|179:37|172:68,1,143.500002189636,10|0,0:2|1:2,0:0:0:0:
205,289,88341,101,0,1:2:0:0:
53,154,88477,1,0,0:0:0:0:
11,243,88614,2,0,B|42:229|42:229|83:276|83:276|134:270,1,143.500002189636,10|0,0:2|0:0,0:0:0:0:
36,360,88886,6,0,B|22:310|22:310|141:205|141:205|122:156,1,246.749996234894,2|0,1:2|0:0,0:0:0:0:
53,74,89159,102,0,B|20:71|20:71|-8:98,1,61.2500005841255,10|0,0:2|0:0,0:0:0:0:
127,171,89296,2,0,B|160:174|160:174|188:147,1,61.2500005841255,0|0,1:2|0:0,0:0:0:0:
293,32,89432,6,0,B|287:16|293:-10|293:-10|201:-5|199:74|199:74|239:81|253:130,1,236.250009012223,4|0,1:2|0:0,0:0:0:0:
251,112,89705,1,10,0:2:0:0:
415,232,89841,2,0,B|408:273|369:305|315:282|315:282|326:275|326:275|281:253|284:192|333:173,1,273.000001041412
396,24,90250,2,0,B|416:40|420:73|386:91|386:91|352:78|329:101,1,136.500000520706,10|0,0:2|1:2,0:0:0:0:
208,194,90523,101,0,1:2:0:0:
437,151,90659,1,0,0:0:0:0:
225,284,90796,2,0,B|170:273|170:273|164:275|164:275|86:260,1,122.500001168251,10|0,0:2|0:0,0:0:0:0:
29,85,91068,6,0,B|5:90|-7:118|9:144|9:144|31:97|84:74|142:90|142:90|104:101|96:143,1,288.750002753735,2|0,1:2|0:0,0:0:0:0:
98,138,91341,2,0,B|106:64|106:64|109:63|109:63|115:5,1,122.500001168251,10|0,0:2|1:2,0:0:0:0:
340,377,91614,102,0,B|350:327|410:313|443:353|441:356|438:360|478:409|566:354|571:294|509:227|453:234|428:302,1,343.000003271103,8|0,1:2|0:0,0:0:0:0:
248,100,92023,6,0,B|225:83|174:110|181:166|222:187|264:171|264:171|311:151|350:186|345:240|296:266|260:242,1,343.000003271103,8|0,1:2|0:0,0:0:0:0:
324,66,92432,102,0,P|248:168|210:294,1,257.250002453327,8|0,1:2|0:0,0:0:0:0:
187,312,92705,5,8,1:2:0:0:
475,133,92841,1,8,1:2:0:0:
162,110,92977,101,8,1:2:0:0:
338,202,93113,1,8,1:3:0:0:
147,115,93250,1,8,1:3:0:0:
381,303,93386,5,8,1:2:0:0:
165,32,93523,1,4,1:3:0:0:
306,373,93659,1,8,1:2:0:0:
0,199,93796,102,0,B|59:180|59:180|114:207|114:207|193:184,1,183.750001752377,4|0,1:2|0:0,0:0:0:0:
188,192,94068,1,10,0:2:0:0:
377,31,94205,1,0,0:0:0:0:
278,136,94341,1,2,1:2:0:0:
244,62,94477,1,0,0:0:0:0:
350,229,94614,2,0,P|363:169|377:113,1,112,10|0,0:2|1:2,0:0:0:0:
497,263,94886,5,0,1:2:0:0:
329,383,95023,1,0,0:0:0:0:
250,237,95159,101,10,0:2:0:0:
257,246,95296,1,0,0:0:0:0:
401,353,95432,6,0,B|318:334|318:334|311:336|311:336|221:315,1,168,2|0,1:2|0:0,0:0:0:0:
177,363,95705,2,0,P|158:333|161:305,1,56,10|0,0:2|0:0,0:0:0:0:
100,252,95841,2,0,P|107:217|129:199,1,56,0|0,1:2|0:0,0:0:0:0:
235,112,95977,102,0,P|157:104|156:14,1,168,4|0,1:1|0:0,0:0:0:0:
160,16,96250,1,10,0:2:0:0:
276,189,96386,1,0,0:0:0:0:
419,19,96523,1,2,1:2:0:0:
475,73,96659,1,0,0:0:0:0:
316,9,96796,2,0,P|326:63|334:119,1,112,10|0,0:2|1:2,0:0:0:0:
288,325,97068,5,0,1:2:0:0:
469,182,97205,1,0,0:0:0:0:
413,308,97341,101,10,0:2:0:0:
401,300,97477,1,0,0:0:0:0:
207,263,97614,6,0,B|236:282|275:268|280:236|277:233|274:230|281:198|317:188|347:204,1,168,2|0,1:2|0:0,0:0:0:0:
288,325,97886,2,0,P|289:286|272:265,1,56,10|0,0:2|0:0,0:0:0:0:
261,202,98023,2,0,P|227:181|201:185,1,56,0|0,1:2|0:0,0:0:0:0:
62,290,98159,102,0,P|74:217|84:102,1,168,4|0,1:2|0:0,0:0:0:0:
71,108,98432,1,10,0:2:0:0:
250,7,98568,2,0,P|244:72|191:66,1,112,0|2,0:0|1:2,0:0:0:0:
155,28,98841,1,0,0:0:0:0:
6,69,98977,2,0,P|91:88|175:157,1,168,10|0,0:2|0:0,0:0:0:0:
163,151,99250,5,0,1:2:0:0:
373,48,99386,1,0,0:0:0:0:
285,151,99523,101,10,0:2:0:0:
298,156,99659,1,0,0:0:0:0:
469,291,99796,5,2,1:2:0:0:
362,206,99932,1,0,3:0:0:0:
378,197,100000,1,0,3:0:0:0:
390,189,100068,1,8,3:2:0:0:
407,180,100136,1,12,1:3:0:0:
280,335,100273,101,4,2:3:0:0:
286,331,100341,2,0,B|313:326|335:343|335:343|328:312|287:293|266:305|266:305|238:340|207:345|169:320,1,251.999992309571,4|0,1:2|0:0,0:0:0:0:
31,216,100750,6,0,B|27:199|13:184|13:184|51:159|98:164|124:192|138:230|138:230|101:235|86:274,1,251.999992309571,4|0,1:2|0:0,0:0:0:0:
112,384,101159,102,0,P|148:267|235:142,1,251.999992309571,4|0,1:2|0:0,0:0:0:0:
233,155,101568,1,0,1:0:0:0:
139,9,101705,2,0,L|149:90,1,77.0000023498536,8|0,3:2|0:0,0:0:0:0:
339,325,101977,5,8,3:2:0:0:
5,97,102114,1,8,3:2:0:0:
354,198,102250,102,0,B|403:192|403:192|408:194|408:194|461:186,1,101.500003097534,8|0,3:2|0:0,0:0:0:0:
141,362,102523,6,0,B|179:387|226:357|227:290|166:250|120:289|120:289|72:333|-14:297|-13:201|76:154|131:215,1,446.24999404192,0|0,1:0|0:0,0:0:0:0:
154,137,102932,102,0,P|139:205|126:276,1,131.25000500679,8|0,3:2|0:0,0:0:0:0:
175,56,103341,6,0,B|208:42|245:66|253:109|209:175|165:156|132:125|134:122|136:118|106:81|50:93|16:151|56:204|104:191,1,350,0|0,1:0|3:0,0:0:0:0:
96,193,103750,1,0,1:0:0:0:
402,213,103886,102,0,B|454:202|454:202|461:204|461:204|518:193,1,101.500003097534,8|0,3:2|3:0,0:0:0:0:
262,371,104159,5,8,3:2:0:0:
332,25,104296,1,8,3:2:0:0:
322,250,104432,102,0,L|309:194,1,57.7500017623902,8|0,1:3|0:0,0:0:0:0:
400,309,104705,6,0,B|300:281|300:281|295:284|295:284|194:256,1,203.000006195069,4|10,1:2|0:2,0:0:0:0:
16,376,105114,2,0,B|44:363|58:334|48:289|48:289|62:334|90:350|122:345,1,203.000006195069
198,170,105523,2,0,P|143:185|125:228,1,101.500003097534,10|0,0:2|1:2,0:0:0:0:
352,124,105796,102,0,P|260:101|252:3,1,203.000006195069,0|10,1:2|0:2,0:0:0:0:
251,6,106205,1,0,0:0:0:0:
399,219,106341,2,0,P|431:178|489:177,1,101.500003097534,2|0,1:2|0:0,0:0:0:0:
327,370,106614,2,0,P|318:319|302:267,1,101.500003097534,10|0,0:2|1:2,0:0:0:0:
39,62,106886,6,0,B|78:32|122:44|126:76|125:78|123:82|133:119|187:121|207:87,1,194.249999258995,4|0,1:1|0:0,0:0:0:0:
208,83,107159,1,10,0:2:0:0:
386,211,107296,1,0,0:0:0:0:
310,127,107432,2,0,P|321:80|334:19,1,101.500003097534,2|0,1:2|0:0,0:0:0:0:
504,241,107705,2,0,P|498:289|458:318,1,101.500003097534,10|0,0:2|1:2,0:0:0:0:
286,230,107977,101,0,1:2:0:0:
469,101,108114,1,0,0:0:0:0:
408,231,108250,2,0,L|396:121,1,101.500003097534,10|0,0:2|0:0,0:0:0:0:
222,319,108523,2,0,P|244:372|296:380,1,101.500003097534,2|0,1:2|0:0,0:0:0:0:
235,98,108796,1,10,0:2:0:0:
68,267,108932,1,0,1:2:0:0:
276,233,109068,6,0,B|218:213|218:213|177:233|177:233|128:214,1,152.250004646301,4|0,1:2|0:0,0:0:0:0:
128,207,109341,1,10,0:2:0:0:
38,22,109477,1,0,0:0:0:0:
3,122,109614,2,0,L|110:96,1,101.500003097534,2|0,1:2|0:0,0:0:0:0:
295,71,109886,102,0,P|263:63|234:54,1,50.7500015487671,10|0,0:2|0:0,0:0:0:0:
175,139,110023,2,0,P|199:131|224:125,1,50.7500015487671
313,0,110159,6,0,B|295:70|362:77|366:72|369:67|430:90|410:154,1,203.000006195069,0|10,1:2|0:2,0:0:0:0:
411,149,110568,1,0,0:0:0:0:
504,314,110705,2,0,P|503:256|456:232,1,101.500003097534,2|0,1:2|0:0,0:0:0:0:
248,173,110977,1,10,0:2:0:0:
340,384,111114,1,0,1:2:0:0:
381,259,111250,102,0,B|298:266|298:266|295:270|295:270|205:279,1,152.250004646301,4|0,1:1|0:0,0:0:0:0:
211,294,111523,1,8,3:2:0:0:
412,76,111659,1,8,3:2:0:0:
5,167,111796,6,0,P|69:176|131:186,1,101.500003097534,4|8,1:2|3:2,0:0:0:0:
507,217,112068,2,0,P|443:208|381:198,1,101.500003097534,8|0,3:2|1:3,0:0:0:0:
186,45,112341,101,4,1:2:0:0:
302,340,112477,1,8,3:2:0:0:
300,109,112614,5,8,3:2:0:0:
203,282,112750,1,0,1:0:0:0:
424,97,112886,101,8,3:2:0:0:
93,287,113023,1,8,3:2:0:0:
355,245,113159,5,8,1:3:0:0:
126,148,113296,1,0,1:0:0:0:
120,141,113364,1,0,1:0:0:0:
113,130,113432,102,0,B|109:99|86:85|86:85|126:38|197:54|224:106|207:163,1,245.000002336502,4|10,1:1|1:2,0:0:0:0:
388,339,113841,2,0,B|415:396|483:392|516:350|516:350|502:284|446:296,1,245.000002336502,2|2,1:3|1:3,0:0:0:0:
342,52,114250,2,0,P|325:116|305:190,1,122.500001168251,10|2,1:2|1:3,0:0:0:0:
57,307,114523,6,0,B|91:328|133:310|135:271|133:267|130:263|128:235|185:209|219:252,1,203.000006195069,2|10,1:3|1:2,0:0:0:0:
214,246,114932,1,2,1:3:0:0:
33,151,115068,2,0,P|25:99|18:41,1,101.500003097534,2|2,1:3|1:3,0:0:0:0:
313,194,115341,2,0,P|305:246|298:304,1,101.500003097534,10|2,1:2|1:3,0:0:0:0:
437,91,115614,102,0,P|420:80|414:65,1,22.7499989585877,0|0,1:0|0:0,0:0:0:0:
352,45,115750,2,0,P|352:25|363:13,1,22.7499989585877,0|0,1:0|0:0,0:0:0:0:
512,118,115886,6,0,P|447:121|410:192,1,141.750000540733,12|0,0:0|0:0,0:0:0:0:
464,281,116159,102,0,P|461:257|450:251,1,26.2500010013581,0|0,1:0|0:0,0:0:0:0:
401,326,116296,2,0,P|395:337|397:350,1,26.2500010013581,0|0,1:0|0:0,0:0:0:0:
316,202,116432,6,0,B|262:188|262:188|242:147|242:147|174:127,1,152.250004646301,12|0,0:0|0:0,0:0:0:0:
10,294,116705,102,0,P|37:277|41:262,1,40.2500007677078,0|0,1:0|0:0,0:0:0:0:
101,231,116841,2,0,P|99:199|88:188,1,40.2500007677078,0|0,1:0|0:0,0:0:0:0:
46,132,116977,6,0,L|84:375,1,215.250003284454,12|0,0:0|0:0,0:0:0:0:
101,64,117250,102,0,B|102:95|114:118|114:118|63:129|21:110|5:71|24:28,1,204.750000781059,0|0,1:0|0:0,0:0:0:0:
14,27,117523,6,0,B|130:48|130:48|136:52|136:52|253:70,1,236.250009012223,12|0,0:0|0:0,0:0:0:0:
379,72,117796,102,0,B|346:82|320:65|316:37|319:35|322:34|319:2|287:-14|254:0,1,162.750001241684,4|0,1:1|0:0,0:0:0:0:
250,0,118068,1,10,3:2:0:0:
435,163,118205,1,2,1:3:0:0:
278,245,118341,2,0,P|287:187|296:128,1,108.500000827789,2|2,1:3|1:3,0:0:0:0:
472,317,118614,2,0,P|458:371|402:381,1,108.500000827789,10|2,3:2|1:3,0:0:0:0:
178,304,118886,5,2,1:3:0:0:
368,204,119023,1,2,1:3:0:0:
182,55,119159,2,0,P|190:108|198:162,1,108.500000827789,10|2,3:2|1:3,0:0:0:0:
272,11,119432,1,2,1:3:0:0:
77,145,119568,1,2,1:3:0:0:
266,319,119705,2,0,P|274:265|282:211,1,108.500000827789,10|2,3:2|1:3,0:0:0:0:
438,43,119977,102,0,B|462:13|517:24|538:70|526:109|490:150|440:147|405:111|408:108|411:105|394:74|354:69|315:89|310:134,1,343.000003271103,4|0,1:0|0:0,0:0:0:0:
67,284,120386,6,0,B|42:313|-12:303|-33:257|-21:218|15:177|65:180|99:215|96:218|93:221|111:253|151:258|190:238|195:193,1,343.000003271103,4|8,1:2|0:3,0:0:0:0:
205,132,120727,101,4,0:3:0:0:
206,124,120796,2,0,P|181:96|139:102,1,77.0000023498536,4|0,1:0|0:0,0:0:0:0:
328,384,121205,6,0,P|310:306|268:180,1,204.750000781059,4|0,1:2|0:0,0:0:0:0:
265,182,121477,1,8,0:0:0:0:
108,379,121614,101,8,0:0:0:0:
465,185,121750,1,8,1:3:0:0:
63,60,121886,1,4,0:3:0:0:
483,301,122023,1,8,0:0:0:0:
483,301,122091,1,8,0:0:0:0:
483,301,122159,6,0,B|509:297|530:313|530:313|523:283|484:265|464:277|464:277|438:310|408:315|372:291,1,215.250003284454,4|0,1:1|0:0,0:0:0:0:
257,367,122432,2,0,B|280:294|368:294|404:338|393:397|331:388|327:349,1,215.250003284454,10|0,3:2|0:0,0:0:0:0:
328,358,122705,1,2,1:2:0:0:
167,140,122841,1,0,1:2:0:0:
340,239,122977,2,0,P|352:176|363:114,1,108.500000827789,10|0,3:2|1:0,0:0:0:0:
135,232,123250,101,2,1:2:0:0:
398,68,123386,1,0,1:0:0:0:
257,367,123523,2,0,P|245:304|234:242,1,108.500000827789,10|0,3:2|1:0,0:0:0:0:
27,56,123796,6,0,B|14:21|-15:12|-15:12|34:-30|100:-7|121:45|96:111,1,246.749996234894,2|0,1:2|0:0,0:0:0:0:
158,131,124068,2,0,B|198:135|198:135|201:139|201:139|250:145,1,80.5000015354157,10|0,3:2|1:0,0:0:0:0:
481,317,124341,102,0,B|446:335|404:313|403:270|403:270|403:235|365:207|322:238,1,204.750000781059,4|0,1:2|0:0,0:0:0:0:
450,256,124614,2,0,P|404:276|355:305,1,101.500003097534,10|0,3:2|1:0,0:0:0:0:
75,234,124886,1,2,1:2:0:0:
294,97,125023,1,0,1:0:0:0:
186,379,125159,2,0,B|161:260,1,108.500000827789,10|0,3:2|1:2,0:0:0:0:
27,148,125432,5,2,1:2:0:0:
254,267,125568,1,0,1:0:0:0:
138,168,125705,101,10,3:2:0:0:
85,225,125841,1,0,1:0:0:0:
125,83,125977,5,2,1:2:0:0:
195,384,126114,1,0,1:2:0:0:
0,236,126250,101,10,3:2:0:0:
255,78,126386,1,0,1:2:0:0:
386,357,126523,6,0,P|473:372|499:271,1,194.249999258995,4|0,1:1|0:0,0:0:0:0:
481,223,126796,2,0,B|456:239|430:231|418:211|420:209|423:207|409:179|379:175|353:193,1,129.499999505997,10|0,3:2|1:0,0:0:0:0:
170,188,127068,101,2,1:2:0:0:
292,370,127205,1,0,1:2:0:0:
229,291,127341,6,0,L|239:245,1,43.75,10|0,3:2|0:0,0:0:0:0:
283,190,127477,2,0,L|292:147,1,43.75,0|0,1:0|0:0,0:0:0:0:
145,364,127614,101,2,1:2:0:0:
318,267,127750,2,0,P|367:279|417:293,1,87.5,0|10,1:0|3:2,0:0:0:0:
84,294,128023,2,0,P|35:282|-15:268,1,87.5,0|2,1:0|1:2,0:0:0:0:
185,64,128296,1,0,1:0:0:0:
222,376,128432,2,0,L|205:264,1,87.5,10|0,3:2|1:0,0:0:0:0:
93,122,128705,6,0,P|86:101|77:91,1,22.7499989585877,4|0,1:2|0:0,0:0:0:0:
61,191,128841,2,0,P|68:212|77:222,1,22.7499989585877,0|0,1:0|0:0,0:0:0:0:
164,183,128977,102,0,P|81:158|-17:132,1,173.250001652241,10|0,3:2|0:0,0:0:0:0:
296,48,129250,6,0,P|310:62|311:74,1,26.2500010013581,2|0,1:2|0:0,0:0:0:0:
364,117,129386,2,0,P|358:136|348:143,1,26.2500010013581,0|0,1:0|0:0,0:0:0:0:
183,260,129523,102,0,B|160:227|181:182|222:177|226:182|229:186|265:159|253:113,1,183.750001752377,10|0,3:2|0:0,0:0:0:0:
202,61,129796,6,0,P|194:30|188:9,1,43.75,8|0,1:3|0:0,0:0:0:0:
262,282,129932,2,0,P|270:313|276:334,1,43.75,8|0,0:0|0:0,0:0:0:0:
343,197,130068,101,8,0:0:0:0:
129,336,130205,1,4,1:3:0:0:
369,384,130341,5,8,0:0:0:0:
10,253,130477,2,0,P|56:259|107:267,1,87.5,8|0,0:0|1:0,0:0:0:0:
491,196,130750,101,8,0:0:0:0:
146,17,130886,6,0,B|106:-2|69:26|69:81|111:113|156:89|156:89|197:69|234:85|250:136|211:164,1,299.25000285387,4|0,1:1|0:0,0:0:0:0:
190,211,131159,2,0,L|225:85,1,108.500000827789,10|0,3:2|1:0,0:0:0:0:
309,346,131432,101,2,1:2:0:0:
107,251,131568,1,0,1:2:0:0:
171,338,131705,6,0,L|229:322,1,54.2500004138947,10|0,3:2|0:0,0:0:0:0:
267,264,131841,2,0,L|325:248,1,54.2500004138947,0|0,1:0|0:0,0:0:0:0:
503,138,131977,101,2,1:2:0:0:
425,339,132114,1,0,1:0:0:0:
304,167,132250,2,0,L|435:202,1,108.500000827789,10|0,3:2|1:0,0:0:0:0:
107,251,132523,6,0,B|74:256|53:283|53:283|7:242|11:168|59:153|59:153|72:173|105:186,1,246.749996234894,2|0,1:2|0:0,0:0:0:0:
124,109,132796,2,0,L|103:17,1,80.5000015354157,10|0,3:2|1:0,0:0:0:0:
456,285,133068,102,0,B|484:280|507:298|507:298|499:265|457:245|435:258|435:258|406:294|374:300|334:274,1,257.250002453327,4|0,1:2|0:0,0:0:0:0:
373,212,133341,2,0,L|398:331,1,122.500001168251,10|0,3:2|1:0,0:0:0:0:
439,151,133614,6,0,P|407:127|384:127,1,61.2500005841255,2|0,1:2|0:0,0:0:0:0:
343,67,133750,2,0,P|306:82|294:102,1,61.2500005841255,0|0,1:0|0:0,0:0:0:0:
168,204,133886,102,0,B|233:191|233:191|238:193|238:193|302:179,1,122.500001168251,10|0,3:2|1:2,0:0:0:0:
111,90,134159,5,2,1:2:0:0:
266,294,134296,1,0,1:0:0:0:
31,140,134432,101,10,3:2:0:0:
189,45,134568,1,0,1:0:0:0:
297,208,134705,5,2,1:2:0:0:
112,7,134841,1,0,1:2:0:0:
89,298,134977,101,10,3:2:0:0:
295,99,135114,1,0,1:2:0:0:
498,380,135250,6,0,B|520:290|447:229|375:269|378:316|399:361|444:353,1,246.749996234894,4|0,1:1|0:0,0:0:0:0:
429,353,135523,2,0,L|452:240,1,108.500000827789,10|0,3:2|1:0,0:0:0:0:
511,107,135796,102,0,P|483:127|459:130,1,54.2500004138947,2|0,1:2|0:0,0:0:0:0:
297,208,135932,2,0,P|317:190|344:184,1,54.2500004138947,0|0,1:2|0:0,0:0:0:0:
366,0,136068,2,0,L|390:121,1,115.500001101494,10|0,3:2|1:0,0:0:0:0:
512,214,136341,5,2,1:2:0:0:
125,149,136477,2,0,L|232:168,1,101.500003097534,0|10,1:0|3:2,0:0:0:0:
326,364,136750,102,0,B|307:324|340:278|368:285|370:287|372:288|408:290|431:249|421:218|405:205,1,203.000006195069,0|0,1:0|1:0,0:0:0:0:
278,4,137159,2,0,L|300:118,1,101.500003097534,10|0,3:2|1:0,0:0:0:0:
177,324,137432,6,0,P|161:315|147:312,1,22.7499989585877,4|0,1:2|0:0,0:0:0:0:
101,260,137568,2,0,P|117:251|131:248,1,22.7499989585877,0|0,1:0|0:0,0:0:0:0:
106,370,137705,102,0,P|144:289|246:266,1,173.250001652241,10|0,3:2|0:0,0:0:0:0:
285,126,137977,6,0,P|265:117|259:107,1,26.2500010013581,2|0,1:2|0:0,0:0:0:0:
196,55,138114,2,0,P|194:68|198:81,1,26.2500010013581,0|0,1:0|0:0,0:0:0:0:
378,181,138250,102,0,B|410:200|452:169|446:139|442:135|441:133|444:103|487:82|529:111,1,183.750001752377,10|0,3:2|0:0,0:0:0:0:
454,187,138523,6,0,P|470:201|477:221,1,43.75,2|0,1:2|0:0,0:0:0:0:
363,79,138659,2,0,P|369:58|386:44,1,43.75,8|0,0:0|0:0,0:0:0:0:
279,243,138796,101,8,0:3:0:0:
498,67,138932,1,4,1:3:0:0:
300,378,139068,5,8,0:0:0:0:
0,224,139205,2,0,P|54:228|111:233,1,87.5,8|4,0:0|1:3,0:0:0:0:
293,5,139477,101,8,0:0:0:0:
369,330,139614,6,0,B|354:302|323:285|280:297|280:297|287:250|323:243|324:245|325:247|359:241|373:210|362:174|362:174|377:210|415:249|514:247|569:165|544:79|483:41|420:41|381:90|381:90|420:98|435:131,1,739.200022558594,4|0,1:2|0:0,0:0:0:0:
295,55,143058,22,0,P|272:22|272:-7,2,56,2|0|0,3:2|0:0|0:0,0:0:0:0:
348,1,143940,1,0,0:0:0:0:
235,113,144234,38,0,P|204:138|196:166,2,56
272,178,145116,1,0,0:0:0:0:
85,199,145410,70,0,P|160:198|194:293,1,168,0|0,3:0|0:0,0:0:0:0:
416,369,146538,37,0,0:0:0:0:
486,337,146832,1,0,0:0:0:0:
456,262,147126,69,0,0:0:0:0:
444,258,147469,1,0,0:0:0:0:
266,384,147763,38,0,P|281:304|327:228,2,161.000003070831,2|0|0,3:2|0:0|0:0,0:0:0:0:
404,230,149234,69,0,0:0:0:0:
329,239,149528,1,0,0:0:0:0:
287,170,149822,1,0,0:0:0:0:
338,99,150116,38,0,P|372:106|407:117,2,56,0|0|0,3:0|0:0|0:0,0:0:0:0:
287,45,150999,1,0,0:0:0:0:
184,118,151293,70,0,P|218:111|253:100,2,56
133,172,152176,1,0,0:0:0:0:
41,87,152469,37,2,3:2:0:0:
237,231,152763,1,0,0:0:0:0:
68,305,153058,69,0,0:0:0:0:
327,146,153352,1,0,0:0:0:0:
137,37,153646,37,0,0:0:0:0:
221,105,153940,1,0,0:0:0:0:
0,212,154234,69,0,0:0:0:0:
251,335,154528,1,0,0:0:0:0:
124,178,154822,38,0,P|143:241|147:333,1,146.999995513916,0|0,3:0|0:0,0:0:0:0:
326,381,155705,69,0,0:0:0:0:
342,376,155852,1,0,0:0:0:0:
358,371,155999,1,0,0:0:0:0:
399,266,156293,37,0,0:0:0:0:
196,372,156587,1,0,0:0:0:0:
305,220,156881,69,0,0:0:0:0:
223,190,157175,2,0,B|261:204|295:191|299:153|295:151|291:149|300:111|338:100|379:128,1,189.000000720978,2|0,3:2|0:0,0:0:0:0:
496,19,158058,1,0,0:0:0:0:
496,19,158352,38,0,P|476:61|473:105,1,84
481,113,158940,1,0,0:0:0:0:
435,226,159234,1,0,0:0:0:0:
512,192,159528,70,0,P|427:190|356:74,1,224,0|0,3:0|0:0,0:0:0:0:
396,19,161293,1,0,0:0:0:0:
247,110,161881,38,0,P|253:53|201:17,1,112,2|0,3:2|0:0,0:0:0:0:
143,145,162763,2,0,P|103:107|111:54,1,112
293,226,163646,69,0,0:0:0:0:
0,164,163940,1,0,0:0:0:0:
23,371,164234,38,0,P|63:358|79:319,1,84,0|0,3:0|0:0,0:0:0:0:
134,261,164822,2,0,P|153:223|136:184,1,84
74,312,165410,2,0,P|98:346|140:349,1,84
207,384,165998,2,0,P|248:379|272:344,1,84
331,293,166587,70,0,P|322:257|314:221,2,56,2|0|0,3:2|0:0|0:0,0:0:0:0:
392,341,167469,1,0,0:0:0:0:
296,212,167763,38,0,P|305:176|313:140,2,56
235,260,168645,1,0,0:0:0:0:
405,187,168940,70,0,P|435:194|467:201,1,56,0|0,3:0|0:0,0:0:0:0:
371,60,169528,38,0,L|276:80,1,84
227,140,170116,70,0,L|309:157,1,84
186,208,170705,38,0,L|124:227,1,62.9999980773926
14,318,171293,70,0,B|53:300|53:300|168:332,1,140,2|0,3:2|0:0,0:0:0:0:
251,347,172175,2,0,B|212:365|212:365|97:333,1,140
48,202,173058,1,0,0:0:0:0:
231,268,173352,37,0,0:0:0:0:
239,273,173499,1,0,0:0:0:0:
246,279,173646,2,0,P|291:270|327:265,1,70,0|0,3:0|0:0,0:0:0:0:
501,378,174234,70,0,P|459:365|439:325,1,83.9999974365235
389,282,175116,1,0,0:0:0:0:
507,184,175410,37,0,0:0:0:0:
276,95,175705,1,0,0:0:0:0:
504,10,175999,70,0,P|440:25|425:104,1,140,2|0,3:2|0:0,0:0:0:0:
367,143,176881,2,0,P|378:184|450:209,1,112
512,328,177763,2,0,P|485:302|455:297,1,56
283,327,178352,38,0,B|238:302|210:335|212:336|213:337|186:369|141:352,1,140,0|0,3:0|0:0,0:0:0:0:
40,308,179234,1,0,0:0:0:0:
40,308,179381,1,0,0:0:0:0:
40,308,179528,2,0,P|45:267|71:240,1,70
49,173,180116,2,0,P|87:156|123:165,1,70
186,144,180705,69,8,3:2:0:0:
255,186,180852,1,0,0:0:0:0:
263,189,180925,1,0,0:0:0:0:
271,193,180999,2,0,L|324:186,3,35
368,276,181293,37,0,0:0:0:0:
377,270,181366,1,0,0:0:0:0:
386,264,181440,2,0,L|416:222,1,35
491,216,181587,1,0,0:0:0:0:
493,205,181660,1,0,0:0:0:0:
495,194,181734,2,0,L|486:143,1,35
512,83,181881,2,0,L|469:53,1,35
381,17,182028,69,0,0:0:0:0:
335,6,182102,1,0,0:0:0:0:
297,28,182175,1,0,0:0:0:0:
286,60,182249,1,0,0:0:0:0:
265,80,182322,1,0,0:0:0:0:
246,81,182396,1,0,0:0:0:0:
226,77,182469,2,0,P|203:62|194:48,3,35
122,51,182763,2,0,P|123:23|131:8,3,35
59,134,183058,37,4,3:2:0:0:
54,144,183131,1,0,0:0:0:0:
51,155,183205,2,0,L|60:203,3,35
24,289,183499,69,0,0:0:0:0:
37,307,183572,1,0,0:0:0:0:
87,322,183646,1,0,0:0:0:0:
140,293,183719,1,0,0:0:0:0:
154,243,183793,2,0,L|145:197,3,35
234,126,184087,37,0,0:0:0:0:
246,121,184160,1,0,0:0:0:0:
256,117,184234,2,0,L|303:127,3,35
377,208,184528,2,0,L|330:218,1,35
274,346,184675,69,0,0:0:0:0:
265,353,184749,1,0,0:0:0:0:
255,361,184822,1,0,0:0:0:0:
209,372,184896,1,0,0:0:0:0:
158,349,184969,1,0,0:0:0:0:
140,293,185043,1,0,0:0:0:0:
154,253,185116,1,0,0:0:0:0:
184,233,185190,1,0,0:0:0:0:
210,235,185263,1,0,0:0:0:0:
221,244,185337,1,0,0:0:0:0:
220,257,185410,38,0,P|208:205|187:99,1,146.999995513916,8|0,3:2|0:0,0:0:0:0:
234,42,185999,2,0,P|279:47|302:113,1,112
386,171,186881,2,0,P|353:175|333:194,2,56
439,232,187763,69,0,3:2:0:0:
12,219,188352,38,0,P|59:211|81:129,1,136.499993751526
98,2,188940,70,0,P|126:52|190:51,1,115.50000352478,2|0,2:2|0:0,0:0:0:0:
262,203,189528,38,0,P|232:167|187:168,1,94.499997116089
117,228,190116,69,2,3:2:0:0:
291,109,190263,1,0,0:0:0:0:
236,279,190410,37,0,0:0:0:0:
343,258,190558,1,0,0:0:0:0:
316,378,190705,69,0,0:0:0:0:
379,332,190852,1,0,0:0:0:0:
444,378,190999,37,0,0:0:0:0:
454,383,191146,1,0,0:0:0:0:
498,318,191293,69,2,0:0:0:0:
423,251,191440,1,0,0:0:0:0:
473,151,191587,37,0,0:0:0:0:
279,209,191734,1,0,0:0:0:0:
341,265,191881,69,0,0:0:0:0:
2,162,192175,1,0,0:0:0:0:
261,133,192469,37,0,3:0:0:0:
44,248,192616,1,0,0:0:0:0:
165,82,192763,69,0,0:0:0:0:
132,255,192910,1,0,0:0:0:0:
76,107,193058,37,0,0:0:0:0:
211,219,193205,1,0,0:0:0:0:
121,177,193352,69,0,0:0:0:0:
135,176,193499,1,0,0:0:0:0:
240,49,193646,38,0,P|281:48|311:28,1,62.9999980773926,2|0,0:0|0:0,0:0:0:0:
371,115,194087,2,0,P|412:116|442:136,1,62.9999980773926
475,60,194528,2,0,P|498:55|508:46,1,31.4999990386963
361,232,194822,70,0,P|350:169|302:118,2,125.999996154785,2|0|2,3:2|0:0|0:0,0:0:0:0:
460,311,196293,2,0,P|422:315|398:338,1,62.9999980773926
342,373,196881,1,0,0:0:0:0:
265,303,197175,38,0,P|236:319|177:315,1,84,0|0,3:0|0:0,0:0:0:0:
96,376,197763,70,0,P|72:346|33:338,1,73.4999977569581
2,227,198352,38,0,P|60:225|100:171,1,125.999996154785,2|0,0:0|0:0,0:0:0:0:
505,126,201881,54,0,B|497:116|497:116|507:90|496:65|469:54|469:54|460:27|429:14|429:14|433:13|433:13|513:10|553:94|503:169|455:170|455:170|472:186|476:212|476:212|451:227|446:259|446:259|424:174|358:127|267:162|256:252|301:291|376:288|382:223,1,839.999974365235,12|0,1:0|0:0,0:0:0:0:
374,83,203381,37,0,1:0:0:0:
374,83,203449,1,0,1:0:0:0:
374,83,203517,2,0,B|349:109|304:96|296:57|300:55|304:54|301:17|257:0|220:26,1,188.999994232178,12|0,0:0|0:0,0:0:0:0:
92,298,204062,70,0,B|83:298|71:309|71:309|39:266|-37:282|-39:370|13:401|86:416|130:350|102:257|102:257|147:290|229:279|249:159|182:79|89:146|143:199|161:192|178:174,1,612.5,6|0,1:1|0:0,0:0:0:0:
335,380,205153,37,8,1:2:0:0:
194,341,205290,2,0,P|244:335|278:306,1,87.5,8|0,1:2|0:0,0:0:0:0:
441,171,205562,69,8,1:2:0:0:
282,223,205699,2,0,P|367:232|420:316,1,162.750001241684,12|0,1:2|0:0,0:0:0:0:
326,143,205971,38,0,B|324:159|324:159|342:168|351:184|353:207,1,62.9999980773926,8|0,1:3|0:0,0:0:0:0:
494,303,206108,2,0,B|495:318|495:318|478:326|469:343|471:367,1,56,4|0,1:3|0:0,0:0:0:0:
385,384,206244,70,0,P|430:222|498:50,1,336,12|0,1:1|0:0,0:0:0:0:
385,62,207199,37,8,1:2:0:0:
385,62,207267,1,8,1:2:0:0:
385,62,207335,2,0,B|371:108|401:144|443:142|450:136|455:130|515:135|534:189|503:251,1,241.500004606247,8|0,1:2|0:0,0:0:0:0:
482,48,207881,70,0,P|496:16|520:3,1,62.9999980773926
441,163,208426,37,2,1:0:0:0:
433,159,208494,1,0,1:0:0:0:
425,155,208562,1,8,3:2:0:0:
206,273,208699,70,0,P|245:271|283:305,1,87.5,8|0,3:2|1:0,0:0:0:0:
91,215,208971,1,8,3:2:0:0:
292,84,209108,1,8,3:2:0:0:
180,183,209244,37,0,1:0:0:0:
176,175,209312,1,0,0:0:0:0:
172,167,209380,1,8,3:2:0:0:
108,384,209517,2,0,P|121:332|138:280,1,87.5,0|8,1:0|1:3,0:0:0:0:
30,92,209790,70,0,P|53:127|95:133,1,87.5,4|0,1:3|1:0,0:0:0:0:
229,26,210062,1,0,1:0:0:0:
232,21,210131,1,0,1:0:0:0:
237,17,210199,2,0,P|247:83|262:175,1,131.25,8|0,3:2|0:0,0:0:0:0:
251,160,210471,1,8,3:2:0:0:
512,373,210608,22,0,B|473:403|424:375|416:334|423:327|428:321|415:270|358:259|325:292,1,245.000002336502,4|10,1:2|0:2,0:0:0:0:
159,127,211017,1,2,2:3:0:0:
130,384,211153,2,0,P|186:383|219:325,1,101.500003097534,2|2,1:2|2:3,0:0:0:0:
41,249,211426,2,0,P|99:267|142:289,1,101.500003097534,10|2,0:2|2:3,0:0:0:0:
384,159,211699,37,8,1:1:0:0:
287,384,211835,1,2,2:3:0:0:
306,191,211971,2,0,P|318:253|328:310,1,101.500003097534,10|2,0:2|2:3,0:0:0:0:
512,104,212244,2,0,P|456:103|423:45,1,101.500003097534,2|0,1:2|1:2,0:0:0:0:
489,244,212517,69,10,0:2:0:0:
267,48,212653,1,2,2:3:0:0:
267,56,212721,1,0,0:0:0:0:
266,64,212790,37,4,1:1:0:0:
219,60,212858,1,0,0:0:0:0:
177,88,212926,1,2,2:3:0:0:
169,137,212994,1,0,0:0:0:0:
184,180,213062,2,0,P|214:191|246:209,1,50.7500015487671,10|0,0:2|0:0,0:0:0:0:
349,255,213199,2,0,P|325:263|303:275,1,50.7500015487671,2|0,2:3|0:0,0:0:0:0:
183,384,213335,69,2,1:2:0:0:
181,375,213403,1,0,0:0:0:0:
179,365,213471,2,0,P|187:329|193:302,1,50.7500015487671,2|0,2:3|0:0,0:0:0:0:
55,185,213608,37,10,0:2:0:0:
53,176,213676,1,0,0:0:0:0:
51,167,213744,1,0,1:2:0:0:
49,158,213812,1,0,0:0:0:0:
31,132,213881,69,2,1:1:0:0:
65,82,213949,1,0,0:0:0:0:
125,73,214017,1,2,2:3:0:0:
178,102,214085,1,0,0:0:0:0:
205,156,214153,1,10,0:2:0:0:
256,188,214221,1,0,0:0:0:0:
316,179,214290,1,2,2:3:0:0:
357,134,214358,1,0,0:0:0:0:
351,123,214426,38,0,P|344:84|339:55,1,50.7500015487671,2|0,1:2|0:0,0:0:0:0:
202,247,214562,2,0,P|197:271|193:296,1,50.7500015487671,2|0,2:3|0:0,0:0:0:0:
512,300,214699,70,0,B|482:325|440:304|437:275|446:272|444:242|400:224|365:249,1,173.250001652241,10|0,0:2|0:0,0:0:0:0:
416,385,214971,38,0,P|446:272|537:166,1,245.000002336502,4|10,1:2|0:2,0:0:0:0:
501,9,215381,69,2,2:3:0:0:
501,9,215449,1,0,0:0:0:0:
501,9,215517,2,0,P|484:42|453:51,1,61.2500005841255,2|0,1:2|0:0,0:0:0:0:
419,110,215653,2,0,P|381:111|358:89,1,61.2500005841255,2|0,2:3|0:0,0:0:0:0:
190,51,215790,38,0,B|223:77|263:56|262:24|260:22|255:19|269:-12|309:-18|336:12,1,183.750001752377,10|0,0:2|0:0,0:0:0:0:
114,104,216062,70,0,B|94:81|67:80|67:80|134:19|241:79|222:159|222:159|179:134|138:176,1,356.999995233536,8|10,1:1|0:2,0:0:0:0:
84,333,216471,37,2,2:3:0:0:
78,327,216540,1,0,0:0:0:0:
72,321,216608,2,0,P|94:289|164:295,1,108.500000827789,2|0,1:2|1:2,0:0:0:0:
330,384,216881,2,0,P|341:320|350:266,1,108.500000827789,10|2,0:2|2:3,0:0:0:0:
454,26,217153,70,0,B|491:-3|557:35|543:107|482:133|438:98|438:98|409:71|360:79|344:131,1,315.000012016297,4|10,1:1|0:2,0:0:0:0:
93,7,217562,1,2,2:3:0:0:
93,7,217631,1,0,0:0:0:0:
93,7,217699,2,0,P|136:33|137:99,1,101.500003097534,2|2,1:2|2:3,0:0:0:0:
190,136,217903,1,0,0:0:0:0:
194,148,217971,2,0,P|182:200|171:252,1,101.500003097534,10|0,0:2|1:2,0:0:0:0:
327,45,218244,37,2,1:1:0:0:
70,190,218381,1,8,0:0:0:0:
342,300,218517,69,8,0:0:0:0:
347,291,218585,1,2,0:0:0:0:
353,278,218653,1,4,1:3:0:0:
207,381,218790,37,8,0:0:0:0:
451,166,218926,1,8,0:0:0:0:
184,62,219062,69,0,1:0:0:0:
305,384,219199,1,8,0:0:0:0:
505,300,219335,37,4,1:2:0:0:
473,351,219403,1,0,0:0:0:0:
412,357,219471,1,2,2:3:0:0:
365,316,219540,1,0,0:0:0:0:
339,260,219608,1,10,0:2:0:0:
289,235,219676,1,0,0:0:0:0:
239,244,219744,1,2,2:3:0:0:
213,281,219812,1,0,0:0:0:0:
220,321,219881,69,2,1:2:0:0:
228,329,219949,1,0,0:0:0:0:
238,337,220017,2,0,P|270:326|294:318,1,50.7500015487671,2|0,2:3|0:0,0:0:0:0:
499,174,220153,37,10,0:2:0:0:
491,182,220221,1,0,0:0:0:0:
481,190,220289,2,0,P|449:179|425:171,1,50.7500015487671,2|0,2:3|0:0,0:0:0:0:
184,68,220426,70,0,B|210:91|242:80|252:51|250:47|247:42|263:14|299:12|329:43,1,162.750001241684,8|0,1:1|0:0,0:0:0:0:
396,99,220699,38,0,B|394:65|362:54|362:54|336:46|305:26|365:-90|558:-1|495:180|388:144|388:144|361:122|309:92|259:135|265:216|358:212,1,612.500005841255,10|2,0:2|2:3,0:0:0:0:
505,299,221517,69,4,1:1:0:0:
456,287,221585,1,0,0:0:0:0:
412,307,221653,1,2,2:3:0:0:
379,339,221721,1,0,0:0:0:0:
349,369,221790,1,10,0:2:0:0:
329,381,221858,1,0,0:0:0:0:
310,382,221926,1,2,2:3:0:0:
292,378,221994,1,0,0:0:0:0:
287,372,222062,38,0,B|294:345|294:345|293:341|293:341|300:312,3,54.2500004138947,2|0|2|0,1:2|0:0|2:3|0:0,0:0:0:0:
228,259,222335,2,0,B|221:232|221:232|222:228|222:228|215:199,1,54.2500004138947,10|0,0:2|0:0,0:0:0:0:
308,61,222471,69,0,1:2:0:0:
318,70,222540,1,0,0:0:0:0:
319,87,222608,37,2,1:1:0:0:
278,116,222676,1,0,0:0:0:0:
228,105,222744,1,2,2:3:0:0:
183,75,222812,1,0,0:0:0:0:
144,40,222881,1,10,0:2:0:0:
96,23,222949,1,0,0:0:0:0:
69,29,223017,1,2,2:3:0:0:
59,39,223085,1,0,0:0:0:0:
54,48,223153,70,0,L|67:100,1,54.2500004138947,2|0,1:2|0:0,0:0:0:0:
162,185,223290,1,2,2:3:0:0:
169,190,223358,1,0,0:0:0:0:
176,192,223426,2,0,L|163:244,1,54.2500004138947,10|0,0:2|0:0,0:0:0:0:
20,384,223562,37,0,1:2:0:0:
15,380,223631,1,0,0:0:0:0:
12,374,223699,2,0,P|60:314|140:326,1,162.750001241684,4|0,1:2|0:0,0:0:0:0:
195,378,223971,2,0,P|253:372|275:321,1,108.500000827789,10|2,0:2|2:3,0:0:0:0:
512,188,224244,69,2,1:2:0:0:
503,241,224312,1,0,0:0:0:0:
455,268,224381,1,2,2:3:0:0:
401,257,224449,1,0,0:0:0:0:
370,212,224517,2,0,P|373:177|403:150,1,54.2500004138947,10|0,0:2|0:0,0:0:0:0:
381,84,224653,2,0,P|412:69|451:81,1,54.2500004138947,2|0,2:3|0:0,0:0:0:0:
405,167,224790,38,0,P|367:98|278:105,1,162.750001241684,8|0,1:1|0:0,0:0:0:0:
231,49,225062,2,0,P|203:67|189:99,1,54.2500004138947,10|0,0:2|0:0,0:0:0:0:
127,117,225199,2,0,P|128:150|149:178,1,54.2500004138947,2|0,2:3|0:0,0:0:0:0:
35,319,225335,70,0,B|69:330|96:318|103:285|98:281|94:278|108:248|133:240|165:256,1,162.750001241684,2|0,1:2|0:0,0:0:0:0:
176,265,225608,1,10,0:2:0:0:
370,347,225744,2,0,P|374:310|378:279,1,54.2500004138947,2|0,2:3|0:0,0:0:0:0:
447,24,225881,37,4,1:1:0:0:
466,22,225949,1,0,0:0:0:0:
486,34,226017,1,2,2:3:0:0:
497,50,226085,1,0,0:0:0:0:
504,68,226153,69,10,0:2:0:0:
475,126,226221,1,0,0:0:0:0:
411,143,226290,1,2,2:3:0:0:
355,108,226358,1,0,0:0:0:0:
321,52,226426,1,2,1:2:0:0:
295,32,226494,1,0,0:0:0:0:
263,24,226562,1,2,2:3:0:0:
230,31,226631,1,0,0:0:0:0:
217,37,226699,2,0,L|230:127,1,80.5000015354157,10|0,0:2|0:0,0:0:0:0:
152,257,226971,37,8,1:3:0:0:
391,15,227108,1,8,0:0:0:0:
394,340,227244,69,8,0:0:0:0:
290,201,227381,1,4,1:3:0:0:
482,157,227517,37,8,0:0:0:0:
188,352,227653,1,8,0:0:0:0:
440,274,227790,69,0,1:0:0:0:
146,140,227926,2,0,P|120:150|83:153,1,54.2500004138947,8|0,0:0|0:0,0:0:0:0:
337,384,228062,86,0,P|353:292|381:181,1,189.000000720978,4|10,1:2|1:2,0:0:0:0:
182,51,228471,2,0,B|181:27|161:13|143:9|143:9|203:-33|253:1|277:42|256:93,1,245.000002336502,2|2,1:3|1:3,0:0:0:0:
463,172,228881,2,0,P|446:125|387:119,1,94.5000003604889,10|2,1:2|1:3,0:0:0:0:
42,310,229153,38,0,B|81:339|122:317|126:278|121:274|117:269|129:236|175:225|205:256,1,203.000006195069,2|10,1:2|1:2,0:0:0:0:
200,252,229562,1,2,1:3:0:0:
355,384,229699,2,0,P|364:327|378:273,1,101.500003097534,2|2,1:2|1:3,0:0:0:0:
292,96,229971,2,0,P|303:145|311:195,1,101.500003097534,10|2,1:2|1:3,0:0:0:0:
254,373,230244,70,0,P|247:345|244:338,1,22.7499989585877,0|0,1:0|0:0,0:0:0:0:
179,362,230381,2,0,P|186:390|189:397,1,22.7499989585877,0|0,1:0|0:0,0:0:0:0:
386,270,230517,38,0,B|437:260|437:260|456:227|456:227|515:213,1,141.750000540733,12|0,0:0|0:0,0:0:0:0:
335,0,230790,70,0,L|331:38,1,26.2500010013581,0|0,1:0|0:0,0:0:0:0:
402,38,230926,2,0,L|406:0,1,26.2500010013581,0|0,1:0|0:0,0:0:0:0:
192,153,231062,38,0,B|135:138|135:138|114:106|114:106|54:92,1,152.250004646301,12|0,0:0|0:0,0:0:0:0:
295,269,231335,70,0,P|300:241|317:216,1,40.2500007677078,0|0,1:0|0:0,0:0:0:0:
263,122,231471,2,0,P|270:140|273:160,1,40.2500007677078,0|0,1:0|0:0,0:0:0:0:
197,230,231608,38,0,P|276:207|379:176,1,173.250001652241,12|0,0:0|0:0,0:0:0:0:
371,328,231881,70,0,P|370:288|364:275,1,43.75,0|0,1:0|0:0,0:0:0:0:
213,4,232017,2,0,P|214:44|220:57,1,43.75,0|0,1:0|0:0,0:0:0:0:
362,198,232153,38,0,B|324:228|271:213|268:176|271:171|275:167|264:116|211:97|170:145,1,236.250009012223,12|0,0:0|0:0,0:0:0:0:
94,209,232426,70,0,P|82:126|59:3,1,189.000000720978,4|10,1:1|3:2,0:0:0:0:
22,288,232835,2,0,B|6:267|-18:262|-18:262|44:187|138:256|110:349,1,258.999999011993,2|2,1:3|1:3,0:0:0:0:
248,94,233244,2,0,P|199:102|177:162,1,94.5000003604889,10|2,3:2|1:3,0:0:0:0:
265,353,233517,37,2,1:2:0:0:
466,129,233653,1,2,1:3:0:0:
257,200,233790,2,0,P|305:209|367:222,1,94.5000003604889,10|2,3:2|1:3,0:0:0:0:
363,371,234062,69,2,1:2:0:0:
348,94,234199,1,2,1:3:0:0:
128,295,234335,2,0,P|174:285|220:276,1,94.5000003604889,10|2,3:2|1:3,0:0:0:0:
478,284,234608,38,0,B|575:266|582:389|503:418|433:381|448:323|452:320|456:318|455:277|392:247|338:283,1,343.000003271103,4|8,1:0|3:2,0:0:0:0:
71,143,235017,70,0,B|-26:161|-33:38|46:9|116:46|101:104|97:107|93:109|94:150|157:180|211:144,1,343.000003271103,4|8,1:2|0:3,0:0:0:0:
263,106,235358,37,4,0:3:0:0:
268,101,235426,2,0,P|281:59|293:18,1,77.0000023498536,4|0,1:0|0:0,0:0:0:0:
257,281,235835,70,0,B|220:307|189:275|182:240|196:198|254:169|294:208|292:212|291:216|309:253|368:242|398:194|384:142|323:150,1,341.250009763241,4|0,1:2|0:0,0:0:0:0:
326,155,236108,1,8,0:0:0:0:
140,384,236244,37,8,0:0:0:0:
171,18,236381,1,8,1:3:0:0:
433,266,236517,1,4,0:3:0:0:
13,178,236653,1,8,0:0:0:0:
13,178,236721,1,8,0:0:0:0:
13,178,236790,70,0,B|31:147|83:157|98:193|98:193|100:234|126:262|172:254|194:233,1,215.250003284454,4|0,1:1|0:0,0:0:0:0:
193,151,237062,2,0,B|204:125|229:118|229:118|187:77|134:90|95:136|116:184,1,215.250003284454,10|0,3:2|0:0,0:0:0:0:
118,187,237335,1,2,1:2:0:0:
350,1,237471,1,0,1:2:0:0:
282,311,237608,2,0,P|274:253|264:186,1,108.500000827789,10|0,3:2|1:0,0:0:0:0:
185,384,237881,37,2,1:2:0:0:
436,178,238017,1,0,1:0:0:0:
280,319,238153,2,0,B|344:312|331:353|395:345,1,108.500000827789,10|0,3:2|1:0,0:0:0:0:
450,19,238426,70,0,B|468:-7|505:-4|524:25|524:25|504:87|451:104|393:76,1,246.749996234894,2|0,1:2|0:0,0:0:0:0:
339,131,238699,2,0,B|335:107|318:95|314:98|297:94|291:51,1,80.5000015354157,10|0,3:2|1:0,0:0:0:0:
54,46,238971,38,0,B|50:23|22:13|22:13|77:-19|159:29|148:91|148:91|104:84|77:125,1,299.25000285387,4|0,1:2|0:0,0:0:0:0:
2,144,239244,2,0,P|75:133|113:203,1,152.250004646301,10|0,3:2|0:0,0:0:0:0:
118,205,239517,1,2,1:2:0:0:
227,384,239653,2,0,P|233:319|240:271,1,101.500003097534,0|10,1:0|3:2,0:0:0:0:
373,171,239926,1,0,1:2:0:0:
240,1,240062,69,2,1:2:0:0:
481,189,240199,1,0,1:0:0:0:
283,166,240335,37,10,3:2:0:0:
373,90,240471,1,0,1:0:0:0:
181,165,240608,69,2,1:2:0:0:
498,47,240744,1,0,1:2:0:0:
257,246,240881,37,10,3:2:0:0:
417,16,241017,1,0,1:2:0:0:
182,341,241153,70,0,B|195:295|164:261|133:267|129:270|128:274|91:270|67:237|82:189,1,194.249999258995,4|0,1:1|0:0,0:0:0:0:
108,364,241426,2,0,P|131:276|170:151,1,194.249999258995,10|0,3:2|0:0,0:0:0:0:
150,150,241699,1,2,1:2:0:0:
368,354,241835,1,0,1:2:0:0:
257,246,241971,38,0,P|251:222|232:201,1,43.75,10|0,3:2|0:0,0:0:0:0:
412,95,242108,2,0,P|418:73|439:55,1,43.75,0|0,1:0|0:0,0:0:0:0:
288,2,242244,69,2,1:2:0:0:
333,171,242381,2,0,P|322:126|306:59,1,87.5,0|10,1:0|3:2,0:0:0:0:
466,277,242653,2,0,P|486:232|526:213,1,87.5,0|2,1:0|1:2,0:0:0:0:
275,348,242926,2,0,P|232:322|189:329,1,87.5,0|10,1:0|3:2,0:0:0:0:
307,79,243199,1,0,1:0:0:0:
435,373,243335,38,0,P|439:354|444:345,1,22.7499989585877,4|0,1:2|0:0,0:0:0:0:
373,332,243471,2,0,P|369:342|367:353,1,22.7499989585877,0|0,1:0|0:0,0:0:0:0:
139,234,243608,70,0,B|111:252|73:241|67:212|68:206|71:202|62:174|34:160|-3:181,1,173.250001652241,10|0,3:2|0:0,0:0:0:0:
171,139,243881,38,0,P|167:120|162:111,1,26.2500010013581,2|0,1:2|0:0,0:0:0:0:
233,94,244017,2,0,P|238:106|240:119,1,26.2500010013581,0|0,1:0|0:0,0:0:0:0:
358,238,244153,70,0,P|399:161|503:167,1,183.750007009506,10|0,3:2|0:0,0:0:0:0:
282,285,244426,38,0,P|293:308|295:336,1,43.75,8|0,1:3|0:0,0:0:0:0:
220,238,244562,2,0,P|223:216|233:197,1,43.75,8|0,0:0|0:0,0:0:0:0:
134,346,244699,69,8,0:0:0:0:
373,237,244835,1,4,1:3:0:0:
64,268,244971,37,8,0:0:0:0:
359,371,245108,1,8,0:0:0:0:
369,375,245176,1,0,0:0:0:0:
379,379,245244,2,0,P|425:366|471:358,1,87.5,0|8,1:0|0:0,0:0:0:0:
498,74,245517,70,0,B|562:68|535:7|482:-13|418:21|401:78|419:124,1,246.749996234894,4|0,1:1|0:0,0:0:0:0:
486,182,245790,2,0,B|451:208|408:190|399:151|404:148|409:145|403:99|349:77|304:108,1,215.250003284454,10|0,3:2|0:0,0:0:0:0:
301,117,246062,1,2,1:2:0:0:
67,228,246199,1,0,1:2:0:0:
188,188,246335,38,0,B|193:209|220:211|220:211|201:202|194:178,1,71.7500010948181,10|0,3:2|0:0,0:0:0:0:
178,116,246471,2,0,B|172:94|145:92|145:92|164:101|171:125,1,71.7500010948181,0|0,1:0|0:0,0:0:0:0:
137,302,246608,69,2,1:2:0:0:
256,38,246745,1,0,1:0:0:0:
0,127,246881,2,0,P|57:141|121:164,1,108.500000827789,10|0,3:2|1:0,0:0:0:0:
441,327,247153,38,0,B|452:314|472:299|472:299|441:281|379:276|340:344|340:344|368:350|377:381,1,246.749996234894,2|0,1:2|0:0,0:0:0:0:
373,280,247426,2,0,B|368:259|344:247|344:251|326:245|318:219,1,80.5000015354157,10|0,3:2|1:0,0:0:0:0:
475,76,247699,70,0,B|479:54|495:42|516:40|516:40|481:8|397:9|378:78|395:127,1,257.250002453327,4|0,1:2|0:0,0:0:0:0:
502,143,247971,2,0,P|429:71|291:46,1,215.250003284454,10|0,3:2|0:0,0:0:0:0:
303,53,248244,1,2,1:2:0:0:
72,234,248381,1,0,1:0:0:0:
253,179,248517,38,0,P|222:166|210:131,1,61.2500005841255,10|0,3:2|0:0,0:0:0:0:
151,100,248653,2,0,P|146:67|170:39,1,61.2500005841255,0|0,1:2|0:0,0:0:0:0:
340,168,248790,69,2,1:2:0:0:
55,108,248926,1,0,1:0:0:0:
238,342,249062,37,10,3:2:0:0:
150,195,249199,1,0,1:0:0:0:
391,254,249335,69,2,1:2:0:0:
131,384,249471,1,0,1:2:0:0:
412,384,249608,37,10,3:2:0:0:
71,257,249744,1,0,1:2:0:0:
460,107,249881,70,0,B|511:74|548:130|487:181|425:183|369:131|377:81,1,246.749996234894,4|0,1:1|0:0,0:0:0:0:
366,0,250153,2,0,B|390:45|360:85|322:86|320:81|317:76|279:90|261:141|295:175,1,215.250003284454,10|0,3:2|0:0,0:0:0:0:
307,184,250426,1,2,1:2:0:0:
56,41,250562,1,0,1:2:0:0:
192,266,250699,38,0,P|187:229|179:192,1,57.7500005507469,10|0,3:2|0:0,0:0:0:0:
141,77,250835,2,0,P|137:112|133:134,1,57.7500005507469,0|0,1:0|0:0,0:0:0:0:
74,309,250971,69,2,1:2:0:0:
232,108,251108,1,0,1:0:0:0:
226,366,251244,1,10,3:2:0:0:
13,234,251381,1,0,1:0:0:0:
351,118,251517,38,0,B|375:88|424:99|440:139|440:139|439:177|475:203|513:189,1,215.250003284454,2|0,1:2|0:0,0:0:0:0:
470,132,251790,2,0,B|431:141|437:152|408:158,1,66.4999982242585,10|0,3:2|1:0,0:0:0:0:
224,21,252062,70,0,P|229:3|235:-8,1,22.7499989585877,4|0,1:2|0:0,0:0:0:0:
297,21,252199,2,0,P|292:31|290:42,1,22.7499989585877,0|0,1:0|0:0,0:0:0:0:
136,179,252335,38,0,P|111:109|2:107,1,173.250001652241,10|0,3:2|0:0,0:0:0:0:
198,247,252608,70,0,P|209:263|212:278,1,26.2500010013581,2|0,1:2|0:0,0:0:0:0:
244,190,252744,2,0,P|248:177|256:167,1,26.2500010013581,0|0,1:0|0:0,0:0:0:0:
383,304,252881,38,0,B|420:328|456:306|459:272|455:267|450:263|465:233|497:220|531:250,1,183.750001752377,10|0,3:2|0:0,0:0:0:0:
276,321,253153,70,0,P|287:285|282:260,1,43.75,2|0,1:2|0:0,0:0:0:0:
215,67,253290,2,0,P|204:103|209:128,1,43.75,8|0,0:0|0:0,0:0:0:0:
190,261,253426,37,8,0:3:0:0:
253,185,253562,1,4,1:3:0:0:
12,149,253699,69,8,0:0:0:0:
512,228,253835,2,0,P|464:238|420:248,1,87.5,8|4,0:0|1:3,0:0:0:0:
257,0,254108,37,8,0:0:0:0:
115,371,254244,70,0,B|158:406|216:375|222:310|176:268|120:292|120:292|70:311|21:286|13:220|74:188|114:213,1,420,2|0,1:2|0:0,0:0:0:0:
353,106,256426,38,0,B|354:87|373:74|389:70|389:70|334:32|289:63|267:100|286:147,1,215.250003284454,2|0,1:1|0:0,0:0:0:0:
211,193,256699,2,0,B|250:189|274:156|274:156|426:203,1,215.250003284454,10|0,0:2|0:0,0:0:0:0:
415,203,256971,1,2,1:2:0:0:
202,105,257108,1,2,2:3:0:0:
490,271,257244,2,0,B|461:280|446:295|446:295|346:261,1,143.500002189636,10|2,0:2|2:3,0:0:0:0:
94,168,257517,69,8,1:1:0:0:
322,28,257653,1,2,2:3:0:0:
178,0,257790,2,0,L|199:110,1,108.500000827789,10|2,0:2|2:3,0:0:0:0:
69,375,258062,38,1,B|48:396|4:386|-12:350|0:300|46:291|78:307|78:307|107:318|142:303|150:267,1,267.749996425152,2|0,1:2|0:0,0:0:0:0:
217,240,258335,70,0,P|191:203|146:201,1,78.7500030040742,10|0,0:2|0:0,0:0:0:0:
62,187,258608,38,0,P|110:264|151:371,1,204.750000781059,4|0,1:1|0:0,0:0:0:0:
0,237,258881,2,0,B|-14:202|3:164|46:161|48:163|49:167|86:168|112:117|85:82,1,204.750000781059,10|0,0:2|0:0,0:0:0:0:
72,77,259153,1,2,1:2:0:0:
256,220,259290,1,2,2:3:0:0:
12,35,259426,2,0,B|39:39|58:56|58:56|160:23,1,136.500000520706,10|0,0:2|1:2,0:0:0:0:
367,207,259699,70,0,B|337:228|283:215|277:168|279:165|282:161|254:109|202:139,1,204.750000781059,2|0,1:1|0:0,0:0:0:0:
201,151,259971,38,0,P|231:120|233:94,1,68.2500002603531,10|0,0:2|0:0,0:0:0:0:
295,54,260108,2,0,P|289:7|261:-2,1,68.2500002603531,2|0,2:3|0:0,0:0:0:0:
26,192,260244,70,0,P|94:189|123:270,1,162.750001241684,2|0,1:2|0:0,0:0:0:0:
78,327,260517,38,0,P|41:313|-1:312,1,78.7500030040742,10|0,0:2|0:0,0:0:0:0:
159,371,260790,70,1,B|138:392|94:382|77:346|90:296|136:287|168:303|168:303|208:320|243:292|245:250,1,287.000004379273,4|10,1:2|0:2,0:0:0:0:
244,255,261199,1,2,2:3:0:0:
260,384,261335,2,0,P|242:305|210:161,1,215.250003284454,2|0,1:2|0:0,0:0:0:0:
176,109,261608,38,0,P|143:135|143:181,1,71.7500010948181,10|0,0:2|0:0,0:0:0:0:
321,301,261744,2,0,P|350:281|360:248,1,71.7500010948181,2|0,2:3|0:0,0:0:0:0:
467,89,261881,70,0,B|481:114|502:121|502:121|486:164|424:169|380:139|387:79,1,215.250003284454,8|0,1:1|0:0,0:0:0:0:
304,85,262153,38,0,P|319:39|333:-12,1,78.7500030040742,10|0,0:2|0:0,0:0:0:0:
88,301,262426,70,0,P|66:306|46:313,1,43.75,2|0,1:2|0:0,0:0:0:0:
135,242,262562,2,0,P|156:247|176:254,1,43.75,0|0,1:2|0:0,0:0:0:0:
208,361,262699,37,10,0:2:0:0:
8,218,262835,1,2,2:3:0:0:
291,99,262971,69,4,1:1:0:0:
123,243,263108,1,2,2:3:0:0:
161,0,263244,2,0,P|176:61|196:140,1,122.500001168251,10|2,0:2|2:3,0:0:0:0:
386,366,263517,38,0,P|419:346|428:320,1,61.2500005841255,2|0,1:2|0:0,0:0:0:0:
494,294,263653,2,0,P|494:255|475:234,1,61.2500005841255,2|0,2:3|0:0,0:0:0:0:
123,243,263790,70,0,P|182:228|241:213,1,122.500001168251,10|0,0:2|1:2,0:0:0:0:
45,143,264062,37,2,1:1:0:0:
326,300,264199,1,8,0:0:0:0:
406,37,264335,69,8,0:0:0:0:
221,135,264471,1,4,1:3:0:0:
281,384,264608,37,8,0:0:0:0:
368,146,264744,1,8,0:0:0:0:
116,30,264881,69,0,1:0:0:0:
405,242,265017,1,8,0:0:0:0:
217,0,265153,38,0,B|238:19|229:60|196:75|156:62|156:62|108:48|71:66|64:117,1,246.749996234894,4|0,1:2|0:0,0:0:0:0:
0,169,265426,2,0,B|22:156|26:126|26:126|86:111|132:163|121:214|121:214|97:195|75:202,1,246.749996234894,10|0,0:2|0:0,0:0:0:0:
78,268,265699,1,2,1:2:0:0:
297,114,265835,1,2,2:3:0:0:
70,377,265971,2,0,B|64:360|47:340|47:340|80:260,1,122.500001168251,10|2,0:2|2:3,0:0:0:0:
398,324,266244,70,0,B|365:344|326:322|323:288|326:286|329:285|328:249|286:227|242:258,1,183.750001752377,8|0,1:1|0:0,0:0:0:0:
296,375,266517,38,0,P|299:332|313:315,1,61.2500005841255,10|0,0:2|0:0,0:0:0:0:
337,251,266653,2,0,P|375:232|397:235,1,61.2500005841255,2|0,2:3|0:0,0:0:0:0:
511,322,266790,69,2,1:2:0:0:
461,383,266926,1,0,1:2:0:0:
183,301,267062,37,10,0:2:0:0:
384,144,267199,1,2,2:3:0:0:
76,66,267335,70,0,B|75:42|55:28|37:24|37:24|96:-21|153:1|180:62|151:115,1,257.250002453327,4|0,1:1|0:0,0:0:0:0:
85,157,267608,2,0,B|164:131|164:131|175:133|175:133|289:95,1,171.500001635551,10|0,0:2|0:0,0:0:0:0:
261,96,267881,1,2,1:2:0:0:
476,226,268017,1,2,2:3:0:0:
358,52,268153,38,0,P|363:81|367:110,1,57.7500005507469,10|0,0:2|0:0,0:0:0:0:
375,238,268290,2,0,P|384:211|391:183,1,57.7500005507469,0|0,1:2|0:0,0:0:0:0:
472,47,268426,69,2,1:1:0:0:
249,196,268562,1,2,2:3:0:0:
387,369,268699,2,0,L|367:244,1,115.500001101494,10|2,0:2|2:3,0:0:0:0:
251,15,268971,37,2,1:2:0:0:
439,121,269108,1,2,2:3:0:0:
75,190,269244,70,0,P|112:178|130:150,1,57.7500005507469,10|0,0:2|0:0,0:0:0:0:
248,114,269381,2,0,P|210:125|192:153,1,57.7500005507469,0|0,1:2|0:0,0:0:0:0:
37,110,269517,38,0,P|125:138|220:300,1,278.250011675835,4|0,1:2|0:0,0:0:0:0:
150,378,269790,2,0,B|185:391|223:365|219:328|216:326|212:324|236:275|290:298,1,183.750001752377,10|0,0:2|0:0,0:0:0:0:
100,312,270062,2,0,P|41:336|9:400,1,122.500001168251,2|2,1:2|2:3,0:0:0:0:
130,241,270335,69,10,0:2:0:0:
232,372,270471,1,2,2:3:0:0:
251,79,270608,37,8,1:1:0:0:
20,257,270744,1,2,2:3:0:0:
375,181,270881,2,0,L|237:155,1,122.500001168251,10|2,0:2|2:3,0:0:0:0:
0,0,271153,70,0,P|8:30|40:49,1,61.2500005841255,2|0,1:2|0:0,0:0:0:0:
43,118,271290,2,0,P|72:126|105:107,1,61.2500005841255,0|0,1:2|0:0,0:0:0:0:
189,377,271426,38,0,P|195:318|202:245,1,122.500001168251,10|2,0:2|2:3,0:0:0:0:
448,6,271699,70,1,B|474:-6|512:17|515:57|487:100|440:92|416:66|416:66|392:46|354:48|334:79,1,267.749996425152,4|0,1:1|0:0,0:0:0:0:
268,80,271972,38,0,P|279:123|321:140,1,78.7500030040742,10|0,0:2|0:0,0:0:0:0:
383,181,272244,70,0,P|368:95|319:-15,1,204.750000781059,2|0,1:2|0:0,0:0:0:0:
308,0,272517,37,10,0:2:0:0:
82,81,272653,2,0,P|119:93|152:106,1,68.2500002603531,0|0,1:2|0:0,0:0:0:0:
203,368,272790,69,8,1:3:0:0:
0,253,272926,1,8,0:0:0:0:
87,175,273062,37,8,0:0:0:0:
17,362,273199,1,4,1:3:0:0:
260,284,273335,69,8,0:0:0:0:
176,10,273471,1,8,0:0:0:0:
76,168,273608,37,0,1:0:0:0:
336,333,273744,1,8,0:0:0:0:
497,63,273881,70,0,B|486:108|434:109|409:81|411:73|412:66|379:33|331:51|321:91,1,204.750000781059,4|0,1:1|0:0,0:0:0:0:
269,28,274153,2,0,P|288:83|302:149,1,122.500001168251,10|2,0:2|2:3,0:0:0:0:
261,384,274426,1,2,1:2:0:0:
157,205,274562,1,2,2:3:0:0:
484,224,274699,2,0,P|465:194|389:191,1,108.500000827789,10|2,0:2|2:3,0:0:0:0:
166,349,274971,37,8,1:1:0:0:
311,153,275108,1,2,2:3:0:0:
394,266,275244,2,0,P|337:277|279:305,1,108.500000827789,10|2,0:2|2:3,0:0:0:0:
0,41,275517,70,0,P|15:97|124:100,1,162.750001241684,2|0,1:2|0:0,0:0:0:0:
157,59,275790,2,0,P|191:50|243:103,1,108.500000827789,10|2,0:2|2:3,0:0:0:0:
151,215,276062,38,0,P|125:108|88:2,1,215.250003284454,4|0,1:1|0:0,0:0:0:0:
103,8,276335,1,10,0:2:0:0:
0,201,276471,1,2,2:3:0:0:
240,299,276608,1,2,1:2:0:0:
108,113,276744,1,2,2:3:0:0:
0,356,276881,2,0,P|62:359|95:316,1,108.500000827789,10|0,0:2|1:2,0:0:0:0:
349,120,277153,70,0,P|394:108|453:215,1,162.750001241684,2|0,1:1|0:0,0:0:0:0:
396,250,277426,2,0,P|333:217|263:203,1,108.500000827789,10|2,0:2|2:3,0:0:0:0:
223,289,277699,37,2,1:2:0:0:
131,51,277835,1,2,2:3:0:0:
161,384,277971,69,10,0:2:0:0:
266,140,278108,1,0,1:2:0:0:
512,297,278244,38,0,B|474:267|421:282|418:319|421:324|425:328|414:379|361:398|318:353,1,236.250009012223,4|0,1:2|0:0,0:0:0:0:
256,342,278517,2,0,P|269:280|289:215,1,108.500000827789,10|2,0:2|2:3,0:0:0:0:
176,29,278790,69,2,1:2:0:0:
397,143,278926,1,2,2:3:0:0:
212,108,279062,37,10,0:2:0:0:
355,72,279199,1,2,2:3:0:0:
160,286,279335,70,0,P|121:291|78:229,1,108.500000827789,8|2,1:1|2:3,0:0:0:0:
272,6,279608,2,0,P|287:90|302:165,1,162.750001241684,10|0,0:2|0:0,0:0:0:0:
294,172,279881,1,2,1:2:0:0:
461,316,280017,38,0,P|435:318|391:347,1,71.7500010948181,0|0,1:2|0:0,0:0:0:0:
209,238,280153,1,10,0:2:0:0:
416,117,280290,1,2,2:3:0:0:
425,121,280358,1,0,0:0:0:0:
433,123,280426,70,0,P|445:201|321:251,1,215.250003284454,4|0,1:1|0:0,0:0:0:0:
278,324,280699,2,0,P|217:343|159:384,1,108.500000827789,10|2,0:2|2:3,0:0:0:0:
45,121,280971,1,2,1:2:0:0:
244,206,281108,1,2,2:3:0:0:
33,336,281244,2,0,P|25:279|76:244,1,108.500000827789,10|0,0:2|1:2,0:0:0:0:
354,359,281517,37,2,1:1:0:0:
231,66,281653,1,8,0:0:0:0:
481,214,281790,69,8,0:0:0:0:
321,165,281926,1,4,1:3:0:0:
444,44,282062,37,8,0:0:0:0:
176,221,282199,1,8,0:0:0:0:
323,8,282335,69,0,1:0:0:0:
452,319,282471,1,8,0:0:0:0:
158,59,282608,38,1,B|130:19|65:36|39:84|61:156|130:161|163:137|163:137|201:114|255:134|255:202,1,356.999995233536,4|10,1:2|0:2,0:0:0:0:
251,172,283017,1,2,2:3:0:0:
32,242,283153,2,0,P|39:196|109:171,1,108.500000827789,2|2,1:2|2:3,0:0:0:0:
243,336,283426,2,0,P|198:346|138:380,1,108.500000827789,10|2,0:2|2:3,0:0:0:0:
394,65,283699,70,0,P|419:77|466:89,1,54.2500004138947,8|0,1:1|0:0,0:0:0:0:
347,128,283835,2,0,P|322:116|275:104,1,54.2500004138947,2|0,2:3|0:0,0:0:0:0:
338,18,283971,38,0,P|352:105|374:203,1,162.750001241684,10|0,0:2|0:0,0:0:0:0:
428,220,284244,70,0,P|413:287|398:351,1,108.500000827789,2|0,1:2|1:2,0:0:0:0:
258,231,284517,1,10,0:2:0:0:
496,137,284653,1,2,2:3:0:0:
248,239,284790,38,0,B|221:209|179:218|163:253|163:253|162:294|132:330|78:309,1,215.250003284454,4|0,1:1|0:0,0:0:0:0:
75,381,285062,2,0,P|61:318|41:261,1,108.500000827789,10|2,0:2|2:3,0:0:0:0:
184,0,285335,1,2,1:2:0:0:
0,91,285471,1,2,2:3:0:0:
188,203,285608,2,0,P|235:160|201:100,1,108.500000827789,10|0,0:2|1:2,0:0:0:0:
15,188,285881,69,2,1:1:0:0:
255,309,286017,1,2,2:3:0:0:
142,65,286153,2,0,P|125:116|114:169,1,108.500000827789,10|2,0:2|2:3,0:0:0:0:
350,372,286426,37,2,1:2:0:0:
256,159,286562,1,2,2:3:0:0:
512,63,286699,69,10,0:2:0:0:
419,290,286835,1,0,1:2:0:0:
311,107,286971,38,1,B|302:87|277:81|277:81|279:36|343:8|391:35|401:84|386:110|386:110|373:134|389:167|415:166,1,288.750002753735,4|0,1:2|0:0,0:0:0:0:
512,63,287244,2,0,P|471:48|429:117,1,108.500000827789,10|2,0:2|2:3,0:0:0:0:
510,286,287517,69,2,1:2:0:0:
261,181,287653,1,2,2:3:0:0:
349,384,287790,2,0,P|363:325|384:273,1,108.500000827789,10|2,0:2|2:3,0:0:0:0:
221,23,288062,38,0,P|179:14|127:110,1,162.750001241684,8|0,1:1|0:0,0:0:0:0:
120,179,288335,2,0,P|100:208|23:189,1,108.500000827789,10|2,0:2|2:3,0:0:0:0:
259,115,288608,1,2,1:2:0:0:
147,292,288744,1,0,1:2:0:0:
0,34,288881,2,0,P|52:41|115:77,1,108.500000827789,10|2,0:2|2:3,0:0:0:0:
296,302,289153,70,0,B|267:271|277:221|317:212|321:215|325:219|367:209|382:164|343:117,1,217.000001655579,4|10,1:1|0:2,0:0:0:0:
350,126,289562,1,2,2:3:0:0:
196,12,289699,2,0,P|202:59|275:65,1,108.500000827789,2|2,1:2|2:3,0:0:0:0:
501,27,289971,38,0,P|466:18|432:10,1,57.7500017623902,10|0,0:2|0:0,0:0:0:0:
338,35,290244,69,8,1:3:0:0:
436,287,290381,1,8,0:0:0:0:
321,160,290517,37,8,0:0:0:0:
475,214,290653,1,4,1:3:0:0:
116,132,290790,69,8,0:0:0:0:
444,12,290926,1,8,0:0:0:0:
41,58,291062,37,0,1:0:0:0:
486,218,291199,1,8,0:0:0:0:
40,350,291335,54,0,B|14:346|-7:362|-7:362|0:332|39:314|59:326|59:326|85:359|115:364|151:340,1,215.250003284454,4|0,1:2|0:0,0:0:0:0:
190,255,291608,2,0,B|197:222|224:211|224:211|183:193|135:201|102:240|126:296,1,215.250003284454,10|0,0:2|0:0,0:0:0:0:
209,336,291881,2,0,B|252:306|279:346|275:350|272:354|292:387|337:372,1,143.500002189636,2|0,1:2|0:0,0:0:0:0:
479,228,292153,1,10,0:2:0:0:
418,288,292290,1,0,1:2:0:0:
299,157,292426,101,0,1:2:0:0:
507,323,292562,1,0,0:0:0:0:
426,70,292699,2,0,P|416:132|404:197,1,115.500001101494,10|0,0:2|0:0,0:0:0:0:
332,28,292971,1,2,1:2:0:0:
327,17,293040,1,0,0:0:0:0:
323,6,293108,1,0,0:0:0:0:
239,221,293244,5,10,0:2:0:0:
511,12,293381,1,0,1:2:0:0:
106,135,293517,102,0,B|141:164|173:153|196:121|187:101|184:99|180:98|171:70|201:38|241:34|274:80,1,215.250003284454,4|0,1:1|0:0,0:0:0:0:
73,67,293790,2,0,P|167:97|292:165,1,215.250003284454,10|0,0:2|0:0,0:0:0:0:
354,164,294062,2,0,P|356:127|327:96,1,71.7500010948181,2|0,1:2|0:0,0:0:0:0:
380,38,294199,2,0,P|355:10|312:9,1,71.7500010948181
386,286,294335,2,0,B|417:344|510:339|559:272|503:200|441:223|433:257,1,246.749996234894,10|0,0:2|0:0,0:0:0:0:
437,229,294608,5,0,1:2:0:0:
213,384,294744,1,0,0:0:0:0:
266,223,294881,2,0,P|281:279|297:364,1,115.500001101494,10|0,0:2|0:0,0:0:0:0:
165,125,295153,101,2,1:2:0:0:
365,369,295290,1,0,0:0:0:0:
245,83,295426,5,10,0:2:0:0:
119,258,295562,1,0,1:2:0:0:
427,102,295699,102,0,B|503:111|544:34|501:-15|501:-15|446:-24|433:36,1,257.250002453327,4|0,1:2|0:0,0:0:0:0:
329,142,295971,2,0,B|357:110|409:112|427:156|427:156|424:195|460:222|505:198,1,215.250003284454,10|0,0:2|0:0,0:0:0:0:
501,189,296244,1,2,1:2:0:0:
298,323,296381,1,0,0:0:0:0:
240,69,296517,2,0,P|203:24|134:37,1,115.500001101494,10|0,0:2|1:2,0:0:0:0:
97,340,296790,5,0,1:2:0:0:
293,215,296926,1,0,0:0:0:0:
157,140,297062,2,0,P|173:207|189:273,1,115.500001101494,10|0,0:2|0:0,0:0:0:0:
306,17,297335,101,2,1:2:0:0:
29,179,297471,1,0,0:0:0:0:
281,317,297608,1,10,0:2:0:0:
168,44,297744,1,0,1:2:0:0:
385,217,297881,6,0,B|402:211|424:217|440:239|440:239|467:158|391:107|308:162,1,246.749996234894,4|0,1:1|0:0,0:0:0:0:
392,300,298153,2,0,P|428:174|527:50,1,246.749996234894,10|0,0:2|0:0,0:0:0:0:
511,108,298426,2,0,B|516:59|471:50|469:52|465:54|428:38|437:-7,1,143.500002189636,2|0,1:2|0:0,0:0:0:0:
250,147,298699,1,10,0:2:0:0:
503,296,298835,1,0,1:2:0:0:
161,239,298971,101,8,1:3:0:0:
373,98,299108,1,8,0:0:0:0:
316,378,299244,2,0,P|306:303|298:244,1,115.500001101494,8|4,0:0|1:3,0:0:0:0:
165,132,299517,5,8,0:0:0:0:
371,224,299653,1,8,0:0:0:0:
37,218,299790,101,0,1:0:0:0:
491,154,299927,1,8,0:0:0:0:
26,51,300062,6,0,B|23:33|7:19|7:19|59:-26|135:29|124:61|124:61|87:76|83:114,1,246.749996234894,4|0,1:2|0:0,0:0:0:0:
187,213,300335,2,0,B|215:214|231:235|231:235|270:165|218:111|218:111|195:139|161:131,1,246.749996234894,10|0,0:2|0:0,0:0:0:0:
43,244,300608,2,0,B|67:224|101:237|106:258|103:262|101:266|112:289|136:302|183:282,1,143.500002189636,2|0,1:2|0:0,0:0:0:0:
423,253,300881,102,0,P|395:268|381:307,1,57.7500005507469,10|0,0:2|0:0,0:0:0:0:
321,331,301017,2,0,P|319:362|346:394,1,57.7500005507469,0|0,1:2|0:0,0:0:0:0:
512,240,301153,6,0,B|525:205|499:162|456:160|455:164|453:168|407:172|389:125|407:87,1,215.250003284454,0|0,1:2|0:0,0:0:0:0:
434,264,301426,2,0,P|468:155|509:29,1,215.250003284454,10|0,0:2|0:0,0:0:0:0:
296,0,301699,102,1,B|259:-31|201:1|188:54|228:118|296:105|321:73|321:73|352:41|410:47|426:110,1,356.999995233536,2|10,1:2|0:2,0:0:0:0:
493,336,302108,1,0,1:2:0:0:
148,190,302244,6,0,B|135:157|106:149|106:149|154:106|229:142|250:219|184:279,1,267.749996425152,4|0,1:1|0:0,0:0:0:0:
209,345,302517,2,0,B|256:365|296:315|273:262|209:238|130:262|130:356,1,267.749996425152,10|0,0:2|0:0,0:0:0:0:
120,352,302790,2,0,B|137:333|136:301|108:286|105:287|100:289|81:283|65:260|76:229,1,143.500002189636,2|0,1:2|0:0,0:0:0:0:
174,15,303062,1,10,0:2:0:0:
15,157,303199,1,0,1:2:0:0:
272,187,303335,101,0,1:2:0:0:
42,11,303471,1,0,0:0:0:0:
370,82,303608,2,0,P|304:92|242:102,1,115.500001101494,10|0,0:2|0:0,0:0:0:0:
63,265,303881,5,2,1:2:0:0:
183,7,304017,1,0,0:0:0:0:
288,304,304153,1,10,0:2:0:0:
108,107,304290,1,0,1:2:0:0:
449,224,304426,102,0,B|471:229|483:257|467:283|467:283|445:236|392:213|337:230|337:230|372:240|380:282,1,267.749996425152,4|0,1:2|0:0,0:0:0:0:
380,351,304699,2,0,P|412:229|482:104,1,246.749996234894,10|0,0:2|0:0,0:0:0:0:
512,64,304971,2,0,P|492:48|452:47,1,57.7500005507469,2|0,1:2|0:0,0:0:0:0:
398,0,305108,2,0,P|374:9|353:43,1,57.7500005507469
175,206,305244,5,10,0:2:0:0:
360,127,305381,1,0,1:2:0:0:
490,280,305517,101,0,1:2:0:0:
223,93,305653,1,0,0:0:0:0:
294,384,305790,2,0,P|308:319|322:266,1,115.500001101494,10|0,0:2|0:0,0:0:0:0:
446,31,306062,6,1,B|470:-6|522:4|544:44|530:96|482:106|448:89|448:89|418:77|381:93|373:133,1,288.750002753735,2|0,1:2|0:0,0:0:0:0:
411,189,306335,102,0,P|448:196|491:204,1,57.7500005507469,10|0,0:2|0:0,0:0:0:0:
86,212,306471,2,0,P|49:205|6:197,1,57.7500005507469,0|0,1:2|0:0,0:0:0:0:
272,373,306608,6,0,P|267:267|240:138,1,215.250003284454,4|0,1:1|0:0,0:0:0:0:
230,148,306881,1,10,0:2:0:0:
155,282,307017,1,0,0:0:0:0:
346,133,307153,1,2,1:2:0:0:
134,19,307290,1,0,0:0:0:0:
289,33,307426,101,10,0:2:0:0:
204,73,307562,1,0,1:2:0:0:
381,260,307699,5,8,1:3:0:0:
111,115,307835,1,8,0:0:0:0:
222,372,307971,2,0,P|233:309|245:243,1,115.500001101494,8|4,0:0|1:3,0:0:0:0:
460,126,308244,101,8,0:0:0:0:
0,200,308381,2,0,P|50:208|100:215,1,101.500003097534,8|0,0:0|1:0,0:0:0:0:
365,377,308653,5,8,0:0:0:0:
215,3,308790,102,0,B|147:7|139:93|227:133|251:72|246:68|241:65|280:16|356:61|354:128|311:177|253:151,1,351.75000134182,4|0,1:2|0:0,0:0:0:0:
247,153,309062,1,10,0:2:0:0:
392,7,309199,1,0,0:0:0:0:
359,288,309335,6,0,P|351:248|335:228,1,57.7500005507469,2|0,1:2|0:0,0:0:0:0:
470,119,309471,2,0,P|455:143|452:172,1,57.7500005507469
372,365,309608,2,0,P|342:322|273:330,1,115.500001101494,10|0,0:2|1:2,0:0:0:0:
52,127,309881,101,0,1:2:0:0:
242,233,310017,1,0,0:0:0:0:
70,366,310153,2,0,P|54:305|85:258,1,115.500001101494,10|0,0:2|0:0,0:0:0:0:
284,85,310426,5,2,1:2:0:0:
198,321,310562,1,0,0:0:0:0:
218,3,310699,101,10,0:2:0:0:
287,384,310835,1,0,1:2:0:0:
470,119,310971,6,0,B|476:79|514:66|514:66|467:33|391:41|363:112|400:177,1,288.750002753735,4|0,1:1|0:0,0:0:0:0:
452,222,311244,2,0,B|387:195|387:195|383:199|383:199|312:173,1,143.500002189636,10|0,0:2|0:0,0:0:0:0:
102,48,311517,101,2,1:2:0:0:
236,224,311653,1,0,0:0:0:0:
359,81,311790,5,10,0:2:0:0:
89,280,311926,1,0,1:2:0:0:
329,254,312062,101,0,1:2:0:0:
137,157,312199,1,0,0:0:0:0:
264,8,312335,2,0,P|252:71|241:137,1,115.500001101494,10|0,0:2|0:0,0:0:0:0:
365,331,312608,6,0,P|399:306|404:275,1,57.7500005507469,2|0,1:2|0:0,0:0:0:0:
478,270,312744,2,0,P|473:228|449:208,1,57.7500005507469
178,284,312881,101,10,0:2:0:0:
188,292,312949,2,0,B|234:299|234:299|239:303|239:303|304:312,1,94.5000003604889,2|0,0:0|0:0,0:0:0:0:
436,382,313153,6,0,P|372:294|394:186,1,215.250003284454,4|0,1:2|0:0,0:0:0:0:
508,64,313426,2,0,B|512:80|512:80|472:65|447:78|419:125|419:125|437:74|425:40|387:25|387:25|406:17,1,267.749996425152,10|0,0:2|0:0,0:0:0:0:
470,0,313699,1,2,1:2:0:0:
200,203,313835,1,0,0:0:0:0:
468,225,313971,102,0,P|504:217|540:211,1,57.7500005507469,10|0,0:2|0:0,0:0:0:0:
121,133,314108,2,0,P|92:127|64:121,1,57.7500005507469,0|0,1:2|0:0,0:0:0:0:
322,272,314244,5,0,1:2:0:0:
268,94,314381,1,0,0:0:0:0:
227,303,314517,101,10,0:2:0:0:
313,24,314653,2,0,P|297:114|285:208,1,173.250001652241
299,197,314926,1,0,0:0:0:0:
343,384,315062,6,0,P|348:351|359:321,1,57.7500005507469,10|0,0:2|0:0,0:0:0:0:
185,55,315199,2,0,P|193:82|197:111,1,57.7500005507469,0|0,1:2|0:0,0:0:0:0:
78,373,315335,102,1,B|43:399|-5:374|-17:325|19:265|83:277|106:307|106:307|135:337|189:331|204:269,1,320.250009162426,4|0,1:1|0:0,0:0:0:0:
203,287,315608,1,10,0:2:0:0:
318,67,315744,1,0,0:0:0:0:
392,229,315881,6,0,P|364:211|320:211,1,57.7500005507469,2|0,1:2|0:0,0:0:0:0:
169,187,316017,2,0,P|197:205|241:205,1,57.7500005507469
298,384,316153,102,0,P|290:318|283:243,1,115.500001101494,10|0,0:2|1:2,0:0:0:0:
473,115,316426,6,0,P|442:133|412:130,1,57.7500005507469,8|0,1:3|0:0,0:0:0:0:
58,261,316562,2,0,P|89:243|119:246,1,57.7500005507469,8|0,0:0|3:0,0:0:0:0:
286,0,316699,102,0,P|279:63|271:141,1,115.500001101494,8|4,0:0|1:3,0:0:0:0:
502,261,316971,5,8,0:0:0:0:
0,161,317108,2,0,P|49:167|103:173,1,87.5,8|0,0:0|1:0,0:0:0:0:
366,6,317381,101,8,0:0:0:0:
416,378,317517,54,0,B|377:401|347:386|328:351|340:333|343:331|347:331|360:304|335:268|296:259|257:300,1,215.250003284454,4|0,1:2|0:0,0:0:0:0:
259,298,317790,37,10,0:0:0:0:
407,77,317926,1,0,1:0:0:0:
171,231,318062,69,10,0:0:0:0:
420,78,318199,1,0,1:0:0:0:
98,134,318335,37,10,0:0:0:0:
437,78,318471,1,0,1:0:0:0:
168,321,318608,69,10,1:2:0:0:
318,32,318744,1,0,1:0:0:0:
315,337,318881,37,10,0:0:0:0:
205,23,319017,1,0,1:0:0:0:
367,217,319153,69,10,0:0:0:0:
172,158,319290,1,0,1:0:0:0:
474,172,319426,37,10,0:0:0:0:
58,219,319562,1,0,1:0:0:0:
304,17,319699,70,0,P|286:108|275:193,1,173.250001652241,4|0,1:1|0:0,0:0:0:0:
297,269,319971,38,0,P|329:251|343:223,1,57.7500005507469,10|0,0:0|0:0,0:0:0:0:
395,187,320108,2,0,P|395:150|378:124,1,57.7500005507469,0|0,1:0|0:0,0:0:0:0:
175,142,320244,69,10,0:0:0:0:
397,296,320381,1,0,1:0:0:0:
194,60,320517,37,10,0:0:0:0:
360,361,320653,1,0,1:0:0:0:
21,63,320790,70,0,B|21:28|-11:12|-11:12|60:-29|131:41|95:110,1,246.749996234894,10|0,1:2|0:0,0:0:0:0:
65,160,321062,38,0,P|24:164|-9:178,1,57.7500005507469,10|0,0:0|0:0,0:0:0:0:
205,76,321199,2,0,P|232:83|261:85,1,57.7500005507469,0|0,1:0|0:0,0:0:0:0:
276,348,321335,70,0,B|301:341|329:367|329:367|352:301|306:257|255:257|218:287,1,246.749996234894,10|0,0:0|0:0,0:0:0:0:
211,294,321608,38,0,P|243:278|257:243,1,57.7500005507469,10|0,0:0|0:0,0:0:0:0:
322,202,321744,2,0,P|324:166|300:136,1,57.7500005507469,0|0,1:0|0:0,0:0:0:0:
34,319,321881,70,0,B|72:342|102:327|121:292|109:274|106:272|102:272|89:245|114:209|153:200|192:241,1,215.250003284454,4|0,1:2|0:0,0:0:0:0:
0,247,322153,2,0,P|91:278|169:392,1,215.250003284454,10|0,0:0|0:0,0:0:0:0:
156,380,322426,37,10,0:0:0:0:
319,72,322562,1,0,1:0:0:0:
357,371,322699,69,10,0:0:0:0:
184,123,322835,1,0,1:0:0:0:
511,231,322971,38,0,P|454:223|397:216,1,115.500001101494,10|0,1:2|1:0,0:0:0:0:
0,158,323244,2,0,P|57:165|114:172,1,115.500001101494,10|0,0:0|1:0,0:0:0:0:
387,112,323517,69,10,0:0:0:0:
256,293,323653,1,0,1:0:0:0:
116,64,323790,37,10,0:0:0:0:
251,179,323926,1,0,1:0:0:0:
97,308,324062,69,4,1:0:0:0:
297,75,324199,1,0,1:0:0:0:
367,384,324335,37,10,0:0:0:0:
29,234,324471,1,0,1:0:0:0:
251,0,324608,70,0,P|222:91|216:190,1,173.250001652241,10|0,0:0|0:0,0:0:0:0:
278,220,324881,38,0,P|303:203|333:201,1,57.7500005507469,10|0,0:0|0:0,0:0:0:0:
133,358,325017,2,0,P|104:354|81:338,1,57.7500005507469,0|0,1:0|0:0,0:0:0:0:
115,67,325153,69,10,1:2:0:0:
246,356,325290,1,0,1:0:0:0:
2,240,325426,38,0,P|96:232|145:143,1,173.250001652241,10|0,0:0|0:0,0:0:0:0:
131,153,325699,69,10,0:0:0:0:
417,375,325835,1,0,1:0:0:0:
355,238,325971,37,10,0:0:0:0:
241,364,326108,1,0,1:0:0:0:
188,92,326244,70,0,B|168:66|133:69|133:69|162:43|204:52|222:80|222:80|228:112|251:136|293:128,1,246.749996234894,4|0,1:2|0:0,0:0:0:0:
411,28,326517,2,0,P|347:43|283:59,1,115.500001101494,10|0,0:0|1:0,0:0:0:0:
343,233,326790,38,0,P|346:198|357:170,1,57.7500005507469,10|0,0:0|0:0,0:0:0:0:
147,328,326926,2,0,P|155:355|157:384,1,57.7500005507469,0|0,1:0|0:0,0:0:0:0:
268,328,327062,2,0,P|246:272|251:190,1,115.500001101494,10|0,0:0|1:0,0:0:0:0:
393,304,327335,69,10,1:2:0:0:
139,204,327471,1,0,1:0:0:0:
74,384,327608,37,10,0:0:0:0:
361,167,327744,1,0,1:0:0:0:
0,252,327881,70,0,P|56:262|118:275,1,115.500001101494,10|0,0:0|1:0,0:0:0:0:
512,213,328153,2,0,P|455:224|398:234,1,115.500001101494,10|0,0:0|1:0,0:0:0:0:
44,81,328426,38,0,B|-11:46|17:-15|78:-30|139:5|148:75|115:135,1,267.749996425152,4|0,1:0|0:0,0:0:0:0:
83,189,328699,70,0,P|124:194|158:216,1,68.2500002603531,10|0,0:0|0:0,0:0:0:0:
362,252,328835,2,0,P|328:249|297:234,1,68.2500002603531,0|0,1:0|0:0,0:0:0:0:
139,334,328971,37,10,0:0:0:0:
218,125,329108,1,0,1:0:0:0:
319,368,329244,69,10,0:0:0:0:
211,114,329381,1,0,1:0:0:0:
481,46,329517,37,10,1:2:0:0:
227,243,329653,1,0,1:0:0:0:
491,47,329790,69,10,0:0:0:0:
214,243,329926,1,0,1:0:0:0:
468,365,330062,37,10,0:0:0:0:
375,54,330199,1,0,1:0:0:0:
395,293,330335,69,2,1:2:0:0:
455,130,330471,1,8,3:2:0:0:
475,228,330608,37,4,1:2:0:0:
484,239,330744,1,0,1:0:0:0:
370,162,330881,69,10,0:0:0:0:
379,151,331017,1,0,1:0:0:0:
332,360,331153,37,10,0:0:0:0:
264,84,331290,1,0,1:0:0:0:
65,290,331426,69,10,0:0:0:0:
140,8,331562,1,0,1:0:0:0:
159,234,331699,38,0,P|120:223|81:220,1,68.2500002603531,10|0,1:2|0:0,0:0:0:0:
379,179,331835,2,0,P|412:174|445:165,1,68.2500002603531,0|0,1:0|0:0,0:0:0:0:
196,165,331971,69,10,0:0:0:0:
316,240,332108,1,0,1:0:0:0:
81,246,332244,37,10,0:0:0:0:
461,150,332381,1,0,1:0:0:0:
13,169,332517,69,10,0:0:0:0:
508,227,332653,1,0,1:0:0:0:
158,381,332790,38,0,P|126:357|116:322,1,68.2500002603531,4|0,1:2|0:0,0:0:0:0:
49,292,332926,2,0,P|53:253|78:226,1,68.2500002603531,8|0,3:2|0:0,0:0:0:0:
373,175,333062,70,0,P|391:140|385:104,1,68.2500002603531,8|0,3:2|0:0,0:0:0:0:
434,48,333199,2,0,P|413:14|379:1,1,68.2500002603531,4|0,1:3|0:0,0:0:0:0:
191,2,333335,37,8,3:2:0:0:
282,381,333471,2,0,P|272:314|264:243,1,115.500001101494,8|0,3:2|1:3,0:0:0:0:
474,134,333744,69,8,3:2:0:0:
136,309,333881,37,0,1:3:0:0:
336,43,334017,1,8,1:3:0:0:
77,84,334153,69,8,3:2:0:0:
245,260,334290,1,8,1:3:0:0:
439,14,334426,37,4,1:3:0:0:
167,207,334562,1,8,3:2:0:0:
377,379,334699,69,8,3:2:0:0:
223,40,334835,1,4,1:3:0:0:
0,384,334971,37,4,1:0:0:0:
256,192,335040,12,2,337153,0:1:0:0:
