osu file format v14

[General]
AudioFilename: audio.mp3
AudioLeadIn: 0
PreviewTime: 197520
Countdown: 0
SampleSet: Normal
StackLeniency: 0.7
Mode: 1
LetterboxInBreaks: 0
WidescreenStoryboard: 0

[Editor]
Bookmarks: 21359,49051,63820,71205,78589,88743,103512,120128,134897,149666,166282,181051,212436,270581,277966,295504,332427,339812,371197,384120
DistanceSpacing: 0.7
BeatDivisor: 4
GridSize: 32
TimelineZoom: 3.399999

[Metadata]
Title:IMAGE -MATERIAL-
TitleUnicode:IMAGE -MATERIAL-
Artist:Tatsh
ArtistUnicode:Tatsh
Creator:paz08
Version:Overcome
Source:
Tags:english tatshmusiccircle konami digital entertainment 2011 rock (新曲) (shinkyoku) reflec beat limelight 福山沙織 fukuyama saori instrumental
BeatmapID:3254419
BeatmapSetID:1593425

[Difficulty]
HPDrainRate:4.2
CircleSize:5.2
OverallDifficulty:7.2
ApproachRate:9
SliderMultiplier:1.4
SliderTickRate:1

[Events]
//Background and Video events
0,0,"91634762_p0 (2).jpg",0,90
//Break Periods
//Storyboard Layer 0 (Background)
//Storyboard Layer 1 (Fail)
//Storyboard Layer 2 (Pass)
//Storyboard Layer 3 (Foreground)
//Storyboard Layer 4 (Overlay)
//Storyboard Sound Samples

[TimingPoints]
6490,461.538461538462,4,1,0,70,1,0
48951,-90.9090909090909,4,1,0,60,0,0
56336,230.769230769231,4,1,0,80,1,0
87720,-99.4491017964072,4,1,0,81,0,0
87778,-99.1735537190083,4,1,0,82,0,0
87836,-98.8995283693011,4,1,0,82,0,0
87951,-98.3606557377049,4,1,0,83,0,0
88066,-97.8276235804156,4,1,0,84,0,0
88124,-97.5609756097561,4,1,0,85,0,0
88182,-97.2957772882786,4,1,0,86,0,0
88239,-97.0365523043844,4,1,0,86,0,0
88297,-96.7741935483871,4,1,0,87,0,0
88355,-96.513249651325,4,1,0,87,0,0
88412,-96.2581722075393,4,1,0,88,0,0
88470,-96,4,1,0,88,0,0
88528,-95.743208965549,4,1,0,89,0,0
88586,-95.4877880502277,4,1,0,89,0,0
88643,-95.2380952380952,4,1,0,90,0,0
103643,-111.111111111111,4,1,0,80,0,0
118182,-110.026917900404,4,1,0,80,0,0
118297,-108.972756810797,4,1,0,81,0,0
118355,-108.448719011691,4,1,0,81,0,0
118412,-107.938603729988,4,1,0,81,0,0
118528,-106.915154487494,4,1,0,82,0,0
118643,-105.919507652441,4,1,0,82,0,0
118701,-105.4243572177,4,1,0,83,0,0
118759,-104.933814681107,4,1,0,83,0,0
118816,-104.456157163392,4,1,0,83,0,0
118874,-103.974562798092,4,1,0,84,0,0
118932,-103.497388827346,4,1,0,84,0,0
118989,-103.032690035447,4,1,0,84,0,0
119047,-102.564102564103,4,1,0,85,0,0
119105,-102.099758020451,4,1,0,85,0,0
119162,-101.647497668635,4,1,0,85,0,0
119220,-101.19139718397,4,1,0,85,0,0
119278,-100.739371534196,4,1,0,86,0,0
119336,-100.291366354853,4,1,0,86,0,0
119393,-99.8549507596,4,1,0,86,0,0
119451,-99.4147602036938,4,1,0,87,0,0
119509,-98.9784335981839,4,1,0,87,0,0
119566,-98.5533453887884,4,1,0,87,0,0
119624,-98.1245311327832,4,1,0,87,0,0
119682,-97.6994323274574,4,1,0,88,0,0
119739,-97.2852361472666,4,1,0,88,0,0
119797,-96.8673628082648,4,1,0,88,0,0
119855,-96.4530639333382,4,1,0,89,0,0
119912,-96.0493464532237,4,1,0,89,0,0
120028,-95.2380952380952,4,1,0,90,0,0
120259,-100,4,1,0,80,0,0
148182,-101.451096174383,4,1,0,79,0,0
148297,-102.189319159706,4,1,0,78,0,0
148412,-102.938364459175,4,1,0,77,0,0
148528,-103.705130674886,4,1,0,76,0,0
148643,-104.476646396688,4,1,0,76,0,0
148759,-105.266588450006,4,1,0,75,0,0
148816,-105.659142950605,4,1,0,75,0,0
148874,-106.061601103303,4,1,0,74,0,0
148989,-106.868713605082,4,1,0,74,0,0
149105,-107.695385436116,4,1,0,73,0,0
149220,-108.527652711511,4,1,0,72,0,0
149336,-109.380291229258,4,1,0,71,0,0
149451,-110.238907849829,4,1,0,71,0,0
149566,-111.111111111111,4,1,0,70,0,0
159489,-110.094662318034,4,1,0,72,0,0
159605,-109.58904109589,4,1,0,73,0,0
159662,-109.342287181513,4,1,0,73,0,0
159720,-109.092342253577,4,1,0,73,0,0
159836,-108.595864882891,4,1,0,74,0,0
159951,-108.108108108108,4,1,0,75,0,0
160066,-107.624713247016,4,1,0,76,0,0
160182,-107.141474743565,4,1,0,77,0,0
160297,-106.666666666667,4,1,0,78,0,0
160412,-106.196048340687,4,1,0,78,0,0
160528,-105.725526144914,4,1,0,79,0,0
160643,-105.263157894737,4,1,0,80,0,0
165028,-103.446988086791,4,1,0,81,0,0
165143,-102.566001407043,4,1,0,82,0,0
165201,-102.127345795082,4,1,0,82,0,0
165259,-101.692426300525,4,1,0,83,0,0
165374,-100.84094797772,4,1,0,84,0,0
165489,-100.003610238637,4,1,0,84,0,0
165605,-99.1729619419283,4,1,0,85,0,0
165662,-98.7698341950437,4,1,0,86,0,0
165720,-98.3629842690245,4,1,0,86,0,0
165778,-97.9594723626976,4,1,0,87,0,0
165836,-97.559257563484,4,1,0,87,0,0
165893,-97.1691163573859,4,1,0,87,0,0
165951,-96.7753205464137,4,1,0,88,0,0
166009,-96.3847037127249,4,1,0,88,0,0
166066,-96.0038817453991,4,1,0,89,0,0
166124,-95.6194552797818,4,1,0,89,0,0
166182,-95.2380952380952,4,1,0,90,0,0
181182,-111.111111111111,4,1,0,80,0,0
195720,-110.391803647827,4,1,0,81,0,0
195836,-109.675615212528,4,1,0,82,0,0
195893,-109.327089256843,4,1,0,82,0,0
195951,-108.974715198666,4,1,0,83,0,0
196066,-108.282716731088,4,1,0,84,0,0
196182,-107.59354767914,4,1,0,85,0,0
196239,-107.258108625499,4,1,0,86,0,0
196297,-106.91892481326,4,1,0,87,0,0
196355,-106.58187944997,4,1,0,87,0,0
196412,-106.252709146077,4,1,0,88,0,0
196470,-105.919844442044,4,1,0,88,0,0
196528,-105.589058798191,4,1,0,89,0,0
196586,-105.260332796565,4,1,0,90,0,0
196643,-104.939262588966,4,1,0,90,0,0
196701,-104.614563883702,4,1,0,91,0,0
196759,-104.291868318885,4,1,0,91,0,0
196816,-103.976670201485,4,1,0,92,0,0
196874,-103.657891954752,4,1,0,92,0,0
196932,-103.341062394604,4,1,0,93,0,0
196989,-103.031576735144,4,1,0,94,0,0
197047,-102.718558483055,4,1,0,94,0,0
197105,-102.407436419656,4,1,0,95,0,0
197162,-102.103509320004,4,1,0,95,0,0
197220,-101.796096345515,4,1,0,96,0,0
197278,-101.490528930753,4,1,0,97,0,0
197336,-101.186790505676,4,1,0,97,0,0
197393,-100.890055049648,4,1,0,98,0,0
197451,-100.589894844832,4,1,0,98,0,0
197566,-100,4,1,0,100,0,1
227105,461.538461538462,4,1,0,100,1,0
227105,-50,4,1,0,100,0,0
227566,-100,4,1,0,60,0,0
245335,461.538461538462,4,1,0,60,1,0
251450,697.674418604651,4,1,0,50,1,8
251450,-71.4285714285714,4,1,0,50,0,0
252603,714.285714285714,4,1,0,48,1,0
252603,-76.9230769230769,4,1,0,48,0,0
253406,800,4,1,0,47,1,8
253995,1132.07547169811,4,1,0,46,1,8
253995,-66.6666666666667,4,1,0,46,0,0
255480,1200,4,1,0,44,1,8
256380,1267.10000000001,4,1,0,43,1,0
256380,-66.6666666666667,4,1,0,43,0,0
257647,1267.15945089757,4,1,0,41,1,8
257647,-80,4,1,0,41,0,8
258792,2150.5376344086,4,1,0,40,1,8
258792,-55.5555555555556,4,1,0,40,0,0
263097,230.769230769231,4,1,0,90,1,0
269789,-99.2872941754731,4,1,0,90,0,0
269904,-98.5906900128119,4,1,0,91,0,0
269962,-98.2430542890145,4,1,0,91,0,0
270020,-97.8978615132974,4,1,0,92,0,0
270135,-97.2205510768861,4,1,0,92,0,0
270250,-96.5525482464002,4,1,0,93,0,0
270366,-95.8879724678099,4,1,0,94,0,0
270423,-95.5647545830869,4,1,0,94,0,0
270481,-95.2380952380952,4,1,0,95,0,0
278097,-100,4,1,0,80,0,0
294135,-100,4,1,0,81,0,0
294250,-100,4,1,0,82,0,0
294366,-100,4,1,0,83,0,0
294539,-100,4,1,0,84,0,0
294654,-100,4,1,0,85,0,0
294827,-100,4,1,0,86,0,0
294943,-100,4,1,0,87,0,0
295058,-100,4,1,0,88,0,0
295231,-100,4,1,0,89,0,0
295347,-100,4,1,0,90,0,0
308327,-99.7076395068006,4,1,0,91,0,0
308443,-99.4144635116981,4,1,0,91,0,0
308500,-99.2710337146907,4,1,0,91,0,0
308558,-99.1255118030632,4,1,0,92,0,0
308673,-98.838234923515,4,1,0,92,0,0
308789,-98.5501419705003,4,1,0,93,0,0
308847,-98.4067243758625,4,1,0,93,0,0
308904,-98.2661856083383,4,1,0,94,0,0
308962,-98.1235926945209,4,1,0,94,0,0
309020,-97.9814130108924,4,1,0,94,0,0
309077,-97.8420855681676,4,1,0,94,0,0
309135,-97.7007199262636,4,1,0,95,0,0
309193,-97.5597621949703,4,1,0,95,0,0
309250,-97.4216304833822,4,1,0,95,0,0
309308,-97.2814763369382,4,1,0,96,0,0
309366,-97.1417248724427,4,1,0,96,0,0
309423,-97.0047735648389,4,1,0,96,0,0
309481,-96.8658154066537,4,1,0,96,0,0
309539,-96.7272547907367,4,1,0,97,0,0
309597,-96.5890900135451,4,1,0,97,0,0
309654,-96.4536914072107,4,1,0,97,0,0
309712,-96.3163064833006,4,1,0,98,0,0
309770,-96.1793123743195,4,1,0,98,0,0
309827,-96.0450593853312,4,1,0,98,0,0
309885,-95.9088352529773,4,1,0,99,0,0
309943,-95.7729969964103,4,1,0,99,0,0
310000,-95.6398751463129,4,1,0,99,0,0
310058,-95.504797155798,4,1,0,99,0,0
310173,-95.2380952380952,4,1,0,100,0,1
345943,-93.1559959075979,4,1,0,100,0,1
346058,-91.1798034100192,4,1,0,100,0,1
346173,-89.2857142857143,4,1,0,100,0,1
347327,-95.2380952380952,4,1,0,100,0,1
355404,-95.5026068313599,4,1,0,99,0,1
355520,-96.0454745920517,4,1,0,98,0,1
355635,-96.5897890794402,4,1,0,97,0,1
355750,-97.1403082717946,4,1,0,95,0,1
355866,-97.7020088729375,4,1,0,94,0,1
355981,-98.2653163541562,4,1,0,93,0,1
356097,-98.8401412002017,4,1,0,92,0,1
356212,-99.4166878011666,4,1,0,91,0,1
356327,-100,4,1,0,90,0,0
371327,-111.111111111111,4,1,0,80,0,0
377097,-110.235145558172,4,1,0,79,0,0
377212,-109.8041881969,4,1,0,79,0,0
377327,-109.376587315025,4,1,0,79,0,0
377443,-108.948628866327,4,1,0,78,0,0
377558,-108.527652711511,4,1,0,78,0,0
377789,-107.691794752109,4,1,0,77,0,0
378020,-106.868713605082,4,1,0,76,0,0
378250,-106.061601103303,4,1,0,76,0,0
378481,-105.263157894737,4,1,0,75,0,0
382167,-104.297902878558,4,1,0,76,0,0
382225,-103.817763314549,4,1,0,77,0,0
382283,-103.342024176345,4,1,0,78,0,0
382341,-102.870625245773,4,1,0,79,0,0
382398,-102.4115252114,4,1,0,79,0,0
382456,-101.94855806703,4,1,0,80,0,0
382514,-101.489757914339,4,1,0,81,0,0
382571,-101.042873696408,4,1,0,82,0,0
382629,-100.592171037453,4,1,0,82,0,0
382687,-100.145471250287,4,1,0,83,0,0
382744,-99.7103216953804,4,1,0,84,0,0
382802,-99.2714025500911,4,1,0,85,0,0
382860,-98.8363306634426,4,1,0,85,0,0
382917,-98.4124595591001,4,1,0,86,0,0
382975,-97.9848677803581,4,1,0,87,0,0
383033,-97.5609756097561,4,1,0,88,0,0
383091,-97.1407352395098,4,1,0,88,0,0
383148,-96.7312527732584,4,1,0,89,0,0
383206,-96.3181148748159,4,1,0,90,0,0
383264,-95.9084909810823,4,1,0,90,0,0
383321,-95.5093099671413,4,1,0,91,0,0
383379,-95.1065222133353,4,1,0,92,0,0
383437,-94.7071175150243,4,1,0,93,0,0
383494,-94.317854052495,4,1,0,93,0,0
383552,-93.9250323136579,4,1,0,94,0,0
383610,-93.5354691075515,4,1,0,95,0,0
383667,-93.1557581368848,4,1,0,96,0,0
383725,-92.7725370593659,4,1,0,96,0,0
383783,-92.3924560288197,4,1,0,97,0,0
383841,-92.0154766092156,4,1,0,98,0,0
383898,-91.6479820627803,4,1,0,99,0,0
384014,-90.9090909090909,4,1,0,100,0,0

[HitObjects]
256,192,6490,5,4,0:0:0:0:
256,192,8336,1,4,0:0:0:0:
256,192,10182,1,12,0:0:0:0:
256,192,12028,1,8,0:0:0:0:
256,192,13874,1,4,0:0:0:0:
256,192,15720,1,4,0:0:0:0:
256,192,17566,1,12,0:0:0:0:
256,192,18951,8,0,21028,0:0:0:0:
256,192,21259,5,4,0:0:0:0:
256,192,21720,1,8,0:0:0:0:
256,192,22182,1,8,0:0:0:0:
256,192,22643,1,0,0:0:0:0:
256,192,23105,1,12,0:0:0:0:
256,192,23566,1,0,0:0:0:0:
256,192,24028,1,0,0:0:0:0:
256,192,24490,1,8,0:0:0:0:
256,192,24951,1,4,0:0:0:0:
256,192,26797,1,8,0:0:0:0:
256,192,28643,1,4,0:0:0:0:
256,192,29105,1,8,0:0:0:0:
256,192,29566,1,0,0:0:0:0:
256,192,30028,1,0,0:0:0:0:
256,192,30490,1,12,0:0:0:0:
256,192,30951,1,0,0:0:0:0:
256,192,31413,1,8,0:0:0:0:
256,192,31874,1,8,0:0:0:0:
256,192,32336,1,4,0:0:0:0:
256,192,35105,1,0,0:0:0:0:
256,192,36028,1,12,0:0:0:0:
256,192,36490,1,0,0:0:0:0:
256,192,39720,1,4,0:0:0:0:
256,192,40643,1,8,0:0:0:0:
256,192,41566,1,8,0:0:0:0:
256,192,42951,1,8,0:0:0:0:
256,192,43413,1,4,0:0:0:0:
256,192,43643,8,0,47105,0:0:0:0:
256,192,48951,5,0,0:0:0:0:
256,192,49066,1,0,0:0:0:0:
256,192,49182,1,8,0:0:0:0:
256,192,49413,1,0,0:0:0:0:
256,192,49528,1,8,0:0:0:0:
256,192,49759,1,8,0:0:0:0:
256,192,49874,1,0,0:0:0:0:
256,192,49990,1,0,0:0:0:0:
256,192,50105,1,8,0:0:0:0:
256,192,50336,1,0,0:0:0:0:
256,192,50451,1,8,0:0:0:0:
256,192,50797,1,8,0:0:0:0:
256,192,50913,1,0,0:0:0:0:
256,192,51028,1,8,0:0:0:0:
256,192,51259,1,0,0:0:0:0:
256,192,51374,1,8,0:0:0:0:
256,192,51605,1,8,0:0:0:0:
256,192,51720,1,0,0:0:0:0:
256,192,51836,1,0,0:0:0:0:
256,192,51951,1,8,0:0:0:0:
256,192,52182,1,0,0:0:0:0:
256,192,52297,1,8,0:0:0:0:
256,192,52643,1,0,0:0:0:0:
256,192,52759,1,0,0:0:0:0:
256,192,52874,1,8,0:0:0:0:
256,192,53105,1,0,0:0:0:0:
256,192,53220,1,8,0:0:0:0:
256,192,53451,1,8,0:0:0:0:
256,192,53566,1,0,0:0:0:0:
256,192,53682,1,0,0:0:0:0:
256,192,53797,1,8,0:0:0:0:
256,192,54028,1,0,0:0:0:0:
256,192,54143,1,8,0:0:0:0:
256,192,54490,1,0,0:0:0:0:
256,192,54605,1,0,0:0:0:0:
256,192,54720,1,8,0:0:0:0:
256,192,54951,1,0,0:0:0:0:
256,192,55066,1,8,0:0:0:0:
256,192,55297,1,8,0:0:0:0:
256,192,55528,1,0,0:0:0:0:
256,192,55643,1,8,0:0:0:0:
256,192,55759,1,0,0:0:0:0:
256,192,56336,1,4,0:0:0:0:
256,192,56566,1,8,0:0:0:0:
256,192,56797,1,0,0:0:0:0:
256,192,56912,1,0,0:0:0:0:
256,192,57028,1,8,0:0:0:0:
256,192,57143,1,8,0:0:0:0:
256,192,57259,1,0,0:0:0:0:
256,192,57489,1,8,0:0:0:0:
256,192,57720,1,0,0:0:0:0:
256,192,57836,1,0,0:0:0:0:
256,192,57951,1,8,0:0:0:0:
256,192,58066,1,8,0:0:0:0:
256,192,58124,1,8,0:0:0:0:
256,192,58182,1,0,0:0:0:0:
256,192,58412,1,8,0:0:0:0:
256,192,58528,1,0,0:0:0:0:
256,192,58586,1,0,0:0:0:0:
256,192,58643,1,0,0:0:0:0:
256,192,58759,1,8,0:0:0:0:
256,192,58874,1,0,0:0:0:0:
256,192,58932,1,0,0:0:0:0:
256,192,58989,1,8,0:0:0:0:
256,192,59105,1,0,0:0:0:0:
256,192,59220,1,0,0:0:0:0:
256,192,59336,1,8,0:0:0:0:
256,192,59393,1,0,0:0:0:0:
256,192,59451,1,8,0:0:0:0:
256,192,59509,1,8,0:0:0:0:
256,192,59566,1,0,0:0:0:0:
256,192,59682,1,0,0:0:0:0:
256,192,59797,1,8,0:0:0:0:
256,192,59912,1,8,0:0:0:0:
256,192,60028,1,4,0:0:0:0:
256,192,60259,1,8,0:0:0:0:
256,192,60374,1,0,0:0:0:0:
256,192,60432,1,0,0:0:0:0:
256,192,60489,1,8,0:0:0:0:
256,192,60605,1,0,0:0:0:0:
256,192,60720,1,8,0:0:0:0:
256,192,60778,1,8,0:0:0:0:
256,192,60836,1,0,0:0:0:0:
256,192,60951,1,8,0:0:0:0:
256,192,61066,1,0,0:0:0:0:
256,192,61182,1,8,0:0:0:0:
256,192,61297,1,0,0:0:0:0:
256,192,61355,1,0,0:0:0:0:
256,192,61412,1,8,0:0:0:0:
256,192,61470,1,8,0:0:0:0:
256,192,61528,1,0,0:0:0:0:
256,192,61643,1,8,0:0:0:0:
256,192,61759,1,0,0:0:0:0:
256,192,61874,1,12,0:0:0:0:
256,192,62105,1,8,0:0:0:0:
256,192,62162,1,0,0:0:0:0:
256,192,62220,1,8,0:0:0:0:
256,192,62336,1,0,0:0:0:0:
256,192,62451,1,0,0:0:0:0:
256,192,62566,1,8,0:0:0:0:
256,192,62624,1,8,0:0:0:0:
256,192,62682,1,8,0:0:0:0:
256,192,62739,1,8,0:0:0:0:
256,192,62797,1,0,0:0:0:0:
256,192,62912,1,0,0:0:0:0:
256,192,63028,1,8,0:0:0:0:
256,192,63143,1,0,0:0:0:0:
256,192,63201,1,0,0:0:0:0:
256,192,63259,1,0,0:0:0:0:
256,192,63374,1,8,0:0:0:0:
256,192,63489,1,8,0:0:0:0:
256,192,63605,1,0,0:0:0:0:
256,192,63720,1,8,0:0:0:0:
256,192,63778,1,8,0:0:0:0:
256,192,63836,1,8,0:0:0:0:
256,192,63893,1,8,0:0:0:0:
256,192,63951,1,0,0:0:0:0:
256,192,64066,1,8,0:0:0:0:
256,192,64182,1,0,0:0:0:0:
256,192,64239,1,8,0:0:0:0:
256,192,64297,1,8,0:0:0:0:
256,192,64355,1,8,0:0:0:0:
256,192,64412,1,0,0:0:0:0:
256,192,64528,1,8,0:0:0:0:
256,192,64643,1,8,0:0:0:0:
256,192,64701,1,8,0:0:0:0:
256,192,64759,1,0,0:0:0:0:
256,192,64874,1,8,0:0:0:0:
256,192,64989,1,0,0:0:0:0:
256,192,65105,1,0,0:0:0:0:
256,192,65162,1,0,0:0:0:0:
256,192,65220,1,8,0:0:0:0:
256,192,65278,1,8,0:0:0:0:
256,192,65336,1,0,0:0:0:0:
256,192,65451,1,0,0:0:0:0:
256,192,65566,1,8,0:0:0:0:
256,192,65624,1,8,0:0:0:0:
256,192,65682,1,8,0:0:0:0:
256,192,65739,1,8,0:0:0:0:
256,192,65797,1,0,0:0:0:0:
256,192,65912,1,8,0:0:0:0:
256,192,66028,1,0,0:0:0:0:
256,192,66086,1,8,0:0:0:0:
256,192,66143,1,0,0:0:0:0:
256,192,66201,1,0,0:0:0:0:
256,192,66259,1,8,0:0:0:0:
256,192,66374,1,8,0:0:0:0:
256,192,66489,1,0,0:0:0:0:
256,192,66605,1,0,0:0:0:0:
256,192,66662,1,0,0:0:0:0:
256,192,66720,1,8,0:0:0:0:
256,192,66836,1,0,0:0:0:0:
256,192,66951,1,0,0:0:0:0:
256,192,67066,1,8,0:0:0:0:
256,192,67124,1,8,0:0:0:0:
256,192,67182,1,8,0:0:0:0:
256,192,67297,1,0,0:0:0:0:
256,192,67412,1,12,0:0:0:0:
256,192,67643,1,8,0:0:0:0:
256,192,67759,1,0,0:0:0:0:
256,192,67816,1,0,0:0:0:0:
256,192,67874,1,8,0:0:0:0:
256,192,67989,1,0,0:0:0:0:
256,192,68105,1,8,0:0:0:0:
256,192,68220,1,0,0:0:0:0:
256,192,68336,1,8,0:0:0:0:
256,192,68393,1,8,0:0:0:0:
256,192,68451,1,0,0:0:0:0:
256,192,68509,1,0,0:0:0:0:
256,192,68566,1,8,0:0:0:0:
256,192,68682,1,0,0:0:0:0:
256,192,68797,1,8,0:0:0:0:
256,192,68912,1,0,0:0:0:0:
256,192,69028,1,8,0:0:0:0:
256,192,69143,1,8,0:0:0:0:
256,192,69259,1,4,0:0:0:0:
256,192,69374,1,8,0:0:0:0:
256,192,69489,1,8,0:0:0:0:
256,192,69605,1,0,0:0:0:0:
256,192,69720,1,0,0:0:0:0:
256,192,69836,1,8,0:0:0:0:
256,192,69951,1,0,0:0:0:0:
256,192,70066,1,0,0:0:0:0:
256,192,70182,1,8,0:0:0:0:
256,192,70239,1,8,0:0:0:0:
256,192,70297,1,0,0:0:0:0:
256,192,70355,1,0,0:0:0:0:
256,192,70412,1,8,0:0:0:0:
256,192,70470,1,0,0:0:0:0:
256,192,70528,1,0,0:0:0:0:
256,192,70586,1,0,0:0:0:0:
256,192,70643,1,8,0:0:0:0:
256,192,70701,1,0,0:0:0:0:
256,192,70759,1,8,0:0:0:0:
256,192,70816,1,8,0:0:0:0:
256,192,70874,1,0,0:0:0:0:
256,192,70932,1,0,0:0:0:0:
256,192,70989,1,8,0:0:0:0:
256,192,71105,1,4,0:0:0:0:
256,192,71336,1,8,0:0:0:0:
256,192,71451,1,0,0:0:0:0:
256,192,71682,1,8,0:0:0:0:
256,192,71797,1,0,0:0:0:0:
256,192,72028,1,8,0:0:0:0:
256,192,72143,1,0,0:0:0:0:
256,192,72259,1,8,0:0:0:0:
256,192,72374,1,8,0:0:0:0:
256,192,72489,1,0,0:0:0:0:
256,192,72605,1,0,0:0:0:0:
256,192,72662,1,0,0:0:0:0:
256,192,72720,1,8,0:0:0:0:
256,192,72836,1,8,0:0:0:0:
256,192,72951,1,0,0:0:0:0:
256,192,73182,1,8,0:0:0:0:
256,192,73297,1,0,0:0:0:0:
256,192,73528,1,8,0:0:0:0:
256,192,73643,1,0,0:0:0:0:
256,192,73874,1,8,0:0:0:0:
256,192,73989,1,0,0:0:0:0:
256,192,74105,1,8,0:0:0:0:
256,192,74220,1,8,0:0:0:0:
256,192,74278,1,8,0:0:0:0:
256,192,74336,1,0,0:0:0:0:
256,192,74451,1,0,0:0:0:0:
256,192,74566,1,8,0:0:0:0:
256,192,74797,1,0,0:0:0:0:
256,192,75028,1,8,0:0:0:0:
256,192,75143,1,0,0:0:0:0:
256,192,75374,1,8,0:0:0:0:
256,192,75489,1,0,0:0:0:0:
256,192,75720,1,8,0:0:0:0:
256,192,75836,1,0,0:0:0:0:
256,192,76066,1,8,0:0:0:0:
256,192,76182,1,0,0:0:0:0:
256,192,76297,1,8,0:0:0:0:
256,192,76412,1,0,0:0:0:0:
256,192,76528,1,0,0:0:0:0:
256,192,76586,1,0,0:0:0:0:
256,192,76643,1,8,0:0:0:0:
256,192,76874,1,8,0:0:0:0:
256,192,76989,1,0,0:0:0:0:
256,192,77220,1,8,0:0:0:0:
256,192,77336,1,0,0:0:0:0:
256,192,77566,1,0,0:0:0:0:
256,192,77682,1,8,0:0:0:0:
256,192,77797,1,8,0:0:0:0:
256,192,77912,1,0,0:0:0:0:
256,192,77970,1,0,0:0:0:0:
256,192,78028,1,8,0:0:0:0:
256,192,78143,1,0,0:0:0:0:
256,192,78259,1,8,0:0:0:0:
256,192,78374,1,8,0:0:0:0:
256,192,78489,1,4,0:0:0:0:
256,192,78720,1,8,0:0:0:0:
256,192,78836,1,0,0:0:0:0:
256,192,79066,1,8,0:0:0:0:
256,192,79182,1,0,0:0:0:0:
256,192,79412,1,8,0:0:0:0:
256,192,79528,1,0,0:0:0:0:
256,192,79643,1,8,0:0:0:0:
256,192,79759,1,8,0:0:0:0:
256,192,79874,1,0,0:0:0:0:
256,192,79989,1,0,0:0:0:0:
256,192,80047,1,0,0:0:0:0:
256,192,80105,1,8,0:0:0:0:
256,192,80220,1,8,0:0:0:0:
256,192,80336,1,0,0:0:0:0:
256,192,80566,1,8,0:0:0:0:
256,192,80682,1,0,0:0:0:0:
256,192,80912,1,8,0:0:0:0:
256,192,81028,1,0,0:0:0:0:
256,192,81259,1,8,0:0:0:0:
256,192,81374,1,0,0:0:0:0:
256,192,81489,1,8,0:0:0:0:
256,192,81605,1,8,0:0:0:0:
256,192,81662,1,8,0:0:0:0:
256,192,81720,1,0,0:0:0:0:
256,192,81836,1,0,0:0:0:0:
256,192,81951,1,8,0:0:0:0:
256,192,82182,1,0,0:0:0:0:
256,192,82412,1,8,0:0:0:0:
256,192,82528,1,0,0:0:0:0:
256,192,82759,1,8,0:0:0:0:
256,192,82874,1,0,0:0:0:0:
256,192,83105,1,8,0:0:0:0:
256,192,83220,1,0,0:0:0:0:
256,192,83336,1,0,0:0:0:0:
256,192,83451,1,8,0:0:0:0:
256,192,83566,1,0,0:0:0:0:
256,192,83682,1,8,0:0:0:0:
256,192,83797,1,0,0:0:0:0:
256,192,83912,1,0,0:0:0:0:
256,192,83970,1,0,0:0:0:0:
256,192,84028,1,8,0:0:0:0:
256,192,84259,1,8,0:0:0:0:
256,192,84374,1,0,0:0:0:0:
256,192,84605,1,8,0:0:0:0:
256,192,84720,1,0,0:0:0:0:
256,192,84951,1,8,0:0:0:0:
256,192,85066,1,0,0:0:0:0:
256,192,85182,1,8,0:0:0:0:
256,192,85297,1,0,0:0:0:0:
256,192,85355,1,0,0:0:0:0:
256,192,85412,1,8,0:0:0:0:
256,192,85528,1,0,0:0:0:0:
256,192,85643,1,8,0:0:0:0:
256,192,85874,1,0,0:0:0:0:
256,192,86105,1,8,0:0:0:0:
256,192,86336,1,0,0:0:0:0:
256,192,86451,1,0,0:0:0:0:
256,192,86566,1,8,0:0:0:0:
256,192,86682,1,8,0:0:0:0:
256,192,86739,1,8,0:0:0:0:
256,192,86797,1,0,0:0:0:0:
256,192,86912,1,0,0:0:0:0:
256,192,87028,1,8,0:0:0:0:
256,192,87143,1,0,0:0:0:0:
256,192,87201,1,0,0:0:0:0:
256,192,87259,1,8,0:0:0:0:
256,192,87316,1,0,0:0:0:0:
256,192,87374,1,0,0:0:0:0:
256,192,87489,1,8,0:0:0:0:
256,192,87605,1,8,0:0:0:0:
256,192,87720,1,0,0:0:0:0:
256,192,87778,1,0,0:0:0:0:
256,192,87836,1,0,0:0:0:0:
256,192,87951,1,8,0:0:0:0:
256,192,88066,1,0,0:0:0:0:
256,192,88124,1,0,0:0:0:0:
256,192,88182,1,8,0:0:0:0:
256,192,88239,1,8,0:0:0:0:
256,192,88297,1,0,0:0:0:0:
256,192,88355,1,0,0:0:0:0:
256,192,88412,1,8,0:0:0:0:
256,192,88470,1,8,0:0:0:0:
256,192,88528,1,8,0:0:0:0:
256,192,88586,1,8,0:0:0:0:
256,192,88643,1,4,0:0:0:0:
256,192,88874,1,8,0:0:0:0:
256,192,89105,1,0,0:0:0:0:
256,192,89220,1,0,0:0:0:0:
256,192,89336,1,8,0:0:0:0:
256,192,89451,1,8,0:0:0:0:
256,192,89509,1,8,0:0:0:0:
256,192,89566,1,0,0:0:0:0:
256,192,89682,1,0,0:0:0:0:
256,192,89797,1,8,0:0:0:0:
256,192,89855,1,8,0:0:0:0:
256,192,89912,1,0,0:0:0:0:
256,192,89970,1,0,0:0:0:0:
256,192,90028,1,8,0:0:0:0:
256,192,90143,1,0,0:0:0:0:
256,192,90259,1,8,0:0:0:0:
256,192,90374,1,0,0:0:0:0:
256,192,90489,1,8,0:0:0:0:
256,192,90547,1,8,0:0:0:0:
256,192,90605,1,0,0:0:0:0:
256,192,90720,1,0,0:0:0:0:
256,192,90836,1,8,0:0:0:0:
256,192,90893,1,8,0:0:0:0:
256,192,90951,1,0,0:0:0:0:
256,192,91066,1,0,0:0:0:0:
256,192,91124,1,0,0:0:0:0:
256,192,91182,1,8,0:0:0:0:
256,192,91297,1,8,0:0:0:0:
256,192,91412,1,0,0:0:0:0:
256,192,91643,1,8,0:0:0:0:
256,192,91759,1,0,0:0:0:0:
256,192,91874,1,8,0:0:0:0:
256,192,91989,1,0,0:0:0:0:
256,192,92047,1,0,0:0:0:0:
256,192,92105,1,8,0:0:0:0:
256,192,92162,1,8,0:0:0:0:
256,192,92220,1,0,0:0:0:0:
256,192,92278,1,0,0:0:0:0:
256,192,92336,1,8,0:0:0:0:
256,192,92566,1,8,0:0:0:0:
256,192,92797,1,0,0:0:0:0:
256,192,92912,1,0,0:0:0:0:
256,192,93028,1,8,0:0:0:0:
256,192,93143,1,8,0:0:0:0:
256,192,93201,1,0,0:0:0:0:
256,192,93259,1,8,0:0:0:0:
256,192,93374,1,0,0:0:0:0:
256,192,93489,1,8,0:0:0:0:
256,192,93547,1,8,0:0:0:0:
256,192,93605,1,0,0:0:0:0:
256,192,93662,1,0,0:0:0:0:
256,192,93720,1,8,0:0:0:0:
256,192,93836,1,0,0:0:0:0:
256,192,93951,1,8,0:0:0:0:
256,192,94066,1,8,0:0:0:0:
256,192,94182,1,0,0:0:0:0:
256,192,94239,1,0,0:0:0:0:
256,192,94297,1,0,0:0:0:0:
256,192,94412,1,8,0:0:0:0:
256,192,94528,1,0,0:0:0:0:
256,192,94643,1,8,0:0:0:0:
256,192,94701,1,8,0:0:0:0:
256,192,94759,1,0,0:0:0:0:
256,192,94874,1,8,0:0:0:0:
256,192,94989,1,0,0:0:0:0:
256,192,95105,1,8,0:0:0:0:
256,192,95162,1,0,0:0:0:0:
256,192,95220,1,8,0:0:0:0:
256,192,95278,1,8,0:0:0:0:
256,192,95336,1,0,0:0:0:0:
256,192,95451,1,0,0:0:0:0:
256,192,95566,1,8,0:0:0:0:
256,192,95624,1,0,0:0:0:0:
256,192,95682,1,8,0:0:0:0:
256,192,95739,1,8,0:0:0:0:
256,192,95797,1,8,0:0:0:0:
256,192,95855,1,8,0:0:0:0:
256,192,95912,1,0,0:0:0:0:
256,192,96028,1,8,0:0:0:0:
256,192,96259,1,8,0:0:0:0:
256,192,96374,1,8,0:0:0:0:
256,192,96489,1,0,0:0:0:0:
256,192,96605,1,0,0:0:0:0:
256,192,96662,1,0,0:0:0:0:
256,192,96720,1,8,0:0:0:0:
256,192,96836,1,8,0:0:0:0:
256,192,96951,1,0,0:0:0:0:
256,192,97182,1,8,0:0:0:0:
256,192,97297,1,0,0:0:0:0:
256,192,97412,1,0,0:0:0:0:
256,192,97528,1,0,0:0:0:0:
256,192,97586,1,0,0:0:0:0:
256,192,97643,1,8,0:0:0:0:
256,192,97701,1,8,0:0:0:0:
256,192,97759,1,0,0:0:0:0:
256,192,97816,1,0,0:0:0:0:
256,192,97874,1,8,0:0:0:0:
256,192,97989,1,0,0:0:0:0:
256,192,98105,1,8,0:0:0:0:
256,192,98220,1,8,0:0:0:0:
256,192,98278,1,8,0:0:0:0:
256,192,98336,1,0,0:0:0:0:
256,192,98451,1,0,0:0:0:0:
256,192,98566,1,8,0:0:0:0:
256,192,98682,1,8,0:0:0:0:
256,192,98797,1,0,0:0:0:0:
256,192,99028,1,8,0:0:0:0:
256,192,99143,1,0,0:0:0:0:
256,192,99259,1,8,0:0:0:0:
256,192,99316,1,0,0:0:0:0:
256,192,99374,1,8,0:0:0:0:
256,192,99432,1,8,0:0:0:0:
256,192,99489,1,0,0:0:0:0:
256,192,99547,1,8,0:0:0:0:
256,192,99605,1,0,0:0:0:0:
256,192,99662,1,0,0:0:0:0:
256,192,99720,1,8,0:0:0:0:
256,192,99836,1,0,0:0:0:0:
256,192,99951,1,8,0:0:0:0:
256,192,100066,1,0,0:0:0:0:
256,192,100124,1,0,0:0:0:0:
256,192,100182,1,8,0:0:0:0:
256,192,100239,1,8,0:0:0:0:
256,192,100297,1,0,0:0:0:0:
256,192,100412,1,8,0:0:0:0:
256,192,100528,1,0,0:0:0:0:
256,192,100643,1,12,0:0:0:0:
256,192,100874,1,0,0:0:0:0:
256,192,101105,1,8,0:0:0:0:
256,192,101220,1,0,0:0:0:0:
256,192,101336,1,8,0:0:0:0:
256,192,101393,1,8,0:0:0:0:
256,192,101451,1,0,0:0:0:0:
256,192,101509,1,0,0:0:0:0:
256,192,101566,1,0,0:0:0:0:
256,192,101682,1,8,0:0:0:0:
256,192,101797,1,8,0:0:0:0:
256,192,102028,1,8,0:0:0:0:
256,192,102143,1,8,0:0:0:0:
256,192,102201,1,0,0:0:0:0:
256,192,102259,1,8,0:0:0:0:
256,192,102316,1,8,0:0:0:0:
256,192,102374,1,0,0:0:0:0:
256,192,102432,1,8,0:0:0:0:
256,192,102489,1,0,0:0:0:0:
256,192,102547,1,0,0:0:0:0:
256,192,102605,1,0,0:0:0:0:
256,192,102662,1,0,0:0:0:0:
256,192,102720,1,8,0:0:0:0:
256,192,102778,1,8,0:0:0:0:
256,192,102836,1,0,0:0:0:0:
256,192,102893,1,0,0:0:0:0:
256,192,102951,1,8,0:0:0:0:
256,192,103009,1,0,0:0:0:0:
256,192,103066,1,8,0:0:0:0:
256,192,103124,1,8,0:0:0:0:
256,192,103182,1,0,0:0:0:0:
256,192,103239,1,8,0:0:0:0:
256,192,103297,1,0,0:0:0:0:
256,192,103412,1,12,0:0:0:0:
256,192,103643,1,8,0:0:0:0:
256,192,103874,1,0,0:0:0:0:
256,192,104105,1,8,0:0:0:0:
256,192,104220,1,0,0:0:0:0:
256,192,104336,1,0,0:0:0:0:
256,192,104566,1,8,0:0:0:0:
256,192,104682,1,8,0:0:0:0:
256,192,104797,1,0,0:0:0:0:
256,192,104912,1,0,0:0:0:0:
256,192,105028,1,0,0:0:0:0:
256,192,105143,1,8,0:0:0:0:
256,192,105374,1,0,0:0:0:0:
256,192,105489,1,8,0:0:0:0:
256,192,105720,1,0,0:0:0:0:
256,192,105836,1,8,0:0:0:0:
256,192,105951,1,8,0:0:0:0:
256,192,106066,1,0,0:0:0:0:
256,192,106182,1,12,0:0:0:0:
256,192,106412,1,8,0:0:0:0:
256,192,106528,1,8,0:0:0:0:
256,192,106643,1,0,0:0:0:0:
256,192,106759,1,0,0:0:0:0:
256,192,106874,1,8,0:0:0:0:
256,192,107105,1,0,0:0:0:0:
256,192,107336,1,8,0:0:0:0:
256,192,107451,1,0,0:0:0:0:
256,192,107566,1,8,0:0:0:0:
256,192,107682,1,8,0:0:0:0:
256,192,107797,1,0,0:0:0:0:
256,192,107912,1,0,0:0:0:0:
256,192,108028,1,12,0:0:0:0:
256,192,108259,1,8,0:0:0:0:
256,192,108489,1,0,0:0:0:0:
256,192,108605,1,8,0:0:0:0:
256,192,108836,1,0,0:0:0:0:
256,192,109066,1,0,0:0:0:0:
256,192,109182,1,8,0:0:0:0:
256,192,109412,1,8,0:0:0:0:
256,192,109528,1,0,0:0:0:0:
256,192,109643,1,8,0:0:0:0:
256,192,109759,1,8,0:0:0:0:
256,192,109874,1,0,0:0:0:0:
256,192,110105,1,8,0:0:0:0:
256,192,110336,1,0,0:0:0:0:
256,192,110566,1,8,0:0:0:0:
256,192,110682,1,8,0:0:0:0:
256,192,110797,1,4,0:0:0:0:
256,192,111028,1,8,0:0:0:0:
256,192,111259,1,0,0:0:0:0:
256,192,111489,1,8,0:0:0:0:
256,192,111720,1,0,0:0:0:0:
256,192,111836,1,0,0:0:0:0:
256,192,111951,1,8,0:0:0:0:
256,192,112182,1,8,0:0:0:0:
256,192,112297,1,0,0:0:0:0:
256,192,112412,1,8,0:0:0:0:
256,192,112528,1,8,0:0:0:0:
256,192,112643,1,0,0:0:0:0:
256,192,112874,1,0,0:0:0:0:
256,192,112989,1,0,0:0:0:0:
256,192,113105,1,8,0:0:0:0:
256,192,113336,1,0,0:0:0:0:
256,192,113566,1,12,0:0:0:0:
256,192,113797,1,8,0:0:0:0:
256,192,113912,1,8,0:0:0:0:
256,192,114028,1,0,0:0:0:0:
256,192,114143,1,0,0:0:0:0:
256,192,114259,1,8,0:0:0:0:
256,192,114374,1,8,0:0:0:0:
256,192,114489,1,0,0:0:0:0:
256,192,114720,1,8,0:0:0:0:
256,192,114951,1,0,0:0:0:0:
256,192,115066,1,0,0:0:0:0:
256,192,115182,1,8,0:0:0:0:
256,192,115412,1,12,0:0:0:0:
256,192,115643,1,0,0:0:0:0:
256,192,115874,1,8,0:0:0:0:
256,192,116105,1,0,0:0:0:0:
256,192,116220,1,0,0:0:0:0:
256,192,116336,1,8,0:0:0:0:
256,192,116682,1,0,0:0:0:0:
256,192,116797,1,8,0:0:0:0:
256,192,117028,1,8,0:0:0:0:
256,192,117143,1,8,0:0:0:0:
256,192,117259,1,0,0:0:0:0:
256,192,117489,1,0,0:0:0:0:
256,192,117720,1,8,0:0:0:0:
256,192,117951,1,8,0:0:0:0:
256,192,118066,1,0,0:0:0:0:
256,192,118182,1,8,0:0:0:0:
256,192,118297,1,0,0:0:0:0:
256,192,118355,1,0,0:0:0:0:
256,192,118412,1,8,0:0:0:0:
256,192,118528,1,0,0:0:0:0:
256,192,118643,1,8,0:0:0:0:
256,192,118701,1,0,0:0:0:0:
256,192,118759,1,8,0:0:0:0:
256,192,118816,1,8,0:0:0:0:
256,192,118874,1,0,0:0:0:0:
256,192,118932,1,0,0:0:0:0:
256,192,118989,1,8,0:0:0:0:
256,192,119047,1,0,0:0:0:0:
256,192,119105,1,8,0:0:0:0:
256,192,119162,1,8,0:0:0:0:
256,192,119220,1,0,0:0:0:0:
256,192,119278,1,0,0:0:0:0:
256,192,119336,1,8,0:0:0:0:
256,192,119393,1,8,0:0:0:0:
256,192,119451,1,0,0:0:0:0:
256,192,119509,1,8,0:0:0:0:
256,192,119566,1,0,0:0:0:0:
256,192,119624,1,0,0:0:0:0:
256,192,119682,1,8,0:0:0:0:
256,192,119739,1,8,0:0:0:0:
256,192,119797,1,0,0:0:0:0:
256,192,119855,1,0,0:0:0:0:
256,192,119912,1,8,0:0:0:0:
256,192,120028,1,4,0:0:0:0:
256,192,120259,1,8,0:0:0:0:
256,192,120374,1,0,0:0:0:0:
256,192,120605,1,8,0:0:0:0:
256,192,120720,1,0,0:0:0:0:
256,192,120951,1,8,0:0:0:0:
256,192,121066,1,0,0:0:0:0:
256,192,121182,1,8,0:0:0:0:
256,192,121297,1,8,0:0:0:0:
256,192,121412,1,0,0:0:0:0:
256,192,121528,1,0,0:0:0:0:
256,192,121586,1,0,0:0:0:0:
256,192,121643,1,8,0:0:0:0:
256,192,121759,1,8,0:0:0:0:
256,192,121874,1,0,0:0:0:0:
256,192,122105,1,8,0:0:0:0:
256,192,122220,1,0,0:0:0:0:
256,192,122451,1,8,0:0:0:0:
256,192,122566,1,0,0:0:0:0:
256,192,122797,1,8,0:0:0:0:
256,192,122912,1,0,0:0:0:0:
256,192,123028,1,8,0:0:0:0:
256,192,123143,1,8,0:0:0:0:
256,192,123201,1,8,0:0:0:0:
256,192,123259,1,0,0:0:0:0:
256,192,123374,1,0,0:0:0:0:
256,192,123489,1,8,0:0:0:0:
256,192,123720,1,0,0:0:0:0:
256,192,123951,1,8,0:0:0:0:
256,192,124066,1,0,0:0:0:0:
256,192,124297,1,8,0:0:0:0:
256,192,124412,1,0,0:0:0:0:
256,192,124643,1,8,0:0:0:0:
256,192,124759,1,0,0:0:0:0:
256,192,124989,1,8,0:0:0:0:
256,192,125105,1,0,0:0:0:0:
256,192,125220,1,8,0:0:0:0:
256,192,125336,1,0,0:0:0:0:
256,192,125451,1,0,0:0:0:0:
256,192,125566,1,8,0:0:0:0:
256,192,125682,1,0,0:0:0:0:
256,192,125797,1,0,0:0:0:0:
256,192,125912,1,0,0:0:0:0:
256,192,126028,1,12,0:0:0:0:
256,192,126259,1,0,0:0:0:0:
256,192,126374,1,8,0:0:0:0:
256,192,126489,1,0,0:0:0:0:
256,192,126720,1,12,0:0:0:0:
256,192,126951,1,8,0:0:0:0:
256,192,127066,1,0,0:0:0:0:
256,192,127182,1,0,0:0:0:0:
256,192,127297,1,8,0:0:0:0:
256,192,127355,1,8,0:0:0:0:
256,192,127412,1,0,0:0:0:0:
256,192,127643,1,8,0:0:0:0:
256,192,127759,1,0,0:0:0:0:
256,192,127989,1,8,0:0:0:0:
256,192,128105,1,0,0:0:0:0:
256,192,128336,1,8,0:0:0:0:
256,192,128451,1,0,0:0:0:0:
256,192,128566,1,8,0:0:0:0:
256,192,128682,1,8,0:0:0:0:
256,192,128797,1,0,0:0:0:0:
256,192,128912,1,0,0:0:0:0:
256,192,128970,1,0,0:0:0:0:
256,192,129028,1,8,0:0:0:0:
256,192,129143,1,8,0:0:0:0:
256,192,129259,1,0,0:0:0:0:
256,192,129489,1,8,0:0:0:0:
256,192,129605,1,0,0:0:0:0:
256,192,129836,1,8,0:0:0:0:
256,192,129951,1,0,0:0:0:0:
256,192,130182,1,8,0:0:0:0:
256,192,130297,1,0,0:0:0:0:
256,192,130412,1,8,0:0:0:0:
256,192,130528,1,8,0:0:0:0:
256,192,130586,1,8,0:0:0:0:
256,192,130643,1,0,0:0:0:0:
256,192,130759,1,0,0:0:0:0:
256,192,130874,1,8,0:0:0:0:
256,192,131105,1,0,0:0:0:0:
256,192,131336,1,8,0:0:0:0:
256,192,131451,1,0,0:0:0:0:
256,192,131682,1,8,0:0:0:0:
256,192,131797,1,0,0:0:0:0:
256,192,132028,1,8,0:0:0:0:
256,192,132143,1,0,0:0:0:0:
256,192,132374,1,8,0:0:0:0:
256,192,132489,1,0,0:0:0:0:
256,192,132605,1,8,0:0:0:0:
256,192,132720,1,0,0:0:0:0:
256,192,132836,1,0,0:0:0:0:
256,192,132951,1,8,0:0:0:0:
256,192,133066,1,8,0:0:0:0:
256,192,133124,1,8,0:0:0:0:
256,192,133182,1,0,0:0:0:0:
256,192,133297,1,0,0:0:0:0:
256,192,133412,1,12,0:0:0:0:
256,192,133643,1,8,0:0:0:0:
256,192,133759,1,0,0:0:0:0:
256,192,133874,1,0,0:0:0:0:
256,192,133932,1,0,0:0:0:0:
256,192,133989,1,8,0:0:0:0:
256,192,134105,1,4,0:0:0:0:
256,192,134336,1,8,0:0:0:0:
256,192,134451,1,0,0:0:0:0:
256,192,134566,1,0,0:0:0:0:
256,192,134682,1,0,0:0:0:0:
256,192,134797,1,12,0:0:0:0:
256,192,134912,1,0,0:0:0:0:
256,192,135028,1,8,0:0:0:0:
256,192,135259,1,0,0:0:0:0:
256,192,135374,1,8,0:0:0:0:
256,192,135489,1,0,0:0:0:0:
256,192,135605,1,8,0:0:0:0:
256,192,135720,1,0,0:0:0:0:
256,192,135836,1,0,0:0:0:0:
256,192,135951,1,8,0:0:0:0:
256,192,136182,1,0,0:0:0:0:
256,192,136297,1,0,0:0:0:0:
256,192,136412,1,8,0:0:0:0:
256,192,136528,1,0,0:0:0:0:
256,192,136643,1,0,0:0:0:0:
256,192,136759,1,0,0:0:0:0:
256,192,136874,1,8,0:0:0:0:
256,192,137105,1,8,0:0:0:0:
256,192,137220,1,0,0:0:0:0:
256,192,137336,1,8,0:0:0:0:
256,192,137451,1,8,0:0:0:0:
256,192,137566,1,0,0:0:0:0:
256,192,137682,1,0,0:0:0:0:
256,192,137797,1,8,0:0:0:0:
256,192,138028,1,0,0:0:0:0:
256,192,138143,1,0,0:0:0:0:
256,192,138259,1,8,0:0:0:0:
256,192,138489,1,8,0:0:0:0:
256,192,138605,1,0,0:0:0:0:
256,192,138720,1,8,0:0:0:0:
256,192,138951,1,8,0:0:0:0:
256,192,139066,1,0,0:0:0:0:
256,192,139182,1,8,0:0:0:0:
256,192,139297,1,8,0:0:0:0:
256,192,139412,1,0,0:0:0:0:
256,192,139528,1,0,0:0:0:0:
256,192,139643,1,8,0:0:0:0:
256,192,139874,1,0,0:0:0:0:
256,192,139989,1,8,0:0:0:0:
256,192,140105,1,0,0:0:0:0:
256,192,140220,1,8,0:0:0:0:
256,192,140336,1,0,0:0:0:0:
256,192,140451,1,0,0:0:0:0:
256,192,140566,1,8,0:0:0:0:
256,192,140797,1,0,0:0:0:0:
256,192,140912,1,0,0:0:0:0:
256,192,141028,1,8,0:0:0:0:
256,192,141259,1,4,0:0:0:0:
256,192,141489,1,8,0:0:0:0:
256,192,141720,1,0,0:0:0:0:
256,192,141836,1,0,0:0:0:0:
256,192,141951,1,8,0:0:0:0:
256,192,142066,1,0,0:0:0:0:
256,192,142182,1,0,0:0:0:0:
256,192,142297,1,0,0:0:0:0:
256,192,142412,1,8,0:0:0:0:
256,192,142643,1,0,0:0:0:0:
256,192,142759,1,8,0:0:0:0:
256,192,142874,1,0,0:0:0:0:
256,192,142989,1,8,0:0:0:0:
256,192,143105,1,4,0:0:0:0:
256,192,143336,1,8,0:0:0:0:
256,192,143566,1,0,0:0:0:0:
256,192,143682,1,0,0:0:0:0:
256,192,143797,1,8,0:0:0:0:
256,192,143912,1,8,0:0:0:0:
256,192,144028,1,0,0:0:0:0:
256,192,144259,1,8,0:0:0:0:
256,192,144489,1,0,0:0:0:0:
256,192,144605,1,0,0:0:0:0:
256,192,144720,1,8,0:0:0:0:
256,192,144951,1,4,0:0:0:0:
256,192,145182,1,8,0:0:0:0:
256,192,145412,1,0,0:0:0:0:
256,192,145528,1,0,0:0:0:0:
256,192,145643,1,8,0:0:0:0:
256,192,145759,1,8,0:0:0:0:
256,192,145874,1,0,0:0:0:0:
256,192,145989,1,0,0:0:0:0:
256,192,146105,1,8,0:0:0:0:
256,192,146336,1,8,0:0:0:0:
256,192,146451,1,0,0:0:0:0:
256,192,146566,1,8,0:0:0:0:
256,192,146797,1,0,0:0:0:0:
256,192,146912,1,0,0:0:0:0:
256,192,147028,1,8,0:0:0:0:
256,192,147143,1,0,0:0:0:0:
256,192,147259,1,0,0:0:0:0:
256,192,147374,1,0,0:0:0:0:
256,192,147489,1,8,0:0:0:0:
256,192,147605,1,0,0:0:0:0:
256,192,147720,1,0,0:0:0:0:
256,192,147951,1,8,0:0:0:0:
256,192,148182,1,0,0:0:0:0:
256,192,148297,1,0,0:0:0:0:
256,192,148412,1,8,0:0:0:0:
256,192,148528,1,8,0:0:0:0:
256,192,148643,1,0,0:0:0:0:
256,192,148759,1,0,0:0:0:0:
256,192,148816,1,0,0:0:0:0:
256,192,148874,1,8,0:0:0:0:
256,192,148989,1,0,0:0:0:0:
256,192,149105,1,0,0:0:0:0:
256,192,149220,1,8,0:0:0:0:
256,192,149336,1,0,0:0:0:0:
256,192,149451,1,8,0:0:0:0:
256,192,149566,1,4,0:0:0:0:
256,192,150489,1,4,0:0:0:0:
256,192,151412,1,4,0:0:0:0:
256,192,152220,1,8,0:0:0:0:
256,192,152278,1,8,0:0:0:0:
256,192,152336,1,8,0:0:0:0:
256,192,152451,1,8,0:0:0:0:
256,192,152566,1,0,0:0:0:0:
256,192,152682,1,8,0:0:0:0:
256,192,152797,1,0,0:0:0:0:
256,192,152912,1,0,0:0:0:0:
256,192,153028,1,8,0:0:0:0:
256,192,153143,1,8,0:0:0:0:
256,192,153259,1,4,0:0:0:0:
256,192,153605,1,8,0:0:0:0:
256,192,153951,1,8,0:0:0:0:
256,192,154182,1,0,0:0:0:0:
256,192,154528,1,8,0:0:0:0:
256,192,154874,1,0,0:0:0:0:
256,192,155105,1,8,0:0:0:0:
256,192,155451,1,0,0:0:0:0:
256,192,155682,1,8,0:0:0:0:
256,192,156028,1,8,0:0:0:0:
256,192,156086,1,8,0:0:0:0:
256,192,156143,1,8,0:0:0:0:
256,192,156259,1,8,0:0:0:0:
256,192,156374,1,0,0:0:0:0:
256,192,156432,1,0,0:0:0:0:
256,192,156489,1,8,0:0:0:0:
256,192,156605,1,0,0:0:0:0:
256,192,156720,1,8,0:0:0:0:
256,192,156836,1,8,0:0:0:0:
256,192,156951,1,4,0:0:0:0:
256,192,157297,1,8,0:0:0:0:
256,192,157643,1,0,0:0:0:0:
256,192,157874,1,8,0:0:0:0:
256,192,158336,1,0,0:0:0:0:
256,192,158566,1,0,0:0:0:0:
256,192,158797,1,12,0:0:0:0:
256,192,159143,1,8,0:0:0:0:
256,192,159259,1,0,0:0:0:0:
256,192,159489,1,0,0:0:0:0:
256,192,159605,1,8,0:0:0:0:
256,192,159662,1,8,0:0:0:0:
256,192,159720,1,8,0:0:0:0:
256,192,159836,1,0,0:0:0:0:
256,192,159951,1,8,0:0:0:0:
256,192,160066,1,8,0:0:0:0:
256,192,160182,1,0,0:0:0:0:
256,192,160297,1,0,0:0:0:0:
256,192,160412,1,8,0:0:0:0:
256,192,160528,1,0,0:0:0:0:
256,192,160643,1,12,0:0:0:0:
256,192,160874,1,8,0:0:0:0:
256,192,161105,1,0,0:0:0:0:
256,192,161220,1,0,0:0:0:0:
256,192,161336,1,8,0:0:0:0:
256,192,161566,1,0,0:0:0:0:
256,192,161797,1,8,0:0:0:0:
256,192,162028,1,0,0:0:0:0:
256,192,162143,1,0,0:0:0:0:
256,192,162259,1,8,0:0:0:0:
256,192,162374,1,8,0:0:0:0:
256,192,162489,1,4,0:0:0:0:
256,192,162720,1,8,0:0:0:0:
256,192,162951,1,0,0:0:0:0:
256,192,163066,1,0,0:0:0:0:
256,192,163182,1,8,0:0:0:0:
256,192,163412,1,12,0:0:0:0:
256,192,163643,1,12,0:0:0:0:
256,192,163874,1,0,0:0:0:0:
256,192,164105,1,8,0:0:0:0:
256,192,164336,1,0,0:0:0:0:
256,192,164566,1,8,0:0:0:0:
256,192,164682,1,8,0:0:0:0:
256,192,164797,1,0,0:0:0:0:
256,192,165028,1,8,0:0:0:0:
256,192,165143,1,8,0:0:0:0:
256,192,165201,1,0,0:0:0:0:
256,192,165259,1,8,0:0:0:0:
256,192,165374,1,8,0:0:0:0:
256,192,165489,1,0,0:0:0:0:
256,192,165605,1,8,0:0:0:0:
256,192,165662,1,8,0:0:0:0:
256,192,165720,1,0,0:0:0:0:
256,192,165778,1,0,0:0:0:0:
256,192,165836,1,8,0:0:0:0:
256,192,165893,1,0,0:0:0:0:
256,192,165951,1,8,0:0:0:0:
256,192,166009,1,8,0:0:0:0:
256,192,166066,1,8,0:0:0:0:
256,192,166124,1,8,0:0:0:0:
256,192,166182,1,4,0:0:0:0:
256,192,166412,1,8,0:0:0:0:
256,192,166643,1,0,0:0:0:0:
256,192,166759,1,0,0:0:0:0:
256,192,166874,1,8,0:0:0:0:
256,192,166989,1,8,0:0:0:0:
256,192,167047,1,8,0:0:0:0:
256,192,167105,1,0,0:0:0:0:
256,192,167220,1,0,0:0:0:0:
256,192,167336,1,8,0:0:0:0:
256,192,167393,1,8,0:0:0:0:
256,192,167451,1,0,0:0:0:0:
256,192,167509,1,0,0:0:0:0:
256,192,167566,1,8,0:0:0:0:
256,192,167682,1,0,0:0:0:0:
256,192,167797,1,8,0:0:0:0:
256,192,167912,1,0,0:0:0:0:
256,192,168028,1,8,0:0:0:0:
256,192,168086,1,8,0:0:0:0:
256,192,168143,1,0,0:0:0:0:
256,192,168259,1,0,0:0:0:0:
256,192,168374,1,8,0:0:0:0:
256,192,168432,1,8,0:0:0:0:
256,192,168489,1,0,0:0:0:0:
256,192,168605,1,0,0:0:0:0:
256,192,168662,1,0,0:0:0:0:
256,192,168720,1,8,0:0:0:0:
256,192,168836,1,8,0:0:0:0:
256,192,168951,1,0,0:0:0:0:
256,192,169182,1,8,0:0:0:0:
256,192,169297,1,0,0:0:0:0:
256,192,169412,1,8,0:0:0:0:
256,192,169528,1,0,0:0:0:0:
256,192,169586,1,0,0:0:0:0:
256,192,169643,1,8,0:0:0:0:
256,192,169701,1,8,0:0:0:0:
256,192,169759,1,0,0:0:0:0:
256,192,169816,1,0,0:0:0:0:
256,192,169874,1,8,0:0:0:0:
256,192,170105,1,8,0:0:0:0:
256,192,170336,1,0,0:0:0:0:
256,192,170451,1,0,0:0:0:0:
256,192,170566,1,8,0:0:0:0:
256,192,170682,1,8,0:0:0:0:
256,192,170739,1,0,0:0:0:0:
256,192,170797,1,8,0:0:0:0:
256,192,170912,1,0,0:0:0:0:
256,192,171028,1,8,0:0:0:0:
256,192,171086,1,8,0:0:0:0:
256,192,171143,1,0,0:0:0:0:
256,192,171201,1,0,0:0:0:0:
256,192,171259,1,8,0:0:0:0:
256,192,171374,1,0,0:0:0:0:
256,192,171489,1,8,0:0:0:0:
256,192,171605,1,8,0:0:0:0:
256,192,171720,1,0,0:0:0:0:
256,192,171778,1,0,0:0:0:0:
256,192,171836,1,0,0:0:0:0:
256,192,171951,1,8,0:0:0:0:
256,192,172066,1,0,0:0:0:0:
256,192,172182,1,8,0:0:0:0:
256,192,172239,1,8,0:0:0:0:
256,192,172297,1,0,0:0:0:0:
256,192,172412,1,8,0:0:0:0:
256,192,172528,1,0,0:0:0:0:
256,192,172643,1,8,0:0:0:0:
256,192,172701,1,0,0:0:0:0:
256,192,172759,1,8,0:0:0:0:
256,192,172816,1,8,0:0:0:0:
256,192,172874,1,0,0:0:0:0:
256,192,172989,1,0,0:0:0:0:
256,192,173105,1,8,0:0:0:0:
256,192,173162,1,0,0:0:0:0:
256,192,173220,1,8,0:0:0:0:
256,192,173278,1,8,0:0:0:0:
256,192,173336,1,8,0:0:0:0:
256,192,173393,1,8,0:0:0:0:
256,192,173451,1,0,0:0:0:0:
256,192,173566,1,8,0:0:0:0:
256,192,173797,1,8,0:0:0:0:
256,192,173912,1,8,0:0:0:0:
256,192,174028,1,0,0:0:0:0:
256,192,174143,1,0,0:0:0:0:
256,192,174201,1,0,0:0:0:0:
256,192,174259,1,8,0:0:0:0:
256,192,174374,1,8,0:0:0:0:
256,192,174489,1,0,0:0:0:0:
256,192,174720,1,8,0:0:0:0:
256,192,174836,1,0,0:0:0:0:
256,192,174951,1,0,0:0:0:0:
256,192,175066,1,0,0:0:0:0:
256,192,175124,1,0,0:0:0:0:
256,192,175182,1,8,0:0:0:0:
256,192,175239,1,8,0:0:0:0:
256,192,175297,1,0,0:0:0:0:
256,192,175355,1,0,0:0:0:0:
256,192,175412,1,8,0:0:0:0:
256,192,175528,1,0,0:0:0:0:
256,192,175643,1,8,0:0:0:0:
256,192,175759,1,8,0:0:0:0:
256,192,175816,1,8,0:0:0:0:
256,192,175874,1,0,0:0:0:0:
256,192,175989,1,0,0:0:0:0:
256,192,176105,1,8,0:0:0:0:
256,192,176220,1,8,0:0:0:0:
256,192,176336,1,0,0:0:0:0:
256,192,176566,1,8,0:0:0:0:
256,192,176682,1,0,0:0:0:0:
256,192,176797,1,8,0:0:0:0:
256,192,176855,1,0,0:0:0:0:
256,192,176912,1,8,0:0:0:0:
256,192,176970,1,8,0:0:0:0:
256,192,177028,1,0,0:0:0:0:
256,192,177086,1,8,0:0:0:0:
256,192,177143,1,0,0:0:0:0:
256,192,177201,1,0,0:0:0:0:
256,192,177259,1,8,0:0:0:0:
256,192,177374,1,0,0:0:0:0:
256,192,177489,1,8,0:0:0:0:
256,192,177605,1,0,0:0:0:0:
256,192,177662,1,0,0:0:0:0:
256,192,177720,1,8,0:0:0:0:
256,192,177778,1,8,0:0:0:0:
256,192,177836,1,0,0:0:0:0:
256,192,177951,1,8,0:0:0:0:
256,192,178066,1,0,0:0:0:0:
256,192,178182,1,8,0:0:0:0:
256,192,178412,1,0,0:0:0:0:
256,192,178643,1,8,0:0:0:0:
256,192,178759,1,0,0:0:0:0:
256,192,178874,1,8,0:0:0:0:
256,192,178932,1,8,0:0:0:0:
256,192,178989,1,0,0:0:0:0:
256,192,179047,1,0,0:0:0:0:
256,192,179105,1,0,0:0:0:0:
256,192,179220,1,8,0:0:0:0:
256,192,179336,1,0,0:0:0:0:
256,192,179566,1,8,0:0:0:0:
256,192,179682,1,8,0:0:0:0:
256,192,179739,1,0,0:0:0:0:
256,192,179797,1,8,0:0:0:0:
256,192,179855,1,8,0:0:0:0:
256,192,179912,1,0,0:0:0:0:
256,192,179970,1,8,0:0:0:0:
256,192,180028,1,0,0:0:0:0:
256,192,180086,1,0,0:0:0:0:
256,192,180143,1,0,0:0:0:0:
256,192,180201,1,0,0:0:0:0:
256,192,180259,1,8,0:0:0:0:
256,192,180316,1,8,0:0:0:0:
256,192,180374,1,0,0:0:0:0:
256,192,180432,1,0,0:0:0:0:
256,192,180489,1,8,0:0:0:0:
256,192,180547,1,0,0:0:0:0:
256,192,180605,1,8,0:0:0:0:
256,192,180662,1,8,0:0:0:0:
256,192,180720,1,0,0:0:0:0:
256,192,180778,1,8,0:0:0:0:
256,192,180836,1,0,0:0:0:0:
256,192,180951,1,12,0:0:0:0:
256,192,181182,1,8,0:0:0:0:
256,192,181412,1,0,0:0:0:0:
256,192,181643,1,8,0:0:0:0:
256,192,181759,1,0,0:0:0:0:
256,192,181874,1,0,0:0:0:0:
256,192,182105,1,8,0:0:0:0:
256,192,182220,1,8,0:0:0:0:
256,192,182336,1,0,0:0:0:0:
256,192,182451,1,0,0:0:0:0:
256,192,182566,1,0,0:0:0:0:
256,192,182682,1,8,0:0:0:0:
256,192,182912,1,0,0:0:0:0:
256,192,183028,1,8,0:0:0:0:
256,192,183259,1,0,0:0:0:0:
256,192,183374,1,8,0:0:0:0:
256,192,183489,1,8,0:0:0:0:
256,192,183605,1,0,0:0:0:0:
256,192,183720,1,8,0:0:0:0:
256,192,183951,1,8,0:0:0:0:
256,192,184066,1,8,0:0:0:0:
256,192,184182,1,0,0:0:0:0:
256,192,184297,1,0,0:0:0:0:
256,192,184412,1,8,0:0:0:0:
256,192,184643,1,4,0:0:0:0:
256,192,184874,1,8,0:0:0:0:
256,192,184989,1,0,0:0:0:0:
256,192,185105,1,8,0:0:0:0:
256,192,185220,1,8,0:0:0:0:
256,192,185336,1,0,0:0:0:0:
256,192,185451,1,0,0:0:0:0:
256,192,185566,1,8,0:0:0:0:
256,192,185797,1,8,0:0:0:0:
256,192,186028,1,0,0:0:0:0:
256,192,186143,1,8,0:0:0:0:
256,192,186374,1,8,0:0:0:0:
256,192,186605,1,0,0:0:0:0:
256,192,186720,1,8,0:0:0:0:
256,192,186951,1,8,0:0:0:0:
256,192,187066,1,0,0:0:0:0:
256,192,187182,1,8,0:0:0:0:
256,192,187297,1,8,0:0:0:0:
256,192,187412,1,0,0:0:0:0:
256,192,187643,1,8,0:0:0:0:
256,192,187874,1,0,0:0:0:0:
256,192,187989,1,0,0:0:0:0:
256,192,188105,1,8,0:0:0:0:
256,192,188220,1,8,0:0:0:0:
256,192,188336,1,4,0:0:0:0:
256,192,188566,1,8,0:0:0:0:
256,192,188797,1,0,0:0:0:0:
256,192,188912,1,0,0:0:0:0:
256,192,189028,1,8,0:0:0:0:
256,192,189259,1,0,0:0:0:0:
256,192,189489,1,8,0:0:0:0:
256,192,189720,1,0,0:0:0:0:
256,192,189836,1,0,0:0:0:0:
256,192,189951,1,8,0:0:0:0:
256,192,190066,1,8,0:0:0:0:
256,192,190182,1,0,0:0:0:0:
256,192,190412,1,8,0:0:0:0:
256,192,190528,1,0,0:0:0:0:
256,192,190643,1,8,0:0:0:0:
256,192,190874,1,0,0:0:0:0:
256,192,191105,1,8,0:0:0:0:
256,192,191336,1,8,0:0:0:0:
256,192,191451,1,8,0:0:0:0:
256,192,191566,1,0,0:0:0:0:
256,192,191682,1,0,0:0:0:0:
256,192,191797,1,8,0:0:0:0:
256,192,191912,1,8,0:0:0:0:
256,192,192028,1,4,0:0:0:0:
256,192,192259,1,8,0:0:0:0:
256,192,192489,1,0,0:0:0:0:
256,192,192605,1,0,0:0:0:0:
256,192,192720,1,8,0:0:0:0:
256,192,192951,1,0,0:0:0:0:
256,192,193182,1,8,0:0:0:0:
256,192,193297,1,0,0:0:0:0:
256,192,193412,1,8,0:0:0:0:
256,192,193643,1,0,0:0:0:0:
256,192,193759,1,0,0:0:0:0:
256,192,193874,1,12,0:0:0:0:
256,192,194105,1,8,0:0:0:0:
256,192,194220,1,0,0:0:0:0:
256,192,194336,1,8,0:0:0:0:
256,192,194566,1,8,0:0:0:0:
256,192,194682,1,8,0:0:0:0:
256,192,194797,1,0,0:0:0:0:
256,192,194912,1,0,0:0:0:0:
256,192,195028,1,8,0:0:0:0:
256,192,195143,1,0,0:0:0:0:
256,192,195259,1,8,0:0:0:0:
256,192,195489,1,8,0:0:0:0:
256,192,195605,1,0,0:0:0:0:
256,192,195720,1,8,0:0:0:0:
256,192,195836,1,8,0:0:0:0:
256,192,195893,1,0,0:0:0:0:
256,192,195951,1,8,0:0:0:0:
256,192,196066,1,0,0:0:0:0:
256,192,196182,1,8,0:0:0:0:
256,192,196239,1,8,0:0:0:0:
256,192,196297,1,0,0:0:0:0:
256,192,196355,1,0,0:0:0:0:
256,192,196412,1,8,0:0:0:0:
256,192,196470,1,0,0:0:0:0:
256,192,196528,1,0,0:0:0:0:
256,192,196586,1,0,0:0:0:0:
256,192,196643,1,8,0:0:0:0:
256,192,196701,1,8,0:0:0:0:
256,192,196759,1,0,0:0:0:0:
256,192,196816,1,0,0:0:0:0:
256,192,196874,1,8,0:0:0:0:
256,192,196932,1,8,0:0:0:0:
256,192,196989,1,0,0:0:0:0:
256,192,197047,1,8,0:0:0:0:
256,192,197105,1,0,0:0:0:0:
256,192,197162,1,0,0:0:0:0:
256,192,197220,1,8,0:0:0:0:
256,192,197278,1,8,0:0:0:0:
256,192,197336,1,0,0:0:0:0:
256,192,197393,1,0,0:0:0:0:
256,192,197451,1,8,0:0:0:0:
256,192,197566,1,4,0:0:0:0:
256,192,197797,1,8,0:0:0:0:
256,192,197912,1,0,0:0:0:0:
256,192,198028,1,0,0:0:0:0:
256,192,198143,1,8,0:0:0:0:
256,192,198201,1,0,0:0:0:0:
256,192,198259,1,8,0:0:0:0:
256,192,198316,1,8,0:0:0:0:
256,192,198374,1,0,0:0:0:0:
256,192,198489,1,8,0:0:0:0:
256,192,198605,1,0,0:0:0:0:
256,192,198720,1,8,0:0:0:0:
256,192,198836,1,8,0:0:0:0:
256,192,198893,1,8,0:0:0:0:
256,192,198951,1,0,0:0:0:0:
256,192,199066,1,0,0:0:0:0:
256,192,199182,1,8,0:0:0:0:
256,192,199297,1,8,0:0:0:0:
256,192,199412,1,0,0:0:0:0:
256,192,199643,1,8,0:0:0:0:
256,192,199759,1,0,0:0:0:0:
256,192,199874,1,8,0:0:0:0:
256,192,199932,1,8,0:0:0:0:
256,192,199989,1,0,0:0:0:0:
256,192,200047,1,0,0:0:0:0:
256,192,200105,1,8,0:0:0:0:
256,192,200220,1,0,0:0:0:0:
256,192,200336,1,8,0:0:0:0:
256,192,200393,1,8,0:0:0:0:
256,192,200451,1,0,0:0:0:0:
256,192,200566,1,8,0:0:0:0:
256,192,200682,1,0,0:0:0:0:
256,192,200797,1,8,0:0:0:0:
256,192,200855,1,0,0:0:0:0:
256,192,200912,1,8,0:0:0:0:
256,192,200970,1,8,0:0:0:0:
256,192,201028,1,0,0:0:0:0:
256,192,201086,1,0,0:0:0:0:
256,192,201143,1,0,0:0:0:0:
256,192,201201,1,0,0:0:0:0:
256,192,201259,1,8,0:0:0:0:
256,192,201374,1,0,0:0:0:0:
256,192,201489,1,8,0:0:0:0:
256,192,201605,1,0,0:0:0:0:
256,192,201662,1,0,0:0:0:0:
256,192,201720,1,8,0:0:0:0:
256,192,201836,1,0,0:0:0:0:
256,192,201951,1,8,0:0:0:0:
256,192,202009,1,8,0:0:0:0:
256,192,202066,1,0,0:0:0:0:
256,192,202124,1,0,0:0:0:0:
256,192,202182,1,8,0:0:0:0:
256,192,202297,1,0,0:0:0:0:
256,192,202355,1,0,0:0:0:0:
256,192,202412,1,8,0:0:0:0:
256,192,202528,1,8,0:0:0:0:
256,192,202643,1,0,0:0:0:0:
256,192,202759,1,8,0:0:0:0:
256,192,202874,1,0,0:0:0:0:
256,192,202932,1,0,0:0:0:0:
256,192,202989,1,8,0:0:0:0:
256,192,203047,1,8,0:0:0:0:
256,192,203105,1,0,0:0:0:0:
256,192,203336,1,8,0:0:0:0:
256,192,203451,1,0,0:0:0:0:
256,192,203566,1,8,0:0:0:0:
256,192,203624,1,8,0:0:0:0:
256,192,203682,1,8,0:0:0:0:
256,192,203739,1,8,0:0:0:0:
256,192,203797,1,0,0:0:0:0:
256,192,203912,1,0,0:0:0:0:
256,192,204028,1,8,0:0:0:0:
256,192,204086,1,0,0:0:0:0:
256,192,204143,1,0,0:0:0:0:
256,192,204201,1,0,0:0:0:0:
256,192,204259,1,8,0:0:0:0:
256,192,204374,1,0,0:0:0:0:
256,192,204489,1,8,0:0:0:0:
256,192,204547,1,8,0:0:0:0:
256,192,204605,1,0,0:0:0:0:
256,192,204662,1,0,0:0:0:0:
256,192,204720,1,8,0:0:0:0:
256,192,204778,1,8,0:0:0:0:
256,192,204836,1,8,0:0:0:0:
256,192,204893,1,8,0:0:0:0:
256,192,204951,1,0,0:0:0:0:
256,192,205182,1,8,0:0:0:0:
256,192,205297,1,0,0:0:0:0:
256,192,205355,1,0,0:0:0:0:
256,192,205412,1,8,0:0:0:0:
256,192,205528,1,0,0:0:0:0:
256,192,205643,1,8,0:0:0:0:
256,192,205759,1,8,0:0:0:0:
256,192,205874,1,0,0:0:0:0:
256,192,205989,1,8,0:0:0:0:
256,192,206047,1,8,0:0:0:0:
256,192,206105,1,0,0:0:0:0:
256,192,206220,1,8,0:0:0:0:
256,192,206336,1,0,0:0:0:0:
256,192,206451,1,0,0:0:0:0:
256,192,206509,1,0,0:0:0:0:
256,192,206566,1,8,0:0:0:0:
256,192,206682,1,8,0:0:0:0:
256,192,206797,1,0,0:0:0:0:
256,192,207028,1,8,0:0:0:0:
256,192,207143,1,0,0:0:0:0:
256,192,207259,1,8,0:0:0:0:
256,192,207316,1,8,0:0:0:0:
256,192,207374,1,0,0:0:0:0:
256,192,207432,1,0,0:0:0:0:
256,192,207489,1,8,0:0:0:0:
256,192,207605,1,0,0:0:0:0:
256,192,207720,1,8,0:0:0:0:
256,192,207778,1,8,0:0:0:0:
256,192,207836,1,8,0:0:0:0:
256,192,207893,1,8,0:0:0:0:
256,192,207951,1,0,0:0:0:0:
256,192,208066,1,0,0:0:0:0:
256,192,208182,1,8,0:0:0:0:
256,192,208239,1,0,0:0:0:0:
256,192,208297,1,8,0:0:0:0:
256,192,208355,1,8,0:0:0:0:
256,192,208412,1,0,0:0:0:0:
256,192,208470,1,0,0:0:0:0:
256,192,208528,1,8,0:0:0:0:
256,192,208586,1,0,0:0:0:0:
256,192,208643,1,8,0:0:0:0:
256,192,208874,1,8,0:0:0:0:
256,192,208989,1,0,0:0:0:0:
256,192,209047,1,0,0:0:0:0:
256,192,209105,1,8,0:0:0:0:
256,192,209220,1,0,0:0:0:0:
256,192,209336,1,8,0:0:0:0:
256,192,209451,1,0,0:0:0:0:
256,192,209509,1,0,0:0:0:0:
256,192,209566,1,8,0:0:0:0:
256,192,209624,1,8,0:0:0:0:
256,192,209682,1,0,0:0:0:0:
256,192,209739,1,0,0:0:0:0:
256,192,209797,1,8,0:0:0:0:
256,192,209855,1,0,0:0:0:0:
256,192,209912,1,8,0:0:0:0:
256,192,209970,1,8,0:0:0:0:
256,192,210028,1,0,0:0:0:0:
256,192,210086,1,0,0:0:0:0:
256,192,210143,1,8,0:0:0:0:
256,192,210201,1,0,0:0:0:0:
256,192,210259,1,8,0:0:0:0:
256,192,210316,1,8,0:0:0:0:
256,192,210374,1,8,0:0:0:0:
256,192,210432,1,8,0:0:0:0:
256,192,210489,1,0,0:0:0:0:
256,192,210605,1,0,0:0:0:0:
256,192,210662,1,0,0:0:0:0:
256,192,210720,1,8,0:0:0:0:
256,192,210836,1,0,0:0:0:0:
256,192,210951,1,8,0:0:0:0:
256,192,211009,1,8,0:0:0:0:
256,192,211066,1,0,0:0:0:0:
256,192,211182,1,8,0:0:0:0:
256,192,211297,1,0,0:0:0:0:
256,192,211355,1,0,0:0:0:0:
256,192,211412,1,8,0:0:0:0:
256,192,211470,1,8,0:0:0:0:
256,192,211528,1,0,0:0:0:0:
256,192,211643,1,8,0:0:0:0:
256,192,211759,1,0,0:0:0:0:
256,192,211874,1,8,0:0:0:0:
256,192,211932,1,8,0:0:0:0:
256,192,211989,1,0,0:0:0:0:
256,192,212047,1,0,0:0:0:0:
256,192,212105,1,8,0:0:0:0:
256,192,212162,1,0,0:0:0:0:
256,192,212220,1,8,0:0:0:0:
256,192,212336,1,4,0:0:0:0:
256,192,212566,1,8,0:0:0:0:
256,192,212682,1,8,0:0:0:0:
256,192,212739,1,8,0:0:0:0:
256,192,212797,1,0,0:0:0:0:
256,192,212912,1,0,0:0:0:0:
256,192,213028,1,8,0:0:0:0:
256,192,213143,1,8,0:0:0:0:
256,192,213259,1,0,0:0:0:0:
256,192,213374,1,8,0:0:0:0:
256,192,213432,1,8,0:0:0:0:
256,192,213489,1,0,0:0:0:0:
256,192,213547,1,0,0:0:0:0:
256,192,213605,1,8,0:0:0:0:
256,192,213720,1,0,0:0:0:0:
256,192,213836,1,0,0:0:0:0:
256,192,213893,1,0,0:0:0:0:
256,192,213951,1,8,0:0:0:0:
256,192,214066,1,8,0:0:0:0:
256,192,214182,1,0,0:0:0:0:
256,192,214412,1,8,0:0:0:0:
256,192,214528,1,0,0:0:0:0:
256,192,214643,1,8,0:0:0:0:
256,192,214701,1,8,0:0:0:0:
256,192,214759,1,0,0:0:0:0:
256,192,214816,1,0,0:0:0:0:
256,192,214874,1,8,0:0:0:0:
256,192,214989,1,8,0:0:0:0:
256,192,215105,1,0,0:0:0:0:
256,192,215162,1,0,0:0:0:0:
256,192,215220,1,0,0:0:0:0:
256,192,215336,1,8,0:0:0:0:
256,192,215451,1,0,0:0:0:0:
256,192,215566,1,8,0:0:0:0:
256,192,215624,1,8,0:0:0:0:
256,192,215682,1,8,0:0:0:0:
256,192,215739,1,8,0:0:0:0:
256,192,215797,1,0,0:0:0:0:
256,192,215855,1,0,0:0:0:0:
256,192,215912,1,8,0:0:0:0:
256,192,215970,1,8,0:0:0:0:
256,192,216028,1,0,0:0:0:0:
256,192,216259,1,8,0:0:0:0:
256,192,216374,1,0,0:0:0:0:
256,192,216432,1,0,0:0:0:0:
256,192,216489,1,8,0:0:0:0:
256,192,216605,1,0,0:0:0:0:
256,192,216720,1,8,0:0:0:0:
256,192,216836,1,0,0:0:0:0:
256,192,216951,1,8,0:0:0:0:
256,192,217009,1,8,0:0:0:0:
256,192,217066,1,0,0:0:0:0:
256,192,217182,1,8,0:0:0:0:
256,192,217297,1,8,0:0:0:0:
256,192,217412,1,0,0:0:0:0:
256,192,217528,1,0,0:0:0:0:
256,192,217586,1,0,0:0:0:0:
256,192,217643,1,8,0:0:0:0:
256,192,217759,1,8,0:0:0:0:
256,192,217874,1,0,0:0:0:0:
256,192,218105,1,8,0:0:0:0:
256,192,218220,1,0,0:0:0:0:
256,192,218336,1,0,0:0:0:0:
256,192,218393,1,0,0:0:0:0:
256,192,218451,1,0,0:0:0:0:
256,192,218566,1,8,0:0:0:0:
256,192,218682,1,0,0:0:0:0:
256,192,218797,1,8,0:0:0:0:
256,192,218855,1,8,0:0:0:0:
256,192,218912,1,0,0:0:0:0:
256,192,218970,1,0,0:0:0:0:
256,192,219028,1,8,0:0:0:0:
256,192,219086,1,0,0:0:0:0:
256,192,219143,1,0,0:0:0:0:
256,192,219201,1,0,0:0:0:0:
256,192,219259,1,8,0:0:0:0:
256,192,219316,1,8,0:0:0:0:
256,192,219374,1,0,0:0:0:0:
256,192,219432,1,0,0:0:0:0:
256,192,219489,1,8,0:0:0:0:
256,192,219547,1,0,0:0:0:0:
256,192,219605,1,8,0:0:0:0:
256,192,219662,1,8,0:0:0:0:
256,192,219720,1,0,0:0:0:0:
256,192,219951,1,8,0:0:0:0:
256,192,220066,1,8,0:0:0:0:
256,192,220124,1,8,0:0:0:0:
256,192,220182,1,0,0:0:0:0:
256,192,220297,1,0,0:0:0:0:
256,192,220412,1,8,0:0:0:0:
256,192,220528,1,8,0:0:0:0:
256,192,220643,1,0,0:0:0:0:
256,192,220759,1,8,0:0:0:0:
256,192,220816,1,8,0:0:0:0:
256,192,220874,1,0,0:0:0:0:
256,192,220932,1,0,0:0:0:0:
256,192,220989,1,8,0:0:0:0:
256,192,221105,1,0,0:0:0:0:
256,192,221220,1,0,0:0:0:0:
256,192,221336,1,8,0:0:0:0:
256,192,221451,1,8,0:0:0:0:
256,192,221509,1,8,0:0:0:0:
256,192,221566,1,0,0:0:0:0:
256,192,221797,1,8,0:0:0:0:
256,192,221912,1,8,0:0:0:0:
256,192,222028,1,0,0:0:0:0:
256,192,222086,1,0,0:0:0:0:
256,192,222143,1,0,0:0:0:0:
256,192,222259,1,8,0:0:0:0:
256,192,222374,1,0,0:0:0:0:
256,192,222489,1,8,0:0:0:0:
256,192,222547,1,8,0:0:0:0:
256,192,222605,1,0,0:0:0:0:
256,192,222662,1,0,0:0:0:0:
256,192,222720,1,8,0:0:0:0:
256,192,222836,1,0,0:0:0:0:
256,192,222951,1,8,0:0:0:0:
256,192,223009,1,8,0:0:0:0:
256,192,223066,1,0,0:0:0:0:
256,192,223124,1,0,0:0:0:0:
256,192,223182,1,8,0:0:0:0:
256,192,223239,1,0,0:0:0:0:
256,192,223297,1,8,0:0:0:0:
256,192,223355,1,8,0:0:0:0:
256,192,223412,1,0,0:0:0:0:
256,192,223643,1,8,0:0:0:0:
256,192,223759,1,8,0:0:0:0:
256,192,223816,1,8,0:0:0:0:
256,192,223874,1,0,0:0:0:0:
256,192,223989,1,0,0:0:0:0:
256,192,224105,1,8,0:0:0:0:
256,192,224220,1,0,0:0:0:0:
256,192,224278,1,0,0:0:0:0:
256,192,224336,1,8,0:0:0:0:
256,192,224393,1,8,0:0:0:0:
256,192,224451,1,0,0:0:0:0:
256,192,224566,1,8,0:0:0:0:
256,192,224682,1,8,0:0:0:0:
256,192,224797,1,0,0:0:0:0:
256,192,224912,1,0,0:0:0:0:
256,192,224970,1,0,0:0:0:0:
256,192,225028,1,8,0:0:0:0:
256,192,225143,1,8,0:0:0:0:
256,192,225259,1,4,0:0:0:0:
256,192,225489,1,8,0:0:0:0:
256,192,225605,1,8,0:0:0:0:
256,192,225720,1,0,0:0:0:0:
256,192,225836,1,0,0:0:0:0:
256,192,225893,1,0,0:0:0:0:
256,192,225951,1,8,0:0:0:0:
256,192,226066,1,0,0:0:0:0:
256,192,226182,1,0,0:0:0:0:
256,192,226297,1,0,0:0:0:0:
256,192,226412,1,8,0:0:0:0:
256,192,226528,1,8,0:0:0:0:
256,192,226643,1,0,0:0:0:0:
256,192,226759,1,0,0:0:0:0:
256,192,226874,1,8,0:0:0:0:
256,192,226989,1,8,0:0:0:0:
256,192,227105,1,0,0:0:0:0:
256,192,227797,1,8,0:0:0:0:
256,192,228489,1,0,0:0:0:0:
256,192,228951,1,0,0:0:0:0:
256,192,229181,1,8,0:0:0:0:
256,192,229643,1,0,0:0:0:0:
256,192,229874,1,8,0:0:0:0:
256,192,230105,1,8,0:0:0:0:
256,192,230335,1,0,0:0:0:0:
256,192,230566,1,8,0:0:0:0:
256,192,230797,1,0,0:0:0:0:
256,192,231489,1,8,0:0:0:0:
256,192,232181,1,0,0:0:0:0:
256,192,233566,1,0,0:0:0:0:
256,192,233797,1,8,0:0:0:0:
256,192,234028,1,8,0:0:0:0:
256,192,234258,1,8,0:0:0:0:
256,192,234489,1,0,0:0:0:0:
256,192,235181,1,0,0:0:0:0:
256,192,235874,1,8,0:0:0:0:
256,192,237028,1,8,0:0:0:0:
256,192,237258,1,8,0:0:0:0:
256,192,237720,1,0,0:0:0:0:
256,192,238181,1,8,0:0:0:0:
256,192,239105,1,0,0:0:0:0:
256,192,241643,1,0,0:0:0:0:
256,192,241874,1,8,0:0:0:0:
256,192,244874,1,8,0:0:0:0:
256,192,245335,1,0,0:0:0:0:
256,192,246027,1,8,0:0:0:0:
256,192,247642,1,8,0:0:0:0:
256,192,247873,1,0,0:0:0:0:
256,192,248335,1,0,0:0:0:0:
256,192,248565,1,8,0:0:0:0:
256,192,248796,1,0,0:0:0:0:
256,192,249027,1,8,0:0:0:0:
256,192,249950,1,0,0:0:0:0:
256,192,250642,1,8,0:0:0:0:
256,192,251450,1,8,0:0:0:0:
256,192,252603,1,8,0:0:0:0:
256,192,253995,1,0,0:0:0:0:
256,192,256380,1,8,0:0:0:0:
256,192,257647,1,8,0:0:0:0:
256,192,258792,1,8,0:0:0:0:
256,192,263097,1,4,0:0:0:0:
256,192,263212,1,8,0:0:0:0:
256,192,263327,1,0,0:0:0:0:
256,192,263443,1,0,0:0:0:0:
256,192,263558,1,8,0:0:0:0:
256,192,263673,1,0,0:0:0:0:
256,192,263731,1,0,0:0:0:0:
256,192,263789,1,8,0:0:0:0:
256,192,264020,1,0,0:0:0:0:
256,192,264135,1,8,0:0:0:0:
256,192,264250,1,0,0:0:0:0:
256,192,264366,1,0,0:0:0:0:
256,192,264423,1,0,0:0:0:0:
256,192,264481,1,8,0:0:0:0:
256,192,264597,1,0,0:0:0:0:
256,192,264712,1,8,0:0:0:0:
256,192,264943,1,0,0:0:0:0:
256,192,265058,1,8,0:0:0:0:
256,192,265116,1,8,0:0:0:0:
256,192,265173,1,8,0:0:0:0:
256,192,265289,1,0,0:0:0:0:
256,192,265404,1,8,0:0:0:0:
256,192,265520,1,0,0:0:0:0:
256,192,265577,1,0,0:0:0:0:
256,192,265635,1,8,0:0:0:0:
256,192,265693,1,8,0:0:0:0:
256,192,265750,1,0,0:0:0:0:
256,192,265866,1,0,0:0:0:0:
256,192,265981,1,8,0:0:0:0:
256,192,266039,1,0,0:0:0:0:
256,192,266097,1,8,0:0:0:0:
256,192,266154,1,8,0:0:0:0:
256,192,266212,1,0,0:0:0:0:
256,192,266327,1,8,0:0:0:0:
256,192,266443,1,0,0:0:0:0:
256,192,266500,1,0,0:0:0:0:
256,192,266558,1,8,0:0:0:0:
256,192,266673,1,8,0:0:0:0:
256,192,266789,1,0,0:0:0:0:
256,192,267020,1,8,0:0:0:0:
256,192,267135,1,8,0:0:0:0:
256,192,267193,1,8,0:0:0:0:
256,192,267250,1,0,0:0:0:0:
256,192,267366,1,0,0:0:0:0:
256,192,267481,1,8,0:0:0:0:
256,192,267597,1,8,0:0:0:0:
256,192,267654,1,8,0:0:0:0:
256,192,267712,1,0,0:0:0:0:
256,192,267770,1,0,0:0:0:0:
256,192,267827,1,8,0:0:0:0:
256,192,267943,1,0,0:0:0:0:
256,192,268058,1,0,0:0:0:0:
256,192,268116,1,0,0:0:0:0:
256,192,268173,1,8,0:0:0:0:
256,192,268231,1,8,0:0:0:0:
256,192,268289,1,0,0:0:0:0:
256,192,268404,1,8,0:0:0:0:
256,192,268462,1,8,0:0:0:0:
256,192,268520,1,0,0:0:0:0:
256,192,268635,1,0,0:0:0:0:
256,192,268866,1,8,0:0:0:0:
256,192,268981,1,0,0:0:0:0:
256,192,269039,1,0,0:0:0:0:
256,192,269097,1,8,0:0:0:0:
256,192,269212,1,0,0:0:0:0:
256,192,269327,1,8,0:0:0:0:
256,192,269443,1,0,0:0:0:0:
256,192,269500,1,0,0:0:0:0:
256,192,269558,1,8,0:0:0:0:
256,192,269616,1,8,0:0:0:0:
256,192,269673,1,0,0:0:0:0:
256,192,269789,1,8,0:0:0:0:
256,192,269904,1,0,0:0:0:0:
256,192,269962,1,0,0:0:0:0:
256,192,270020,1,8,0:0:0:0:
256,192,270135,1,0,0:0:0:0:
256,192,270250,1,0,0:0:0:0:
256,192,270366,1,8,0:0:0:0:
256,192,270423,1,8,0:0:0:0:
256,192,270481,1,0,0:0:0:0:
256,192,270539,1,0,0:0:0:0:
256,192,270597,1,8,0:0:0:0:
256,192,270654,1,0,0:0:0:0:
256,192,270712,1,8,0:0:0:0:
256,192,270770,1,8,0:0:0:0:
256,192,270827,1,8,0:0:0:0:
256,192,270885,1,8,0:0:0:0:
256,192,270943,1,0,0:0:0:0:
256,192,271000,1,0,0:0:0:0:
256,192,271058,1,8,0:0:0:0:
256,192,271116,1,0,0:0:0:0:
256,192,271173,1,8,0:0:0:0:
256,192,271231,1,8,0:0:0:0:
256,192,271289,1,0,0:0:0:0:
256,192,271347,1,0,0:0:0:0:
256,192,271404,1,8,0:0:0:0:
256,192,271462,1,0,0:0:0:0:
256,192,271520,1,8,0:0:0:0:
256,192,271577,1,0,0:0:0:0:
256,192,271635,1,8,0:0:0:0:
256,192,271693,1,8,0:0:0:0:
256,192,271750,1,0,0:0:0:0:
256,192,271808,1,0,0:0:0:0:
256,192,271866,1,8,0:0:0:0:
256,192,271923,1,8,0:0:0:0:
256,192,271981,1,0,0:0:0:0:
256,192,272039,1,0,0:0:0:0:
256,192,272097,1,8,0:0:0:0:
256,192,272154,1,8,0:0:0:0:
256,192,272212,1,8,0:0:0:0:
256,192,272270,1,8,0:0:0:0:
256,192,272327,1,0,0:0:0:0:
256,192,272385,1,0,0:0:0:0:
256,192,272443,1,8,0:0:0:0:
256,192,272500,1,0,0:0:0:0:
256,192,272558,1,8,0:0:0:0:
256,192,272616,1,8,0:0:0:0:
256,192,272673,1,0,0:0:0:0:
256,192,272731,1,8,0:0:0:0:
256,192,272789,1,0,0:0:0:0:
256,192,272847,1,0,0:0:0:0:
256,192,272904,1,0,0:0:0:0:
256,192,272962,1,0,0:0:0:0:
256,192,273020,1,8,0:0:0:0:
256,192,273077,1,8,0:0:0:0:
256,192,273135,1,0,0:0:0:0:
256,192,273193,1,0,0:0:0:0:
256,192,273250,1,8,0:0:0:0:
256,192,273308,1,0,0:0:0:0:
256,192,273366,1,0,0:0:0:0:
256,192,273423,1,0,0:0:0:0:
256,192,273481,1,8,0:0:0:0:
256,192,273539,1,8,0:0:0:0:
256,192,273597,1,0,0:0:0:0:
256,192,273654,1,0,0:0:0:0:
256,192,273712,1,8,0:0:0:0:
256,192,273770,1,8,0:0:0:0:
256,192,273827,1,0,0:0:0:0:
256,192,273885,1,8,0:0:0:0:
256,192,273943,1,0,0:0:0:0:
256,192,274058,1,8,0:0:0:0:
256,192,274173,1,0,0:0:0:0:
256,192,274231,1,0,0:0:0:0:
256,192,274289,1,8,0:0:0:0:
256,192,274347,1,0,0:0:0:0:
256,192,274404,1,8,0:0:0:0:
256,192,274462,1,8,0:0:0:0:
256,192,274520,1,0,0:0:0:0:
256,192,274635,1,8,0:0:0:0:
256,192,274750,1,0,0:0:0:0:
256,192,274808,1,0,0:0:0:0:
256,192,274866,1,8,0:0:0:0:
256,192,274923,1,8,0:0:0:0:
256,192,274981,1,0,0:0:0:0:
256,192,275097,1,0,0:0:0:0:
256,192,275212,1,8,0:0:0:0:
256,192,275270,1,8,0:0:0:0:
256,192,275327,1,0,0:0:0:0:
256,192,275443,1,0,0:0:0:0:
256,192,275558,1,8,0:0:0:0:
256,192,275673,1,0,0:0:0:0:
256,192,275789,1,8,0:0:0:0:
256,192,275847,1,8,0:0:0:0:
256,192,275904,1,8,0:0:0:0:
256,192,276020,1,4,0:0:0:0:
256,192,276250,1,8,0:0:0:0:
256,192,276366,1,0,0:0:0:0:
256,192,276481,1,12,0:0:0:0:
256,192,276597,1,0,0:0:0:0:
256,192,276712,1,0,0:0:0:0:
256,192,276827,1,0,0:0:0:0:
256,192,276943,1,12,0:0:0:0:
256,192,277058,1,0,0:0:0:0:
256,192,277173,1,0,0:0:0:0:
256,192,277289,1,0,0:0:0:0:
256,192,277404,1,12,0:0:0:0:
256,192,277520,1,0,0:0:0:0:
256,192,277635,1,8,0:0:0:0:
256,192,277693,1,8,0:0:0:0:
256,192,277750,1,8,0:0:0:0:
256,192,277808,1,8,0:0:0:0:
256,192,277866,1,4,0:0:0:0:
256,192,278097,1,8,0:0:0:0:
256,192,278212,1,0,0:0:0:0:
256,192,278443,1,8,0:0:0:0:
256,192,278558,1,0,0:0:0:0:
256,192,278789,1,8,0:0:0:0:
256,192,278904,1,0,0:0:0:0:
256,192,279020,1,8,0:0:0:0:
256,192,279135,1,8,0:0:0:0:
256,192,279250,1,0,0:0:0:0:
256,192,279366,1,0,0:0:0:0:
256,192,279423,1,0,0:0:0:0:
256,192,279481,1,8,0:0:0:0:
256,192,279597,1,8,0:0:0:0:
256,192,279712,1,0,0:0:0:0:
256,192,279943,1,8,0:0:0:0:
256,192,280058,1,0,0:0:0:0:
256,192,280289,1,8,0:0:0:0:
256,192,280404,1,0,0:0:0:0:
256,192,280635,1,8,0:0:0:0:
256,192,280750,1,0,0:0:0:0:
256,192,280866,1,8,0:0:0:0:
256,192,280981,1,8,0:0:0:0:
256,192,281039,1,8,0:0:0:0:
256,192,281097,1,0,0:0:0:0:
256,192,281212,1,0,0:0:0:0:
256,192,281327,1,8,0:0:0:0:
256,192,281558,1,0,0:0:0:0:
256,192,281789,1,8,0:0:0:0:
256,192,281904,1,0,0:0:0:0:
256,192,282135,1,8,0:0:0:0:
256,192,282250,1,0,0:0:0:0:
256,192,282481,1,8,0:0:0:0:
256,192,282597,1,0,0:0:0:0:
256,192,282827,1,8,0:0:0:0:
256,192,282943,1,0,0:0:0:0:
256,192,283058,1,8,0:0:0:0:
256,192,283173,1,0,0:0:0:0:
256,192,283289,1,0,0:0:0:0:
256,192,283347,1,0,0:0:0:0:
256,192,283404,1,8,0:0:0:0:
256,192,283635,1,8,0:0:0:0:
256,192,283750,1,0,0:0:0:0:
256,192,283981,1,8,0:0:0:0:
256,192,284097,1,0,0:0:0:0:
256,192,284327,1,0,0:0:0:0:
256,192,284443,1,8,0:0:0:0:
256,192,284558,1,8,0:0:0:0:
256,192,284673,1,0,0:0:0:0:
256,192,284731,1,0,0:0:0:0:
256,192,284789,1,8,0:0:0:0:
256,192,284904,1,0,0:0:0:0:
256,192,285020,1,8,0:0:0:0:
256,192,285135,1,8,0:0:0:0:
256,192,285250,1,4,0:0:0:0:
256,192,285481,1,8,0:0:0:0:
256,192,285597,1,0,0:0:0:0:
256,192,285827,1,8,0:0:0:0:
256,192,285943,1,0,0:0:0:0:
256,192,286173,1,8,0:0:0:0:
256,192,286289,1,0,0:0:0:0:
256,192,286404,1,8,0:0:0:0:
256,192,286520,1,8,0:0:0:0:
256,192,286635,1,0,0:0:0:0:
256,192,286750,1,0,0:0:0:0:
256,192,286808,1,0,0:0:0:0:
256,192,286866,1,8,0:0:0:0:
256,192,286981,1,8,0:0:0:0:
256,192,287097,1,0,0:0:0:0:
256,192,287327,1,8,0:0:0:0:
256,192,287443,1,0,0:0:0:0:
256,192,287673,1,8,0:0:0:0:
256,192,287789,1,0,0:0:0:0:
256,192,288020,1,8,0:0:0:0:
256,192,288135,1,0,0:0:0:0:
256,192,288250,1,8,0:0:0:0:
256,192,288366,1,8,0:0:0:0:
256,192,288423,1,8,0:0:0:0:
256,192,288481,1,0,0:0:0:0:
256,192,288597,1,0,0:0:0:0:
256,192,288712,1,8,0:0:0:0:
256,192,288943,1,0,0:0:0:0:
256,192,289173,1,8,0:0:0:0:
256,192,289289,1,0,0:0:0:0:
256,192,289520,1,8,0:0:0:0:
256,192,289635,1,0,0:0:0:0:
256,192,289866,1,8,0:0:0:0:
256,192,289981,1,0,0:0:0:0:
256,192,290097,1,0,0:0:0:0:
256,192,290212,1,8,0:0:0:0:
256,192,290327,1,0,0:0:0:0:
256,192,290443,1,8,0:0:0:0:
256,192,290558,1,0,0:0:0:0:
256,192,290673,1,0,0:0:0:0:
256,192,290731,1,0,0:0:0:0:
256,192,290789,1,8,0:0:0:0:
256,192,291020,1,8,0:0:0:0:
256,192,291135,1,0,0:0:0:0:
256,192,291366,1,8,0:0:0:0:
256,192,291481,1,0,0:0:0:0:
256,192,291712,1,8,0:0:0:0:
256,192,291827,1,0,0:0:0:0:
256,192,291943,1,8,0:0:0:0:
256,192,292058,1,0,0:0:0:0:
256,192,292116,1,0,0:0:0:0:
256,192,292173,1,8,0:0:0:0:
256,192,292289,1,0,0:0:0:0:
256,192,292404,1,8,0:0:0:0:
256,192,292635,1,0,0:0:0:0:
256,192,292866,1,8,0:0:0:0:
256,192,293097,1,0,0:0:0:0:
256,192,293212,1,0,0:0:0:0:
256,192,293327,1,8,0:0:0:0:
256,192,293443,1,0,0:0:0:0:
256,192,293500,1,0,0:0:0:0:
256,192,293558,1,8,0:0:0:0:
256,192,293673,1,0,0:0:0:0:
256,192,293789,1,8,0:0:0:0:
256,192,293904,1,0,0:0:0:0:
256,192,294020,1,0,0:0:0:0:
256,192,294135,1,8,0:0:0:0:
256,192,294250,1,0,0:0:0:0:
256,192,294308,1,0,0:0:0:0:
256,192,294366,1,8,0:0:0:0:
256,192,294481,1,0,0:0:0:0:
256,192,294539,1,0,0:0:0:0:
256,192,294597,1,8,0:0:0:0:
256,192,294654,1,0,0:0:0:0:
256,192,294712,1,0,0:0:0:0:
256,192,294770,1,0,0:0:0:0:
256,192,294827,1,8,0:0:0:0:
256,192,294885,1,8,0:0:0:0:
256,192,294943,1,0,0:0:0:0:
256,192,295000,1,0,0:0:0:0:
256,192,295058,1,8,0:0:0:0:
256,192,295116,1,0,0:0:0:0:
256,192,295173,1,8,0:0:0:0:
256,192,295231,1,8,0:0:0:0:
256,192,295289,1,8,0:0:0:0:
256,192,295347,1,8,0:0:0:0:
256,192,295404,1,4,0:0:0:0:
256,192,295635,1,8,0:0:0:0:
256,192,295866,1,0,0:0:0:0:
256,192,295981,1,0,0:0:0:0:
256,192,296097,1,8,0:0:0:0:
256,192,296212,1,8,0:0:0:0:
256,192,296270,1,8,0:0:0:0:
256,192,296327,1,0,0:0:0:0:
256,192,296443,1,0,0:0:0:0:
256,192,296558,1,8,0:0:0:0:
256,192,296616,1,8,0:0:0:0:
256,192,296673,1,0,0:0:0:0:
256,192,296731,1,0,0:0:0:0:
256,192,296789,1,8,0:0:0:0:
256,192,296904,1,0,0:0:0:0:
256,192,297020,1,8,0:0:0:0:
256,192,297135,1,0,0:0:0:0:
256,192,297250,1,8,0:0:0:0:
256,192,297308,1,8,0:0:0:0:
256,192,297366,1,0,0:0:0:0:
256,192,297481,1,0,0:0:0:0:
256,192,297597,1,8,0:0:0:0:
256,192,297654,1,8,0:0:0:0:
256,192,297712,1,0,0:0:0:0:
256,192,297827,1,0,0:0:0:0:
256,192,297885,1,0,0:0:0:0:
256,192,297943,1,8,0:0:0:0:
256,192,298058,1,8,0:0:0:0:
256,192,298173,1,0,0:0:0:0:
256,192,298404,1,8,0:0:0:0:
256,192,298520,1,0,0:0:0:0:
256,192,298635,1,8,0:0:0:0:
256,192,298750,1,0,0:0:0:0:
256,192,298808,1,0,0:0:0:0:
256,192,298866,1,8,0:0:0:0:
256,192,298923,1,8,0:0:0:0:
256,192,298981,1,0,0:0:0:0:
256,192,299039,1,0,0:0:0:0:
256,192,299097,1,8,0:0:0:0:
256,192,299327,1,8,0:0:0:0:
256,192,299558,1,0,0:0:0:0:
256,192,299673,1,0,0:0:0:0:
256,192,299789,1,8,0:0:0:0:
256,192,299904,1,8,0:0:0:0:
256,192,299962,1,0,0:0:0:0:
256,192,300020,1,8,0:0:0:0:
256,192,300135,1,0,0:0:0:0:
256,192,300250,1,8,0:0:0:0:
256,192,300308,1,8,0:0:0:0:
256,192,300366,1,0,0:0:0:0:
256,192,300423,1,0,0:0:0:0:
256,192,300481,1,8,0:0:0:0:
256,192,300597,1,0,0:0:0:0:
256,192,300712,1,8,0:0:0:0:
256,192,300827,1,8,0:0:0:0:
256,192,300943,1,0,0:0:0:0:
256,192,301000,1,0,0:0:0:0:
256,192,301058,1,0,0:0:0:0:
256,192,301173,1,8,0:0:0:0:
256,192,301289,1,0,0:0:0:0:
256,192,301404,1,8,0:0:0:0:
256,192,301462,1,8,0:0:0:0:
256,192,301520,1,0,0:0:0:0:
256,192,301635,1,8,0:0:0:0:
256,192,301750,1,0,0:0:0:0:
256,192,301866,1,8,0:0:0:0:
256,192,301923,1,0,0:0:0:0:
256,192,301981,1,8,0:0:0:0:
256,192,302039,1,8,0:0:0:0:
256,192,302097,1,0,0:0:0:0:
256,192,302212,1,0,0:0:0:0:
256,192,302327,1,8,0:0:0:0:
256,192,302385,1,0,0:0:0:0:
256,192,302443,1,8,0:0:0:0:
256,192,302500,1,8,0:0:0:0:
256,192,302558,1,0,0:0:0:0:
256,192,302616,1,8,0:0:0:0:
256,192,302673,1,0,0:0:0:0:
256,192,302789,1,8,0:0:0:0:
256,192,303020,1,8,0:0:0:0:
256,192,303135,1,8,0:0:0:0:
256,192,303250,1,0,0:0:0:0:
256,192,303366,1,0,0:0:0:0:
256,192,303423,1,0,0:0:0:0:
256,192,303481,1,8,0:0:0:0:
256,192,303597,1,8,0:0:0:0:
256,192,303712,1,0,0:0:0:0:
256,192,303943,1,8,0:0:0:0:
256,192,304058,1,0,0:0:0:0:
256,192,304173,1,0,0:0:0:0:
256,192,304289,1,0,0:0:0:0:
256,192,304347,1,0,0:0:0:0:
256,192,304404,1,8,0:0:0:0:
256,192,304462,1,8,0:0:0:0:
256,192,304520,1,0,0:0:0:0:
256,192,304577,1,0,0:0:0:0:
256,192,304635,1,8,0:0:0:0:
256,192,304750,1,0,0:0:0:0:
256,192,304866,1,8,0:0:0:0:
256,192,304981,1,8,0:0:0:0:
256,192,305039,1,8,0:0:0:0:
256,192,305097,1,0,0:0:0:0:
256,192,305212,1,0,0:0:0:0:
256,192,305327,1,8,0:0:0:0:
256,192,305443,1,8,0:0:0:0:
256,192,305558,1,0,0:0:0:0:
256,192,305789,1,8,0:0:0:0:
256,192,305904,1,0,0:0:0:0:
256,192,306020,1,8,0:0:0:0:
256,192,306077,1,0,0:0:0:0:
256,192,306135,1,8,0:0:0:0:
256,192,306193,1,8,0:0:0:0:
256,192,306250,1,0,0:0:0:0:
256,192,306308,1,8,0:0:0:0:
256,192,306366,1,0,0:0:0:0:
256,192,306423,1,0,0:0:0:0:
256,192,306481,1,8,0:0:0:0:
256,192,306597,1,0,0:0:0:0:
256,192,306712,1,8,0:0:0:0:
256,192,306827,1,0,0:0:0:0:
256,192,306885,1,0,0:0:0:0:
256,192,306943,1,8,0:0:0:0:
256,192,307000,1,8,0:0:0:0:
256,192,307058,1,0,0:0:0:0:
256,192,307173,1,8,0:0:0:0:
256,192,307289,1,0,0:0:0:0:
256,192,307404,1,8,0:0:0:0:
256,192,307635,1,0,0:0:0:0:
256,192,307866,1,8,0:0:0:0:
256,192,307981,1,0,0:0:0:0:
256,192,308097,1,8,0:0:0:0:
256,192,308154,1,8,0:0:0:0:
256,192,308212,1,0,0:0:0:0:
256,192,308327,1,0,0:0:0:0:
256,192,308443,1,8,0:0:0:0:
256,192,308500,1,0,0:0:0:0:
256,192,308558,1,8,0:0:0:0:
256,192,308673,1,0,0:0:0:0:
256,192,308789,1,8,0:0:0:0:
256,192,308847,1,8,0:0:0:0:
256,192,308904,1,0,0:0:0:0:
256,192,308962,1,0,0:0:0:0:
256,192,309020,1,8,0:0:0:0:
256,192,309077,1,0,0:0:0:0:
256,192,309135,1,0,0:0:0:0:
256,192,309193,1,0,0:0:0:0:
256,192,309250,1,8,0:0:0:0:
256,192,309308,1,8,0:0:0:0:
256,192,309366,1,0,0:0:0:0:
256,192,309423,1,0,0:0:0:0:
256,192,309481,1,8,0:0:0:0:
256,192,309539,1,8,0:0:0:0:
256,192,309597,1,0,0:0:0:0:
256,192,309654,1,8,0:0:0:0:
256,192,309712,1,0,0:0:0:0:
256,192,309770,1,0,0:0:0:0:
256,192,309827,1,8,0:0:0:0:
256,192,309885,1,8,0:0:0:0:
256,192,309943,1,0,0:0:0:0:
256,192,310000,1,0,0:0:0:0:
256,192,310058,1,8,0:0:0:0:
256,192,310173,1,4,0:0:0:0:
256,192,310404,1,8,0:0:0:0:
256,192,310520,1,0,0:0:0:0:
256,192,310635,1,0,0:0:0:0:
256,192,310750,1,8,0:0:0:0:
256,192,310808,1,0,0:0:0:0:
256,192,310866,1,8,0:0:0:0:
256,192,310923,1,8,0:0:0:0:
256,192,310981,1,0,0:0:0:0:
256,192,311097,1,8,0:0:0:0:
256,192,311212,1,0,0:0:0:0:
256,192,311327,1,8,0:0:0:0:
256,192,311443,1,8,0:0:0:0:
256,192,311500,1,8,0:0:0:0:
256,192,311558,1,0,0:0:0:0:
256,192,311616,1,0,0:0:0:0:
256,192,311673,1,0,0:0:0:0:
256,192,311789,1,8,0:0:0:0:
256,192,311904,1,8,0:0:0:0:
256,192,312020,1,0,0:0:0:0:
256,192,312250,1,8,0:0:0:0:
256,192,312366,1,0,0:0:0:0:
256,192,312481,1,8,0:0:0:0:
256,192,312539,1,8,0:0:0:0:
256,192,312597,1,0,0:0:0:0:
256,192,312654,1,0,0:0:0:0:
256,192,312712,1,8,0:0:0:0:
256,192,312827,1,0,0:0:0:0:
256,192,312943,1,8,0:0:0:0:
256,192,313000,1,8,0:0:0:0:
256,192,313058,1,0,0:0:0:0:
256,192,313173,1,8,0:0:0:0:
256,192,313289,1,0,0:0:0:0:
256,192,313404,1,8,0:0:0:0:
256,192,313462,1,0,0:0:0:0:
256,192,313520,1,8,0:0:0:0:
256,192,313577,1,8,0:0:0:0:
256,192,313635,1,0,0:0:0:0:
256,192,313693,1,0,0:0:0:0:
256,192,313750,1,0,0:0:0:0:
256,192,313808,1,0,0:0:0:0:
256,192,313866,1,8,0:0:0:0:
256,192,313981,1,0,0:0:0:0:
256,192,314097,1,8,0:0:0:0:
256,192,314212,1,0,0:0:0:0:
256,192,314270,1,0,0:0:0:0:
256,192,314327,1,8,0:0:0:0:
256,192,314443,1,0,0:0:0:0:
256,192,314558,1,8,0:0:0:0:
256,192,314616,1,8,0:0:0:0:
256,192,314673,1,0,0:0:0:0:
256,192,314789,1,8,0:0:0:0:
256,192,314904,1,0,0:0:0:0:
256,192,314962,1,0,0:0:0:0:
256,192,315020,1,8,0:0:0:0:
256,192,315135,1,8,0:0:0:0:
256,192,315250,1,0,0:0:0:0:
256,192,315366,1,8,0:0:0:0:
256,192,315481,1,0,0:0:0:0:
256,192,315539,1,0,0:0:0:0:
256,192,315597,1,8,0:0:0:0:
256,192,315654,1,8,0:0:0:0:
256,192,315712,1,0,0:0:0:0:
256,192,315943,1,8,0:0:0:0:
256,192,316058,1,0,0:0:0:0:
256,192,316173,1,8,0:0:0:0:
256,192,316231,1,8,0:0:0:0:
256,192,316289,1,8,0:0:0:0:
256,192,316347,1,8,0:0:0:0:
256,192,316404,1,0,0:0:0:0:
256,192,316520,1,0,0:0:0:0:
256,192,316635,1,8,0:0:0:0:
256,192,316693,1,0,0:0:0:0:
256,192,316750,1,0,0:0:0:0:
256,192,316808,1,0,0:0:0:0:
256,192,316866,1,8,0:0:0:0:
256,192,316981,1,0,0:0:0:0:
256,192,317097,1,8,0:0:0:0:
256,192,317154,1,8,0:0:0:0:
256,192,317212,1,0,0:0:0:0:
256,192,317270,1,0,0:0:0:0:
256,192,317327,1,8,0:0:0:0:
256,192,317385,1,8,0:0:0:0:
256,192,317443,1,8,0:0:0:0:
256,192,317500,1,8,0:0:0:0:
256,192,317558,1,0,0:0:0:0:
256,192,317789,1,8,0:0:0:0:
256,192,317904,1,0,0:0:0:0:
256,192,317962,1,0,0:0:0:0:
256,192,318020,1,8,0:0:0:0:
256,192,318135,1,0,0:0:0:0:
256,192,318250,1,8,0:0:0:0:
256,192,318308,1,0,0:0:0:0:
256,192,318366,1,8,0:0:0:0:
256,192,318481,1,0,0:0:0:0:
256,192,318597,1,8,0:0:0:0:
256,192,318654,1,8,0:0:0:0:
256,192,318712,1,0,0:0:0:0:
256,192,318770,1,0,0:0:0:0:
256,192,318827,1,8,0:0:0:0:
256,192,318943,1,0,0:0:0:0:
256,192,319058,1,0,0:0:0:0:
256,192,319116,1,0,0:0:0:0:
256,192,319173,1,8,0:0:0:0:
256,192,319289,1,8,0:0:0:0:
256,192,319404,1,0,0:0:0:0:
256,192,319635,1,8,0:0:0:0:
256,192,319750,1,0,0:0:0:0:
256,192,319866,1,8,0:0:0:0:
256,192,319923,1,8,0:0:0:0:
256,192,319981,1,0,0:0:0:0:
256,192,320039,1,0,0:0:0:0:
256,192,320097,1,8,0:0:0:0:
256,192,320212,1,0,0:0:0:0:
256,192,320327,1,8,0:0:0:0:
256,192,320385,1,8,0:0:0:0:
256,192,320443,1,8,0:0:0:0:
256,192,320500,1,8,0:0:0:0:
256,192,320558,1,0,0:0:0:0:
256,192,320673,1,0,0:0:0:0:
256,192,320789,1,8,0:0:0:0:
256,192,320847,1,0,0:0:0:0:
256,192,320904,1,8,0:0:0:0:
256,192,320962,1,8,0:0:0:0:
256,192,321020,1,0,0:0:0:0:
256,192,321077,1,0,0:0:0:0:
256,192,321135,1,8,0:0:0:0:
256,192,321193,1,0,0:0:0:0:
256,192,321250,1,8,0:0:0:0:
256,192,321366,1,0,0:0:0:0:
256,192,321481,1,8,0:0:0:0:
256,192,321597,1,0,0:0:0:0:
256,192,321654,1,0,0:0:0:0:
256,192,321712,1,8,0:0:0:0:
256,192,321827,1,0,0:0:0:0:
256,192,321943,1,8,0:0:0:0:
256,192,322058,1,0,0:0:0:0:
256,192,322116,1,0,0:0:0:0:
256,192,322173,1,8,0:0:0:0:
256,192,322231,1,8,0:0:0:0:
256,192,322289,1,0,0:0:0:0:
256,192,322347,1,0,0:0:0:0:
256,192,322404,1,8,0:0:0:0:
256,192,322462,1,0,0:0:0:0:
256,192,322520,1,8,0:0:0:0:
256,192,322577,1,0,0:0:0:0:
256,192,322635,1,0,0:0:0:0:
256,192,322693,1,0,0:0:0:0:
256,192,322750,1,8,0:0:0:0:
256,192,322808,1,0,0:0:0:0:
256,192,322866,1,8,0:0:0:0:
256,192,322923,1,8,0:0:0:0:
256,192,322981,1,0,0:0:0:0:
256,192,323039,1,0,0:0:0:0:
256,192,323097,1,8,0:0:0:0:
256,192,323212,1,0,0:0:0:0:
256,192,323327,1,8,0:0:0:0:
256,192,323443,1,0,0:0:0:0:
256,192,323500,1,0,0:0:0:0:
256,192,323558,1,8,0:0:0:0:
256,192,323616,1,8,0:0:0:0:
256,192,323673,1,0,0:0:0:0:
256,192,323789,1,8,0:0:0:0:
256,192,323847,1,0,0:0:0:0:
256,192,323904,1,8,0:0:0:0:
256,192,323962,1,8,0:0:0:0:
256,192,324020,1,0,0:0:0:0:
256,192,324077,1,8,0:0:0:0:
256,192,324135,1,0,0:0:0:0:
256,192,324193,1,0,0:0:0:0:
256,192,324250,1,8,0:0:0:0:
256,192,324308,1,0,0:0:0:0:
256,192,324366,1,0,0:0:0:0:
256,192,324423,1,0,0:0:0:0:
256,192,324481,1,8,0:0:0:0:
256,192,324539,1,8,0:0:0:0:
256,192,324597,1,0,0:0:0:0:
256,192,324654,1,0,0:0:0:0:
256,192,324712,1,8,0:0:0:0:
256,192,324770,1,0,0:0:0:0:
256,192,324827,1,8,0:0:0:0:
256,192,324943,1,4,0:0:0:0:
256,192,325173,1,8,0:0:0:0:
256,192,325289,1,8,0:0:0:0:
256,192,325347,1,8,0:0:0:0:
256,192,325404,1,0,0:0:0:0:
256,192,325520,1,0,0:0:0:0:
256,192,325635,1,8,0:0:0:0:
256,192,325750,1,8,0:0:0:0:
256,192,325866,1,0,0:0:0:0:
256,192,325981,1,8,0:0:0:0:
256,192,326039,1,8,0:0:0:0:
256,192,326097,1,0,0:0:0:0:
256,192,326154,1,0,0:0:0:0:
256,192,326212,1,8,0:0:0:0:
256,192,326327,1,0,0:0:0:0:
256,192,326443,1,0,0:0:0:0:
256,192,326500,1,0,0:0:0:0:
256,192,326558,1,8,0:0:0:0:
256,192,326673,1,8,0:0:0:0:
256,192,326789,1,0,0:0:0:0:
256,192,327020,1,8,0:0:0:0:
256,192,327135,1,0,0:0:0:0:
256,192,327250,1,8,0:0:0:0:
256,192,327308,1,8,0:0:0:0:
256,192,327366,1,0,0:0:0:0:
256,192,327423,1,0,0:0:0:0:
256,192,327481,1,8,0:0:0:0:
256,192,327597,1,8,0:0:0:0:
256,192,327712,1,0,0:0:0:0:
256,192,327770,1,0,0:0:0:0:
256,192,327827,1,0,0:0:0:0:
256,192,327943,1,8,0:0:0:0:
256,192,328058,1,0,0:0:0:0:
256,192,328173,1,8,0:0:0:0:
256,192,328231,1,8,0:0:0:0:
256,192,328289,1,8,0:0:0:0:
256,192,328347,1,8,0:0:0:0:
256,192,328404,1,0,0:0:0:0:
256,192,328462,1,0,0:0:0:0:
256,192,328520,1,8,0:0:0:0:
256,192,328577,1,8,0:0:0:0:
256,192,328635,1,0,0:0:0:0:
256,192,328750,1,0,0:0:0:0:
256,192,328866,1,8,0:0:0:0:
256,192,328981,1,0,0:0:0:0:
256,192,329039,1,0,0:0:0:0:
256,192,329097,1,8,0:0:0:0:
256,192,329212,1,0,0:0:0:0:
256,192,329327,1,8,0:0:0:0:
256,192,329443,1,0,0:0:0:0:
256,192,329500,1,0,0:0:0:0:
256,192,329558,1,8,0:0:0:0:
256,192,329616,1,8,0:0:0:0:
256,192,329673,1,0,0:0:0:0:
256,192,329789,1,8,0:0:0:0:
256,192,329904,1,8,0:0:0:0:
256,192,330020,1,0,0:0:0:0:
256,192,330135,1,0,0:0:0:0:
256,192,330193,1,0,0:0:0:0:
256,192,330250,1,8,0:0:0:0:
256,192,330366,1,8,0:0:0:0:
256,192,330481,1,8,0:0:0:0:
256,192,330539,1,8,0:0:0:0:
256,192,330597,1,0,0:0:0:0:
256,192,330654,1,0,0:0:0:0:
256,192,330712,1,8,0:0:0:0:
256,192,330827,1,0,0:0:0:0:
256,192,330943,1,8,0:0:0:0:
256,192,331000,1,8,0:0:0:0:
256,192,331058,1,0,0:0:0:0:
256,192,331173,1,8,0:0:0:0:
256,192,331289,1,0,0:0:0:0:
256,192,331404,1,0,0:0:0:0:
256,192,331462,1,0,0:0:0:0:
256,192,331520,1,0,0:0:0:0:
256,192,331635,1,8,0:0:0:0:
256,192,331750,1,8,0:0:0:0:
256,192,331866,1,0,0:0:0:0:
256,192,331923,1,0,0:0:0:0:
256,192,331981,1,8,0:0:0:0:
256,192,332039,1,0,0:0:0:0:
256,192,332097,1,8,0:0:0:0:
256,192,332154,1,0,0:0:0:0:
256,192,332212,1,8,0:0:0:0:
256,192,332270,1,8,0:0:0:0:
256,192,332327,1,0,0:0:0:0:
256,192,332558,1,8,0:0:0:0:
256,192,332673,1,0,0:0:0:0:
256,192,332731,1,0,0:0:0:0:
256,192,332789,1,8,0:0:0:0:
256,192,332904,1,0,0:0:0:0:
256,192,333020,1,8,0:0:0:0:
256,192,333135,1,8,0:0:0:0:
256,192,333250,1,0,0:0:0:0:
256,192,333366,1,8,0:0:0:0:
256,192,333423,1,8,0:0:0:0:
256,192,333481,1,0,0:0:0:0:
256,192,333597,1,8,0:0:0:0:
256,192,333712,1,0,0:0:0:0:
256,192,333827,1,0,0:0:0:0:
256,192,333885,1,0,0:0:0:0:
256,192,333943,1,8,0:0:0:0:
256,192,334058,1,8,0:0:0:0:
256,192,334173,1,0,0:0:0:0:
256,192,334404,1,8,0:0:0:0:
256,192,334520,1,0,0:0:0:0:
256,192,334635,1,8,0:0:0:0:
256,192,334693,1,8,0:0:0:0:
256,192,334750,1,0,0:0:0:0:
256,192,334808,1,0,0:0:0:0:
256,192,334866,1,8,0:0:0:0:
256,192,334981,1,0,0:0:0:0:
256,192,335097,1,8,0:0:0:0:
256,192,335154,1,8,0:0:0:0:
256,192,335212,1,8,0:0:0:0:
256,192,335270,1,8,0:0:0:0:
256,192,335327,1,0,0:0:0:0:
256,192,335443,1,0,0:0:0:0:
256,192,335558,1,8,0:0:0:0:
256,192,335616,1,0,0:0:0:0:
256,192,335673,1,8,0:0:0:0:
256,192,335731,1,8,0:0:0:0:
256,192,335789,1,0,0:0:0:0:
256,192,335847,1,0,0:0:0:0:
256,192,335904,1,8,0:0:0:0:
256,192,335962,1,0,0:0:0:0:
256,192,336020,1,8,0:0:0:0:
256,192,336135,1,0,0:0:0:0:
256,192,336250,1,8,0:0:0:0:
256,192,336366,1,0,0:0:0:0:
256,192,336423,1,0,0:0:0:0:
256,192,336481,1,8,0:0:0:0:
256,192,336597,1,0,0:0:0:0:
256,192,336712,1,8,0:0:0:0:
256,192,336827,1,0,0:0:0:0:
256,192,336885,1,0,0:0:0:0:
256,192,336943,1,8,0:0:0:0:
256,192,337000,1,8,0:0:0:0:
256,192,337058,1,0,0:0:0:0:
256,192,337116,1,0,0:0:0:0:
256,192,337173,1,8,0:0:0:0:
256,192,337231,1,0,0:0:0:0:
256,192,337289,1,8,0:0:0:0:
256,192,337347,1,8,0:0:0:0:
256,192,337404,1,0,0:0:0:0:
256,192,337462,1,0,0:0:0:0:
256,192,337520,1,8,0:0:0:0:
256,192,337577,1,0,0:0:0:0:
256,192,337635,1,8,0:0:0:0:
256,192,337693,1,8,0:0:0:0:
256,192,337750,1,8,0:0:0:0:
256,192,337808,1,8,0:0:0:0:
256,192,337866,1,0,0:0:0:0:
256,192,337981,1,0,0:0:0:0:
256,192,338097,1,8,0:0:0:0:
256,192,338212,1,0,0:0:0:0:
256,192,338327,1,8,0:0:0:0:
256,192,338385,1,8,0:0:0:0:
256,192,338443,1,0,0:0:0:0:
256,192,338500,1,0,0:0:0:0:
256,192,338558,1,8,0:0:0:0:
256,192,338673,1,0,0:0:0:0:
256,192,338789,1,8,0:0:0:0:
256,192,338847,1,8,0:0:0:0:
256,192,338904,1,0,0:0:0:0:
256,192,338962,1,0,0:0:0:0:
256,192,339020,1,8,0:0:0:0:
256,192,339077,1,0,0:0:0:0:
256,192,339135,1,0,0:0:0:0:
256,192,339193,1,0,0:0:0:0:
256,192,339250,1,8,0:0:0:0:
256,192,339308,1,8,0:0:0:0:
256,192,339366,1,0,0:0:0:0:
256,192,339423,1,0,0:0:0:0:
256,192,339481,1,8,0:0:0:0:
256,192,339539,1,0,0:0:0:0:
256,192,339597,1,8,0:0:0:0:
256,192,339712,1,4,0:0:0:0:
256,192,339943,1,8,0:0:0:0:
256,192,340058,1,8,0:0:0:0:
256,192,340116,1,8,0:0:0:0:
256,192,340173,1,0,0:0:0:0:
256,192,340231,1,0,0:0:0:0:
256,192,340289,1,0,0:0:0:0:
256,192,340404,1,8,0:0:0:0:
256,192,340520,1,8,0:0:0:0:
256,192,340635,1,0,0:0:0:0:
256,192,340750,1,8,0:0:0:0:
256,192,340808,1,0,0:0:0:0:
256,192,340866,1,0,0:0:0:0:
256,192,340923,1,0,0:0:0:0:
256,192,340981,1,8,0:0:0:0:
256,192,341097,1,0,0:0:0:0:
256,192,341212,1,0,0:0:0:0:
256,192,341270,1,0,0:0:0:0:
256,192,341327,1,8,0:0:0:0:
256,192,341443,1,8,0:0:0:0:
256,192,341558,1,0,0:0:0:0:
256,192,341789,1,8,0:0:0:0:
256,192,341904,1,0,0:0:0:0:
256,192,342020,1,8,0:0:0:0:
256,192,342077,1,8,0:0:0:0:
256,192,342135,1,0,0:0:0:0:
256,192,342193,1,0,0:0:0:0:
256,192,342250,1,8,0:0:0:0:
256,192,342366,1,8,0:0:0:0:
256,192,342481,1,0,0:0:0:0:
256,192,342539,1,0,0:0:0:0:
256,192,342597,1,0,0:0:0:0:
256,192,342712,1,8,0:0:0:0:
256,192,342827,1,0,0:0:0:0:
256,192,342943,1,8,0:0:0:0:
256,192,343000,1,8,0:0:0:0:
256,192,343058,1,8,0:0:0:0:
256,192,343116,1,8,0:0:0:0:
256,192,343173,1,0,0:0:0:0:
256,192,343231,1,0,0:0:0:0:
256,192,343289,1,8,0:0:0:0:
256,192,343347,1,8,0:0:0:0:
256,192,343404,1,0,0:0:0:0:
256,192,343635,1,8,0:0:0:0:
256,192,343750,1,0,0:0:0:0:
256,192,343808,1,0,0:0:0:0:
256,192,343866,1,8,0:0:0:0:
256,192,343981,1,0,0:0:0:0:
256,192,344097,1,8,0:0:0:0:
256,192,344212,1,0,0:0:0:0:
256,192,344327,1,8,0:0:0:0:
256,192,344385,1,8,0:0:0:0:
256,192,344443,1,0,0:0:0:0:
256,192,344500,1,0,0:0:0:0:
256,192,344558,1,8,0:0:0:0:
256,192,344673,1,8,0:0:0:0:
256,192,344789,1,0,0:0:0:0:
256,192,344904,1,0,0:0:0:0:
256,192,344962,1,0,0:0:0:0:
256,192,345020,1,8,0:0:0:0:
256,192,345135,1,8,0:0:0:0:
256,192,345250,1,0,0:0:0:0:
256,192,345481,1,8,0:0:0:0:
256,192,345597,1,0,0:0:0:0:
256,192,345712,1,0,0:0:0:0:
256,192,345770,1,0,0:0:0:0:
256,192,345827,1,0,0:0:0:0:
256,192,345943,1,8,0:0:0:0:
256,192,346058,1,0,0:0:0:0:
256,192,346173,1,12,0:0:0:0:
256,192,346404,1,0,0:0:0:0:
256,192,346520,1,12,0:0:0:0:
256,192,346750,1,0,0:0:0:0:
256,192,346866,1,12,0:0:0:0:
256,192,347097,1,4,0:0:0:0:
256,192,347327,1,8,0:0:0:0:
256,192,347443,1,8,0:0:0:0:
256,192,347500,1,8,0:0:0:0:
256,192,347558,1,0,0:0:0:0:
256,192,347673,1,0,0:0:0:0:
256,192,347789,1,8,0:0:0:0:
256,192,347904,1,8,0:0:0:0:
256,192,348020,1,0,0:0:0:0:
256,192,348135,1,8,0:0:0:0:
256,192,348193,1,8,0:0:0:0:
256,192,348250,1,0,0:0:0:0:
256,192,348308,1,0,0:0:0:0:
256,192,348366,1,8,0:0:0:0:
256,192,348481,1,0,0:0:0:0:
256,192,348597,1,0,0:0:0:0:
256,192,348712,1,8,0:0:0:0:
256,192,348827,1,8,0:0:0:0:
256,192,348885,1,8,0:0:0:0:
256,192,348943,1,0,0:0:0:0:
256,192,349173,1,8,0:0:0:0:
256,192,349289,1,8,0:0:0:0:
256,192,349404,1,0,0:0:0:0:
256,192,349462,1,0,0:0:0:0:
256,192,349520,1,0,0:0:0:0:
256,192,349635,1,8,0:0:0:0:
256,192,349750,1,0,0:0:0:0:
256,192,349866,1,8,0:0:0:0:
256,192,349923,1,8,0:0:0:0:
256,192,349981,1,0,0:0:0:0:
256,192,350039,1,0,0:0:0:0:
256,192,350097,1,8,0:0:0:0:
256,192,350212,1,0,0:0:0:0:
256,192,350327,1,8,0:0:0:0:
256,192,350385,1,8,0:0:0:0:
256,192,350443,1,0,0:0:0:0:
256,192,350500,1,0,0:0:0:0:
256,192,350558,1,8,0:0:0:0:
256,192,350616,1,0,0:0:0:0:
256,192,350673,1,8,0:0:0:0:
256,192,350731,1,8,0:0:0:0:
256,192,350789,1,0,0:0:0:0:
256,192,351020,1,8,0:0:0:0:
256,192,351135,1,8,0:0:0:0:
256,192,351193,1,8,0:0:0:0:
256,192,351250,1,0,0:0:0:0:
256,192,351366,1,0,0:0:0:0:
256,192,351481,1,8,0:0:0:0:
256,192,351597,1,0,0:0:0:0:
256,192,351654,1,0,0:0:0:0:
256,192,351712,1,8,0:0:0:0:
256,192,351770,1,8,0:0:0:0:
256,192,351827,1,0,0:0:0:0:
256,192,351943,1,8,0:0:0:0:
256,192,352058,1,8,0:0:0:0:
256,192,352173,1,0,0:0:0:0:
256,192,352289,1,0,0:0:0:0:
256,192,352347,1,0,0:0:0:0:
256,192,352404,1,8,0:0:0:0:
256,192,352520,1,0,0:0:0:0:
256,192,352635,1,12,0:0:0:0:
256,192,352866,1,8,0:0:0:0:
256,192,352981,1,0,0:0:0:0:
256,192,353097,1,0,0:0:0:0:
256,192,353212,1,8,0:0:0:0:
256,192,353270,1,8,0:0:0:0:
256,192,353327,1,8,0:0:0:0:
256,192,353443,1,0,0:0:0:0:
256,192,353558,1,0,0:0:0:0:
256,192,353673,1,0,0:0:0:0:
256,192,353789,1,8,0:0:0:0:
256,192,353904,1,0,0:0:0:0:
256,192,353962,1,0,0:0:0:0:
256,192,354020,1,8,0:0:0:0:
256,192,354077,1,8,0:0:0:0:
256,192,354135,1,0,0:0:0:0:
256,192,354250,1,8,0:0:0:0:
256,192,354366,1,8,0:0:0:0:
256,192,354423,1,8,0:0:0:0:
256,192,354481,1,0,0:0:0:0:
256,192,354539,1,0,0:0:0:0:
256,192,354597,1,8,0:0:0:0:
256,192,354712,1,0,0:0:0:0:
256,192,354827,1,8,0:0:0:0:
256,192,354885,1,8,0:0:0:0:
256,192,354943,1,0,0:0:0:0:
256,192,355058,1,0,0:0:0:0:
256,192,355173,1,8,0:0:0:0:
256,192,355289,1,0,0:0:0:0:
256,192,355347,1,0,0:0:0:0:
256,192,355404,1,8,0:0:0:0:
256,192,355520,1,8,0:0:0:0:
256,192,355635,1,0,0:0:0:0:
256,192,355750,1,0,0:0:0:0:
256,192,355866,1,8,0:0:0:0:
256,192,355981,1,8,0:0:0:0:
256,192,356097,1,0,0:0:0:0:
256,192,356212,1,8,0:0:0:0:
256,192,356327,1,4,0:0:0:0:
256,192,356558,1,8,0:0:0:0:
256,192,356789,1,0,0:0:0:0:
256,192,356904,1,0,0:0:0:0:
256,192,357020,1,8,0:0:0:0:
256,192,357250,1,0,0:0:0:0:
256,192,357481,1,8,0:0:0:0:
256,192,357597,1,0,0:0:0:0:
256,192,357712,1,0,0:0:0:0:
256,192,357827,1,8,0:0:0:0:
256,192,357943,1,8,0:0:0:0:
256,192,358058,1,0,0:0:0:0:
256,192,358173,1,0,0:0:0:0:
256,192,358404,1,8,0:0:0:0:
256,192,358520,1,0,0:0:0:0:
256,192,358750,1,0,0:0:0:0:
256,192,358866,1,8,0:0:0:0:
256,192,358981,1,0,0:0:0:0:
256,192,359097,1,0,0:0:0:0:
256,192,359212,1,0,0:0:0:0:
256,192,359327,1,8,0:0:0:0:
256,192,359443,1,0,0:0:0:0:
256,192,359558,1,8,0:0:0:0:
256,192,359673,1,0,0:0:0:0:
256,192,359789,1,0,0:0:0:0:
256,192,359904,1,8,0:0:0:0:
256,192,360020,1,4,0:0:0:0:
256,192,360250,1,8,0:0:0:0:
256,192,360481,1,0,0:0:0:0:
256,192,360597,1,0,0:0:0:0:
256,192,360712,1,8,0:0:0:0:
256,192,360827,1,8,0:0:0:0:
256,192,360943,1,0,0:0:0:0:
256,192,361173,1,8,0:0:0:0:
256,192,361289,1,0,0:0:0:0:
256,192,361404,1,8,0:0:0:0:
256,192,361635,1,0,0:0:0:0:
256,192,361750,1,8,0:0:0:0:
256,192,361866,1,0,0:0:0:0:
256,192,361981,1,0,0:0:0:0:
256,192,362097,1,8,0:0:0:0:
256,192,362327,1,0,0:0:0:0:
256,192,362443,1,8,0:0:0:0:
256,192,362558,1,0,0:0:0:0:
256,192,362673,1,0,0:0:0:0:
256,192,362731,1,0,0:0:0:0:
256,192,362789,1,8,0:0:0:0:
256,192,363020,1,0,0:0:0:0:
256,192,363135,1,8,0:0:0:0:
256,192,363250,1,8,0:0:0:0:
256,192,363366,1,0,0:0:0:0:
256,192,363481,1,8,0:0:0:0:
256,192,363597,1,0,0:0:0:0:
256,192,363654,1,0,0:0:0:0:
256,192,363712,1,8,0:0:0:0:
256,192,363943,1,8,0:0:0:0:
256,192,364058,1,0,0:0:0:0:
256,192,364289,1,0,0:0:0:0:
256,192,364404,1,8,0:0:0:0:
256,192,364520,1,8,0:0:0:0:
256,192,364635,1,0,0:0:0:0:
256,192,364750,1,0,0:0:0:0:
256,192,364866,1,8,0:0:0:0:
256,192,364923,1,8,0:0:0:0:
256,192,364981,1,0,0:0:0:0:
256,192,365039,1,0,0:0:0:0:
256,192,365097,1,8,0:0:0:0:
256,192,365212,1,8,0:0:0:0:
256,192,365327,1,0,0:0:0:0:
256,192,365443,1,8,0:0:0:0:
256,192,365558,1,4,0:0:0:0:
256,192,365789,1,8,0:0:0:0:
256,192,365904,1,0,0:0:0:0:
256,192,366020,1,0,0:0:0:0:
256,192,366135,1,0,0:0:0:0:
256,192,366250,1,8,0:0:0:0:
256,192,366481,1,0,0:0:0:0:
256,192,366597,1,8,0:0:0:0:
256,192,366712,1,8,0:0:0:0:
256,192,366770,1,8,0:0:0:0:
256,192,366827,1,0,0:0:0:0:
256,192,366943,1,8,0:0:0:0:
256,192,367173,1,0,0:0:0:0:
256,192,367289,1,8,0:0:0:0:
256,192,367404,1,4,0:0:0:0:
256,192,367635,1,8,0:0:0:0:
256,192,367750,1,0,0:0:0:0:
256,192,367981,1,0,0:0:0:0:
256,192,368097,1,8,0:0:0:0:
256,192,368327,1,0,0:0:0:0:
256,192,368558,1,0,0:0:0:0:
256,192,368673,1,8,0:0:0:0:
256,192,368731,1,8,0:0:0:0:
256,192,368789,1,0,0:0:0:0:
256,192,368904,1,0,0:0:0:0:
256,192,369020,1,8,0:0:0:0:
256,192,369077,1,8,0:0:0:0:
256,192,369135,1,0,0:0:0:0:
256,192,369193,1,0,0:0:0:0:
256,192,369250,1,8,0:0:0:0:
256,192,369481,1,8,0:0:0:0:
256,192,369597,1,0,0:0:0:0:
256,192,369827,1,0,0:0:0:0:
256,192,369943,1,8,0:0:0:0:
256,192,370173,1,8,0:0:0:0:
256,192,370289,1,0,0:0:0:0:
256,192,370404,1,8,0:0:0:0:
256,192,370520,1,0,0:0:0:0:
256,192,370577,1,0,0:0:0:0:
256,192,370635,1,8,0:0:0:0:
256,192,370693,1,8,0:0:0:0:
256,192,370750,1,0,0:0:0:0:
256,192,370808,1,0,0:0:0:0:
256,192,370866,1,8,0:0:0:0:
256,192,370981,1,8,0:0:0:0:
256,192,371097,1,4,0:0:0:0:
256,192,371327,1,0,0:0:0:0:
256,192,371558,1,8,0:0:0:0:
256,192,371789,1,0,0:0:0:0:
256,192,372020,1,0,0:0:0:0:
256,192,372250,1,8,0:0:0:0:
256,192,372481,1,0,0:0:0:0:
256,192,372712,1,8,0:0:0:0:
256,192,372827,1,8,0:0:0:0:
256,192,372943,1,4,0:0:0:0:
256,192,373173,1,8,0:0:0:0:
256,192,373404,1,0,0:0:0:0:
256,192,373635,1,8,0:0:0:0:
256,192,373750,1,8,0:0:0:0:
256,192,373866,1,0,0:0:0:0:
256,192,374097,1,8,0:0:0:0:
256,192,374327,1,0,0:0:0:0:
256,192,374443,1,0,0:0:0:0:
256,192,374558,1,8,0:0:0:0:
256,192,374673,1,8,0:0:0:0:
256,192,374789,1,4,0:0:0:0:
256,192,375020,1,8,0:0:0:0:
256,192,375250,1,8,0:0:0:0:
256,192,375366,1,0,0:0:0:0:
256,192,375481,1,8,0:0:0:0:
256,192,375597,1,8,0:0:0:0:
256,192,375712,1,0,0:0:0:0:
256,192,375943,1,8,0:0:0:0:
256,192,376173,1,0,0:0:0:0:
256,192,376289,1,0,0:0:0:0:
256,192,376404,1,8,0:0:0:0:
256,192,376520,1,8,0:0:0:0:
256,192,376635,1,0,0:0:0:0:
256,192,376866,1,8,0:0:0:0:
256,192,377097,1,0,0:0:0:0:
256,192,377212,1,8,0:0:0:0:
256,192,377327,1,8,0:0:0:0:
256,192,377443,1,8,0:0:0:0:
256,192,377558,1,4,0:0:0:0:
256,192,377789,1,8,0:0:0:0:
256,192,378020,1,0,0:0:0:0:
256,192,378250,1,8,0:0:0:0:
256,192,378481,1,12,0:0:0:0:
256,192,379058,1,0,0:0:0:0:
256,192,379173,1,8,0:0:0:0:
256,192,379289,1,0,0:0:0:0:
256,192,379404,1,8,0:0:0:0:
256,192,379635,1,0,0:0:0:0:
256,192,379750,1,8,0:0:0:0:
256,192,379981,1,0,0:0:0:0:
256,192,380097,1,8,0:0:0:0:
256,192,380327,1,0,0:0:0:0:
256,192,380443,1,8,0:0:0:0:
256,192,380558,1,0,0:0:0:0:
256,192,380789,1,8,0:0:0:0:
256,192,380904,1,0,0:0:0:0:
256,192,381020,1,8,0:0:0:0:
256,192,381250,1,8,0:0:0:0:
256,192,381366,1,0,0:0:0:0:
256,192,381481,1,0,0:0:0:0:
256,192,381597,1,8,0:0:0:0:
256,192,381712,1,0,0:0:0:0:
256,192,381827,1,0,0:0:0:0:
256,192,381943,1,8,0:0:0:0:
256,192,382058,1,0,0:0:0:0:
256,192,382173,1,8,0:0:0:0:
256,192,382231,1,0,0:0:0:0:
256,192,382289,1,8,0:0:0:0:
256,192,382347,1,8,0:0:0:0:
256,192,382404,1,0,0:0:0:0:
256,192,382462,1,8,0:0:0:0:
256,192,382520,1,0,0:0:0:0:
256,192,382577,1,0,0:0:0:0:
256,192,382635,1,8,0:0:0:0:
256,192,382693,1,8,0:0:0:0:
256,192,382750,1,0,0:0:0:0:
256,192,382808,1,0,0:0:0:0:
256,192,382866,1,8,0:0:0:0:
256,192,382923,1,0,0:0:0:0:
256,192,382981,1,0,0:0:0:0:
256,192,383039,1,0,0:0:0:0:
256,192,383097,1,8,0:0:0:0:
256,192,383154,1,8,0:0:0:0:
256,192,383212,1,0,0:0:0:0:
256,192,383270,1,0,0:0:0:0:
256,192,383327,1,8,0:0:0:0:
256,192,383385,1,0,0:0:0:0:
256,192,383443,1,8,0:0:0:0:
256,192,383500,1,0,0:0:0:0:
256,192,383558,1,8,0:0:0:0:
256,192,383616,1,8,0:0:0:0:
256,192,383673,1,0,0:0:0:0:
256,192,383731,1,0,0:0:0:0:
256,192,383789,1,8,0:0:0:0:
256,192,383847,1,0,0:0:0:0:
256,192,383904,1,8,0:0:0:0:
256,192,384020,1,4,0:0:0:0:
