osu file format v14

[General]
AudioFilename: audio.mp3
AudioLeadIn: 0
PreviewTime: 197670
Countdown: 1
SampleSet: Soft
StackLeniency: 0.7
Mode: 3
LetterboxInBreaks: 0
SpecialStyle: 0
WidescreenStoryboard: 0

[Editor]
Bookmarks: 270767
DistanceSpacing: 1.3
BeatDivisor: 4
GridSize: 32
TimelineZoom: 1.7

[Metadata]
Title:IMAGE -MATERIAL-
TitleUnicode:IMAGE -MATERIAL-
Artist:Tatsh
ArtistUnicode:Tatsh
Creator:azer467
Version:Aze
Source:
Tags:waniniw azer467 aze
BeatmapID:952237
BeatmapSetID:442838

[Difficulty]
HPDrainRate:6
CircleSize:4
OverallDifficulty:6
ApproachRate:5
SliderMultiplier:1.8
SliderTickRate:1

[Events]
//Background and Video events
0,0,"default.jpg",0,0
//Break Periods
//Storyboard Layer 0 (Background)
//Storyboard Layer 1 (Fail)
//Storyboard Layer 2 (Pass)
//Storyboard Layer 3 (Foreground)
//Storyboard Sound Samples

[TimingPoints]
6588,461.538461538462,4,2,1,5,1,0
6594,-50,4,2,1,5,0,0
49055,230.769230769231,4,2,1,100,1,0
49055,-100,4,3,1,100,0,0
55978,-33.3333333333333,4,2,1,100,0,0
55992,-222.222222222221,4,2,1,100,0,0
56439,-100,4,2,1,100,0,0
88747,-100,4,2,2,100,0,0
99362,-100,4,2,1,100,0,0
99824,-100,4,2,2,100,0,0
101670,-100,4,2,1,100,0,0
134901,-100,4,2,3,100,0,0
155901,-100,4,2,1,100,0,0
157055,-100,4,2,3,100,0,0
165194,-100,4,2,1,100,0,0
166285,-100,4,2,2,100,0,0
179208,-100,4,2,1,100,0,0
197670,-100,4,2,1,100,0,1
227208,-100,4,2,0,5,0,0
251518,375,4,2,0,15,1,0
251518,-55.5555555555556,4,2,0,15,0,0
252712.148649296,364.593103448276,4,2,0,25,1,0
252713,-54.9450549450549,4,2,0,25,0,0
253058,461.538461538462,4,2,0,35,1,0
253058,-50,4,2,0,35,0,0
253519,594.059405940594,4,2,0,45,1,0
253519,-45.4545454545455,4,2,0,45,0,0
254113,545.454545454546,4,2,0,65,1,0
254113,-47.1698113207547,4,2,0,65,0,0
254658,937.5,4,2,0,85,1,0
254658,-25,4,2,0,85,0,0
256499,1200,4,2,0,100,1,0
256499,-23.8095238095238,4,2,0,100,0,0
261299,-12.5,4,2,0,100,0,0
262574,-68.9655172413792,4,2,0,100,0,0
263210,230.769230769231,4,2,1,100,1,0
295517,-100,4,2,2,100,0,0
308671,-100,4,2,1,100,0,0

[HitObjects]
64,192,6588,128,0,7972:0:0:0:0:
192,192,8434,128,0,9818:0:0:0:0:
64,192,10280,128,0,11664:0:0:0:0:
320,192,10280,128,0,11664:0:0:0:0:
192,192,11203,1,0,0:0:0:0:
448,192,11434,1,0,0:0:0:0:
192,192,11664,1,0,0:0:0:0:
448,192,11895,1,0,0:0:0:0:
64,192,12126,128,0,13511:0:0:0:0:
320,192,12357,1,0,0:0:0:0:
448,192,12588,1,0,0:0:0:0:
320,192,12818,1,0,0:0:0:0:
448,192,13049,1,0,0:0:0:0:
320,192,13280,1,0,0:0:0:0:
192,192,13511,1,0,0:0:0:0:
320,192,13741,1,0,0:0:0:0:
448,192,13972,128,0,15357:0:0:0:0:
192,192,13972,128,0,15357:0:0:0:0:
64,192,15818,128,0,17203:0:0:0:0:
192,192,17664,128,0,21357:0:0:0:0:
320,192,17664,128,0,19049:0:0:0:0:
64,192,19511,128,0,21357:0:0:0:0:
448,192,19511,128,0,21357:0:0:0:0:
320,192,21357,1,0,0:0:0:0:
64,192,21818,1,0,0:0:0:0:
320,192,22280,1,0,0:0:0:0:
192,192,22741,1,0,0:0:0:0:
448,192,23203,1,0,0:0:0:0:
64,192,23203,128,0,24588:0:0:0:0:
320,192,23664,1,0,0:0:0:0:
192,192,24126,1,0,0:0:0:0:
448,192,24588,1,0,0:0:0:0:
320,192,25049,128,0,26434:0:0:0:0:
192,192,25049,128,0,26434:0:0:0:0:
64,192,26895,128,0,28280:0:0:0:0:
448,192,26895,128,0,28280:0:0:0:0:
192,192,28741,1,0,0:0:0:0:
320,192,28741,1,0,0:0:0:0:
448,192,29203,1,0,0:0:0:0:
320,192,29664,1,0,0:0:0:0:
192,192,30126,1,0,0:0:0:0:
448,192,30588,1,0,0:0:0:0:
320,192,31049,1,0,0:0:0:0:
448,192,31511,1,0,0:0:0:0:
64,192,31972,1,0,0:0:0:0:
320,192,32434,1,0,0:0:0:0:
448,192,32434,128,0,33818:0:0:0:0:
64,192,34280,128,0,34741:0:0:0:0:
64,192,35203,128,0,36126:0:0:0:0:
448,192,35203,128,0,36126:0:0:0:0:
192,192,36126,128,0,37972:0:0:0:0:
320,192,36588,128,0,37972:0:0:0:0:
64,192,38434,1,0,0:0:0:0:
448,192,38895,1,0,0:0:0:0:
320,192,39357,1,0,0:0:0:0:
64,192,39818,128,0,40741:0:0:0:0:
192,192,40741,128,0,41664:0:0:0:0:
320,192,41664,128,0,42588:0:0:0:0:
448,192,42588,1,0,0:0:0:0:
192,192,43049,1,0,0:0:0:0:
64,192,43049,1,0,0:0:0:0:
448,192,43511,1,0,0:0:0:0:
64,192,43511,1,0,0:0:0:0:
192,192,43511,128,0,47203:0:0:0:0:
320,192,43511,128,0,47203:0:0:0:0:
64,192,49055,1,2,0:0:0:0:
192,192,49170,1,2,0:0:0:0:
320,192,49285,1,8,0:0:0:0:
448,192,49516,1,2,0:0:0:0:
64,192,49631,1,8,0:0:0:0:
192,192,49862,1,2,0:0:0:0:
448,192,50208,128,8,50555:0:0:0:0:
64,192,50555,128,8,50901:0:0:0:0:
192,192,50901,1,2,0:0:0:0:
320,192,51016,1,2,0:0:0:0:
448,192,51131,1,8,0:0:0:0:
64,192,51362,1,2,0:0:0:0:
192,192,51478,1,8,0:0:0:0:
448,192,51708,1,2,0:0:0:0:
192,192,51939,1,2,0:0:0:0:
64,192,52055,128,8,52401:0:0:0:0:
448,192,52401,128,8,52747:0:0:0:0:
320,192,52747,1,2,0:0:0:0:
192,192,52862,1,2,0:0:0:0:
64,192,52978,1,8,0:0:0:0:
448,192,53208,1,2,0:0:0:0:
320,192,53324,1,8,0:0:0:0:
64,192,53555,1,2,0:0:0:0:
192,192,53785,1,2,0:0:0:0:
64,192,53901,128,8,54189:0:0:0:0:
448,192,54247,128,8,54593:0:0:0:0:
64,192,54593,1,2,0:0:0:0:
192,192,54708,1,2,0:0:0:0:
320,192,54824,1,8,0:0:0:0:
448,192,55055,1,2,0:0:0:0:
320,192,55170,1,8,0:0:0:0:
64,192,55401,1,2,0:0:0:0:
448,192,55631,1,2,0:0:0:0:
320,192,55747,1,2,0:0:0:0:
192,192,55862,1,4,0:0:0:0:
448,192,56439,1,2,0:0:0:0:
320,192,56555,1,0,0:0:0:0:
192,192,56670,1,8,0:0:0:0:
320,192,56785,1,0,0:0:0:0:
64,192,56901,1,0,0:0:0:0:
192,192,57016,1,0,0:0:0:0:
320,192,57131,1,8,0:0:0:0:
448,192,57362,1,0,0:0:0:0:
192,192,57478,1,0,0:0:0:0:
320,192,57593,1,8,0:0:0:0:
64,192,57708,1,0,0:0:0:0:
192,192,57824,1,0,0:0:0:0:
320,192,57939,1,0,0:0:0:0:
448,192,58055,1,8,0:0:0:0:
448,192,58285,1,0,0:0:0:0:
64,192,58285,128,0,58747:0:0:0:0:
320,192,58401,1,0,0:0:0:0:
192,192,58516,1,8,0:0:0:0:
320,192,58631,1,0,0:0:0:0:
448,192,58747,1,0,0:0:0:0:
320,192,58862,1,0,0:0:0:0:
448,192,58978,1,8,0:0:0:0:
192,192,59208,1,0,0:0:0:0:
320,192,59324,1,0,0:0:0:0:
448,192,59439,1,8,0:0:0:0:
320,192,59555,1,0,0:0:0:0:
192,192,59670,1,0,0:0:0:0:
320,192,59785,1,0,0:0:0:0:
448,192,59901,1,8,0:0:0:0:
192,192,60131,1,0,0:0:0:0:
64,192,60131,1,0,0:0:0:0:
320,192,60247,1,0,0:0:0:0:
448,192,60362,1,8,0:0:0:0:
192,192,60478,1,0,0:0:0:0:
64,192,60478,1,0,0:0:0:0:
320,192,60593,1,0,0:0:0:0:
448,192,60708,1,0,0:0:0:0:
64,192,60824,1,8,0:0:0:0:
192,192,60939,1,0,0:0:0:0:
320,192,61055,1,0,0:0:0:0:
192,192,61170,1,0,0:0:0:0:
320,192,61285,1,8,0:0:0:0:
448,192,61401,1,0,0:0:0:0:
320,192,61516,1,0,0:0:0:0:
192,192,61631,1,0,0:0:0:0:
64,192,61747,1,8,0:0:0:0:
448,192,61978,1,0,0:0:0:0:
320,192,61978,1,0,0:0:0:0:
192,192,62093,1,0,0:0:0:0:
448,192,62208,1,8,0:0:0:0:
320,192,62324,1,0,0:0:0:0:
192,192,62324,1,0,0:0:0:0:
64,192,62439,1,0,0:0:0:0:
192,192,62555,1,0,0:0:0:0:
448,192,62670,128,8,63708:0:0:0:0:
64,192,62785,1,0,0:0:0:0:
320,192,62901,1,0,0:0:0:0:
192,192,63016,1,0,0:0:0:0:
64,192,63131,1,0,0:0:0:0:
192,192,63247,1,0,0:0:0:0:
320,192,63362,1,0,0:0:0:0:
192,192,63420,1,0,0:0:0:0:
64,192,63478,1,0,0:0:0:0:
320,192,63535,1,0,0:0:0:0:
192,192,63593,1,0,0:0:0:0:
64,192,63651,1,0,0:0:0:0:
320,192,63708,1,0,0:0:0:0:
448,192,63824,1,0,0:0:0:0:
320,192,63881,1,0,0:0:0:0:
192,192,63939,1,0,0:0:0:0:
64,192,63997,1,0,0:0:0:0:
192,192,64055,1,0,0:0:0:0:
64,192,64285,1,0,0:0:0:0:
192,192,64343,1,0,0:0:0:0:
320,192,64401,1,0,0:0:0:0:
448,192,64458,1,0,0:0:0:0:
320,192,64516,1,0,0:0:0:0:
448,192,64747,1,0,0:0:0:0:
320,192,64805,1,0,0:0:0:0:
192,192,64862,1,0,0:0:0:0:
320,192,64920,1,0,0:0:0:0:
448,192,64978,1,0,0:0:0:0:
192,192,65208,1,0,0:0:0:0:
320,192,65266,1,0,0:0:0:0:
64,192,65324,1,0,0:0:0:0:
192,192,65381,1,0,0:0:0:0:
320,192,65439,1,0,0:0:0:0:
448,192,65670,1,0,0:0:0:0:
320,192,65728,1,0,0:0:0:0:
192,192,65785,1,0,0:0:0:0:
64,192,65843,1,0,0:0:0:0:
192,192,65901,1,0,0:0:0:0:
320,192,66016,1,0,0:0:0:0:
448,192,66131,1,0,0:0:0:0:
320,192,66247,1,0,0:0:0:0:
64,192,66362,1,0,0:0:0:0:
192,192,66478,1,0,0:0:0:0:
320,192,66593,128,0,67285:0:0:0:0:
192,192,67516,1,0,0:0:0:0:
64,192,67516,1,0,0:0:0:0:
320,192,67631,1,0,0:0:0:0:
448,192,67747,1,0,0:0:0:0:
320,192,67862,1,0,0:0:0:0:
192,192,67862,1,0,0:0:0:0:
448,192,67978,1,0,0:0:0:0:
64,192,68093,1,0,0:0:0:0:
320,192,68208,1,0,0:0:0:0:
192,192,68324,1,0,0:0:0:0:
448,192,68439,1,0,0:0:0:0:
320,192,68555,1,0,0:0:0:0:
448,192,68670,1,0,0:0:0:0:
192,192,68785,1,0,0:0:0:0:
320,192,68901,1,0,0:0:0:0:
448,192,69016,1,0,0:0:0:0:
320,192,69131,1,0,0:0:0:0:
192,192,69247,1,0,0:0:0:0:
448,192,69362,128,0,69593:0:0:0:0:
192,192,69593,128,0,69824:0:0:0:0:
320,192,69824,128,0,70055:0:0:0:0:
64,192,70055,128,0,70285:0:0:0:0:
448,192,70285,1,0,0:0:0:0:
320,192,70343,1,0,0:0:0:0:
192,192,70401,1,0,0:0:0:0:
64,192,70458,1,0,0:0:0:0:
448,192,70516,1,0,0:0:0:0:
320,192,70574,1,0,0:0:0:0:
192,192,70631,1,0,0:0:0:0:
64,192,70689,1,0,0:0:0:0:
448,192,70747,1,0,0:0:0:0:
320,192,70805,1,0,0:0:0:0:
192,192,70862,1,0,0:0:0:0:
320,192,70920,1,0,0:0:0:0:
64,192,70978,1,0,0:0:0:0:
192,192,71035,1,0,0:0:0:0:
320,192,71093,1,0,0:0:0:0:
448,192,71151,1,0,0:0:0:0:
320,192,71208,1,0,0:0:0:0:
192,192,71208,1,0,0:0:0:0:
64,192,71324,1,0,0:0:0:0:
192,192,71439,1,8,0:0:0:0:
320,192,71555,1,0,0:0:0:0:
448,192,71785,1,0,0:0:0:0:
192,192,71901,1,8,0:0:0:0:
64,192,71901,1,0,0:0:0:0:
320,192,72016,1,0,0:0:0:0:
448,192,72131,1,0,0:0:0:0:
320,192,72247,1,0,0:0:0:0:
320,192,72478,1,0,0:0:0:0:
448,192,72593,1,0,0:0:0:0:
320,192,72708,1,0,0:0:0:0:
192,192,72824,1,0,0:0:0:0:
64,192,72939,1,0,0:0:0:0:
320,192,73055,1,0,0:0:0:0:
448,192,73055,1,0,0:0:0:0:
192,192,73170,1,0,0:0:0:0:
64,192,73285,1,8,0:0:0:0:
448,192,73401,1,0,0:0:0:0:
64,192,73631,1,0,0:0:0:0:
320,192,73747,1,0,0:0:0:0:
448,192,73747,1,8,0:0:0:0:
192,192,73862,1,0,0:0:0:0:
448,192,73978,1,0,0:0:0:0:
320,192,74093,1,0,0:0:0:0:
64,192,74324,1,0,0:0:0:0:
192,192,74439,1,0,0:0:0:0:
320,192,74555,1,0,0:0:0:0:
192,192,74670,128,0,74901:0:0:0:0:
448,192,74901,1,0,0:0:0:0:
64,192,74901,1,0,0:0:0:0:
320,192,75016,1,0,0:0:0:0:
192,192,75131,1,8,0:0:0:0:
320,192,75247,1,0,0:0:0:0:
64,192,75478,1,0,0:0:0:0:
320,192,75593,1,0,0:0:0:0:
448,192,75593,1,8,0:0:0:0:
192,192,75708,1,0,0:0:0:0:
448,192,75824,1,0,0:0:0:0:
64,192,75939,1,0,0:0:0:0:
448,192,76170,1,0,0:0:0:0:
64,192,76285,128,0,76516:0:0:0:0:
320,192,76401,1,0,0:0:0:0:
448,192,76516,128,0,76747:0:0:0:0:
192,192,76631,1,0,0:0:0:0:
320,192,76747,1,0,0:0:0:0:
192,192,76862,1,0,0:0:0:0:
64,192,76978,1,8,0:0:0:0:
192,192,77093,1,0,0:0:0:0:
448,192,77324,1,0,0:0:0:0:
320,192,77439,1,8,0:0:0:0:
192,192,77555,1,0,0:0:0:0:
448,192,77670,128,0,77901:0:0:0:0:
64,192,77901,128,0,78131:0:0:0:0:
320,192,78131,128,0,78362:0:0:0:0:
192,192,78362,128,0,78593:0:0:0:0:
448,192,78593,1,0,0:0:0:0:
64,192,78593,1,0,0:0:0:0:
320,192,78708,1,0,0:0:0:0:
192,192,78824,1,8,0:0:0:0:
448,192,78939,1,0,0:0:0:0:
64,192,79170,1,0,0:0:0:0:
320,192,79285,1,8,0:0:0:0:
192,192,79285,1,0,0:0:0:0:
64,192,79401,1,0,0:0:0:0:
448,192,79516,1,0,0:0:0:0:
320,192,79631,1,0,0:0:0:0:
64,192,79862,1,0,0:0:0:0:
448,192,79978,1,0,0:0:0:0:
320,192,80093,1,0,0:0:0:0:
448,192,80208,1,0,0:0:0:0:
192,192,80324,1,0,0:0:0:0:
320,192,80439,1,0,0:0:0:0:
448,192,80439,1,0,0:0:0:0:
192,192,80555,1,0,0:0:0:0:
64,192,80670,1,8,0:0:0:0:
192,192,80785,1,0,0:0:0:0:
64,192,81016,1,0,0:0:0:0:
320,192,81131,1,8,0:0:0:0:
192,192,81247,1,0,0:0:0:0:
448,192,81362,1,0,0:0:0:0:
64,192,81478,1,0,0:0:0:0:
448,192,81708,1,0,0:0:0:0:
320,192,81824,1,0,0:0:0:0:
448,192,81939,1,0,0:0:0:0:
64,192,82055,1,0,0:0:0:0:
192,192,82170,1,0,0:0:0:0:
448,192,82285,1,0,0:0:0:0:
320,192,82285,1,0,0:0:0:0:
192,192,82401,1,0,0:0:0:0:
64,192,82516,1,8,0:0:0:0:
192,192,82631,1,0,0:0:0:0:
64,192,82862,1,0,0:0:0:0:
448,192,82978,1,8,0:0:0:0:
320,192,82978,1,0,0:0:0:0:
64,192,83093,1,0,0:0:0:0:
192,192,83208,1,0,0:0:0:0:
320,192,83324,1,0,0:0:0:0:
192,192,83555,1,0,0:0:0:0:
448,192,83670,1,0,0:0:0:0:
64,192,83785,1,0,0:0:0:0:
320,192,83901,1,0,0:0:0:0:
192,192,84016,1,0,0:0:0:0:
448,192,84131,1,0,0:0:0:0:
320,192,84131,1,0,0:0:0:0:
64,192,84247,1,0,0:0:0:0:
320,192,84362,1,8,0:0:0:0:
448,192,84478,1,0,0:0:0:0:
64,192,84593,1,0,0:0:0:0:
448,192,84708,1,0,0:0:0:0:
192,192,84824,1,0,0:0:0:0:
64,192,84824,1,8,0:0:0:0:
320,192,84939,1,0,0:0:0:0:
448,192,85055,128,0,85285:0:0:0:0:
192,192,85285,128,0,85516:0:0:0:0:
320,192,85516,128,2,85747:0:0:0:0:
64,192,85747,128,2,85978:0:0:0:0:
448,192,85978,128,2,86208:0:0:0:0:
64,192,86208,128,4,86901:0:0:0:0:
192,192,86901,128,0,87362:0:0:0:0:
320,192,87131,1,0,0:0:0:0:
320,192,87362,128,0,87824:0:0:0:0:
64,192,87593,1,0,0:0:0:0:
192,192,87824,1,0,0:0:0:0:
320,192,88055,1,0,0:0:0:0:
192,192,88055,1,0,0:0:0:0:
64,192,88285,1,0,0:0:0:0:
192,192,88343,1,0,0:0:0:0:
320,192,88401,1,0,0:0:0:0:
448,192,88458,1,0,0:0:0:0:
64,192,88516,1,0,0:0:0:0:
192,192,88574,1,0,0:0:0:0:
320,192,88631,1,0,0:0:0:0:
448,192,88689,1,0,0:0:0:0:
320,192,88747,128,4,89901:0:0:0:0:
64,192,88978,1,0,0:0:0:0:
192,192,89208,1,0,0:0:0:0:
448,192,89439,1,0,0:0:0:0:
192,192,89670,1,0,0:0:0:0:
448,192,89901,128,0,90131:0:0:0:0:
64,192,90131,128,0,90362:0:0:0:0:
320,192,90362,128,0,90593:0:0:0:0:
64,192,90593,128,0,90939:0:0:0:0:
320,192,90824,1,0,0:0:0:0:
448,192,90939,128,0,91285:0:0:0:0:
320,192,91170,1,0,0:0:0:0:
192,192,91285,128,0,91516:0:0:0:0:
64,192,91516,128,0,91978:0:0:0:0:
448,192,91747,1,0,0:0:0:0:
320,192,91978,1,0,0:0:0:0:
192,192,92093,1,0,0:0:0:0:
320,192,92208,1,0,0:0:0:0:
448,192,92324,1,0,0:0:0:0:
64,192,92439,128,0,93131:0:0:0:0:
448,192,92670,1,0,0:0:0:0:
320,192,92901,1,0,0:0:0:0:
448,192,93131,1,0,0:0:0:0:
320,192,93131,1,0,0:0:0:0:
192,192,93362,1,0,0:0:0:0:
448,192,93593,128,0,93824:0:0:0:0:
192,192,93824,128,0,94055:0:0:0:0:
320,192,94055,128,0,94285:0:0:0:0:
64,192,94285,128,0,94747:0:0:0:0:
448,192,94747,128,0,95208:0:0:0:0:
64,192,95208,128,0,95439:0:0:0:0:
192,192,95439,128,0,95670:0:0:0:0:
448,192,95670,128,0,95901:0:0:0:0:
320,192,95901,128,0,96131:0:0:0:0:
64,192,96131,128,0,96478:0:0:0:0:
448,192,96478,128,0,97055:0:0:0:0:
64,192,96824,1,0,0:0:0:0:
192,192,97055,1,2,0:0:0:0:
320,192,97170,1,0,0:0:0:0:
192,192,97285,1,2,0:0:0:0:
64,192,97401,1,0,0:0:0:0:
448,192,97516,1,2,0:0:0:0:
320,192,97631,1,0,0:0:0:0:
192,192,97747,1,2,0:0:0:0:
64,192,97862,1,0,0:0:0:0:
448,192,97978,128,0,98324:0:0:0:0:
64,192,98324,128,0,98670:0:0:0:0:
320,192,98670,128,0,99362:0:0:0:0:
192,192,98901,1,0,0:0:0:0:
448,192,99131,1,0,0:0:0:0:
64,192,99362,1,0,0:0:0:0:
192,192,99420,1,0,0:0:0:0:
320,192,99478,1,0,0:0:0:0:
448,192,99535,1,0,0:0:0:0:
64,192,99593,1,0,0:0:0:0:
448,192,99708,1,0,0:0:0:0:
192,192,99824,128,0,100285:0:0:0:0:
64,192,100055,1,0,0:0:0:0:
448,192,100285,128,0,100747:0:0:0:0:
320,192,100516,1,0,0:0:0:0:
64,192,100747,128,0,101208:0:0:0:0:
192,192,100978,1,0,0:0:0:0:
448,192,101208,128,0,101670:0:0:0:0:
320,192,101439,1,0,0:0:0:0:
192,192,101670,1,0,0:0:0:0:
64,192,101670,1,0,0:0:0:0:
320,192,101785,1,0,0:0:0:0:
192,192,101901,1,0,0:0:0:0:
64,192,101901,1,0,0:0:0:0:
64,192,102131,1,8,0:0:0:0:
192,192,102189,1,0,0:0:0:0:
320,192,102247,1,0,0:0:0:0:
448,192,102305,1,0,0:0:0:0:
64,192,102362,1,0,0:0:0:0:
192,192,102420,1,0,0:0:0:0:
320,192,102478,1,0,0:0:0:0:
448,192,102535,1,0,0:0:0:0:
64,192,102593,1,8,0:0:0:0:
192,192,102708,1,0,0:0:0:0:
448,192,102824,1,0,0:0:0:0:
320,192,102824,1,0,0:0:0:0:
192,192,103055,1,0,0:0:0:0:
64,192,103112,1,0,0:0:0:0:
448,192,103170,1,0,0:0:0:0:
320,192,103228,1,0,0:0:0:0:
64,192,103285,1,0,0:0:0:0:
192,192,103343,1,0,0:0:0:0:
320,192,103401,1,0,0:0:0:0:
448,192,103458,1,0,0:0:0:0:
320,192,103516,1,0,0:0:0:0:
64,192,103747,1,8,0:0:0:0:
448,192,103978,1,0,0:0:0:0:
192,192,104208,1,8,0:0:0:0:
320,192,104439,1,0,0:0:0:0:
64,192,104670,128,10,104901:0:0:0:0:
192,192,104901,1,2,0:0:0:0:
320,192,105016,1,2,0:0:0:0:
448,192,105247,128,2,105593:0:0:0:0:
320,192,105593,128,2,105939:0:0:0:0:
192,192,105939,128,2,106285:0:0:0:0:
64,192,106285,1,0,0:0:0:0:
448,192,106516,1,0,0:0:0:0:
64,192,106747,1,0,0:0:0:0:
192,192,106747,1,0,0:0:0:0:
320,192,106978,1,0,0:0:0:0:
64,192,107208,128,0,107670:0:0:0:0:
320,192,107439,1,8,0:0:0:0:
448,192,107670,128,0,108131:0:0:0:0:
192,192,107901,1,8,0:0:0:0:
64,192,108131,128,0,109055:0:0:0:0:
192,192,108362,1,2,0:0:0:0:
448,192,108593,1,2,0:0:0:0:
320,192,108708,1,2,0:0:0:0:
448,192,108939,128,2,109285:0:0:0:0:
320,192,109285,128,2,109631:0:0:0:0:
192,192,109631,128,2,109978:0:0:0:0:
64,192,109978,1,0,0:0:0:0:
448,192,110093,1,0,0:0:0:0:
320,192,110208,1,8,0:0:0:0:
192,192,110208,1,8,0:0:0:0:
64,192,110324,1,0,0:0:0:0:
320,192,110439,1,0,0:0:0:0:
448,192,110439,1,0,0:0:0:0:
192,192,110555,1,0,0:0:0:0:
320,192,110670,1,8,0:0:0:0:
448,192,110670,1,8,0:0:0:0:
192,192,110785,1,0,0:0:0:0:
64,192,110901,1,0,0:0:0:0:
320,192,111131,1,8,0:0:0:0:
192,192,111362,1,0,0:0:0:0:
448,192,111593,1,8,0:0:0:0:
320,192,111824,128,0,112516:0:0:0:0:
192,192,112055,1,2,0:0:0:0:
64,192,112285,1,2,0:0:0:0:
192,192,112516,1,2,0:0:0:0:
64,192,112747,128,2,113093:0:0:0:0:
192,192,113093,128,2,113439:0:0:0:0:
320,192,113439,1,2,0:0:0:0:
64,192,113670,1,0,0:0:0:0:
448,192,113670,1,0,0:0:0:0:
320,192,113901,1,8,0:0:0:0:
192,192,114131,1,0,0:0:0:0:
448,192,114362,1,8,0:0:0:0:
192,192,114593,128,4,115516:0:0:0:0:
64,192,114593,128,0,115516:0:0:0:0:
320,192,115516,1,0,0:0:0:0:
448,192,115516,1,0,0:0:0:0:
64,192,115747,1,0,0:0:0:0:
320,192,115978,1,8,0:0:0:0:
192,192,116208,1,0,0:0:0:0:
320,192,116439,128,2,117362:0:0:0:0:
448,192,116439,128,0,117362:0:0:0:0:
192,192,117362,128,0,118285:0:0:0:0:
64,192,118285,1,0,0:0:0:0:
192,192,118343,1,0,0:0:0:0:
320,192,118401,1,0,0:0:0:0:
448,192,118458,1,0,0:0:0:0:
64,192,118516,1,0,0:0:0:0:
320,192,118631,1,0,0:0:0:0:
192,192,118747,1,0,0:0:0:0:
448,192,118862,1,0,0:0:0:0:
64,192,118978,1,0,0:0:0:0:
320,192,119093,1,0,0:0:0:0:
64,192,119208,1,8,0:0:0:0:
192,192,119208,1,0,0:0:0:0:
320,192,119324,1,0,0:0:0:0:
64,192,119439,1,8,0:0:0:0:
192,192,119439,1,0,0:0:0:0:
320,192,119555,1,0,0:0:0:0:
64,192,119670,1,0,0:0:0:0:
192,192,119728,1,0,0:0:0:0:
320,192,119785,1,0,0:0:0:0:
448,192,119843,1,0,0:0:0:0:
64,192,119901,1,0,0:0:0:0:
192,192,119958,1,0,0:0:0:0:
320,192,120016,1,0,0:0:0:0:
448,192,120074,1,0,0:0:0:0:
192,192,120131,1,0,0:0:0:0:
64,192,120131,1,0,0:0:0:0:
320,192,120247,1,0,0:0:0:0:
448,192,120362,1,8,0:0:0:0:
320,192,120478,1,0,0:0:0:0:
64,192,120708,1,0,0:0:0:0:
192,192,120824,1,8,0:0:0:0:
320,192,120939,1,0,0:0:0:0:
448,192,121055,1,0,0:0:0:0:
320,192,121170,1,0,0:0:0:0:
64,192,121401,1,0,0:0:0:0:
320,192,121516,1,0,0:0:0:0:
448,192,121516,1,0,0:0:0:0:
192,192,121631,1,0,0:0:0:0:
320,192,121747,1,0,0:0:0:0:
448,192,121747,1,0,0:0:0:0:
64,192,121862,1,0,0:0:0:0:
192,192,121978,1,0,0:0:0:0:
320,192,122093,1,0,0:0:0:0:
192,192,122208,1,8,0:0:0:0:
320,192,122324,1,0,0:0:0:0:
64,192,122555,1,0,0:0:0:0:
192,192,122670,1,8,0:0:0:0:
320,192,122785,1,0,0:0:0:0:
448,192,122901,1,0,0:0:0:0:
320,192,123016,1,0,0:0:0:0:
448,192,123247,1,0,0:0:0:0:
320,192,123362,1,0,0:0:0:0:
192,192,123478,1,0,0:0:0:0:
448,192,123593,128,0,123824:0:0:0:0:
320,192,123593,1,0,0:0:0:0:
64,192,123824,128,0,124055:0:0:0:0:
192,192,123824,1,0,0:0:0:0:
320,192,123939,1,0,0:0:0:0:
448,192,124055,1,8,0:0:0:0:
320,192,124170,1,0,0:0:0:0:
64,192,124401,1,0,0:0:0:0:
192,192,124516,1,8,0:0:0:0:
320,192,124631,1,0,0:0:0:0:
448,192,124747,1,0,0:0:0:0:
64,192,124862,1,0,0:0:0:0:
448,192,125093,1,0,0:0:0:0:
192,192,125208,1,0,0:0:0:0:
320,192,125324,1,0,0:0:0:0:
64,192,125439,1,0,0:0:0:0:
448,192,125555,1,0,0:0:0:0:
192,192,125670,1,0,0:0:0:0:
64,192,125670,1,0,0:0:0:0:
448,192,125785,1,0,0:0:0:0:
192,192,125901,1,0,0:0:0:0:
64,192,125901,1,0,0:0:0:0:
320,192,126016,1,0,0:0:0:0:
448,192,126131,128,4,126593:0:0:0:0:
192,192,126362,1,0,0:0:0:0:
64,192,126824,128,4,127516:0:0:0:0:
192,192,127055,1,0,0:0:0:0:
320,192,127170,1,0,0:0:0:0:
448,192,127285,1,0,0:0:0:0:
320,192,127401,1,0,0:0:0:0:
192,192,127516,1,0,0:0:0:0:
320,192,127631,1,0,0:0:0:0:
192,192,127747,1,8,0:0:0:0:
64,192,127862,1,0,0:0:0:0:
448,192,128093,1,0,0:0:0:0:
192,192,128208,1,8,0:0:0:0:
320,192,128324,1,0,0:0:0:0:
448,192,128439,1,0,0:0:0:0:
320,192,128555,1,0,0:0:0:0:
64,192,128785,1,0,0:0:0:0:
320,192,128901,1,0,0:0:0:0:
192,192,129016,1,0,0:0:0:0:
448,192,129131,1,0,0:0:0:0:
64,192,129247,1,0,0:0:0:0:
192,192,129362,1,0,0:0:0:0:
448,192,129478,1,0,0:0:0:0:
320,192,129593,1,8,0:0:0:0:
192,192,129708,1,0,0:0:0:0:
64,192,129939,1,0,0:0:0:0:
320,192,130055,1,8,0:0:0:0:
192,192,130170,1,0,0:0:0:0:
448,192,130285,1,0,0:0:0:0:
320,192,130401,1,0,0:0:0:0:
64,192,130631,1,0,0:0:0:0:
192,192,130747,1,0,0:0:0:0:
448,192,130862,1,0,0:0:0:0:
192,192,130978,1,0,0:0:0:0:
320,192,131093,1,0,0:0:0:0:
448,192,131208,1,0,0:0:0:0:
320,192,131324,1,0,0:0:0:0:
192,192,131439,1,8,0:0:0:0:
64,192,131555,1,0,0:0:0:0:
448,192,131785,1,0,0:0:0:0:
192,192,131901,1,8,0:0:0:0:
320,192,132016,1,0,0:0:0:0:
448,192,132131,1,0,0:0:0:0:
320,192,132247,1,0,0:0:0:0:
64,192,132478,1,0,0:0:0:0:
192,192,132593,1,0,0:0:0:0:
448,192,132708,1,0,0:0:0:0:
64,192,132824,1,0,0:0:0:0:
320,192,132939,1,0,0:0:0:0:
64,192,133055,1,0,0:0:0:0:
192,192,133112,1,0,0:0:0:0:
320,192,133170,1,0,0:0:0:0:
448,192,133228,1,0,0:0:0:0:
64,192,133285,1,0,0:0:0:0:
192,192,133343,1,0,0:0:0:0:
320,192,133401,1,0,0:0:0:0:
448,192,133458,1,0,0:0:0:0:
64,192,133516,128,0,133978:0:0:0:0:
448,192,133978,1,0,0:0:0:0:
320,192,134035,1,0,0:0:0:0:
64,192,134093,1,0,0:0:0:0:
192,192,134151,1,0,0:0:0:0:
448,192,134208,1,0,0:0:0:0:
320,192,134266,1,0,0:0:0:0:
64,192,134324,128,0,134901:0:0:0:0:
320,192,134901,1,0,0:0:0:0:
448,192,134901,1,0,0:0:0:0:
192,192,135016,1,0,0:0:0:0:
320,192,135131,1,8,0:0:0:0:
64,192,135131,1,8,0:0:0:0:
448,192,135362,1,0,0:0:0:0:
320,192,135478,1,0,0:0:0:0:
192,192,135593,1,8,0:0:0:0:
64,192,135593,1,8,0:0:0:0:
320,192,135824,1,0,0:0:0:0:
64,192,135939,1,0,0:0:0:0:
320,192,136055,1,8,0:0:0:0:
448,192,136055,1,8,0:0:0:0:
192,192,136285,1,0,0:0:0:0:
448,192,136401,1,0,0:0:0:0:
320,192,136516,1,8,0:0:0:0:
64,192,136516,1,8,0:0:0:0:
192,192,136747,1,0,0:0:0:0:
448,192,136862,1,0,0:0:0:0:
320,192,136978,1,8,0:0:0:0:
64,192,137093,1,8,0:0:0:0:
448,192,137208,1,0,0:0:0:0:
192,192,137324,1,0,0:0:0:0:
320,192,137439,1,8,0:0:0:0:
64,192,137555,1,8,0:0:0:0:
448,192,137670,1,0,0:0:0:0:
320,192,137785,1,0,0:0:0:0:
64,192,137901,1,8,0:0:0:0:
448,192,138016,1,0,0:0:0:0:
192,192,138131,1,8,0:0:0:0:
320,192,138247,1,8,0:0:0:0:
64,192,138362,1,0,0:0:0:0:
320,192,138478,1,8,0:0:0:0:
192,192,138593,1,8,0:0:0:0:
64,192,138593,1,0,0:0:0:0:
320,192,138708,1,8,0:0:0:0:
448,192,138824,1,8,0:0:0:0:
192,192,138824,1,8,0:0:0:0:
64,192,139055,1,0,0:0:0:0:
448,192,139170,1,0,0:0:0:0:
320,192,139285,1,8,0:0:0:0:
192,192,139285,1,8,0:0:0:0:
64,192,139516,1,0,0:0:0:0:
320,192,139631,1,0,0:0:0:0:
192,192,139747,1,8,0:0:0:0:
64,192,139747,1,8,0:0:0:0:
448,192,139978,1,0,0:0:0:0:
192,192,140093,1,0,0:0:0:0:
320,192,140208,1,8,0:0:0:0:
448,192,140208,1,8,0:0:0:0:
64,192,140439,1,0,0:0:0:0:
320,192,140555,1,0,0:0:0:0:
192,192,140670,1,8,0:0:0:0:
448,192,140785,1,8,0:0:0:0:
64,192,140901,1,0,0:0:0:0:
320,192,141016,1,0,0:0:0:0:
192,192,141131,1,8,0:0:0:0:
448,192,141247,1,8,0:0:0:0:
64,192,141362,1,0,0:0:0:0:
192,192,141478,1,8,0:0:0:0:
448,192,141593,1,8,0:0:0:0:
320,192,141708,1,8,0:0:0:0:
64,192,141824,1,0,0:0:0:0:
448,192,141939,1,0,0:0:0:0:
192,192,142055,1,0,0:0:0:0:
320,192,142170,1,0,0:0:0:0:
64,192,142285,128,0,143208:0:0:0:0:
320,192,142401,1,0,0:0:0:0:
448,192,142516,1,8,0:0:0:0:
192,192,142747,1,0,0:0:0:0:
320,192,142862,1,0,0:0:0:0:
448,192,142978,1,8,0:0:0:0:
448,192,143208,128,0,143439:0:0:0:0:
192,192,143439,128,0,143670:0:0:0:0:
320,192,143670,128,0,143901:0:0:0:0:
64,192,143901,128,0,144131:0:0:0:0:
448,192,144131,128,0,144593:0:0:0:0:
192,192,144362,1,8,0:0:0:0:
192,192,144593,128,0,145055:0:0:0:0:
448,192,145055,128,0,145401:0:0:0:0:
64,192,145401,128,0,145747:0:0:0:0:
320,192,145747,1,0,0:0:0:0:
448,192,145747,1,0,0:0:0:0:
64,192,145978,128,0,146901:0:0:0:0:
192,192,145978,1,0,0:0:0:0:
320,192,146093,1,0,0:0:0:0:
448,192,146208,1,8,0:0:0:0:
192,192,146439,1,0,0:0:0:0:
320,192,146555,1,0,0:0:0:0:
448,192,146670,1,8,0:0:0:0:
192,192,146901,128,0,147824:0:0:0:0:
320,192,147016,1,0,0:0:0:0:
448,192,147131,1,8,0:0:0:0:
64,192,147362,1,0,0:0:0:0:
320,192,147478,1,0,0:0:0:0:
448,192,147593,1,8,0:0:0:0:
320,192,147824,128,0,148747:0:0:0:0:
64,192,147824,1,0,0:0:0:0:
192,192,147939,1,0,0:0:0:0:
448,192,148055,1,8,0:0:0:0:
64,192,148285,1,0,0:0:0:0:
192,192,148401,1,0,0:0:0:0:
448,192,148516,1,8,0:0:0:0:
448,192,148747,1,0,0:0:0:0:
192,192,148747,1,0,0:0:0:0:
64,192,148862,1,0,0:0:0:0:
320,192,148978,1,0,0:0:0:0:
448,192,148978,1,0,0:0:0:0:
192,192,149093,1,0,0:0:0:0:
320,192,149208,1,0,0:0:0:0:
64,192,149208,1,0,0:0:0:0:
448,192,149324,1,0,0:0:0:0:
192,192,149439,1,0,0:0:0:0:
64,192,149439,1,0,0:0:0:0:
320,192,149555,1,0,0:0:0:0:
192,192,149670,1,4,0:0:0:0:
448,192,149670,1,6,0:0:0:0:
192,192,150593,1,2,0:0:0:0:
64,192,150593,1,2,0:0:0:0:
320,192,151516,1,10,0:0:0:0:
448,192,151516,1,12,0:0:0:0:
64,192,152208,1,0,0:0:0:0:
192,192,152324,1,0,0:0:0:0:
320,192,152439,1,0,0:0:0:0:
448,192,152439,1,0,0:0:0:0:
192,192,152555,1,0,0:0:0:0:
320,192,152670,1,0,0:0:0:0:
64,192,152785,1,0,0:0:0:0:
192,192,152901,1,0,0:0:0:0:
64,192,153016,1,0,0:0:0:0:
192,192,153131,1,0,0:0:0:0:
64,192,153247,1,0,0:0:0:0:
192,192,153362,1,8,0:0:0:0:
320,192,154285,1,8,0:0:0:0:
64,192,154285,1,8,0:0:0:0:
192,192,155208,1,0,0:0:0:0:
448,192,155208,1,0,0:0:0:0:
448,192,155901,1,0,0:0:0:0:
320,192,156016,1,0,0:0:0:0:
192,192,156131,1,4,0:0:0:0:
64,192,156131,1,0,0:0:0:0:
320,192,156247,1,0,0:0:0:0:
192,192,156362,1,0,0:0:0:0:
448,192,156478,1,0,0:0:0:0:
320,192,156593,1,0,0:0:0:0:
448,192,156708,1,0,0:0:0:0:
320,192,156824,1,0,0:0:0:0:
448,192,156939,1,0,0:0:0:0:
320,192,157055,1,0,0:0:0:0:
64,192,157978,1,0,0:0:0:0:
448,192,157978,1,0,0:0:0:0:
192,192,158901,1,8,0:0:0:0:
320,192,158901,1,8,0:0:0:0:
64,192,159593,1,0,0:0:0:0:
192,192,159708,1,0,0:0:0:0:
320,192,159824,1,0,0:0:0:0:
448,192,159824,1,0,0:0:0:0:
192,192,159939,1,0,0:0:0:0:
64,192,160055,1,0,0:0:0:0:
192,192,160170,1,0,0:0:0:0:
320,192,160285,1,0,0:0:0:0:
192,192,160401,1,0,0:0:0:0:
64,192,160516,1,0,0:0:0:0:
192,192,160631,1,0,0:0:0:0:
320,192,160747,1,0,0:0:0:0:
448,192,160747,1,0,0:0:0:0:
64,192,160862,1,0,0:0:0:0:
192,192,160978,1,8,0:0:0:0:
64,192,161093,1,0,0:0:0:0:
192,192,161208,1,0,0:0:0:0:
64,192,161324,1,0,0:0:0:0:
192,192,161439,1,8,0:0:0:0:
64,192,161555,1,0,0:0:0:0:
448,192,161670,1,0,0:0:0:0:
320,192,161785,1,0,0:0:0:0:
448,192,161901,1,8,0:0:0:0:
320,192,162016,1,0,0:0:0:0:
448,192,162131,1,0,0:0:0:0:
320,192,162247,1,0,0:0:0:0:
448,192,162362,1,8,0:0:0:0:
320,192,162478,1,0,0:0:0:0:
64,192,162593,1,0,0:0:0:0:
192,192,162708,1,0,0:0:0:0:
320,192,162824,1,8,0:0:0:0:
448,192,162939,1,0,0:0:0:0:
320,192,163055,1,0,0:0:0:0:
192,192,163170,1,0,0:0:0:0:
320,192,163285,1,8,0:0:0:0:
448,192,163401,1,0,0:0:0:0:
64,192,163516,1,2,0:0:0:0:
192,192,163631,1,0,0:0:0:0:
320,192,163747,1,8,0:0:0:0:
448,192,163862,1,0,0:0:0:0:
64,192,163978,1,0,0:0:0:0:
192,192,164093,1,0,0:0:0:0:
320,192,164208,1,8,0:0:0:0:
192,192,164324,1,0,0:0:0:0:
64,192,164439,1,0,0:0:0:0:
448,192,164555,1,0,0:0:0:0:
320,192,164670,1,8,0:0:0:0:
192,192,164785,1,0,0:0:0:0:
320,192,164901,1,8,0:0:0:0:
448,192,165016,1,0,0:0:0:0:
320,192,165131,1,0,0:0:0:0:
64,192,165189,1,0,0:0:0:0:
192,192,165247,1,0,0:0:0:0:
320,192,165305,1,0,0:0:0:0:
448,192,165362,1,0,0:0:0:0:
192,192,165478,1,0,0:0:0:0:
64,192,165593,1,0,0:0:0:0:
192,192,165708,1,0,0:0:0:0:
320,192,165824,1,0,0:0:0:0:
448,192,165939,1,0,0:0:0:0:
64,192,166055,1,0,0:0:0:0:
192,192,166112,1,0,0:0:0:0:
320,192,166170,1,0,0:0:0:0:
448,192,166228,1,0,0:0:0:0:
64,192,166285,128,4,167208:0:0:0:0:
320,192,167208,1,0,0:0:0:0:
448,192,167208,1,0,0:0:0:0:
192,192,167439,1,0,0:0:0:0:
64,192,167670,1,0,0:0:0:0:
320,192,167901,1,0,0:0:0:0:
64,192,168131,128,0,168478:0:0:0:0:
320,192,168478,128,0,168824:0:0:0:0:
64,192,168824,128,0,169055:0:0:0:0:
448,192,169055,128,0,169631:0:0:0:0:
320,192,169631,1,0,0:0:0:0:
192,192,169747,1,0,0:0:0:0:
64,192,169862,1,0,0:0:0:0:
320,192,169978,128,0,170901:0:0:0:0:
192,192,170901,1,0,0:0:0:0:
64,192,170901,1,0,0:0:0:0:
448,192,171131,1,0,0:0:0:0:
64,192,171362,1,0,0:0:0:0:
320,192,171593,1,0,0:0:0:0:
64,192,171824,128,0,172285:0:0:0:0:
448,192,172285,128,0,172747:0:0:0:0:
64,192,172747,128,0,172978:0:0:0:0:
448,192,172978,128,0,173208:0:0:0:0:
192,192,173208,128,0,173439:0:0:0:0:
320,192,173439,128,0,173670:0:0:0:0:
192,192,173670,1,0,0:0:0:0:
64,192,173670,128,0,174016:0:0:0:0:
448,192,174016,128,0,174593:0:0:0:0:
192,192,174593,1,0,0:0:0:0:
64,192,174593,1,0,0:0:0:0:
320,192,174708,1,0,0:0:0:0:
192,192,174824,1,0,0:0:0:0:
64,192,174939,1,0,0:0:0:0:
448,192,175055,1,0,0:0:0:0:
320,192,175170,1,0,0:0:0:0:
192,192,175285,1,0,0:0:0:0:
64,192,175401,1,0,0:0:0:0:
448,192,175516,128,0,175862:0:0:0:0:
320,192,175862,128,0,176208:0:0:0:0:
192,192,176208,128,0,176439:0:0:0:0:
64,192,176439,1,0,0:0:0:0:
448,192,176670,1,0,0:0:0:0:
192,192,176901,1,0,0:0:0:0:
64,192,176901,1,0,0:0:0:0:
448,192,177016,1,0,0:0:0:0:
192,192,177131,1,0,0:0:0:0:
64,192,177131,1,0,0:0:0:0:
320,192,177247,1,0,0:0:0:0:
64,192,177362,128,0,177824:0:0:0:0:
448,192,177824,128,0,178285:0:0:0:0:
192,192,178285,128,0,178747:0:0:0:0:
448,192,178747,128,0,179208:0:0:0:0:
192,192,179208,1,0,0:0:0:0:
64,192,179208,1,0,0:0:0:0:
320,192,179324,1,0,0:0:0:0:
448,192,179439,1,0,0:0:0:0:
192,192,179439,1,0,0:0:0:0:
64,192,179670,1,0,0:0:0:0:
192,192,179728,1,0,0:0:0:0:
320,192,179785,1,0,0:0:0:0:
448,192,179843,1,0,0:0:0:0:
64,192,179901,1,0,0:0:0:0:
192,192,180016,1,0,0:0:0:0:
448,192,180131,1,8,0:0:0:0:
320,192,180247,1,0,0:0:0:0:
64,192,180362,1,8,0:0:0:0:
192,192,180478,1,0,0:0:0:0:
64,192,180593,1,0,0:0:0:0:
192,192,180651,1,0,0:0:0:0:
320,192,180708,1,0,0:0:0:0:
448,192,180766,1,0,0:0:0:0:
64,192,180824,1,0,0:0:0:0:
192,192,180881,1,0,0:0:0:0:
320,192,180939,1,0,0:0:0:0:
448,192,180997,1,0,0:0:0:0:
64,192,181055,1,0,0:0:0:0:
320,192,181285,1,8,0:0:0:0:
448,192,181285,1,0,0:0:0:0:
192,192,181516,1,0,0:0:0:0:
64,192,181747,1,0,0:0:0:0:
320,192,181747,1,8,0:0:0:0:
192,192,181978,1,0,0:0:0:0:
320,192,182208,1,2,0:0:0:0:
448,192,182208,1,0,0:0:0:0:
64,192,182439,1,2,0:0:0:0:
192,192,182555,1,2,0:0:0:0:
448,192,182785,128,2,183131:0:0:0:0:
320,192,183131,128,2,183478:0:0:0:0:
192,192,183478,128,2,183824:0:0:0:0:
64,192,183824,1,0,0:0:0:0:
320,192,183824,1,0,0:0:0:0:
448,192,184055,1,0,0:0:0:0:
192,192,184285,1,0,0:0:0:0:
64,192,184285,1,0,0:0:0:0:
320,192,184516,1,0,0:0:0:0:
192,192,184747,1,0,0:0:0:0:
64,192,184747,128,0,185670:0:0:0:0:
448,192,184978,1,8,0:0:0:0:
192,192,185208,1,0,0:0:0:0:
448,192,185439,1,8,0:0:0:0:
448,192,185670,128,0,186593:0:0:0:0:
192,192,185670,1,0,0:0:0:0:
320,192,185901,1,2,0:0:0:0:
64,192,186131,1,2,0:0:0:0:
192,192,186247,1,2,0:0:0:0:
64,192,186478,128,2,186824:0:0:0:0:
192,192,186824,128,2,187170:0:0:0:0:
320,192,187170,128,2,187516:0:0:0:0:
448,192,187516,1,0,0:0:0:0:
192,192,187516,1,0,0:0:0:0:
64,192,187631,1,0,0:0:0:0:
320,192,187747,1,8,0:0:0:0:
448,192,187747,1,0,0:0:0:0:
64,192,187862,1,0,0:0:0:0:
320,192,187978,1,0,0:0:0:0:
448,192,187978,1,0,0:0:0:0:
192,192,188093,1,0,0:0:0:0:
320,192,188208,1,8,0:0:0:0:
448,192,188208,1,0,0:0:0:0:
64,192,188324,1,0,0:0:0:0:
448,192,188439,128,0,189362:0:0:0:0:
320,192,188439,1,0,0:0:0:0:
192,192,188670,1,8,0:0:0:0:
320,192,188901,1,0,0:0:0:0:
192,192,189131,1,8,0:0:0:0:
64,192,189362,128,0,190285:0:0:0:0:
192,192,189362,1,0,0:0:0:0:
320,192,189593,1,2,0:0:0:0:
448,192,189824,1,2,0:0:0:0:
320,192,190055,1,2,0:0:0:0:
448,192,190285,128,2,190631:0:0:0:0:
320,192,190631,128,2,190978:0:0:0:0:
192,192,190978,128,2,191208:0:0:0:0:
64,192,191208,1,2,0:0:0:0:
320,192,191208,1,2,0:0:0:0:
448,192,191439,1,0,0:0:0:0:
192,192,191670,1,0,0:0:0:0:
64,192,191670,1,0,0:0:0:0:
320,192,191901,1,0,0:0:0:0:
192,192,192131,128,0,193055:0:0:0:0:
64,192,192131,128,0,193055:0:0:0:0:
320,192,193055,1,0,0:0:0:0:
448,192,193055,1,0,0:0:0:0:
64,192,193285,1,0,0:0:0:0:
320,192,193516,1,8,0:0:0:0:
192,192,193747,1,0,0:0:0:0:
320,192,193978,128,0,194901:0:0:0:0:
448,192,193978,128,0,194901:0:0:0:0:
192,192,194901,1,0,0:0:0:0:
64,192,194901,1,0,0:0:0:0:
320,192,195131,1,0,0:0:0:0:
192,192,195362,1,8,0:0:0:0:
448,192,195593,1,0,0:0:0:0:
64,192,195824,1,0,0:0:0:0:
192,192,195881,1,0,0:0:0:0:
320,192,195939,1,0,0:0:0:0:
448,192,195997,1,0,0:0:0:0:
320,192,196055,1,0,0:0:0:0:
192,192,196170,1,0,0:0:0:0:
64,192,196285,1,0,0:0:0:0:
448,192,196401,1,0,0:0:0:0:
320,192,196516,1,0,0:0:0:0:
192,192,196631,1,0,0:0:0:0:
64,192,196747,1,0,0:0:0:0:
448,192,196862,1,0,0:0:0:0:
320,192,196978,1,0,0:0:0:0:
192,192,197093,1,0,0:0:0:0:
64,192,197208,1,0,0:0:0:0:
192,192,197266,1,0,0:0:0:0:
320,192,197324,1,0,0:0:0:0:
448,192,197381,1,0,0:0:0:0:
64,192,197439,1,0,0:0:0:0:
192,192,197497,1,0,0:0:0:0:
320,192,197555,1,0,0:0:0:0:
448,192,197612,1,0,0:0:0:0:
192,192,197670,1,4,0:0:0:0:
64,192,197670,1,4,0:0:0:0:
320,192,197901,1,8,0:0:0:0:
192,192,198016,1,0,0:0:0:0:
448,192,198131,1,0,0:0:0:0:
64,192,198362,1,8,0:0:0:0:
64,192,198593,128,0,199055:0:0:0:0:
192,192,198593,1,0,0:0:0:0:
320,192,198824,1,8,0:0:0:0:
192,192,198939,1,0,0:0:0:0:
448,192,199055,1,0,0:0:0:0:
320,192,199285,1,8,0:0:0:0:
192,192,199516,1,0,0:0:0:0:
64,192,199516,1,0,0:0:0:0:
320,192,199747,1,8,0:0:0:0:
448,192,199862,1,0,0:0:0:0:
192,192,199978,1,0,0:0:0:0:
64,192,199978,1,0,0:0:0:0:
448,192,200208,1,8,0:0:0:0:
192,192,200439,1,0,0:0:0:0:
64,192,200439,1,0,0:0:0:0:
320,192,200670,1,8,0:0:0:0:
64,192,200785,1,0,0:0:0:0:
192,192,200901,1,0,0:0:0:0:
448,192,200901,1,0,0:0:0:0:
320,192,201131,1,8,0:0:0:0:
64,192,201362,128,0,202055:0:0:0:0:
192,192,201362,1,0,0:0:0:0:
448,192,201362,1,0,0:0:0:0:
320,192,201593,1,8,0:0:0:0:
448,192,201708,1,0,0:0:0:0:
192,192,201824,1,0,0:0:0:0:
448,192,202055,128,0,202978:0:0:0:0:
320,192,202055,1,8,0:0:0:0:
192,192,202285,1,0,0:0:0:0:
64,192,202516,1,8,0:0:0:0:
192,192,202747,1,0,0:0:0:0:
320,192,202978,1,8,0:0:0:0:
192,192,203208,128,2,203439:0:0:0:0:
64,192,203208,1,0,0:0:0:0:
448,192,203439,128,2,203670:0:0:0:0:
64,192,203555,1,0,0:0:0:0:
320,192,203670,128,2,203901:0:0:0:0:
192,192,203901,128,2,204131:0:0:0:0:
64,192,204131,1,0,0:0:0:0:
448,192,204131,128,0,204362:0:0:0:0:
320,192,204362,128,0,204593:0:0:0:0:
64,192,204593,128,2,204824:0:0:0:0:
192,192,204593,1,0,0:0:0:0:
192,192,204824,1,0,0:0:0:0:
448,192,205055,1,4,0:0:0:0:
320,192,205055,1,4,0:0:0:0:
192,192,205285,1,8,0:0:0:0:
448,192,205401,1,0,0:0:0:0:
320,192,205516,1,0,0:0:0:0:
448,192,205747,1,8,0:0:0:0:
192,192,205978,1,0,0:0:0:0:
64,192,205978,1,0,0:0:0:0:
320,192,206208,1,8,0:0:0:0:
64,192,206324,1,0,0:0:0:0:
192,192,206439,1,0,0:0:0:0:
64,192,206670,1,8,0:0:0:0:
320,192,206901,1,0,0:0:0:0:
448,192,206901,1,0,0:0:0:0:
64,192,207131,1,8,0:0:0:0:
320,192,207362,1,0,0:0:0:0:
192,192,207362,1,0,0:0:0:0:
448,192,207362,1,4,0:0:0:0:
64,192,207593,1,8,0:0:0:0:
192,192,207824,1,8,0:0:0:0:
64,192,207824,1,0,0:0:0:0:
448,192,207824,1,4,0:0:0:0:
320,192,208055,1,8,0:0:0:0:
320,192,208285,1,0,0:0:0:0:
64,192,208285,1,0,0:0:0:0:
448,192,208285,1,12,0:0:0:0:
192,192,208516,1,8,0:0:0:0:
320,192,208747,1,4,0:0:0:0:
448,192,208747,128,0,209670:0:0:0:0:
64,192,209670,1,0,0:0:0:0:
320,192,209670,1,0,0:0:0:0:
192,192,209785,1,0,0:0:0:0:
64,192,209901,1,0,0:0:0:0:
192,192,210016,1,0,0:0:0:0:
448,192,210131,1,0,0:0:0:0:
320,192,210247,1,0,0:0:0:0:
192,192,210362,1,0,0:0:0:0:
64,192,210478,1,0,0:0:0:0:
448,192,210593,1,0,0:0:0:0:
320,192,210593,1,0,0:0:0:0:
64,192,210824,1,0,0:0:0:0:
320,192,211055,1,0,0:0:0:0:
192,192,211055,1,0,0:0:0:0:
448,192,211285,1,0,0:0:0:0:
192,192,211516,1,0,0:0:0:0:
64,192,211516,1,0,0:0:0:0:
320,192,211747,1,0,0:0:0:0:
192,192,211978,1,0,0:0:0:0:
64,192,211978,1,0,0:0:0:0:
448,192,211978,1,0,0:0:0:0:
320,192,212208,1,0,0:0:0:0:
192,192,212439,1,0,0:0:0:0:
64,192,212439,128,4,213131:0:0:0:0:
448,192,212670,1,8,0:0:0:0:
192,192,212785,1,0,0:0:0:0:
320,192,212901,1,0,0:0:0:0:
448,192,213131,128,0,214285:0:0:0:0:
192,192,213131,1,8,0:0:0:0:
320,192,213362,1,0,0:0:0:0:
64,192,213593,1,8,0:0:0:0:
320,192,213708,1,0,0:0:0:0:
192,192,213824,1,0,0:0:0:0:
320,192,214055,1,8,0:0:0:0:
64,192,214285,1,0,0:0:0:0:
192,192,214516,1,8,0:0:0:0:
64,192,214631,1,0,0:0:0:0:
320,192,214747,1,0,0:0:0:0:
448,192,214747,1,0,0:0:0:0:
64,192,214978,1,8,0:0:0:0:
320,192,215208,1,0,0:0:0:0:
448,192,215208,1,0,0:0:0:0:
192,192,215439,1,8,0:0:0:0:
64,192,215555,1,0,0:0:0:0:
320,192,215670,1,0,0:0:0:0:
448,192,215670,1,0,0:0:0:0:
64,192,215901,1,8,0:0:0:0:
448,192,216131,128,0,217055:0:0:0:0:
320,192,216131,1,0,0:0:0:0:
192,192,216362,1,8,0:0:0:0:
320,192,216478,1,0,0:0:0:0:
64,192,216593,1,0,0:0:0:0:
320,192,216824,1,8,0:0:0:0:
64,192,217055,128,0,217978:0:0:0:0:
192,192,217055,1,0,0:0:0:0:
320,192,217285,1,8,0:0:0:0:
448,192,217401,1,0,0:0:0:0:
320,192,217516,1,0,0:0:0:0:
192,192,217747,1,8,0:0:0:0:
320,192,217978,1,0,0:0:0:0:
320,192,218208,1,0,0:0:0:0:
192,192,218324,1,0,0:0:0:0:
64,192,218439,1,0,0:0:0:0:
64,192,218670,1,0,0:0:0:0:
320,192,218901,128,2,219131:0:0:0:0:
64,192,219131,128,2,219362:0:0:0:0:
192,192,219247,1,0,0:0:0:0:
448,192,219362,128,2,219593:0:0:0:0:
192,192,219593,128,2,219824:0:0:0:0:
320,192,219824,1,0,0:0:0:0:
64,192,220055,1,8,0:0:0:0:
192,192,220285,1,0,0:0:0:0:
448,192,220516,1,8,0:0:0:0:
192,192,220747,1,0,0:0:0:0:
64,192,220747,1,0,0:0:0:0:
448,192,220978,1,8,0:0:0:0:
192,192,221208,1,0,0:0:0:0:
320,192,221439,1,8,0:0:0:0:
192,192,221670,1,0,0:0:0:0:
64,192,221670,1,0,0:0:0:0:
320,192,221901,1,8,0:0:0:0:
192,192,222131,1,0,0:0:0:0:
64,192,222131,1,0,0:0:0:0:
448,192,222362,1,8,0:0:0:0:
192,192,222593,1,0,0:0:0:0:
64,192,222593,1,0,0:0:0:0:
320,192,222824,1,8,0:0:0:0:
448,192,223055,1,0,0:0:0:0:
192,192,223055,1,0,0:0:0:0:
320,192,223285,1,8,0:0:0:0:
64,192,223401,1,0,0:0:0:0:
192,192,223516,1,0,0:0:0:0:
448,192,223516,1,0,0:0:0:0:
320,192,223747,1,0,0:0:0:0:
320,192,223978,1,0,0:0:0:0:
320,192,224208,1,0,0:0:0:0:
320,192,224439,1,0,0:0:0:0:
64,192,224670,1,0,0:0:0:0:
320,192,224785,1,0,0:0:0:0:
192,192,224901,1,0,0:0:0:0:
320,192,225131,1,0,0:0:0:0:
448,192,225362,1,0,0:0:0:0:
192,192,225362,1,8,0:0:0:0:
64,192,225593,1,0,0:0:0:0:
192,192,225708,1,0,0:0:0:0:
64,192,225824,1,0,0:0:0:0:
64,192,226055,1,0,0:0:0:0:
192,192,226170,1,0,0:0:0:0:
448,192,226285,128,0,226516:0:0:0:0:
64,192,226401,1,0,0:0:0:0:
192,192,226516,128,0,226747:0:0:0:0:
320,192,226631,1,0,0:0:0:0:
448,192,226747,128,0,226978:0:0:0:0:
64,192,226862,1,0,0:0:0:0:
192,192,226978,128,0,227208:0:0:0:0:
320,192,227093,1,0,0:0:0:0:
448,192,227208,1,0,0:0:0:0:
64,192,227208,1,0,0:0:0:0:
320,192,227439,1,0,0:0:0:0:
192,192,227670,1,0,0:0:0:0:
448,192,227901,1,0,0:0:0:0:
320,192,228131,1,0,0:0:0:0:
192,192,228362,1,0,0:0:0:0:
64,192,228593,1,0,0:0:0:0:
192,192,228824,1,0,0:0:0:0:
320,192,229055,1,0,0:0:0:0:
448,192,229285,1,0,0:0:0:0:
64,192,229516,1,0,0:0:0:0:
192,192,229747,1,0,0:0:0:0:
448,192,229978,1,0,0:0:0:0:
64,192,230208,128,2,230439:0:0:0:0:
320,192,230439,128,2,230670:0:0:0:0:
192,192,230670,128,2,230901:0:0:0:0:
448,192,230901,128,2,231593:0:0:0:0:
64,192,231593,128,2,232285:0:0:0:0:
448,192,232285,128,2,233670:0:0:0:0:
64,192,233670,1,2,0:0:0:0:
192,192,233901,1,0,0:0:0:0:
320,192,234131,1,2,0:0:0:0:
192,192,234362,1,0,0:0:0:0:
448,192,234593,128,2,235285:0:0:0:0:
64,192,235285,128,2,235978:0:0:0:0:
320,192,235978,128,2,237131:0:0:0:0:
64,192,237131,128,2,237824:0:0:0:0:
320,192,237824,128,2,238285:0:0:0:0:
448,192,238285,128,2,239208:0:0:0:0:
64,192,239208,128,0,241978:0:0:0:0:
320,192,241978,1,0,0:0:0:0:
448,192,241978,1,0,0:0:0:0:
192,192,242208,1,0,0:0:0:0:
64,192,242439,1,0,0:0:0:0:
192,192,242670,1,0,0:0:0:0:
320,192,242901,1,0,0:0:0:0:
448,192,243131,1,0,0:0:0:0:
320,192,243362,1,0,0:0:0:0:
192,192,243593,1,0,0:0:0:0:
320,192,243824,1,0,0:0:0:0:
448,192,244055,1,0,0:0:0:0:
320,192,244285,1,0,0:0:0:0:
192,192,244516,1,0,0:0:0:0:
320,192,244747,1,0,0:0:0:0:
64,192,244978,1,0,0:0:0:0:
192,192,245208,1,0,0:0:0:0:
448,192,245439,1,0,0:0:0:0:
320,192,245670,1,0,0:0:0:0:
192,192,245901,1,0,0:0:0:0:
448,192,246131,1,0,0:0:0:0:
192,192,246362,1,0,0:0:0:0:
320,192,246593,1,0,0:0:0:0:
64,192,246824,128,0,247285:0:0:0:0:
448,192,247285,1,0,0:0:0:0:
320,192,247516,1,0,0:0:0:0:
192,192,247747,1,0,0:0:0:0:
448,192,247978,1,0,0:0:0:0:
320,192,248208,1,0,0:0:0:0:
64,192,248439,1,0,0:0:0:0:
192,192,248670,1,2,0:0:0:0:
448,192,248901,1,2,0:0:0:0:
64,192,249131,128,2,250055:0:0:0:0:
448,192,250055,128,2,250747:0:0:0:0:
192,192,250747,128,2,251497:0:0:0:0:
448,192,251555,1,2,0:0:0:0:
192,192,251893,1,2,0:0:0:0:
448,192,252268,1,2,0:0:0:0:
64,192,252712,1,0,0:0:0:0:
320,192,253058,1,2,0:0:0:0:
192,192,253519,1,2,0:0:0:0:
448,192,254113,1,2,0:0:0:0:
64,192,254658,1,2,0:0:0:0:
320,192,255595,1,2,0:0:0:0:
64,192,256474,128,2,257699:0:0:0:0:
448,192,257699,128,2,258899:0:0:0:0:
192,192,258899,128,0,263174:0:0:0:0:
448,192,263210,1,0,0:0:0:0:
320,192,263325,1,0,0:0:0:0:
192,192,263440,1,0,0:0:0:0:
64,192,263440,1,8,0:0:0:0:
448,192,263556,1,0,0:0:0:0:
320,192,263671,1,0,0:0:0:0:
64,192,263786,1,0,0:0:0:0:
320,192,263902,1,8,0:0:0:0:
448,192,263902,1,0,0:0:0:0:
64,192,264017,1,0,0:0:0:0:
192,192,264133,1,0,0:0:0:0:
320,192,264248,1,0,0:0:0:0:
64,192,264363,1,0,0:0:0:0:
192,192,264363,1,8,0:0:0:0:
320,192,264479,1,0,0:0:0:0:
448,192,264594,1,0,0:0:0:0:
192,192,264710,1,0,0:0:0:0:
64,192,264825,1,8,0:0:0:0:
320,192,264940,1,0,0:0:0:0:
448,192,265056,1,0,0:0:0:0:
320,192,265171,1,0,0:0:0:0:
192,192,265286,1,8,0:0:0:0:
64,192,265286,1,0,0:0:0:0:
320,192,265402,1,0,0:0:0:0:
448,192,265517,1,0,0:0:0:0:
320,192,265633,1,0,0:0:0:0:
192,192,265748,1,8,0:0:0:0:
64,192,265748,1,0,0:0:0:0:
320,192,265863,1,0,0:0:0:0:
448,192,265979,1,0,0:0:0:0:
64,192,266094,1,0,0:0:0:0:
192,192,266210,1,8,0:0:0:0:
320,192,266325,1,0,0:0:0:0:
64,192,266440,1,0,0:0:0:0:
192,192,266556,1,0,0:0:0:0:
448,192,266671,1,8,0:0:0:0:
320,192,266786,1,0,0:0:0:0:
192,192,266902,1,0,0:0:0:0:
64,192,267017,1,0,0:0:0:0:
448,192,267133,1,0,0:0:0:0:
320,192,267133,1,8,0:0:0:0:
192,192,267248,1,0,0:0:0:0:
64,192,267363,1,0,0:0:0:0:
448,192,267479,1,0,0:0:0:0:
192,192,267594,1,8,0:0:0:0:
64,192,267594,1,0,0:0:0:0:
320,192,267710,1,0,0:0:0:0:
448,192,267825,1,0,0:0:0:0:
320,192,267940,1,0,0:0:0:0:
192,192,268056,1,8,0:0:0:0:
64,192,268056,1,0,0:0:0:0:
320,192,268171,1,0,0:0:0:0:
448,192,268286,1,0,0:0:0:0:
64,192,268402,1,0,0:0:0:0:
192,192,268517,1,8,0:0:0:0:
320,192,268633,1,0,0:0:0:0:
64,192,268748,1,0,0:0:0:0:
192,192,268863,1,0,0:0:0:0:
320,192,268979,1,8,0:0:0:0:
448,192,268979,1,0,0:0:0:0:
192,192,269094,1,0,0:0:0:0:
64,192,269210,1,0,0:0:0:0:
320,192,269325,1,0,0:0:0:0:
192,192,269440,1,8,0:0:0:0:
64,192,269440,1,0,0:0:0:0:
320,192,269556,1,0,0:0:0:0:
448,192,269671,1,0,0:0:0:0:
64,192,269786,1,0,0:0:0:0:
192,192,269902,1,8,0:0:0:0:
320,192,270017,1,0,0:0:0:0:
448,192,270133,1,0,0:0:0:0:
320,192,270248,1,0,0:0:0:0:
192,192,270363,1,8,0:0:0:0:
448,192,270479,1,0,0:0:0:0:
64,192,270594,1,0,0:0:0:0:
192,192,270652,1,0,0:0:0:0:
320,192,270710,1,0,0:0:0:0:
448,192,270767,1,0,0:0:0:0:
64,192,270825,1,0,0:0:0:0:
192,192,270883,1,0,0:0:0:0:
320,192,270940,1,0,0:0:0:0:
448,192,270998,1,0,0:0:0:0:
64,192,271056,1,0,0:0:0:0:
192,192,271113,1,0,0:0:0:0:
320,192,271171,1,0,0:0:0:0:
448,192,271229,1,0,0:0:0:0:
64,192,271286,1,0,0:0:0:0:
320,192,271402,1,0,0:0:0:0:
192,192,271517,1,0,0:0:0:0:
448,192,271633,1,0,0:0:0:0:
192,192,271748,1,0,0:0:0:0:
448,192,271863,1,0,0:0:0:0:
320,192,271921,1,0,0:0:0:0:
192,192,271979,1,0,0:0:0:0:
64,192,272094,1,0,0:0:0:0:
448,192,272210,1,0,0:0:0:0:
320,192,272325,1,0,0:0:0:0:
192,192,272440,1,0,0:0:0:0:
448,192,272556,1,0,0:0:0:0:
192,192,272671,1,0,0:0:0:0:
64,192,272786,1,0,0:0:0:0:
192,192,272844,1,0,0:0:0:0:
320,192,272902,1,0,0:0:0:0:
192,192,273017,1,0,0:0:0:0:
64,192,273133,1,0,0:0:0:0:
192,192,273248,1,0,0:0:0:0:
320,192,273363,1,0,0:0:0:0:
64,192,273479,1,0,0:0:0:0:
192,192,273594,1,0,0:0:0:0:
320,192,273652,1,0,0:0:0:0:
448,192,273710,1,0,0:0:0:0:
64,192,273767,1,0,0:0:0:0:
192,192,273825,1,0,0:0:0:0:
448,192,273883,1,0,0:0:0:0:
320,192,273940,1,0,0:0:0:0:
64,192,274056,1,0,0:0:0:0:
192,192,274171,1,0,0:0:0:0:
448,192,274286,128,0,275210:0:0:0:0:
64,192,275210,128,0,276133:0:0:0:0:
320,192,276133,1,0,0:0:0:0:
448,192,276133,1,0,0:0:0:0:
192,192,276248,1,0,0:0:0:0:
320,192,276363,1,0,0:0:0:0:
448,192,276363,1,0,0:0:0:0:
64,192,276479,1,0,0:0:0:0:
320,192,276594,1,0,0:0:0:0:
448,192,276594,1,0,0:0:0:0:
192,192,276710,1,0,0:0:0:0:
320,192,276825,1,0,0:0:0:0:
448,192,276825,1,0,0:0:0:0:
64,192,276940,1,0,0:0:0:0:
192,192,276998,1,0,0:0:0:0:
320,192,277056,1,0,0:0:0:0:
64,192,277171,1,0,0:0:0:0:
192,192,277286,1,0,0:0:0:0:
448,192,277402,1,0,0:0:0:0:
320,192,277460,1,0,0:0:0:0:
192,192,277517,1,0,0:0:0:0:
448,192,277633,1,0,0:0:0:0:
64,192,277748,1,0,0:0:0:0:
192,192,277806,1,0,0:0:0:0:
320,192,277863,1,0,0:0:0:0:
448,192,277921,1,0,0:0:0:0:
64,192,277979,1,0,0:0:0:0:
192,192,278094,1,0,0:0:0:0:
320,192,278210,1,8,0:0:0:0:
192,192,278325,1,0,0:0:0:0:
448,192,278556,1,0,0:0:0:0:
64,192,278671,1,8,0:0:0:0:
192,192,278786,1,0,0:0:0:0:
448,192,278902,1,0,0:0:0:0:
320,192,279017,1,0,0:0:0:0:
64,192,279248,1,0,0:0:0:0:
192,192,279363,1,0,0:0:0:0:
320,192,279479,1,0,0:0:0:0:
64,192,279594,1,0,0:0:0:0:
192,192,279710,1,0,0:0:0:0:
448,192,279825,1,0,0:0:0:0:
320,192,279940,1,0,0:0:0:0:
64,192,280056,1,8,0:0:0:0:
192,192,280171,1,0,0:0:0:0:
448,192,280402,1,0,0:0:0:0:
320,192,280517,1,8,0:0:0:0:
192,192,280633,1,0,0:0:0:0:
64,192,280748,1,0,0:0:0:0:
192,192,280863,128,0,281094:0:0:0:0:
320,192,281094,1,0,0:0:0:0:
64,192,281210,1,0,0:0:0:0:
448,192,281325,1,0,0:0:0:0:
192,192,281440,1,0,0:0:0:0:
320,192,281556,1,0,0:0:0:0:
64,192,281671,1,0,0:0:0:0:
192,192,281786,1,0,0:0:0:0:
320,192,281902,1,8,0:0:0:0:
192,192,282017,1,0,0:0:0:0:
448,192,282248,1,0,0:0:0:0:
320,192,282363,1,8,0:0:0:0:
192,192,282479,1,0,0:0:0:0:
320,192,282594,1,0,0:0:0:0:
448,192,282710,1,0,0:0:0:0:
64,192,282940,1,0,0:0:0:0:
192,192,283056,1,0,0:0:0:0:
64,192,283171,1,0,0:0:0:0:
320,192,283286,1,0,0:0:0:0:
448,192,283402,1,0,0:0:0:0:
192,192,283517,1,0,0:0:0:0:
64,192,283633,1,0,0:0:0:0:
320,192,283748,1,8,0:0:0:0:
448,192,283863,1,0,0:0:0:0:
192,192,283979,1,0,0:0:0:0:
64,192,284094,1,0,0:0:0:0:
320,192,284210,1,8,0:0:0:0:
192,192,284325,1,0,0:0:0:0:
448,192,284440,128,0,284671:0:0:0:0:
64,192,284671,128,0,284902:0:0:0:0:
320,192,284902,128,0,285133:0:0:0:0:
64,192,285133,128,0,285363:0:0:0:0:
448,192,285363,1,0,0:0:0:0:
192,192,285479,1,0,0:0:0:0:
320,192,285594,1,8,0:0:0:0:
64,192,285710,1,0,0:0:0:0:
448,192,285940,1,0,0:0:0:0:
64,192,286056,1,8,0:0:0:0:
320,192,286171,1,0,0:0:0:0:
192,192,286286,1,0,0:0:0:0:
448,192,286402,1,0,0:0:0:0:
64,192,286633,1,0,0:0:0:0:
192,192,286748,1,0,0:0:0:0:
320,192,286863,1,0,0:0:0:0:
64,192,286979,1,0,0:0:0:0:
192,192,287094,1,0,0:0:0:0:
448,192,287210,1,0,0:0:0:0:
64,192,287325,1,0,0:0:0:0:
320,192,287440,1,8,0:0:0:0:
192,192,287556,1,0,0:0:0:0:
64,192,287786,1,0,0:0:0:0:
320,192,287902,1,8,0:0:0:0:
192,192,288017,1,0,0:0:0:0:
448,192,288133,1,0,0:0:0:0:
320,192,288248,1,0,0:0:0:0:
64,192,288479,1,0,0:0:0:0:
192,192,288594,1,0,0:0:0:0:
448,192,288710,1,0,0:0:0:0:
64,192,288825,1,0,0:0:0:0:
320,192,288940,1,0,0:0:0:0:
448,192,289056,1,0,0:0:0:0:
320,192,289171,1,0,0:0:0:0:
64,192,289286,1,8,0:0:0:0:
192,192,289402,1,0,0:0:0:0:
320,192,289633,1,0,0:0:0:0:
192,192,289748,1,8,0:0:0:0:
448,192,289863,1,0,0:0:0:0:
320,192,289979,1,0,0:0:0:0:
192,192,290094,1,0,0:0:0:0:
64,192,290325,1,0,0:0:0:0:
192,192,290440,1,0,0:0:0:0:
320,192,290556,1,0,0:0:0:0:
448,192,290671,1,0,0:0:0:0:
320,192,290786,1,0,0:0:0:0:
64,192,290902,1,0,0:0:0:0:
192,192,291017,1,0,0:0:0:0:
320,192,291133,1,8,0:0:0:0:
448,192,291248,1,0,0:0:0:0:
64,192,291479,1,0,0:0:0:0:
320,192,291594,1,8,0:0:0:0:
192,192,291710,1,0,0:0:0:0:
448,192,291825,1,0,0:0:0:0:
64,192,291825,1,0,0:0:0:0:
320,192,292056,1,0,0:0:0:0:
64,192,292286,128,0,292517:0:0:0:0:
320,192,292517,128,0,292748:0:0:0:0:
192,192,292748,128,0,292979:0:0:0:0:
64,192,292979,128,0,293671:0:0:0:0:
448,192,293671,1,2,0:0:0:0:
320,192,293671,1,2,0:0:0:0:
320,192,294133,1,2,0:0:0:0:
448,192,294133,1,2,0:0:0:0:
64,192,294594,1,0,0:0:0:0:
192,192,294652,1,0,0:0:0:0:
320,192,294710,1,0,0:0:0:0:
448,192,294767,1,0,0:0:0:0:
64,192,294825,1,0,0:0:0:0:
320,192,294940,1,0,0:0:0:0:
192,192,295056,1,0,0:0:0:0:
448,192,295171,1,0,0:0:0:0:
64,192,295286,1,0,0:0:0:0:
320,192,295402,1,0,0:0:0:0:
192,192,295517,1,0,0:0:0:0:
448,192,295517,1,0,0:0:0:0:
64,192,295748,1,0,0:0:0:0:
320,192,295979,1,0,0:0:0:0:
192,192,296210,1,0,0:0:0:0:
448,192,296440,1,0,0:0:0:0:
64,192,296671,128,0,296902:0:0:0:0:
320,192,296902,128,0,297133:0:0:0:0:
192,192,297133,128,0,297363:0:0:0:0:
448,192,297363,128,0,297710:0:0:0:0:
64,192,297710,128,0,298056:0:0:0:0:
448,192,298056,128,0,298286:0:0:0:0:
64,192,298286,128,0,299210:0:0:0:0:
448,192,298863,1,0,0:0:0:0:
192,192,298979,1,0,0:0:0:0:
320,192,299094,1,0,0:0:0:0:
448,192,299210,1,0,0:0:0:0:
320,192,299440,1,0,0:0:0:0:
192,192,299671,1,0,0:0:0:0:
64,192,299902,1,0,0:0:0:0:
320,192,299902,1,0,0:0:0:0:
192,192,300133,1,0,0:0:0:0:
448,192,300363,128,0,300594:0:0:0:0:
64,192,300594,128,0,300825:0:0:0:0:
320,192,300825,128,0,301056:0:0:0:0:
192,192,301056,128,0,301517:0:0:0:0:
448,192,301517,128,0,301979:0:0:0:0:
64,192,301979,128,0,302210:0:0:0:0:
192,192,302210,128,0,302440:0:0:0:0:
320,192,302440,128,0,302671:0:0:0:0:
64,192,302671,128,0,302902:0:0:0:0:
448,192,302902,128,0,303248:0:0:0:0:
64,192,303248,128,0,303825:0:0:0:0:
192,192,303825,1,0,0:0:0:0:
320,192,303940,1,0,0:0:0:0:
448,192,304056,1,0,0:0:0:0:
320,192,304171,1,0,0:0:0:0:
192,192,304286,1,0,0:0:0:0:
64,192,304402,1,0,0:0:0:0:
192,192,304517,1,0,0:0:0:0:
320,192,304633,1,0,0:0:0:0:
448,192,304748,128,0,305094:0:0:0:0:
64,192,305094,128,0,305440:0:0:0:0:
448,192,305440,128,0,306133:0:0:0:0:
192,192,306133,1,0,0:0:0:0:
64,192,306133,1,0,0:0:0:0:
320,192,306248,1,0,0:0:0:0:
448,192,306363,1,0,0:0:0:0:
64,192,306479,1,0,0:0:0:0:
192,192,306594,128,0,307056:0:0:0:0:
64,192,307056,128,0,307517:0:0:0:0:
192,192,307286,1,0,0:0:0:0:
448,192,307517,128,0,307979:0:0:0:0:
320,192,307748,1,0,0:0:0:0:
192,192,307979,128,0,308440:0:0:0:0:
320,192,308210,1,0,0:0:0:0:
64,192,308440,1,0,0:0:0:0:
320,192,308671,1,0,0:0:0:0:
448,192,308671,1,0,0:0:0:0:
64,192,308902,1,0,0:0:0:0:
192,192,308960,1,0,0:0:0:0:
320,192,309017,1,0,0:0:0:0:
448,192,309075,1,0,0:0:0:0:
64,192,309133,1,0,0:0:0:0:
192,192,309248,1,0,0:0:0:0:
448,192,309363,1,0,0:0:0:0:
320,192,309479,1,0,0:0:0:0:
192,192,309594,1,0,0:0:0:0:
64,192,309710,1,0,0:0:0:0:
448,192,309825,1,0,0:0:0:0:
320,192,309883,1,0,0:0:0:0:
192,192,309940,1,0,0:0:0:0:
64,192,309998,1,0,0:0:0:0:
448,192,310056,1,0,0:0:0:0:
64,192,310113,1,0,0:0:0:0:
192,192,310171,1,0,0:0:0:0:
320,192,310229,1,0,0:0:0:0:
448,192,310286,1,0,0:0:0:0:
320,192,310517,1,8,0:0:0:0:
192,192,310633,1,0,0:0:0:0:
448,192,310748,1,0,0:0:0:0:
64,192,310979,1,8,0:0:0:0:
64,192,311210,128,0,311671:0:0:0:0:
192,192,311210,1,0,0:0:0:0:
320,192,311440,1,8,0:0:0:0:
192,192,311556,1,0,0:0:0:0:
448,192,311671,1,0,0:0:0:0:
320,192,311902,1,8,0:0:0:0:
192,192,312133,1,0,0:0:0:0:
64,192,312133,1,0,0:0:0:0:
320,192,312363,1,8,0:0:0:0:
448,192,312479,1,0,0:0:0:0:
192,192,312594,1,0,0:0:0:0:
64,192,312594,1,0,0:0:0:0:
448,192,312825,1,8,0:0:0:0:
192,192,313056,1,0,0:0:0:0:
64,192,313056,1,0,0:0:0:0:
320,192,313286,1,8,0:0:0:0:
64,192,313402,1,0,0:0:0:0:
192,192,313517,1,0,0:0:0:0:
448,192,313517,1,0,0:0:0:0:
320,192,313748,1,8,0:0:0:0:
64,192,313979,128,0,314671:0:0:0:0:
192,192,313979,1,0,0:0:0:0:
448,192,313979,1,0,0:0:0:0:
320,192,314210,1,8,0:0:0:0:
448,192,314325,1,0,0:0:0:0:
192,192,314440,1,0,0:0:0:0:
448,192,314671,128,0,315594:0:0:0:0:
320,192,314671,1,8,0:0:0:0:
192,192,314902,1,0,0:0:0:0:
64,192,315133,1,8,0:0:0:0:
192,192,315248,1,0,0:0:0:0:
320,192,315363,1,0,0:0:0:0:
192,192,315594,1,8,0:0:0:0:
192,192,315825,128,0,316056:0:0:0:0:
64,192,315825,1,0,0:0:0:0:
448,192,316056,128,0,316286:0:0:0:0:
64,192,316171,1,0,0:0:0:0:
320,192,316286,128,0,316517:0:0:0:0:
192,192,316517,128,0,316748:0:0:0:0:
64,192,316748,1,0,0:0:0:0:
448,192,316748,128,0,316979:0:0:0:0:
320,192,316979,128,0,317210:0:0:0:0:
448,192,317094,1,0,0:0:0:0:
64,192,317210,128,0,317440:0:0:0:0:
192,192,317210,1,0,0:0:0:0:
192,192,317440,1,0,0:0:0:0:
448,192,317671,1,0,0:0:0:0:
320,192,317671,1,0,0:0:0:0:
192,192,317902,1,8,0:0:0:0:
448,192,318017,1,0,0:0:0:0:
320,192,318133,1,0,0:0:0:0:
448,192,318363,1,8,0:0:0:0:
192,192,318594,1,0,0:0:0:0:
64,192,318594,1,0,0:0:0:0:
320,192,318825,1,8,0:0:0:0:
64,192,318940,1,0,0:0:0:0:
192,192,319056,1,0,0:0:0:0:
64,192,319286,1,8,0:0:0:0:
320,192,319517,1,0,0:0:0:0:
448,192,319517,1,0,0:0:0:0:
64,192,319748,1,8,0:0:0:0:
320,192,319979,1,0,0:0:0:0:
192,192,319979,1,0,0:0:0:0:
448,192,319979,1,0,0:0:0:0:
64,192,320210,1,8,0:0:0:0:
192,192,320440,1,0,0:0:0:0:
64,192,320440,1,0,0:0:0:0:
448,192,320440,1,0,0:0:0:0:
320,192,320671,1,8,0:0:0:0:
320,192,320902,1,0,0:0:0:0:
64,192,320902,1,0,0:0:0:0:
448,192,320902,1,0,0:0:0:0:
192,192,321133,1,8,0:0:0:0:
320,192,321363,1,0,0:0:0:0:
448,192,321363,128,0,322286:0:0:0:0:
64,192,322286,1,0,0:0:0:0:
320,192,322286,1,0,0:0:0:0:
192,192,322402,1,0,0:0:0:0:
320,192,322517,1,0,0:0:0:0:
64,192,322633,1,0,0:0:0:0:
192,192,322748,1,0,0:0:0:0:
448,192,322863,1,0,0:0:0:0:
320,192,322979,1,0,0:0:0:0:
64,192,323094,1,0,0:0:0:0:
192,192,323210,1,0,0:0:0:0:
64,192,323440,1,0,0:0:0:0:
192,192,323498,1,0,0:0:0:0:
320,192,323556,1,0,0:0:0:0:
448,192,323613,1,0,0:0:0:0:
64,192,323671,1,0,0:0:0:0:
320,192,323786,1,0,0:0:0:0:
192,192,323902,1,0,0:0:0:0:
320,192,324017,1,0,0:0:0:0:
448,192,324133,1,0,0:0:0:0:
320,192,324248,1,0,0:0:0:0:
64,192,324363,1,0,0:0:0:0:
192,192,324421,1,0,0:0:0:0:
320,192,324479,1,0,0:0:0:0:
448,192,324594,1,0,0:0:0:0:
320,192,324710,1,0,0:0:0:0:
64,192,324825,1,0,0:0:0:0:
192,192,324883,1,0,0:0:0:0:
320,192,324940,1,0,0:0:0:0:
64,192,325056,1,0,0:0:0:0:
192,192,325056,1,0,0:0:0:0:
448,192,325286,1,8,0:0:0:0:
192,192,325402,1,0,0:0:0:0:
320,192,325517,1,0,0:0:0:0:
192,192,325748,1,8,0:0:0:0:
320,192,325979,1,0,0:0:0:0:
448,192,325979,1,0,0:0:0:0:
64,192,326210,1,8,0:0:0:0:
192,192,326325,1,0,0:0:0:0:
320,192,326440,1,0,0:0:0:0:
192,192,326671,1,8,0:0:0:0:
320,192,326902,1,0,0:0:0:0:
448,192,326902,1,0,0:0:0:0:
192,192,327133,1,8,0:0:0:0:
320,192,327363,1,0,0:0:0:0:
448,192,327363,1,0,0:0:0:0:
64,192,327594,1,8,0:0:0:0:
192,192,327710,1,0,0:0:0:0:
320,192,327825,1,0,0:0:0:0:
448,192,327825,1,0,0:0:0:0:
192,192,328056,1,8,0:0:0:0:
64,192,328171,1,0,0:0:0:0:
320,192,328286,1,0,0:0:0:0:
448,192,328286,1,0,0:0:0:0:
64,192,328517,1,8,0:0:0:0:
448,192,328748,128,0,329671:0:0:0:0:
320,192,328748,1,0,0:0:0:0:
192,192,328979,1,8,0:0:0:0:
320,192,329094,1,0,0:0:0:0:
64,192,329210,1,0,0:0:0:0:
320,192,329440,1,8,0:0:0:0:
64,192,329671,128,0,330594:0:0:0:0:
192,192,329671,1,0,0:0:0:0:
320,192,329902,1,8,0:0:0:0:
448,192,330017,1,0,0:0:0:0:
320,192,330133,1,0,0:0:0:0:
192,192,330363,1,8,0:0:0:0:
320,192,330594,1,0,0:0:0:0:
192,192,330594,1,0,0:0:0:0:
448,192,330825,1,8,0:0:0:0:
320,192,330940,1,0,0:0:0:0:
192,192,331056,1,0,0:0:0:0:
64,192,331286,1,8,0:0:0:0:
192,192,331402,1,0,0:0:0:0:
320,192,331517,1,0,0:0:0:0:
64,192,331748,1,8,0:0:0:0:
192,192,331863,1,0,0:0:0:0:
64,192,331979,1,0,0:0:0:0:
320,192,332094,1,0,0:0:0:0:
448,192,332210,1,8,0:0:0:0:
320,192,332325,1,0,0:0:0:0:
64,192,332440,128,0,333133:0:0:0:0:
320,192,332671,1,8,0:0:0:0:
192,192,332902,1,0,0:0:0:0:
448,192,333133,128,0,334286:0:0:0:0:
320,192,333133,1,8,0:0:0:0:
192,192,333363,1,0,0:0:0:0:
64,192,333594,1,8,0:0:0:0:
192,192,333825,1,0,0:0:0:0:
320,192,334056,1,8,0:0:0:0:
64,192,334286,1,0,0:0:0:0:
192,192,334286,1,0,0:0:0:0:
320,192,334517,1,8,0:0:0:0:
448,192,334633,1,0,0:0:0:0:
64,192,334748,1,0,0:0:0:0:
192,192,334979,1,8,0:0:0:0:
64,192,335094,1,0,0:0:0:0:
448,192,335210,1,0,0:0:0:0:
192,192,335440,1,8,0:0:0:0:
320,192,335556,1,0,0:0:0:0:
192,192,335671,1,0,0:0:0:0:
64,192,335671,1,0,0:0:0:0:
448,192,335902,1,8,0:0:0:0:
64,192,336133,128,0,337056:0:0:0:0:
448,192,337056,1,0,0:0:0:0:
320,192,337113,1,0,0:0:0:0:
192,192,337171,1,0,0:0:0:0:
64,192,337229,1,0,0:0:0:0:
192,192,337286,1,0,0:0:0:0:
448,192,337402,1,0,0:0:0:0:
64,192,337517,1,0,0:0:0:0:
320,192,337633,1,0,0:0:0:0:
192,192,337748,1,0,0:0:0:0:
448,192,337863,1,0,0:0:0:0:
320,192,337979,1,0,0:0:0:0:
64,192,337979,1,0,0:0:0:0:
192,192,338210,1,8,0:0:0:0:
64,192,338325,1,0,0:0:0:0:
320,192,338440,1,0,0:0:0:0:
448,192,338440,1,0,0:0:0:0:
320,192,338671,1,8,0:0:0:0:
448,192,338786,1,0,0:0:0:0:
192,192,338902,1,0,0:0:0:0:
64,192,338902,1,0,0:0:0:0:
320,192,339133,1,0,0:0:0:0:
192,192,339248,1,0,0:0:0:0:
64,192,339363,1,0,0:0:0:0:
320,192,339363,1,0,0:0:0:0:
192,192,339479,1,0,0:0:0:0:
448,192,339594,1,0,0:0:0:0:
192,192,339710,1,0,0:0:0:0:
64,192,339825,1,0,0:0:0:0:
320,192,339825,1,0,0:0:0:0:
448,192,339825,128,0,340517:0:0:0:0:
192,192,340056,1,8,0:0:0:0:
64,192,340286,1,0,0:0:0:0:
64,192,340517,128,0,341671:0:0:0:0:
192,192,340517,1,8,0:0:0:0:
320,192,340748,1,0,0:0:0:0:
448,192,340979,1,8,0:0:0:0:
320,192,341210,1,0,0:0:0:0:
192,192,341440,1,8,0:0:0:0:
320,192,341671,1,0,0:0:0:0:
448,192,341671,1,0,0:0:0:0:
192,192,341902,1,8,0:0:0:0:
64,192,342017,1,0,0:0:0:0:
320,192,342133,1,0,0:0:0:0:
448,192,342133,1,0,0:0:0:0:
192,192,342363,1,8,0:0:0:0:
320,192,342594,1,0,0:0:0:0:
448,192,342594,1,0,0:0:0:0:
192,192,342825,1,8,0:0:0:0:
64,192,342940,1,0,0:0:0:0:
320,192,343056,1,0,0:0:0:0:
192,192,343056,1,0,0:0:0:0:
448,192,343286,1,0,0:0:0:0:
320,192,343402,1,0,0:0:0:0:
192,192,343517,1,8,0:0:0:0:
64,192,343517,128,0,344440:0:0:0:0:
448,192,344440,128,0,346286:0:0:0:0:
64,192,346286,128,2,346517:0:0:0:0:
320,192,346517,128,2,346748:0:0:0:0:
64,192,346748,128,2,346979:0:0:0:0:
448,192,346979,128,2,347210:0:0:0:0:
192,192,347210,1,0,0:0:0:0:
64,192,347210,1,0,0:0:0:0:
320,192,347440,1,8,0:0:0:0:
448,192,347556,1,0,0:0:0:0:
192,192,347671,1,0,0:0:0:0:
320,192,347902,1,8,0:0:0:0:
64,192,348133,1,0,0:0:0:0:
192,192,348133,1,0,0:0:0:0:
320,192,348363,1,8,0:0:0:0:
192,192,348479,1,0,0:0:0:0:
64,192,348594,1,0,0:0:0:0:
320,192,348825,1,8,0:0:0:0:
192,192,349056,1,0,0:0:0:0:
64,192,349056,1,0,0:0:0:0:
448,192,349286,1,8,0:0:0:0:
320,192,349402,1,0,0:0:0:0:
192,192,349517,1,0,0:0:0:0:
64,192,349517,1,0,0:0:0:0:
320,192,349748,1,8,0:0:0:0:
192,192,349863,1,0,0:0:0:0:
320,192,349979,1,0,0:0:0:0:
64,192,349979,1,0,0:0:0:0:
192,192,350210,1,8,0:0:0:0:
64,192,350325,1,0,0:0:0:0:
320,192,350440,1,0,0:0:0:0:
192,192,350440,1,0,0:0:0:0:
64,192,350671,1,8,0:0:0:0:
192,192,350786,1,0,0:0:0:0:
320,192,350902,1,0,0:0:0:0:
448,192,350902,1,0,0:0:0:0:
64,192,351133,1,8,0:0:0:0:
192,192,351363,1,0,0:0:0:0:
320,192,351594,1,8,0:0:0:0:
448,192,351825,1,0,0:0:0:0:
320,192,352056,1,8,0:0:0:0:
192,192,352286,1,0,0:0:0:0:
64,192,352517,1,8,0:0:0:0:
192,192,352633,1,0,0:0:0:0:
320,192,352748,1,0,0:0:0:0:
448,192,352979,1,8,0:0:0:0:
320,192,353210,1,0,0:0:0:0:
192,192,353440,1,8,0:0:0:0:
64,192,353671,1,0,0:0:0:0:
192,192,353902,1,8,0:0:0:0:
320,192,354133,1,0,0:0:0:0:
448,192,354363,1,8,0:0:0:0:
64,192,354594,1,0,0:0:0:0:
192,192,354825,1,8,0:0:0:0:
320,192,355056,1,0,0:0:0:0:
448,192,355286,1,8,0:0:0:0:
192,192,355517,1,0,0:0:0:0:
64,192,355633,1,0,0:0:0:0:
320,192,355748,1,0,0:0:0:0:
448,192,355863,1,0,0:0:0:0:
192,192,355979,1,0,0:0:0:0:
64,192,356094,1,0,0:0:0:0:
448,192,356210,1,0,0:0:0:0:
192,192,356325,1,0,0:0:0:0:
320,192,356383,1,0,0:0:0:0:
448,192,356440,128,0,356786:0:0:0:0:
64,192,356786,128,0,357133:0:0:0:0:
448,192,357133,128,0,357363:0:0:0:0:
64,192,357363,1,0,0:0:0:0:
320,192,357594,1,8,0:0:0:0:
448,192,357594,1,8,0:0:0:0:
192,192,357825,1,0,0:0:0:0:
448,192,358056,1,8,0:0:0:0:
64,192,358286,128,0,358633:0:0:0:0:
320,192,358633,128,0,358979:0:0:0:0:
64,192,358979,128,0,359210:0:0:0:0:
448,192,359210,1,0,0:0:0:0:
192,192,359440,1,8,0:0:0:0:
64,192,359440,1,8,0:0:0:0:
448,192,359671,1,0,0:0:0:0:
64,192,359902,1,8,0:0:0:0:
448,192,360133,128,0,360479:0:0:0:0:
192,192,360479,128,0,360825:0:0:0:0:
448,192,360825,128,0,361056:0:0:0:0:
64,192,361056,1,0,0:0:0:0:
320,192,361286,1,8,0:0:0:0:
448,192,361286,1,8,0:0:0:0:
192,192,361517,1,0,0:0:0:0:
320,192,361748,1,8,0:0:0:0:
64,192,361979,128,0,362671:0:0:0:0:
448,192,362210,1,0,0:0:0:0:
192,192,362440,1,0,0:0:0:0:
320,192,362671,1,0,0:0:0:0:
448,192,362902,128,2,363248:0:0:0:0:
64,192,363248,128,2,363594:0:0:0:0:
448,192,363594,128,2,363825:0:0:0:0:
192,192,363825,1,0,0:0:0:0:
64,192,363825,128,2,364517:0:0:0:0:
448,192,364056,1,8,0:0:0:0:
320,192,364171,1,0,0:0:0:0:
192,192,364286,1,0,0:0:0:0:
448,192,364517,1,8,0:0:0:0:
320,192,364748,1,0,0:0:0:0:
64,192,364979,128,2,365671:0:0:0:0:
192,192,364979,1,8,0:0:0:0:
320,192,365094,1,0,0:0:0:0:
448,192,365210,1,0,0:0:0:0:
192,192,365440,1,8,0:0:0:0:
320,192,365556,1,0,0:0:0:0:
448,192,365671,1,0,0:0:0:0:
192,192,365671,128,2,366363:0:0:0:0:
64,192,366363,128,2,366594:0:0:0:0:
448,192,366594,128,2,366825:0:0:0:0:
192,192,366825,128,2,367286:0:0:0:0:
320,192,367286,1,0,0:0:0:0:
64,192,367402,1,0,0:0:0:0:
448,192,367517,128,2,368210:0:0:0:0:
192,192,367748,1,8,0:0:0:0:
192,192,368210,1,8,0:0:0:0:
64,192,368440,128,2,368786:0:0:0:0:
448,192,368786,128,2,369133:0:0:0:0:
64,192,369133,1,2,0:0:0:0:
192,192,369248,1,2,0:0:0:0:
448,192,369363,128,2,370056:0:0:0:0:
64,192,369594,1,8,0:0:0:0:
320,192,369825,1,0,0:0:0:0:
64,192,370056,1,8,0:0:0:0:
320,192,370286,1,0,0:0:0:0:
64,192,370402,1,0,0:0:0:0:
448,192,370517,1,0,0:0:0:0:
320,192,370633,1,0,0:0:0:0:
64,192,370748,1,0,0:0:0:0:
192,192,370806,1,0,0:0:0:0:
320,192,370863,1,0,0:0:0:0:
448,192,370921,1,0,0:0:0:0:
64,192,370979,1,0,0:0:0:0:
192,192,371036,1,0,0:0:0:0:
320,192,371094,1,0,0:0:0:0:
448,192,371152,1,0,0:0:0:0:
192,192,371210,1,0,0:0:0:0:
64,192,371210,1,0,0:0:0:0:
448,192,371440,1,0,0:0:0:0:
64,192,371671,128,0,372133:0:0:0:0:
192,192,371671,1,8,0:0:0:0:
448,192,371902,1,0,0:0:0:0:
320,192,372133,1,0,0:0:0:0:
448,192,372363,1,0,0:0:0:0:
64,192,372594,1,0,0:0:0:0:
192,192,372594,1,8,0:0:0:0:
448,192,372825,1,0,0:0:0:0:
64,192,373056,1,0,0:0:0:0:
192,192,373286,1,0,0:0:0:0:
448,192,373517,128,0,373979:0:0:0:0:
320,192,373517,1,8,0:0:0:0:
192,192,373748,1,0,0:0:0:0:
64,192,373979,1,0,0:0:0:0:
448,192,374210,1,4,0:0:0:0:
320,192,374325,1,4,0:0:0:0:
192,192,374440,1,0,0:0:0:0:
64,192,374556,1,0,0:0:0:0:
192,192,374671,1,0,0:0:0:0:
320,192,374786,1,0,0:0:0:0:
448,192,374902,1,0,0:0:0:0:
64,192,375133,1,0,0:0:0:0:
320,192,375363,1,8,0:0:0:0:
448,192,375363,128,0,375825:0:0:0:0:
64,192,375594,1,0,0:0:0:0:
192,192,375825,1,0,0:0:0:0:
320,192,376056,1,0,0:0:0:0:
64,192,376286,1,0,0:0:0:0:
192,192,376286,1,8,0:0:0:0:
448,192,376517,1,0,0:0:0:0:
64,192,376748,128,0,377210:0:0:0:0:
192,192,376748,1,0,0:0:0:0:
448,192,376979,1,0,0:0:0:0:
320,192,377210,1,0,0:0:0:0:
192,192,377210,1,8,0:0:0:0:
448,192,377440,1,0,0:0:0:0:
64,192,377671,1,0,0:0:0:0:
448,192,377902,1,6,0:0:0:0:
64,192,378017,1,4,0:0:0:0:
320,192,378133,1,0,0:0:0:0:
192,192,378248,1,0,0:0:0:0:
64,192,378363,1,0,0:0:0:0:
192,192,378479,1,0,0:0:0:0:
448,192,378594,128,2,379517:0:0:0:0:
64,192,379863,128,2,380210:0:0:0:0:
448,192,380440,1,0,0:0:0:0:
64,192,380556,1,0,0:0:0:0:
320,192,380671,1,8,0:0:0:0:
192,192,380902,1,0,0:0:0:0:
448,192,381017,1,0,0:0:0:0:
64,192,381133,1,8,0:0:0:0:
320,192,381363,1,0,0:0:0:0:
64,192,381479,1,0,0:0:0:0:
448,192,381594,1,8,0:0:0:0:
192,192,381710,1,0,0:0:0:0:
448,192,381825,1,0,0:0:0:0:
320,192,381825,1,0,0:0:0:0:
64,192,381940,1,0,0:0:0:0:
448,192,382056,1,8,0:0:0:0:
192,192,382171,1,0,0:0:0:0:
64,192,382286,1,0,0:0:0:0:
192,192,382344,1,0,0:0:0:0:
320,192,382402,1,0,0:0:0:0:
448,192,382460,1,0,0:0:0:0:
64,192,382517,1,0,0:0:0:0:
192,192,382575,1,0,0:0:0:0:
448,192,382633,1,0,0:0:0:0:
320,192,382690,1,0,0:0:0:0:
64,192,382748,1,0,0:0:0:0:
192,192,382806,1,0,0:0:0:0:
448,192,382863,1,0,0:0:0:0:
320,192,382921,1,0,0:0:0:0:
64,192,382979,1,0,0:0:0:0:
192,192,383036,1,0,0:0:0:0:
448,192,383094,1,0,0:0:0:0:
320,192,383152,1,0,0:0:0:0:
64,192,383210,1,0,0:0:0:0:
192,192,383210,1,0,0:0:0:0:
320,192,383267,1,0,0:0:0:0:
448,192,383325,1,0,0:0:0:0:
64,192,383383,1,0,0:0:0:0:
192,192,383440,1,0,0:0:0:0:
320,192,383498,1,0,0:0:0:0:
448,192,383556,1,0,0:0:0:0:
64,192,383613,1,0,0:0:0:0:
192,192,383671,1,0,0:0:0:0:
320,192,383729,1,0,0:0:0:0:
448,192,383786,1,0,0:0:0:0:
64,192,383844,1,0,0:0:0:0:
192,192,383902,1,0,0:0:0:0:
320,192,383960,1,0,0:0:0:0:
448,192,384017,1,0,0:0:0:0:
64,192,384017,1,0,0:0:0:0:
192,192,384075,1,0,0:0:0:0:
320,192,384133,1,8,3:0:0:0:
448,192,384133,1,8,3:0:0:0:
