osu file format v14

[General]
AudioFilename: audio.mp3
AudioLeadIn: 0
PreviewTime: 197439
Countdown: 0
SampleSet: Soft
StackLeniency: 0.7
Mode: 0
LetterboxInBreaks: 0
WidescreenStoryboard: 0

[Editor]
Bookmarks: 49055,56439,71208,88747,103516,120131,134901,149670,166285,181055,197670,227208,242670,263204,270588,274280,277973,295511,310280,356434,371204
DistanceSpacing: 3.1
BeatDivisor: 4
GridSize: 32
TimelineZoom: 2

[Metadata]
Title:IMAGE -MATERIAL-
TitleUnicode:IMAGE -MATERIAL-
Artist:Tatsh
ArtistUnicode:Tatsh
Creator:Twiggykun
Version:Dreamer, you may imagine
Source:
Tags:
BeatmapID:2164201
BeatmapSetID:1035115

[Difficulty]
HPDrainRate:5
CircleSize:3
OverallDifficulty:9
ApproachRate:10
SliderMultiplier:1.5
SliderTickRate:1

[Events]
//Background and Video events
0,0,"touhou-7.jpg",0,0
//Break Periods
//Storyboard Layer 0 (Background)
//Storyboard Layer 1 (Fail)
//Storyboard Layer 2 (Pass)
//Storyboard Layer 3 (Foreground)
//Storyboard Layer 4 (Overlay)
//Storyboard Sound Samples

[TimingPoints]
6594,461.538461538462,4,2,1,30,1,0
12132,-200,4,2,1,30,0,0
13978,-100,4,2,1,30,0,0
19517,-200,4,2,1,30,0,0
21363,-100,4,2,1,30,0,0
25055,-133.333333333333,4,2,1,30,0,0
28747,-100,4,2,1,30,0,0
32440,-133.333333333333,4,2,1,30,0,0
36132,-200,4,2,1,30,0,0
39824,-100,4,2,1,30,0,0
43517,-400,4,2,1,30,0,0
49055,230.769230769231,4,2,1,50,1,0
56439,-76.9230769230769,4,2,1,50,0,0
66593,-100,4,2,1,50,0,0
67055,-76.9230769230769,4,2,1,50,0,0
103516,-90.9090909090909,4,2,1,50,0,0
118747,-66.6666666666667,4,2,1,50,0,0
119208,-90.9090909090909,4,2,1,50,0,0
120131,-76.9230769230769,4,2,1,50,0,0
133516,-66.6666666666667,4,2,1,50,0,0
134901,-76.9230769230769,4,2,1,50,0,0
149670,-100,4,2,1,50,0,0
160747,-76.9230769230769,4,2,1,50,0,0
166285,-66.6666666666667,4,2,1,50,0,0
181055,-90.9090909090909,4,2,1,50,0,0
196170,-66.6666666666667,4,2,1,50,0,0
196285,-90.9090909090909,4,2,1,50,0,0
196747,-66.6666666666667,4,2,1,50,0,0
197670,-66.6666666666667,4,2,1,50,0,0
227208,-200,4,2,1,30,0,0
251549,697.674418604651,4,2,1,30,1,0
252702,714.285714285714,4,2,1,30,1,0
253509,800,4,2,1,30,1,0
254081,1132.07547169811,4,2,1,30,1,0
255586,1200,4,2,1,30,1,0
256408,1267.10000000001,4,2,1,30,1,0
256408,-133.333333333333,4,2,1,30,0,0
258906,2131.45714285714,4,2,1,30,1,0
258906,-133.333333333333,4,2,1,30,0,0
263204,230.769230769231,4,2,1,30,1,1
263204,-66.6666666666667,4,2,1,50,0,1
277973,-76.9230769230769,4,2,1,50,0,1
310280,-66.6666666666667,4,2,1,50,0,1
371204,-66.6666666666667,4,2,1,50,0,1
378588,-100,4,2,1,50,0,1
379511,-66.6666666666667,4,2,1,50,0,1
384127,-66.6666666666667,4,2,1,50,0,0

[Colours]
Combo1 : 244,77,77
Combo2 : 223,219,200
Combo3 : 173,164,163
Combo4 : 160,44,47

[HitObjects]
234,305,6594,6,0,B|161:360|52:306|84:178|135:171|195:165|164:61|102:5|13:25|-20:101|3:173|101:90,1,525
223,29,8440,6,0,B|306:5|376:154|278:139|278:139|230:89|380:55|376:114|373:171|429:182|472:175|518:145|501:81|443:149,1,525
423,275,10286,6,0,B|418:308|396:349|419:385|451:387|498:369|526:326|534:291|352:285|166:290|179:263|192:234|246:172|286:161|321:199|273:328|269:349,1,525
120,350,12132,6,0,P|97:285|83:117,1,225
246,16,13978,6,0,B|275:149|244:350|244:350|334:307|343:379|434:348,1,525
509,257,15824,6,0,B|537:141|420:16|420:16|343:178|397:282,1,525
224,347,17670,6,0,B|325:310|295:198|202:142|192:195|183:244|94:203|56:131|99:60|165:56,1,450
13,43,19517,6,0,P|1:116|15:273,1,225
122,348,21363,6,0,P|130:261|110:202,1,150
274,289,22286,2,0,P|237:209|190:168,1,150
334,16,23209,6,0,P|345:98|304:181,1,150
494,81,24132,2,0,P|462:157|385:208,1,150
396,328,25055,6,0,B|225:220|247:397|79:287,1,337.500012874604
88,42,26901,6,0,B|195:60|223:174|178:229|178:229|155:217|144:169|184:151,1,337.500012874604
366,165,28747,6,0,P|452:137|489:80,1,150
301,256,29670,2,0,P|389:274|450:243,1,150
184,172,30594,6,0,P|154:271|156:319,1,150
30,109,31517,2,0,P|60:208|58:256,1,150
159,48,32440,6,0,B|317:-5|303:194|474:145|474:145|396:132|383:80,1,450.000017166138
453,241,35209,2,0,P|461:290|459:359,1,112.500004291535
322,325,36132,6,0,P|63:232|133:40,1,525
215,196,39824,6,0,P|141:138|127:77,1,150
376,75,40747,2,0,P|299:67|216:90,1,150
491,35,41670,6,0,B|512:210|383:135|433:324,1,300
440,337,43055,1,0,0:0:0:0:
390,90,43517,6,0,B|107:98|322:251|29:269,1,431.25
33,13,49055,5,0,0:0:0:0:
50,16,49170,1,0,0:0:0:0:
67,24,49285,2,0,P|90:74|110:173,1,150
3,293,49631,2,0,P|43:255|78:244,1,75
235,269,49862,1,0,0:0:0:0:
222,281,49978,2,0,P|169:265|142:240,1,75
323,219,50208,2,0,P|333:288|324:368,1,150
332,198,50555,2,0,P|353:264|358:344,1,150
461,331,50901,5,0,0:0:0:0:
482,325,51016,1,0,0:0:0:0:
498,311,51131,2,0,P|506:236|489:162,1,150
406,37,51478,2,0,P|396:81|402:131,1,75
476,177,51708,1,0,0:0:0:0:
489,163,51824,2,0,P|499:119|493:69,1,75
299,61,52055,2,0,P|301:135|338:225,1,150
290,35,52401,2,0,P|279:108|299:203,1,150
358,312,52747,5,0,0:0:0:0:
346,290,52862,1,0,0:0:0:0:
326,274,52978,2,0,P|256:270|179:290,1,150
59,357,53324,2,0,P|85:327|90:285,1,75
99,132,53555,1,0,0:0:0:0:
95,153,53670,2,0,P|107:190|141:215,1,75
200,82,53901,2,0,P|137:33|38:39,1,150
230,90,54247,2,0,P|176:30|77:19,1,150
209,218,54593,5,0,0:0:0:0:
238,219,54708,1,0,0:0:0:0:
260,215,54824,2,0,P|316:189|365:108,1,150
394,0,55170,2,0,P|421:53|453:69,1,75
512,145,55401,2,0,P|452:141|422:161,1,75
429,294,55631,1,0,0:0:0:0:
452,298,55747,2,0,P|484:248|482:212,1,75
366,114,56439,6,0,P|359:184|372:240,1,97.4999955368044
325,15,56670,2,0,P|283:72|267:127,1,97.4999955368044
245,225,56901,1,0,0:0:0:0:
180,91,57016,1,0,0:0:0:0:
227,238,57131,1,0,0:0:0:0:
162,104,57247,1,0,0:0:0:0:
42,232,57362,6,0,P|109:203|148:196,1,97.4999955368044
183,355,57593,2,0,P|135:342|92:320,1,97.4999955368044
258,222,57824,1,0,0:0:0:0:
311,361,57939,1,0,0:0:0:0:
281,218,58055,1,0,0:0:0:0:
334,357,58170,1,0,0:0:0:0:
445,244,58285,6,0,P|451:182|439:127,1,97.4999955368044
252,56,58516,2,0,P|302:92|356:109,1,97.4999955368044
461,222,58747,2,0,P|455:159|432:108,1,97.4999955368044
235,74,58978,2,0,P|291:99|347:106,1,97.4999955368044
122,9,59208,6,0,P|105:72|106:144,1,97.4999955368044
19,235,59439,2,0,P|2:172|3:100,1,97.4999955368044
152,217,59670,1,0,0:0:0:0:
88,354,59785,1,0,0:0:0:0:
175,215,59901,1,0,0:0:0:0:
210,359,60016,1,0,0:0:0:0:
330,267,60131,6,0,P|391:262|448:279,1,97.4999955368044
497,93,60362,2,0,P|470:148|427:189,1,97.4999955368044
302,273,60593,1,0,0:0:0:0:
446,347,60708,1,0,0:0:0:0:
284,284,60824,1,0,0:0:0:0:
431,359,60939,1,0,0:0:0:0:
345,171,61055,6,0,P|278:165|217:183,1,97.4999955368044
134,335,61285,2,0,P|172:279|187:218,1,97.4999955368044
98,131,61516,1,0,0:0:0:0:
10,265,61631,1,0,0:0:0:0:
81,120,61747,1,0,0:0:0:0:
25,275,61862,1,0,0:0:0:0:
15,44,61978,6,0,P|82:29|148:39,1,97.4999955368044
307,57,62208,1,0,0:0:0:0:
176,300,62324,2,0,P|147:240|139:186,1,97.4999955368044
339,65,62555,1,0,0:0:0:0:
354,325,62670,2,0,P|268:348|235:341,1,97.4999955368044
403,214,62901,6,0,P|465:276|476:309,1,97.4999955368044
282,227,63131,2,0,P|305:141|327:115,1,97.4999955368044
431,57,63362,1,0,0:0:0:0:
200,21,63478,1,0,0:0:0:0:
382,189,63593,1,0,0:0:0:0:
293,22,63708,1,0,0:0:0:0:
183,189,63824,5,0,0:0:0:0:
177,212,63881,1,0,0:0:0:0:
173,236,63939,1,0,0:0:0:0:
171,261,63997,1,0,0:0:0:0:
170,287,64055,2,0,P|221:320|267:333,1,97.4999955368044
369,91,64285,5,0,0:0:0:0:
375,114,64343,1,0,0:0:0:0:
379,138,64401,1,0,0:0:0:0:
381,163,64458,1,0,0:0:0:0:
382,189,64516,2,0,P|331:222|285:235,1,97.4999955368044
171,161,64747,5,0,0:0:0:0:
165,138,64805,1,0,0:0:0:0:
161,114,64862,1,0,0:0:0:0:
159,89,64920,1,0,0:0:0:0:
158,63,64978,2,0,P|209:30|255:17,1,97.4999955368044
52,236,65208,5,0,0:0:0:0:
46,213,65266,1,0,0:0:0:0:
42,189,65324,1,0,0:0:0:0:
40,164,65381,1,0,0:0:0:0:
39,140,65439,2,0,P|37:88|40:42,1,97.4999955368044
239,235,65670,5,0,0:0:0:0:
222,251,65728,1,0,0:0:0:0:
203,267,65785,1,0,0:0:0:0:
182,281,65843,1,0,0:0:0:0:
162,294,65901,2,0,P|117:321|76:342,1,97.4999955368044
332,123,66131,5,0,0:0:0:0:
339,146,66189,1,0,0:0:0:0:
345,169,66247,1,0,0:0:0:0:
349,193,66305,1,0,0:0:0:0:
352,218,66362,1,0,0:0:0:0:
353,242,66420,1,0,0:0:0:0:
353,266,66478,1,0,0:0:0:0:
352,291,66535,1,0,0:0:0:0:
347,315,66593,6,0,B|418:311|420:352|506:346,1,150
502,144,66939,1,0,0:0:0:0:
483,154,67055,2,0,P|462:217|463:260,1,97.4999955368044
318,69,67285,1,0,0:0:0:0:
370,220,67401,1,0,0:0:0:0:
208,188,67516,6,0,P|128:204|89:218,1,97.4999955368044
31,71,67747,1,0,0:0:0:0:
193,39,67862,2,0,P|273:55|312:69,1,97.4999955368044
207,330,68093,2,0,P|127:314|88:300,1,97.4999955368044
215,155,68324,1,0,0:0:0:0:
337,292,68439,6,0,P|363:369|370:410,1,97.4999955368044
475,180,68670,2,0,P|448:257|441:298,1,97.4999955368044
276,40,68901,1,0,0:0:0:0:
372,190,69016,1,0,0:0:0:0:
368,15,69131,1,0,0:0:0:0:
281,217,69247,1,0,0:0:0:0:
141,37,69362,6,0,P|83:23|20:27,1,97.4999955368044
52,284,69593,2,0,P|100:282|147:270,1,97.4999955368044
366,153,69824,1,0,0:0:0:0:
110,153,69939,1,0,0:0:0:0:
247,360,70055,1,0,0:0:0:0:
300,89,70170,1,0,0:0:0:0:
500,291,70285,5,0,0:0:0:0:
505,267,70342,1,0,0:0:0:0:
509,243,70400,1,0,0:0:0:0:
511,218,70458,1,0,0:0:0:0:
512,194,70515,1,0,0:0:0:0:
511,170,70573,1,0,0:0:0:0:
509,145,70631,1,0,0:0:0:0:
505,121,70688,1,0,0:0:0:0:
498,101,70747,6,0,P|414:78|378:78,1,97.4999955368044
281,286,70978,1,0,0:0:0:0:
228,17,71093,1,0,0:0:0:0:
108,204,71208,6,0,P|97:273|94:324,1,97.4999955368044
260,129,71439,1,0,0:0:0:0:
65,100,71555,2,0,P|20:154|-7:196,1,97.4999955368044
293,110,71785,1,0,0:0:0:0:
174,305,71901,2,0,P|129:250|101:208,1,97.4999955368044
326,88,72131,1,0,0:0:0:0:
357,322,72247,2,0,P|291:297|246:274,1,97.4999955368044
422,154,72478,5,0,0:0:0:0:
464,335,72593,1,0,0:0:0:0:
399,162,72708,1,0,0:0:0:0:
486,326,72824,1,0,0:0:0:0:
487,84,72939,1,0,0:0:0:0:
283,212,73055,6,0,P|200:224|144:212,1,97.4999955368044
316,84,73285,1,0,0:0:0:0:
379,275,73401,2,0,P|313:326|258:344,1,97.4999955368044
280,70,73631,1,0,0:0:0:0:
146,224,73747,2,0,P|211:275|266:293,1,97.4999955368044
248,54,73978,1,0,0:0:0:0:
24,145,74093,2,0,P|55:222|93:265,1,97.4999955368044
160,46,74324,5,0,0:0:0:0:
164,260,74439,1,0,0:0:0:0:
83,79,74555,1,0,0:0:0:0:
250,261,74670,2,0,P|328:236|365:204,1,97.4999955368044
373,91,74901,6,0,P|461:84|481:90,1,97.4999955368044
354,262,75131,1,0,0:0:0:0:
277,53,75247,2,0,P|349:2|370:-1,1,97.4999955368044
364,294,75478,1,0,0:0:0:0:
183,116,75593,2,0,P|123:111|67:121,1,97.4999955368044
372,145,75824,1,0,0:0:0:0:
127,236,75939,2,0,P|67:241|11:231,1,97.4999955368044
208,140,76170,5,0,0:0:0:0:
264,321,76285,1,0,0:0:0:0:
238,124,76401,1,0,0:0:0:0:
298,314,76516,1,0,0:0:0:0:
270,107,76631,1,0,0:0:0:0:
497,194,76747,6,0,P|489:110|475:81,1,97.4999955368044
172,39,76978,1,0,0:0:0:0:
320,210,77093,2,0,P|384:156|399:127,1,97.4999955368044
153,16,77324,1,0,0:0:0:0:
132,265,77439,2,0,P|146:347|163:375,1,97.4999955368044
185,156,77670,1,0,0:0:0:0:
6,257,77785,1,0,0:0:0:0:
0,67,77901,2,0,P|82:78|116:98,1,97.4999955368044
275,254,78131,5,0,0:0:0:0:
172,39,78247,1,0,0:0:0:0:
132,265,78362,1,0,0:0:0:0:
341,133,78478,1,0,0:0:0:0:
354,360,78593,6,0,P|288:369|243:358,1,97.4999955368044
171,168,78824,1,0,0:0:0:0:
373,142,78939,2,0,P|413:194|426:239,1,97.4999955368044
141,170,79170,1,0,0:0:0:0:
375,40,79285,2,0,P|436:65|470:97,1,97.4999955368044
107,170,79516,1,0,0:0:0:0:
341,300,79631,2,0,P|402:274|436:242,1,97.4999955368044
253,152,79862,5,0,0:0:0:0:
213,363,79978,1,0,0:0:0:0:
226,146,80093,1,0,0:0:0:0:
186,357,80208,1,0,0:0:0:0:
91,132,80324,1,0,0:0:0:0:
346,163,80439,6,0,P|413:149|471:113,1,97.4999955368044
252,34,80670,1,0,0:0:0:0:
264,246,80785,2,0,P|329:267|397:265,1,97.4999955368044
279,22,81016,1,0,0:0:0:0:
77,154,81131,2,0,P|55:219|57:287,1,97.4999955368044
312,10,81362,1,0,0:0:0:0:
67,43,81478,2,0,P|15:88|-16:148,1,97.4999955368044
206,71,81708,5,0,0:0:0:0:
186,307,81824,1,0,0:0:0:0:
187,47,81939,1,0,0:0:0:0:
467,168,82055,2,0,P|474:232|472:277,1,97.4999955368044
279,364,82285,2,0,P|272:300|274:255,1,97.4999955368044
365,122,82516,1,0,0:0:0:0:
170,231,82631,2,0,P|99:224|58:208,1,97.4999955368044
393,105,82862,1,0,0:0:0:0:
179,16,82978,2,0,P|108:23|67:39,1,97.4999955368044
422,86,83208,1,0,0:0:0:0:
283,316,83324,2,0,P|218:345|174:352,1,97.4999955368044
335,165,83555,5,0,0:0:0:0:
447,347,83670,1,0,0:0:0:0:
361,150,83785,1,0,0:0:0:0:
473,332,83901,1,0,0:0:0:0:
488,64,84016,1,0,0:0:0:0:
227,207,84131,6,0,P|161:211|113:204,1,97.4999955368044
292,60,84362,1,0,0:0:0:0:
337,255,84478,2,0,P|281:291|236:309,1,97.4999955368044
306,32,84708,1,0,0:0:0:0:
51,83,84824,2,0,P|42:179|64:274,1,194.999991073609
231,345,85170,1,0,0:0:0:0:
237,325,85285,2,0,P|177:269|137:261,1,97.4999955368044
304,215,85516,6,0,B|399:194|413:271|518:238,1,194.999991073609
459,36,85862,1,0,0:0:0:0:
442,56,85978,2,0,P|442:117|463:167,1,97.4999955368044
405,348,86208,2,0,P|405:287|384:237,1,97.4999955368044
265,151,86439,2,0,B|161:154|179:216|64:202,1,194.999991073609
113,81,86785,1,0,0:0:0:0:
255,249,86901,6,0,P|270:303|267:348,1,97.4999955368044
49,205,87131,2,0,P|34:259|37:304,1,97.4999955368044
245,114,87362,1,0,0:0:0:0:
154,304,87478,1,0,0:0:0:0:
141,59,87593,1,0,0:0:0:0:
370,187,87708,1,0,0:0:0:0:
148,198,87824,5,0,0:0:0:0:
345,26,87939,1,0,0:0:0:0:
406,278,88055,1,0,0:0:0:0:
229,90,88170,1,0,0:0:0:0:
229,90,88228,1,0,0:0:0:0:
229,90,88285,1,0,0:0:0:0:
474,142,88401,1,0,0:0:0:0:
277,338,88516,1,0,0:0:0:0:
232,317,88574,1,0,0:0:0:0:
185,304,88631,1,0,0:0:0:0:
137,298,88689,1,0,0:0:0:0:
88,298,88747,6,0,B|131:208|60:198|93:100,1,194.999991073609
243,0,89093,1,0,0:0:0:0:
281,177,89208,2,0,P|189:167|157:139,1,97.4999955368044
359,51,89439,5,0,0:0:0:0:
390,254,89555,1,0,0:0:0:0:
389,51,89670,1,0,0:0:0:0:
366,255,89785,1,0,0:0:0:0:
187,127,89901,2,0,P|100:125|-11:167,1,194.999991073609
110,342,90247,1,0,0:0:0:0:
132,329,90362,2,0,P|146:265|143:229,1,97.4999955368044
275,65,90593,6,0,P|289:129|286:165,1,97.4999955368044
239,328,90824,1,0,0:0:0:0:
247,308,90939,2,0,P|295:263|328:248,1,97.4999955368044
494,213,91170,1,0,0:0:0:0:
470,212,91285,2,0,P|407:192|377:171,1,97.4999955368044
449,0,91516,6,0,P|463:64|459:101,1,97.4999955368044
296,193,91747,1,0,0:0:0:0:
287,12,91862,1,0,0:0:0:0:
116,113,91978,2,0,P|106:182|114:248,1,97.4999955368044
263,190,92208,1,0,0:0:0:0:
257,13,92324,1,0,0:0:0:0:
88,94,92439,6,0,P|73:168|74:307,1,194.999991073609
266,357,92785,1,0,0:0:0:0:
265,161,92901,2,0,P|209:141|152:144,1,97.4999955368044
356,236,93131,1,0,0:0:0:0:
336,25,93247,1,0,0:0:0:0:
139,146,93362,1,0,0:0:0:0:
402,134,93593,6,0,P|450:172|465:243,1,97.4999955368044
245,246,93824,2,0,P|253:185|307:136,1,97.4999955368044
422,322,94055,2,0,P|365:344|296:322,1,97.4999955368044
139,183,94285,6,0,P|174:84|271:38,1,194.999991073609
355,229,94631,1,0,0:0:0:0:
90,308,94747,2,0,P|29:245|37:111,1,194.999991073609
221,9,95093,1,0,0:0:0:0:
254,234,95208,6,0,P|202:225|158:197,1,97.4999955368044
369,254,95439,2,0,P|387:303|384:355,1,97.4999955368044
328,144,95670,2,0,P|361:103|408:79,1,97.4999955368044
301,316,95901,1,0,0:0:0:0:
149,128,96016,1,0,0:0:0:0:
45,348,96131,6,0,P|110:325|162:320,1,97.4999955368044
131,104,96362,2,0,P|66:81|14:76,1,97.4999955368044
264,197,96593,2,0,P|275:174|227:21,1,194.999991073609
152,227,96939,1,0,0:0:0:0:
384,195,97055,2,0,P|446:216|512:321,1,194.999991073609
260,228,97401,1,0,0:0:0:0:
478,59,97516,2,0,P|502:123|500:167,1,97.4999955368044
397,319,97747,2,0,P|373:255|375:211,1,97.4999955368044
188,21,97978,6,0,P|228:108|230:233,1,194.999991073609
103,353,98324,1,0,0:0:0:0:
37,162,98439,2,0,P|115:154|169:171,1,97.4999955368044
294,291,98670,2,0,P|216:299|162:282,1,97.4999955368044
335,197,98901,2,0,B|420:219|376:288|488:325,1,194.999991073609
454,62,99247,1,0,0:0:0:0:
224,204,99362,2,0,P|174:209|108:191,1,97.4999955368044
0,117,99593,1,0,0:0:0:0:
108,295,99708,1,0,0:0:0:0:
196,99,99824,6,0,B|292:70|304:136|401:116,1,194.999991073609
487,244,100170,1,0,0:0:0:0:
465,230,100285,2,0,P|412:208|366:205,1,97.4999955368044
244,348,100516,2,0,P|289:313|315:274,1,97.4999955368044
252,97,100747,6,0,P|259:153|279:195,1,97.4999955368044
481,134,100978,2,0,P|473:77|453:35,1,97.4999955368044
312,280,101208,2,0,P|365:302|411:305,1,97.4999955368044
237,64,101439,2,0,P|191:98|165:137,1,97.4999955368044
346,152,101670,5,0,0:0:0:0:
346,152,101728,1,0,0:0:0:0:
346,152,101785,1,0,0:0:0:0:
123,291,101901,2,0,P|77:256|51:217,1,97.4999955368044
220,218,102131,5,0,0:0:0:0:
255,224,102189,1,0,0:0:0:0:
289,239,102247,1,0,0:0:0:0:
318,261,102305,1,0,0:0:0:0:
345,286,102362,1,0,0:0:0:0:
374,308,102420,1,0,0:0:0:0:
408,321,102478,1,0,0:0:0:0:
444,326,102535,1,0,0:0:0:0:
480,324,102593,6,0,P|496:275|495:223,1,97.4999955368044
302,112,102824,1,0,0:0:0:0:
277,344,102939,1,0,0:0:0:0:
417,98,103055,1,0,0:0:0:0:
123,93,103170,5,0,0:0:0:0:
113,115,103228,1,0,0:0:0:0:
105,138,103285,1,0,0:0:0:0:
99,162,103343,1,0,0:0:0:0:
95,186,103401,1,0,0:0:0:0:
93,210,103458,1,0,0:0:0:0:
95,233,103516,6,0,B|189:259|184:208|279:241,1,165.000005035401
385,345,103978,2,0,P|304:324|219:370,1,165.000005035401
364,214,104439,6,0,P|425:205|458:213,1,82.5000025177003
512,109,104670,2,0,P|451:100|418:108,1,82.5000025177003
304,116,104901,1,0,0:0:0:0:
280,103,105016,1,0,0:0:0:0:
265,83,105131,2,0,P|243:28|242:-7,1,82.5000025177003
143,112,105362,6,0,P|106:158|76:176,1,82.5000025177003
230,203,105593,2,0,P|288:211|319:228,1,82.5000025177003
273,378,105824,2,0,P|251:323|250:288,1,82.5000025177003
416,199,106055,1,0,0:0:0:0:
415,231,106170,1,0,0:0:0:0:
407,257,106285,6,0,P|370:303|340:321,1,82.5000025177003,0|0,2:0|2:0,2:0:0:0:
393,96,106516,2,0,P|451:104|482:121,1,82.5000025177003,0|0,2:0|2:0,2:0:0:0:
289,64,106747,2,0,P|325:17|355:0,1,82.5000025177003,0|0,2:0|2:0,2:0:0:0:
246,172,106978,1,0,0:0:0:0:
151,15,107093,1,0,0:0:0:0:
56,174,107208,6,0,P|45:227|50:364,1,165.000005035401
245,274,107670,2,0,B|342:275|314:213|430:211,1,165.000005035401
479,130,108131,2,0,P|386:100|377:100,1,82.5000025177003
422,319,108362,2,0,P|494:254|498:246,1,82.5000025177003
249,183,108593,1,0,0:0:0:0:
217,182,108708,1,0,0:0:0:0:
193,190,108824,2,0,P|156:217|136:248,1,82.5000025177003
74,341,109055,6,0,P|115:359|152:361,1,82.5000025177003
265,368,109285,2,0,P|260:322|243:289,1,82.5000025177003
56,190,109516,2,0,P|37:146|38:87,1,82.5000025177003
205,52,109747,2,0,P|176:90|124:119,1,82.5000025177003
353,176,109978,6,0,P|324:137|272:108,1,82.5000025177003
434,234,110208,2,0,P|481:228|532:198,1,82.5000025177003
343,275,110439,2,0,P|324:318|325:378,1,82.5000025177003
446,124,110670,1,0,0:0:0:0:
443,343,110785,1,0,0:0:0:0:
231,225,110901,6,0,B|144:217|163:268|65:260,1,165.000005035401
27,14,111362,2,0,P|75:76|93:162,1,165.000005035401
29,351,111824,6,0,P|101:335|129:341,1,82.5000025177003
246,376,112055,2,0,P|196:321|187:294,1,82.5000025177003
309,148,112285,1,0,0:0:0:0:
322,174,112401,1,0,0:0:0:0:
325,200,112516,2,0,P|302:270|283:291,1,82.5000025177003
133,219,112747,6,0,P|205:203|233:209,1,82.5000025177003
20,214,112978,2,0,P|42:143|61:122,1,82.5000025177003
216,66,113208,2,0,P|143:82|116:76,1,82.5000025177003
329,71,113439,2,0,P|306:141|287:162,1,82.5000025177003
434,257,113670,6,0,P|384:202|376:175,1,82.5000025177003
430,102,113901,2,0,P|502:86|529:92,1,82.5000025177003,0|0,2:0|2:0,2:0:0:0:
300,249,114131,2,0,P|227:264|200:258,1,82.5000025177003,0|0,2:0|2:0,2:0:0:0:
188,94,114362,2,0,P|237:148|245:175,1,82.5000025177003,0|0,2:0|2:0,2:0:0:0:
94,345,114593,6,0,P|87:280|158:175,1,165.000005035401
356,327,115055,2,0,B|288:370|261:317|185:352,1,165.000005035401
412,219,115401,1,0,0:0:0:0:
438,237,115516,6,0,P|468:288|472:329,1,82.5000025177003
331,136,115747,2,0,P|301:187|297:228,1,82.5000025177003
448,115,115978,2,0,P|419:49|303:21,1,165.000005035401
73,129,116439,6,0,B|162:133|149:74|253:67,1,165.000005035401
263,328,116901,2,0,P|261:253|226:159,1,165.000005035401
105,336,117362,6,0,P|120:329|181:256,1,82.5000025177003
67,234,117593,2,0,P|76:220|92:126,1,82.5000025177003
189,12,117824,2,0,P|174:19|113:92,1,82.5000025177003
227,114,118055,2,0,P|217:127|201:221,1,82.5000025177003
379,327,118285,5,0,0:0:0:0:
408,100,118401,1,0,0:0:0:0:
396,74,118458,1,0,0:0:0:0:
381,51,118516,1,0,0:0:0:0:
362,31,118574,1,0,0:0:0:0:
339,16,118631,1,0,0:0:0:0:
315,4,118689,1,0,0:0:0:0:
288,0,118747,2,0,P|251:0|216:10,1,56.2500021457673
130,119,118862,5,0,0:0:0:0:
131,161,118920,1,0,0:0:0:0:
146,200,118978,1,0,0:0:0:0:
169,231,119035,1,0,0:0:0:0:
202,255,119093,1,0,0:0:0:0:
241,269,119151,1,0,0:0:0:0:
283,275,119208,2,0,P|341:271|380:251,1,82.5000025177003
219,114,119439,5,0,0:0:0:0:
121,324,119555,1,0,0:0:0:0:
2,140,119670,1,0,0:0:0:0:
220,356,119785,1,0,0:0:0:0:
301,62,119901,1,0,0:0:0:0:
61,219,120016,1,0,0:0:0:0:
339,344,120131,6,0,P|420:349|468:328,1,97.4999955368044
193,235,120362,1,0,0:0:0:0:
359,181,120478,2,0,P|406:172|454:180,1,97.4999955368044
175,254,120708,1,0,0:0:0:0:
291,124,120824,2,0,P|328:92|373:75,1,97.4999955368044
168,279,121055,1,0,0:0:0:0:
204,108,121170,2,0,P|220:62|251:24,1,97.4999955368044
167,306,121401,5,0,0:0:0:0:
16,175,121516,1,0,0:0:0:0:
218,201,121631,1,0,0:0:0:0:
76,369,121747,1,0,0:0:0:0:
118,153,121862,1,0,0:0:0:0:
286,301,121978,6,0,P|375:321|416:318,1,97.4999955368044
510,137,122208,1,0,0:0:0:0:
299,101,122324,2,0,P|237:168|219:205,1,97.4999955368044
478,137,122555,1,0,0:0:0:0:
313,0,122670,2,0,P|225:27|191:50,1,97.4999955368044
187,235,122901,1,0,0:0:0:0:
386,161,123016,2,0,P|406:72|402:31,1,97.4999955368044
203,133,123247,5,0,0:0:0:0:
361,285,123362,1,0,0:0:0:0:
299,99,123478,1,0,0:0:0:0:
256,328,123593,1,0,0:0:0:0:
187,109,123708,1,0,0:0:0:0:
382,302,123824,6,0,P|441:320|483:315,1,97.4999955368044
433,80,124055,1,0,0:0:0:0:
256,221,124170,2,0,P|197:239|155:234,1,97.4999955368044
125,31,124401,1,0,0:0:0:0:
325,97,124516,2,0,P|370:139|386:177,1,97.4999955368044
279,0,124747,1,0,0:0:0:0:
138,157,124862,2,0,P|120:216|125:258,1,97.4999955368044
218,345,125093,5,0,0:0:0:0:
218,90,125208,1,0,0:0:0:0:
0,195,125324,1,0,0:0:0:0:
234,192,125439,1,0,0:0:0:0:
113,8,125555,1,0,0:0:0:0:
130,271,125670,5,0,0:0:0:0:
325,144,125785,1,0,0:0:0:0:
111,285,125901,1,0,0:0:0:0:
342,132,126016,1,0,0:0:0:0:
93,298,126131,6,0,B|52:187|114:202|76:77,1,194.999991073609
205,211,126478,1,0,0:0:0:0:
261,59,126593,2,0,P|322:27|352:26,1,97.4999955368044
437,294,126824,6,0,P|374:231|342:108,1,194.999991073609
490,216,127170,1,0,0:0:0:0:
254,325,127285,1,0,0:0:0:0:
220,333,127343,1,0,0:0:0:0:
186,336,127401,1,0,0:0:0:0:
152,335,127458,1,0,0:0:0:0:
121,327,127516,6,0,P|62:300|22:268,1,97.4999955368044
7,72,127747,1,0,0:0:0:0:
205,132,127862,2,0,P|211:196|203:247,1,97.4999955368044
9,99,128093,1,0,0:0:0:0:
244,19,128208,2,0,P|281:71|300:119,1,97.4999955368044
246,335,128439,1,0,0:0:0:0:
63,177,128555,2,0,P|90:118|122:78,1,97.4999955368044
381,162,128785,5,0,0:0:0:0:
255,356,128901,1,0,0:0:0:0:
164,159,129016,1,0,0:0:0:0:
382,299,129131,1,0,0:0:0:0:
275,103,129247,1,0,0:0:0:0:
112,302,129362,6,0,P|26:318|-15:309,1,97.4999955368044
91,71,129593,1,0,0:0:0:0:
257,234,129708,2,0,P|273:320|263:361,1,97.4999955368044
348,88,129939,1,0,0:0:0:0:
126,175,130055,2,0,P|110:261|119:302,1,97.4999955368044
343,60,130285,1,0,0:0:0:0:
64,84,130401,2,0,P|7:150|-5:190,1,97.4999955368044
243,239,130631,5,0,0:0:0:0:
181,31,130747,1,0,0:0:0:0:
87,272,130862,1,0,0:0:0:0:
351,238,130978,2,0,P|424:251|464:278,1,97.4999955368044
367,92,131208,6,0,P|294:105|254:132,1,97.4999955368044
177,326,131439,1,0,0:0:0:0:
23,117,131555,2,0,P|96:130|136:157,1,97.4999955368044
280,320,131785,1,0,0:0:0:0:
145,43,131901,2,0,P|201:90|222:134,1,97.4999955368044
289,343,132131,1,0,0:0:0:0:
441,159,132247,2,0,P|452:85|438:32,1,97.4999955368044
257,108,132478,5,0,0:0:0:0:
425,275,132593,1,0,0:0:0:0:
310,36,132708,1,0,0:0:0:0:
170,249,132824,1,0,0:0:0:0:
346,117,132939,1,0,0:0:0:0:
148,31,133055,5,0,0:0:0:0:
123,33,133112,1,0,0:0:0:0:
99,38,133170,1,0,0:0:0:0:
76,46,133228,1,0,0:0:0:0:
54,56,133285,2,0,P|29:74|14:93,1,48.7499977684022
63,171,133401,2,0,P|90:160|119:155,1,48.7499977684022
64,270,133516,2,0,B|184:242|169:329|280:299,1,225.000008583069
424,359,133862,1,0,0:0:0:0:
437,107,133978,6,0,P|406:205|405:256,1,112.500004291535
340,39,134208,2,0,B|230:28|241:102|126:98,1,225.000008583069
21,42,134555,1,0,0:0:0:0:
154,232,134670,1,0,0:0:0:0:
141,84,134785,1,0,0:0:0:0:
56,333,134901,6,0,P|112:317|171:323,1,97.4999955368044
309,350,135131,2,0,P|264:290|249:138,1,194.999991073609
430,139,135478,1,0,0:0:0:0:
426,168,135593,2,0,P|369:197|308:198,1,97.4999955368044
241,50,135824,6,0,P|295:84|326:136,1,97.4999955368044
58,251,136055,2,0,P|122:184|240:151,1,194.999991073609
256,365,136401,1,0,0:0:0:0:
227,353,136516,2,0,P|195:289|193:233,1,97.4999955368044
37,125,136747,6,0,P|69:189|71:245,1,97.4999955368044
178,123,136978,2,0,B|264:81|289:145|368:108,1,194.999991073609
442,26,137324,1,0,0:0:0:0:
398,307,137439,2,0,P|304:281|230:200,1,194.999991073609
147,26,137785,1,0,0:0:0:0:
21,208,137901,2,0,P|88:227|155:218,1,97.4999955368044
213,121,138131,1,0,0:0:0:0:
196,347,138247,1,0,0:0:0:0:
237,145,138362,1,0,0:0:0:0:
225,324,138478,1,0,0:0:0:0:
392,252,138593,6,0,P|459:251|521:272,1,97.4999955368044
405,90,138824,2,0,B|315:97|299:28|215:36,1,194.999991073609
50,54,139170,1,0,0:0:0:0:
132,180,139285,2,0,P|139:270|75:346,1,194.999991073609
41,146,139631,1,0,0:0:0:0:
234,201,139747,2,0,P|289:200|339:177,1,97.4999955368044
434,67,139978,1,0,0:0:0:0:
401,250,140093,1,0,0:0:0:0:
465,61,140208,1,0,0:0:0:0:
430,260,140324,1,0,0:0:0:0:
255,103,140439,6,0,P|185:99|134:109,1,97.4999955368044
17,342,140670,2,0,P|67:252|75:157,1,194.999991073609
38,42,141016,1,0,0:0:0:0:
202,200,141131,2,0,B|305:239|310:169|406:199,1,194.999991073609
491,302,141478,1,0,0:0:0:0:
486,98,141593,2,0,P|413:67|355:70,1,97.4999955368044
179,27,141824,2,0,P|252:58|310:55,1,97.4999955368044
107,146,142055,2,0,P|43:193|17:245,1,97.4999955368044
272,366,142285,6,0,P|210:272|117:255,1,194.999991073609
43,323,142631,1,0,0:0:0:0:
288,213,142747,2,0,B|370:211|392:296|477:281,1,194.999991073609
440,3,143093,1,0,0:0:0:0:
220,121,143208,6,0,P|181:169|174:226,1,97.4999955368044
346,100,143439,2,0,P|323:42|278:7,1,97.4999955368044
58,217,143670,2,0,P|80:274|125:309,1,97.4999955368044
103,113,143901,2,0,P|41:103|-10:125,1,97.4999955368044
204,333,144131,6,0,B|310:345|310:283|401:289,1,194.999991073609
510,348,144478,1,0,0:0:0:0:
290,138,144593,2,0,P|247:185|233:239,1,97.4999955368044
418,136,144824,2,0,P|398:75|359:36,1,97.4999955368044
120,57,145055,6,0,P|105:139|130:272,1,194.999991073609
254,351,145401,1,0,0:0:0:0:
305,163,145516,2,0,P|213:163|183:178,1,97.4999955368044
396,258,145747,2,0,P|442:178|444:144,1,97.4999955368044
332,35,145978,6,0,B|218:16|238:90|132:74,1,194.999991073609
18,26,146324,1,0,0:0:0:0:
95,198,146439,2,0,P|96:251|79:312,1,97.4999955368044
225,91,146670,2,0,P|224:144|241:205,1,97.4999955368044
396,337,146901,6,0,P|397:253|340:145,1,194.999991073609
195,74,147247,1,0,0:0:0:0:
438,52,147362,2,0,P|464:122|466:178,1,97.4999955368044
271,357,147593,2,0,P|279:309|299:264,1,97.4999955368044
92,167,147824,6,0,B|88:265|150:238|144:351,1,194.999991073609
197,186,148170,1,0,0:0:0:0:
32,319,148285,1,0,0:0:0:0:
5,99,148401,1,0,0:0:0:0:
230,279,148516,1,0,0:0:0:0:
213,21,148631,1,0,0:0:0:0:
8,213,148747,5,0,0:0:0:0:
97,28,148862,1,0,0:0:0:0:
326,307,148978,1,0,0:0:0:0:
402,106,149093,1,0,0:0:0:0:
158,338,149208,1,0,0:0:0:0:
253,126,149324,1,0,0:0:0:0:
413,319,149439,1,0,0:0:0:0:
410,294,149497,1,0,0:0:0:0:
405,270,149555,1,0,0:0:0:0:
399,247,149612,1,0,0:0:0:0:
389,221,149670,6,0,B|274:176|257:280|83:243,1,300
66,94,150593,2,0,P|113:10|157:141,1,300
13,295,151516,2,0,P|92:333|313:279,1,300
392,127,152324,1,0,0:0:0:0:
368,125,152381,1,0,0:0:0:0:
349,128,152439,6,0,P|320:164|302:218,1,75
428,322,152670,2,0,P|410:279|372:236,1,75
160,141,152901,1,0,0:0:0:0:
108,158,153016,1,0,0:0:0:0:
76,182,153131,1,0,0:0:0:0:
54,205,153247,1,0,0:0:0:0:
46,224,153362,6,0,B|206:220|179:315|333:316,1,300
512,162,154285,2,0,P|389:106|288:231,1,300
0,87,155208,2,0,P|123:31|224:156,1,300
129,274,156131,5,0,0:0:0:0:
129,274,156189,1,0,0:0:0:0:
129,274,156247,1,0,0:0:0:0:
106,141,156362,1,0,0:0:0:0:
0,217,156478,1,0,0:0:0:0:
148,251,156593,5,0,0:0:0:0:
79,135,156708,1,0,0:0:0:0:
7,244,156824,1,0,0:0:0:0:
151,222,156939,1,0,0:0:0:0:
104,356,157055,6,0,B|222:286|281:401|415:338,1,300
463,147,157978,2,0,P|494:229|487:315,1,150
387,60,158439,2,0,P|356:142|363:228,1,150
274,34,158901,6,0,P|212:42|122:88,1,150
159,310,159362,2,0,P|183:252|188:151,1,150
65,223,159708,1,0,0:0:0:0:
65,223,159766,1,0,0:0:0:0:
65,223,159824,6,0,P|44:287|41:309,1,75
311,286,160055,2,0,P|302:249|288:214,1,75
156,169,160285,1,0,0:0:0:0:
254,363,160401,1,0,0:0:0:0:
358,161,160516,1,0,0:0:0:0:
169,272,160631,1,0,0:0:0:0:
373,362,160747,6,0,P|439:366|504:348,1,97.4999955368044
487,144,160978,2,0,P|421:140|356:158,1,97.4999955368044
297,280,161208,2,0,P|231:284|166:266,1,97.4999955368044
183,62,161439,2,0,P|249:58|314:76,1,97.4999955368044
52,84,161670,6,0,P|15:28|-1:-36,1,97.4999955368044
57,284,161901,2,0,P|93:228|110:163,1,97.4999955368044
317,183,162131,2,0,P|251:179|186:197,1,97.4999955368044
226,363,162362,2,0,P|291:367|357:349,1,97.4999955368044
472,163,162593,6,0,P|442:103|394:56,1,97.4999955368044
186,73,162824,2,0,P|149:128|132:193,1,97.4999955368044
239,326,163055,2,0,P|209:266|161:219,1,97.4999955368044
0,245,163285,2,0,P|65:249|131:231,1,97.4999955368044
284,146,163516,5,0,0:0:0:0:
204,328,163631,1,0,0:0:0:0:
79,161,163747,1,0,0:0:0:0:
312,255,163862,1,0,0:0:0:0:
275,24,163978,2,0,P|201:9|173:12,1,97.4999955368044
315,153,164208,2,0,P|363:153|410:139,1,97.4999955368044
331,352,164439,6,0,P|299:311|286:235,1,97.4999955368044
202,190,164670,2,0,P|182:238|123:287,1,97.4999955368044
0,176,164901,2,0,P|51:168|123:195,1,97.4999955368044
75,366,165131,1,0,0:0:0:0:
166,91,165247,1,0,0:0:0:0:
166,91,165305,1,0,0:0:0:0:
166,91,165362,6,0,P|250:99|282:126,1,97.4999955368044
348,240,165593,1,0,0:0:0:0:
432,108,165708,1,0,0:0:0:0:
422,314,165824,1,0,0:0:0:0:
394,326,165881,1,0,0:0:0:0:
364,334,165939,1,0,0:0:0:0:
334,333,165997,1,0,0:0:0:0:
304,326,166055,1,0,0:0:0:0:
275,317,166112,1,0,0:0:0:0:
245,315,166170,1,0,0:0:0:0:
215,321,166228,1,0,0:0:0:0:
187,332,166285,6,0,P|165:182|117:68,1,225.000008583069
18,29,166631,1,0,0:0:0:0:
19,293,166747,2,0,P|76:239|93:181,1,112.500004291535
145,25,166978,1,0,0:0:0:0:
260,209,167093,1,0,0:0:0:0:
181,23,167208,1,0,0:0:0:0:
230,220,167324,1,0,0:0:0:0:
389,90,167439,6,0,P|455:83|520:91,1,112.500004291535
341,191,167670,2,0,P|385:225|422:267,1,112.500004291535
230,220,167901,2,0,P|236:286|229:351,1,112.500004291535
0,229,168131,6,0,P|21:118|81:25,1,225.000008583069
148,321,168478,1,0,0:0:0:0:
133,303,168593,2,0,P|112:248|104:183,1,112.500004291535
309,141,168824,2,0,P|271:186|219:226,1,112.500004291535
271,46,169055,6,0,B|399:25|377:122|484:115,1,225.000008583069
467,13,169401,1,0,0:0:0:0:
207,127,169516,1,0,0:0:0:0:
422,276,169631,1,0,0:0:0:0:
170,34,169747,1,0,0:0:0:0:
141,34,169805,1,0,0:0:0:0:
114,38,169862,1,0,0:0:0:0:
87,46,169920,1,0,0:0:0:0:
63,61,169978,6,0,B|28:143|48:288,1,225.000008583069
267,274,170324,1,0,0:0:0:0:
254,253,170439,2,0,P|177:258|118:287,1,112.500004291535
101,360,170670,1,0,0:0:0:0:
251,131,170785,1,0,0:0:0:0:
391,366,170901,1,0,0:0:0:0:
323,50,171131,6,0,P|256:24|205:30,1,112.500004291535
177,211,171362,2,0,P|233:165|253:118,1,112.500004291535
111,5,171593,2,0,P|121:76|152:117,1,112.500004291535,0|0,2:0|2:0,2:0:0:0:
273,267,171824,6,0,P|165:318|64:236,1,225.000008583069
351,148,172170,1,0,0:0:0:0:
374,162,172285,2,0,P|394:232|383:383,1,225.000008583069
329,53,172631,1,0,0:0:0:0:
358,45,172747,6,0,P|437:65|469:101,1,112.500004291535
234,116,172978,2,0,P|211:37|226:-8,1,112.500004291535
355,149,173208,1,0,0:0:0:0:
136,287,173324,1,0,0:0:0:0:
125,52,173439,1,0,0:0:0:0:
294,237,173555,1,0,0:0:0:0:
33,295,173670,6,0,P|18:214|26:157,1,112.500004291535
159,50,173901,2,0,P|174:131|166:188,1,112.500004291535
278,349,174131,2,0,P|263:268|271:211,1,112.500004291535
454,183,174362,2,0,P|469:264|461:321,1,112.500004291535
257,124,174593,6,0,B|381:141|365:51|478:68,1,225.000008583069
313,288,174939,1,0,0:0:0:0:
170,56,175055,2,0,P|263:22|306:37,1,112.500004291535
106,212,175285,1,0,0:0:0:0:
27,13,175401,1,0,0:0:0:0:
222,214,175516,6,0,P|199:280|22:278,1,225.000008583069
142,77,175862,1,0,0:0:0:0:
321,245,175978,2,0,P|335:321|331:373,1,112.500004291535
500,108,176208,1,0,0:0:0:0:
420,304,176324,1,0,0:0:0:0:
277,136,176439,6,0,P|211:136|71:228,1,225.000008583069
61,320,176785,1,0,0:0:0:0:
31,44,176901,2,0,P|100:52|151:75,1,112.500004291535
281,274,177131,2,0,P|212:266|161:243,1,112.500004291535
378,42,177362,6,0,P|421:123|432:272,1,225.000008583069
366,362,177708,1,0,0:0:0:0:
210,182,177824,2,0,P|141:162|-15:225,1,225.000008583069
36,309,178170,1,0,0:0:0:0:
186,74,178285,6,0,B|283:56|304:144|403:122,1,225.000008583069
485,33,178631,1,0,0:0:0:0:
255,281,178747,2,0,P|219:231|211:163,1,112.500004291535
378,296,178978,2,0,P|352:352|297:393,1,112.500004291535
187,375,179208,5,0,0:0:0:0:
187,375,179266,1,0,0:0:0:0:
187,375,179324,1,0,0:0:0:0:
328,178,179439,1,0,0:0:0:0:
86,143,179555,1,0,0:0:0:0:
256,280,179670,1,0,0:0:0:0:
281,47,179785,1,0,0:0:0:0:
160,230,179901,1,0,0:0:0:0:
395,263,180016,1,0,0:0:0:0:
120,52,180131,5,0,0:0:0:0:
83,354,180247,1,0,0:0:0:0:
356,157,180362,2,0,P|421:152|478:171,1,112.500004291535
256,325,180593,1,0,0:0:0:0:
249,53,180708,1,0,0:0:0:0:
16,214,180824,1,0,0:0:0:0:
26,58,180939,1,0,0:0:0:0:
166,163,181055,6,0,B|263:190|252:128|359:160,1,165.000005035401
456,300,181516,2,0,P|364:292|305:249,1,165.000005035401
433,123,181978,6,0,P|431:183|417:225,1,82.5000025177003
337,43,182208,2,0,P|389:14|433:5,1,82.5000025177003
226,142,182439,1,0,0:0:0:0:
211,111,182555,1,0,0:0:0:0:
211,82,182670,2,0,P|228:24|252:-12,1,82.5000025177003
80,104,182901,6,0,P|21:117|-22:114,1,82.5000025177003
165,207,183131,2,0,P|206:250|225:290,1,82.5000025177003
83,377,183362,2,0,P|100:319|124:282,1,82.5000025177003
297,211,183593,1,0,0:0:0:0:
326,227,183708,1,0,0:0:0:0:
348,251,183824,6,0,P|366:287|376:327,1,82.5000025177003
491,146,184055,2,0,P|472:182|462:222,1,82.5000025177003
336,13,184285,1,0,0:0:0:0:
380,153,184401,1,0,0:0:0:0:
308,12,184516,1,0,0:0:0:0:
405,148,184631,1,0,0:0:0:0:
235,151,184747,6,0,B|153:159|169:217|69:221,1,165.000005035401
0,7,185208,2,0,P|61:45|92:141,1,165.000005035401
46,306,185670,6,0,P|7:264|-1:212,1,82.5000025177003
143,308,185901,2,0,P|134:348|109:380,1,82.5000025177003
160,198,186131,1,0,0:0:0:0:
194,210,186247,1,0,0:0:0:0:
220,232,186362,2,0,P|242:266|247:306,1,82.5000025177003
442,327,186593,6,0,P|401:329|364:313,1,82.5000025177003
327,210,186824,2,0,P|345:173|377:149,1,82.5000025177003
473,101,187055,1,0,0:0:0:0:
454,72,187170,1,0,0:0:0:0:
424,56,187285,2,0,P|385:43|345:49,1,82.5000025177003
207,118,187516,6,0,P|166:123|127:111,1,82.5000025177003
16,5,187747,2,0,P|41:37|50:77,1,82.5000025177003
28,230,187978,1,0,0:0:0:0:
181,35,188093,1,0,0:0:0:0:
258,266,188208,1,0,0:0:0:0:
44,106,188324,1,0,0:0:0:0:
290,11,188439,6,0,B|361:15|356:91|453:80,1,165.000005035401
274,107,188901,2,0,P|252:157|261:274,1,165.000005035401
407,349,189362,6,0,P|353:297|319:284,1,82.5000025177003
164,293,189593,2,0,P|130:317|105:349,1,82.5000025177003
2,181,189824,1,0,0:0:0:0:
30,157,189939,1,0,0:0:0:0:
62,148,190055,2,0,P|96:171|121:203,1,82.5000025177003
274,31,190285,6,0,P|184:33|110:80,1,165.000005035401
328,125,190631,1,0,0:0:0:0:
353,110,190747,2,0,P|384:48|381:1,1,82.5000025177003
512,173,190978,2,0,P|454:134|433:92,1,82.5000025177003
409,287,191208,6,0,P|378:225|381:178,1,82.5000025177003
250,350,191439,2,0,P|307:311|328:269,1,82.5000025177003
208,169,191670,2,0,P|212:238|238:277,1,82.5000025177003
302,197,191901,1,0,0:0:0:0:
139,75,192016,1,0,0:0:0:0:
77,276,192131,6,0,P|53:203|44:93,1,165.000005035401
295,93,192593,2,0,B|386:91|370:161|463:151,1,165.000005035401
451,55,192939,1,0,0:0:0:0:
486,245,193055,6,0,P|483:310|466:360,1,82.5000025177003
309,276,193285,2,0,P|301:235|301:194,1,82.5000025177003
158,66,193516,2,0,P|196:79|232:100,1,82.5000025177003
181,302,193747,1,0,0:0:0:0:
25,191,193862,1,0,0:0:0:0:
20,174,193920,1,0,0:0:0:0:
22,158,193978,6,0,P|29:86|43:45,1,82.5000025177003
261,120,194208,2,0,P|254:192|240:233,1,82.5000025177003
380,32,194439,2,0,P|404:151|400:219,1,165.000005035401
340,345,194785,1,0,0:0:0:0:
361,331,194901,6,0,P|435:327|476:344,1,82.5000025177003
235,221,195131,2,0,P|161:217|120:234,1,82.5000025177003
56,362,195362,2,0,B|88:278|24:276|49:189,1,165.000005035401
168,55,195708,1,0,0:0:0:0:
250,243,195824,5,0,0:0:0:0:
275,266,195881,1,0,0:0:0:0:
303,285,195939,1,0,0:0:0:0:
334,300,195997,1,0,0:0:0:0:
367,310,196055,1,0,0:0:0:0:
401,316,196112,1,0,0:0:0:0:
435,316,196170,2,0,P|497:293|516:273,1,56.2500021457673
508,107,196285,5,0,0:0:0:0:
492,105,196343,1,0,0:0:0:0:
477,105,196401,1,0,0:0:0:0:
462,108,196458,1,0,0:0:0:0:
447,113,196516,1,0,0:0:0:0:
433,120,196574,1,0,0:0:0:0:
421,129,196631,1,0,0:0:0:0:
410,140,196689,1,0,0:0:0:0:
401,155,196747,6,0,P|389:200|391:225,3,56.2500021457673
309,167,196978,2,0,P|276:199|265:222,3,56.2500021457673
209,363,197208,5,0,0:0:0:0:
195,153,197324,1,0,0:0:0:0:
0,265,197439,1,0,0:0:0:0:
4,223,197497,1,0,0:0:0:0:
10,181,197555,1,0,0:0:0:0:
19,140,197612,1,0,0:0:0:0:
30,100,197670,6,0,B|146:128|119:33|255:70,1,225.000008583069
407,175,198016,1,0,0:0:0:0:
229,256,198131,2,0,P|199:203|195:145,1,112.500004291535
436,187,198362,2,0,P|429:242|401:290,1,112.500004291535
325,114,198593,5,0,0:0:0:0:
512,96,198708,1,0,0:0:0:0:
311,237,198824,1,0,0:0:0:0:
283,11,198939,1,0,0:0:0:0:
482,250,199055,1,0,0:0:0:0:
457,2,199170,1,0,0:0:0:0:
290,261,199285,2,0,P|210:289|174:288,1,112.500004291535
10,62,199516,6,0,P|101:96|147:223,1,225.000008583069
9,197,199862,1,0,0:0:0:0:
229,113,199978,2,0,P|294:117|344:143,1,112.500004291535
292,327,200208,2,0,P|262:268|260:212,1,112.500004291535
446,166,200439,6,0,P|410:220|362:250,1,112.500004291535
155,190,200670,1,0,0:0:0:0:
317,21,200785,1,0,0:0:0:0:
423,338,200901,1,0,0:0:0:0:
248,134,201016,1,0,0:0:0:0:
508,84,201131,1,0,0:0:0:0:
304,311,201247,1,0,0:0:0:0:
174,39,201362,6,0,B|70:72|117:172|-2:189,1,225.000008583069
28,29,201708,1,0,0:0:0:0:
126,226,201824,2,0,P|128:291|112:346,1,112.500004291535
338,290,202055,2,0,P|282:286|227:299,1,112.500004291535
475,339,202285,6,0,P|405:202|336:174,1,225.000008583069
236,211,202631,1,0,0:0:0:0:
477,56,202747,2,0,P|492:120|485:167,1,112.500004291535
170,62,202978,1,0,0:0:0:0:
195,52,203035,1,0,0:0:0:0:
223,46,203093,1,0,0:0:0:0:
251,46,203151,1,0,0:0:0:0:
275,49,203208,6,0,P|335:79|367:116,1,112.500004291535
225,320,203439,2,0,P|220:253|237:206,1,112.500004291535
65,101,203670,2,0,P|69:167|52:214,1,112.500004291535
340,278,203901,2,0,P|395:283|449:267,1,112.500004291535
203,80,204131,6,0,P|147:74|93:90,1,112.500004291535
375,117,204362,2,0,P|380:61|364:7,1,112.500004291535
160,238,204593,2,0,P|154:293|170:347,1,112.500004291535
235,68,204824,1,0,0:0:0:0:
13,214,204939,1,0,0:0:0:0:
268,313,205055,6,0,B|396:339|368:259|491:286,1,225.000008583069
512,27,205401,1,0,0:0:0:0:
282,108,205516,2,0,P|288:166|310:235,1,112.500004291535
28,337,205747,2,0,P|43:282|48:227,1,112.500004291535
150,16,205978,6,0,P|156:74|178:143,1,112.500004291535
170,356,206208,2,0,P|185:301|190:246,1,112.500004291535
38,106,206439,1,0,0:0:0:0:
273,311,206555,1,0,0:0:0:0:
325,41,206670,1,0,0:0:0:0:
104,238,206785,1,0,0:0:0:0:
384,348,206901,6,0,P|397:268|394:208,1,112.500004291535
507,49,207131,2,0,P|494:129|497:189,1,112.500004291535
296,38,207362,2,0,B|189:49|209:128|83:127,1,225.000008583069
15,17,207708,1,0,0:0:0:0:
300,163,207824,6,0,P|320:215|329:270,1,112.500004291535
104,350,208055,2,0,P|113:294|133:242,1,112.500004291535
380,87,208285,1,0,0:0:0:0:
376,346,208401,1,0,0:0:0:0:
148,102,208516,1,0,0:0:0:0:
457,15,208631,1,0,0:0:0:0:
277,277,208747,6,0,B|177:310|139:223|51:268,1,225.000008583069
180,13,209093,1,0,0:0:0:0:
379,229,209208,2,0,P|390:285|369:360,1,112.500004291535
197,140,209439,1,0,0:0:0:0:
475,88,209555,1,0,0:0:0:0:
249,218,209670,1,0,0:0:0:0:
423,14,209785,1,0,0:0:0:0:
512,298,209901,5,0,0:0:0:0:
471,286,209958,1,0,0:0:0:0:
429,284,210016,1,0,0:0:0:0:
388,293,210074,1,0,0:0:0:0:
349,309,210131,1,0,0:0:0:0:
310,324,210189,1,0,0:0:0:0:
268,331,210247,1,0,0:0:0:0:
226,327,210305,1,0,0:0:0:0:
187,314,210362,2,0,P|132:251|128:196,1,112.500004291535
357,25,210593,6,0,P|336:121|229:224,1,225.000008583069
87,51,210939,1,0,0:0:0:0:
446,154,211055,2,0,P|468:212|471:289,1,112.500004291535
194,339,211285,2,0,P|200:283|221:231,1,112.500004291535
386,58,211516,5,0,0:0:0:0:
306,316,211631,1,0,0:0:0:0:
108,119,211747,1,0,0:0:0:0:
361,221,211862,1,0,0:0:0:0:
97,288,211978,1,0,0:0:0:0:
142,37,212093,1,0,0:0:0:0:
92,317,212208,1,0,0:0:0:0:
148,6,212324,1,0,0:0:0:0:
463,261,212439,6,0,P|445:143|396:33,1,225.000008583069
128,151,212785,1,0,0:0:0:0:
338,330,212901,2,0,P|360:248|358:186,1,112.500004291535
46,224,213131,2,0,P|51:279|69:333,1,112.500004291535
106,59,213362,6,0,P|54:35|0:24,1,112.500004291535
218,193,213593,2,0,P|263:160|301:118,1,112.500004291535
379,17,213824,1,0,0:0:0:0:
469,258,213939,1,0,0:0:0:0:
200,88,214055,1,0,0:0:0:0:
473,70,214170,1,0,0:0:0:0:
319,313,214285,6,0,B|206:344|92:307,1,225.000008583069
26,32,214631,1,0,0:0:0:0:
311,120,214747,2,0,P|293:188|242:257,1,112.500004291535
32,152,214978,2,0,P|99:133|185:143,1,112.500004291535
346,323,215208,6,0,P|278:341|192:331,1,112.500004291535
297,88,215439,1,0,0:0:0:0:
509,288,215555,1,0,0:0:0:0:
461,32,215670,1,0,0:0:0:0:
318,337,215785,1,0,0:0:0:0:
512,105,215901,1,0,0:0:0:0:
212,52,216016,1,0,0:0:0:0:
212,52,216074,1,0,0:0:0:0:
212,52,216131,6,0,P|133:51|74:67,1,112.500004291535
29,264,216362,2,0,P|108:265|167:249,1,112.500004291535
293,135,216593,2,0,P|372:134|431:150,1,112.500004291535
479,345,216824,2,0,P|400:346|341:330,1,112.500004291535
96,177,217055,6,0,P|94:94|98:37,1,112.500004291535
328,15,217285,2,0,P|330:98|326:155,1,112.500004291535
215,319,217516,2,0,P|213:236|217:179,1,112.500004291535
447,157,217747,2,0,P|449:240|445:297,1,112.500004291535
255,72,217978,6,0,B|121:51|151:129|25:114,1,225.000008583069
67,12,218324,1,0,0:0:0:0:
208,172,218439,2,0,P|217:265|201:300,1,112.500004291535
11,284,218670,2,0,P|87:229|125:226,1,112.500004291535
299,331,218901,6,0,B|418:349|398:246|525:270,1,225.000008583069
326,89,219247,1,0,0:0:0:0:
311,114,219362,2,0,P|303:187|317:233,1,112.500004291535
418,159,219593,1,0,0:0:0:0:
170,57,219708,1,0,0:0:0:0:
210,311,219824,6,0,P|275:341|425:283,1,225.000008583069
206,63,220170,1,0,0:0:0:0:
108,323,220285,2,0,P|44:343|0:335,1,112.500004291535
80,143,220516,2,0,P|129:188|144:230,1,112.500004291535
236,67,220747,6,0,B|354:68|330:146|466:141,1,225.000008583069
368,0,221093,1,0,0:0:0:0:
304,214,221208,1,0,0:0:0:0:
391,14,221324,1,0,0:0:0:0:
337,223,221439,1,0,0:0:0:0:
512,55,221555,1,0,0:0:0:0:
191,13,221670,6,0,P|168:112|149:264,1,225.000008583069
184,355,222016,1,0,0:0:0:0:
14,213,222131,2,0,P|0:122|7:82,1,112.500004291535
306,222,222362,2,0,P|307:278|294:332,1,112.500004291535
191,36,222593,6,0,P|297:44|404:120,1,225.000008583069
408,348,222939,1,0,0:0:0:0:
179,239,223055,2,0,P|202:156|240:90,1,112.500004291535
424,115,223285,2,0,P|445:166|458:221,1,112.500004291535
11,352,223516,6,0,B|111:244|14:248|112:124,1,225.000008583069
290,64,223862,1,0,0:0:0:0:
278,316,223978,2,0,P|206:299|160:263,1,112.500004291535
421,258,224208,2,0,P|442:328|434:386,1,112.500004291535
295,176,224439,6,0,P|345:122|399:100,1,112.500004291535
99,57,224670,2,0,P|149:110|203:132,1,112.500004291535
33,249,224901,1,0,0:0:0:0:
0,80,225016,1,0,0:0:0:0:
65,255,225131,1,0,0:0:0:0:
26,97,225247,1,0,0:0:0:0:
98,265,225362,6,0,B|213:286|166:343|297:363,1,225.000008583069
435,226,225708,1,0,0:0:0:0:
407,219,225824,2,0,P|318:234|287:256,1,112.500004291535
403,75,226055,2,0,P|492:90|523:112,1,112.500004291535
229,38,226285,6,0,P|281:111|287:149,1,112.500004291535
136,339,226516,5,0,0:0:0:0:
149,93,226631,1,0,0:0:0:0:
372,226,226747,5,0,0:0:0:0:
11,191,226862,1,0,0:0:0:0:
333,2,226978,5,0,0:0:0:0:
363,359,227093,1,0,0:0:0:0:
223,186,227208,6,0,L|242:110,2,75
108,190,227901,2,0,L|32:171,2,75
112,305,228593,2,0,L|93:381,2,75
227,301,229285,2,0,L|303:320,2,75
413,219,229978,6,0,L|337:238,1,75
253,127,230439,2,0,L|325:145,1,75
511,98,230901,6,0,P|469:94|423:107,2,75
322,71,231593,2,0,P|318:113|331:159,2,75
290,254,232285,2,0,P|332:258|378:245,2,75
479,281,232978,2,0,P|483:239|470:193,2,75
360,324,233670,6,0,P|356:282|369:236,1,75
282,116,234131,2,0,P|286:158|273:204,1,75
194,310,234593,6,0,L|107:285,2,75
37,137,235285,2,0,L|58:224,2,75
289,237,235978,2,0,L|202:212,2,75
132,64,236670,2,0,L|153:151,2,75
287,99,237362,6,0,L|374:124,1,75
502,21,237824,2,0,L|415:46,1,75
457,143,238285,6,0,L|481:222,2,75
362,351,238978,2,0,L|386:272,2,75
280,135,239670,2,0,L|304:214,2,75
185,343,240362,2,0,L|209:264,2,75
77,283,241055,5,0,0:0:0:0:
40,212,241285,1,0,0:0:0:0:
32,165,241516,1,0,0:0:0:0:
34,130,241747,1,0,0:0:0:0:
41,108,241978,6,0,L|65:34,2,75
155,184,242670,1,0,0:0:0:0:
155,184,242901,2,0,L|138:107,1,75
271,27,243362,2,0,L|254:103,1,75
280,227,243824,5,0,0:0:0:0:
324,292,244055,1,0,0:0:0:0:
368,317,244285,1,0,0:0:0:0:
403,330,244516,1,0,0:0:0:0:
423,332,244747,2,0,L|496:309,1,75
475,133,245208,1,0,0:0:0:0:
475,133,245439,6,0,L|458:207,1,75
342,50,245901,1,0,0:0:0:0:
342,50,246131,2,0,L|358:124,1,75
336,257,246593,5,0,0:0:0:0:
263,287,246824,1,0,0:0:0:0:
213,284,247055,1,0,0:0:0:0:
176,276,247285,1,0,0:0:0:0:
158,267,247516,6,0,L|136:187,1,75
0,101,247978,2,0,L|80:121,1,75
222,47,248439,2,0,L|163:106,1,75
327,26,248901,1,0,0:0:0:0:
327,26,249131,6,0,L|407:46,1,75
489,196,249593,1,0,0:0:0:0:
489,196,249824,2,0,L|467:116,1,75
370,141,250285,5,0,0:0:0:0:
348,221,250516,1,0,0:0:0:0:
337,264,250747,1,0,0:0:0:0:
327,297,250978,1,0,0:0:0:0:
321,320,251208,1,0,0:0:0:0:
148,209,251549,6,0,L|239:229,2,75
75,127,252702,2,0,L|49:50,1,75
37,224,253509,1,0,0:0:0:0:
169,113,254081,6,0,L|228:56,1,75
336,228,255586,1,0,0:0:0:0:
336,228,256408,6,0,P|315:167|293:131,1,84.3750032186509
178,318,257675,2,0,P|199:257|221:221,1,84.3750032186509
496,274,258906,2,0,B|395:269|418:354|300:340,1,210.937508046627
213,47,263204,6,0,B|289:119|289:119|322:240,1,225.000008583069
156,207,263550,1,0,0:0:0:0:
401,111,263665,2,0,L|526:140,1,112.500004291535
344,329,263896,1,0,0:0:0:0:
187,58,264011,1,0,0:0:0:0:
498,25,264127,6,0,L|512:142,1,112.500004291535
178,192,264357,2,0,L|164:75,1,112.500004291535
322,329,264588,1,0,0:0:0:0:
36,173,264704,1,0,0:0:0:0:
326,24,264819,1,0,0:0:0:0:
208,329,264934,1,0,0:0:0:0:
0,59,265050,6,0,B|84:70|84:70|135:101|135:101|215:111,1,225.000008583069
409,276,265396,1,0,0:0:0:0:
176,322,265511,2,0,L|53:303,1,112.500004291535
308,110,265742,1,0,0:0:0:0:
272,359,265857,1,0,0:0:0:0:
52,190,265973,6,0,L|172:170,1,112.500004291535
425,58,266204,2,0,L|305:78,1,112.500004291535
100,114,266434,1,0,0:0:0:0:
138,328,266550,1,0,0:0:0:0:
352,290,266665,1,0,0:0:0:0:
314,76,266780,1,0,0:0:0:0:
28,265,266896,6,0,B|138:296|138:296|250:268,1,225.000008583069
331,44,267242,1,0,0:0:0:0:
68,55,267357,2,0,L|50:175,1,112.500004291535
24,358,267588,1,0,0:0:0:0:
193,109,267704,1,0,0:0:0:0:
339,370,267819,6,0,L|223:346,1,112.500004291535
401,155,268050,2,0,L|517:131,1,112.500004291535
343,343,268280,1,0,0:0:0:0:
283,78,268396,1,0,0:0:0:0:
85,265,268511,1,0,0:0:0:0:
369,167,268627,1,0,0:0:0:0:
110,11,268742,6,0,L|88:239,1,225.000008583069
286,375,269088,1,0,0:0:0:0:
306,55,269204,2,0,L|185:73,1,112.500004291535
401,220,269434,2,0,L|522:202,1,112.500004291535
219,37,269665,5,0,0:0:0:0:
245,292,269780,1,0,0:0:0:0:
216,5,269896,1,0,0:0:0:0:
247,320,270011,1,0,0:0:0:0:
43,162,270127,1,0,0:0:0:0:
419,131,270242,1,0,0:0:0:0:
15,166,270357,1,0,0:0:0:0:
455,136,270473,1,0,0:0:0:0:
455,136,270530,1,0,0:0:0:0:
455,136,270588,6,0,L|473:210,3,56.2500021457673
365,67,270819,2,0,L|291:85,3,56.2500021457673
228,27,271050,1,0,0:0:0:0:
207,31,271107,1,0,0:0:0:0:
186,35,271165,1,0,0:0:0:0:
165,39,271223,1,0,0:0:0:0:
145,43,271280,1,0,0:0:0:0:
124,47,271338,1,0,0:0:0:0:
103,51,271396,1,0,0:0:0:0:
83,55,271453,1,0,0:0:0:0:
59,61,271511,6,0,L|-3:75,3,56.2500021457673
16,172,271742,2,0,L|28:234,3,56.2500021457673
129,200,271973,1,0,0:0:0:0:
169,210,272030,1,0,0:0:0:0:
210,220,272088,1,0,0:0:0:0:
251,231,272146,1,0,0:0:0:0:
292,241,272203,1,0,0:0:0:0:
333,252,272261,1,0,0:0:0:0:
374,262,272319,1,0,0:0:0:0:
415,272,272376,1,0,0:0:0:0:
456,283,272434,6,0,L|480:202,3,56.2500021457673
390,115,272665,2,0,L|366:196,3,56.2500021457673
251,198,272896,2,0,L|274:116,3,56.2500021457673
190,18,273127,2,0,L|166:99,3,56.2500021457673
45,151,273357,5,0,0:0:0:0:
36,192,273414,1,0,0:0:0:0:
44,233,273472,1,0,0:0:0:0:
68,267,273530,1,0,0:0:0:0:
103,290,273587,1,0,0:0:0:0:
144,298,273645,1,0,0:0:0:0:
185,288,273703,1,0,0:0:0:0:
219,264,273760,1,0,0:0:0:0:
241,228,273818,5,0,0:0:0:0:
263,177,273876,1,0,0:0:0:0:
306,141,273934,1,0,0:0:0:0:
360,129,273992,1,0,0:0:0:0:
414,142,274049,1,0,0:0:0:0:
456,179,274107,1,0,0:0:0:0:
477,231,274165,1,0,0:0:0:0:
473,286,274222,1,0,0:0:0:0:
444,332,274280,6,0,B|384:299|384:299|357:249,1,112.500004291535
348,41,274511,2,0,B|406:5|406:5|463:7,1,112.500004291535
170,140,274742,2,0,B|110:106|110:106|82:56,1,112.500004291535
313,48,274973,1,0,0:0:0:0:
228,268,275088,1,0,0:0:0:0:
473,239,275204,6,0,L|435:121,1,112.500004291535
174,23,275434,2,0,L|136:141,1,112.500004291535
66,313,275665,1,0,0:0:0:0:
3,59,275780,1,0,0:0:0:0:
252,283,275896,5,0,0:0:0:0:
277,294,275953,1,0,0:0:0:0:
304,301,276011,1,0,0:0:0:0:
332,305,276069,1,0,0:0:0:0:
360,308,276127,6,0,B|418:298|418:298|491:236,1,112.500004291535
153,210,276357,2,0,B|132:265|132:265|149:359,1,112.500004291535
312,146,276588,5,0,0:0:0:0:
315,118,276645,1,0,0:0:0:0:
318,90,276703,1,0,0:0:0:0:
322,62,276761,1,0,0:0:0:0:
325,34,276818,1,0,0:0:0:0:
126,190,276934,1,0,0:0:0:0:
407,293,277050,5,0,0:0:0:0:
410,265,277107,1,0,0:0:0:0:
413,237,277165,1,0,0:0:0:0:
417,209,277223,1,0,0:0:0:0:
420,181,277280,1,0,0:0:0:0:
148,47,277396,1,0,0:0:0:0:
196,332,277511,1,0,0:0:0:0:
356,45,277627,1,0,0:0:0:0:
40,87,277742,5,0,0:0:0:0:
33,142,277799,1,0,0:0:0:0:
26,198,277857,1,0,0:0:0:0:
20,254,277915,1,0,0:0:0:0:
13,310,277973,6,0,P|80:285|117:278,1,97.4999955368044
297,346,278204,1,0,0:0:0:0:
110,193,278319,2,0,P|180:204|216:217,1,97.4999955368044
328,354,278550,1,0,0:0:0:0:
341,71,278665,2,0,P|316:138|308:175,1,97.4999955368044
358,364,278896,1,0,0:0:0:0:
488,79,279011,2,0,P|432:124|408:153,1,97.4999955368044
385,370,279242,5,0,0:0:0:0:
210,146,279357,1,0,0:0:0:0:
414,252,279473,1,0,0:0:0:0:
207,370,279588,1,0,0:0:0:0:
315,139,279704,1,0,0:0:0:0:
72,163,279819,6,0,P|50:231|44:291,1,97.4999955368044
289,129,280050,1,0,0:0:0:0:
79,22,280165,2,0,P|25:69|-9:118,1,97.4999955368044
166,285,280396,1,0,0:0:0:0:
278,51,280511,2,0,P|346:29|406:23,1,97.4999955368044
407,288,280742,1,0,0:0:0:0:
215,196,280857,2,0,P|177:164|145:127,1,97.4999955368044
396,55,281088,5,0,0:0:0:0:
286,298,281204,1,0,0:0:0:0:
428,69,281319,1,0,0:0:0:0:
311,321,281434,2,0,P|235:355|201:354,1,97.4999955368044
134,103,281665,6,0,P|181:141|206:180,1,97.4999955368044
1,243,281896,1,0,0:0:0:0:
112,7,282011,2,0,P|171:16|213:37,1,97.4999955368044
330,241,282242,1,0,0:0:0:0:
468,16,282357,2,0,P|408:25|366:46,1,97.4999955368044
258,156,282588,1,0,0:0:0:0:
452,287,282704,2,0,P|392:277|350:256,1,97.4999955368044
348,60,282934,5,0,0:0:0:0:
233,316,283050,1,0,0:0:0:0:
61,108,283165,1,0,0:0:0:0:
293,167,283280,1,0,0:0:0:0:
63,261,283396,1,0,0:0:0:0:
69,12,283511,6,0,P|134:25|192:56,1,97.4999955368044
230,283,283742,1,0,0:0:0:0:
403,114,283857,2,0,P|338:127|280:158,1,97.4999955368044
233,316,284088,1,0,0:0:0:0:
50,161,284204,2,0,P|115:174|173:205,1,97.4999955368044
237,352,284434,1,0,0:0:0:0:
196,123,284550,1,0,0:0:0:0:
16,257,284665,2,0,P|4:336|6:369,1,97.4999955368044
317,203,284896,5,0,0:0:0:0:
42,36,285011,1,0,0:0:0:0:
175,344,285127,1,0,0:0:0:0:
394,60,285242,1,0,0:0:0:0:
108,159,285357,6,0,P|106:226|116:281,1,97.4999955368044
352,197,285588,1,0,0:0:0:0:
73,38,285704,2,0,P|37:95|18:147,1,97.4999955368044
191,318,285934,1,0,0:0:0:0:
317,84,286050,2,0,B|297:39|300:31|270:-1,1,97.4999955368044
207,288,286280,1,0,0:0:0:0:
484,239,286396,2,0,B|489:190|495:184|486:141,1,97.4999955368044
232,135,286627,5,0,0:0:0:0:
367,345,286742,1,0,0:0:0:0:
336,52,286857,1,0,0:0:0:0:
99,226,286973,1,0,0:0:0:0:
353,178,287088,1,0,0:0:0:0:
43,35,287204,6,0,P|33:98|34:157,1,97.4999955368044
144,325,287434,1,0,0:0:0:0:
250,109,287550,2,0,P|200:68|148:40,1,97.4999955368044
172,327,287780,1,0,0:0:0:0:
381,168,287896,2,0,P|358:108|327:57,1,97.4999955368044
206,328,288127,1,0,0:0:0:0:
484,260,288242,2,0,P|494:197|493:138,1,97.4999955368044
254,123,288473,5,0,0:0:0:0:
339,353,288588,1,0,0:0:0:0:
349,30,288704,1,0,0:0:0:0:
69,180,288819,2,0,P|52:251|48:310,1,97.4999955368044
286,127,289050,6,0,P|314:182|322:236,1,97.4999955368044
175,310,289280,1,0,0:0:0:0:
225,3,289396,2,0,P|286:6|337:26,1,97.4999955368044
508,177,289627,1,0,0:0:0:0:
292,268,289742,2,0,P|230:264|179:244,1,97.4999955368044
403,87,289973,1,0,0:0:0:0:
411,328,290088,2,0,P|356:355|302:364,1,97.4999955368044
298,107,290319,5,0,0:0:0:0:
494,288,290434,1,0,0:0:0:0:
394,56,290550,1,0,0:0:0:0:
242,270,290665,1,0,0:0:0:0:
383,27,290780,1,0,0:0:0:0:
209,261,290896,6,0,P|195:317|192:365,1,97.4999955368044
115,107,291127,1,0,0:0:0:0:
350,179,291243,2,0,P|364:235|367:283,1,97.4999955368044
286,0,291473,1,0,0:0:0:0:
102,130,291589,2,0,P|88:186|89:265,1,97.4999955368044
113,350,291819,6,0,B|214:342|206:276|301:273,1,194.999991073609
432,333,292165,1,0,0:0:0:0:
297,106,292280,2,0,P|227:120|180:149,1,97.4999955368044
137,257,292511,1,0,0:0:0:0:
190,0,292627,1,0,0:0:0:0:
402,148,292742,6,0,P|421:207|427:265,1,97.4999955368044
106,244,292973,2,0,P|114:195|130:149,1,97.4999955368044
300,215,293204,2,0,P|319:274|325:332,1,97.4999955368044
0,172,293435,2,0,P|8:123|24:77,1,97.4999955368044
272,201,293665,5,0,0:0:0:0:
69,362,293780,1,0,0:0:0:0:
246,86,293896,2,0,B|335:88|369:166|452:149,1,194.999991073609
421,39,294242,1,0,0:0:0:0:
243,212,294357,5,0,0:0:0:0:
243,212,294415,1,0,0:0:0:0:
243,212,294473,1,0,0:0:0:0:
475,305,294588,1,0,0:0:0:0:
475,305,294646,1,0,0:0:0:0:
475,305,294704,1,0,0:0:0:0:
254,46,294819,1,0,0:0:0:0:
254,46,294877,1,0,0:0:0:0:
254,46,294934,1,0,0:0:0:0:
96,349,295050,5,0,0:0:0:0:
126,352,295107,1,0,0:0:0:0:
156,351,295165,1,0,0:0:0:0:
186,345,295223,1,0,0:0:0:0:
215,336,295280,1,0,0:0:0:0:
244,325,295338,1,0,0:0:0:0:
273,317,295396,1,0,0:0:0:0:
303,313,295453,1,0,0:0:0:0:
334,314,295511,6,0,P|365:221|353:119,1,194.999991073609
138,6,295857,1,0,0:0:0:0:
119,258,295973,2,0,P|205:248|245:228,1,97.4999955368044
29,131,296204,5,0,0:0:0:0:
21,356,296319,1,0,0:0:0:0:
161,118,296434,1,0,0:0:0:0:
233,347,296550,1,0,0:0:0:0:
259,42,296665,2,0,B|376:55|317:119|447:128,1,194.999991073609
436,12,297011,1,0,0:0:0:0:
271,159,297127,2,0,P|256:220|253:264,1,97.4999955368044
401,352,297357,6,0,P|385:278|364:236,1,97.4999955368044
252,71,297588,1,0,0:0:0:0:
132,253,297704,2,0,P|117:314|114:358,1,97.4999955368044
286,73,297934,1,0,0:0:0:0:
104,130,298050,2,0,P|50:162|17:191,1,97.4999955368044
105,19,298280,6,0,B|198:16|192:91|298:72,1,194.999991073609
421,14,298627,1,0,0:0:0:0:
287,259,298742,1,0,0:0:0:0:
337,68,298857,1,0,0:0:0:0:
465,364,298973,1,0,0:0:0:0:
425,111,299088,1,0,0:0:0:0:
198,292,299204,6,0,P|101:289|5:237,1,194.999991073609
286,192,299550,1,0,0:0:0:0:
311,208,299665,2,0,P|332:261|331:339,1,97.4999955368044
152,155,299896,1,0,0:0:0:0:
410,76,300011,1,0,0:0:0:0:
343,330,300127,1,0,0:0:0:0:
64,51,300357,6,0,P|43:127|41:173,1,97.4999955368044
259,233,300588,2,0,P|203:176|164:152,1,97.4999955368044
3,310,300819,2,0,P|79:290|120:268,1,97.4999955368044
290,82,301050,6,0,P|375:90|485:178,1,194.999991073609
305,349,301396,1,0,0:0:0:0:
200,136,301511,2,0,B|101:127|107:203|-23:179,1,194.999991073609
45,59,301857,1,0,0:0:0:0:
254,255,301973,6,0,P|314:237|356:201,1,97.4999955368044
382,38,302204,2,0,P|367:98|377:153,1,97.4999955368044
505,257,302434,2,0,P|459:214|407:195,1,97.4999955368044,0|0,2:0|2:0,2:0:0:0:
201,152,302665,1,0,0:0:0:0:
470,93,302780,1,0,0:0:0:0:
359,366,302896,6,0,P|266:363|229:346,1,97.4999955368044
196,119,303127,2,0,P|289:122|326:139,1,97.4999955368044
81,262,303357,1,0,0:0:0:0:
103,12,303473,1,0,0:0:0:0:
224,238,303588,1,0,0:0:0:0:
35,94,303704,1,0,0:0:0:0:
0,326,303819,6,0,P|82:295|124:293,1,97.4999955368044
317,330,304050,2,0,P|235:361|193:363,1,97.4999955368044
282,112,304280,1,0,0:0:0:0:
489,257,304396,1,0,0:0:0:0:
336,31,304511,1,0,0:0:0:0:
217,262,304627,1,0,0:0:0:0:
75,37,304742,6,0,P|145:35|189:46,1,97.4999955368044
97,303,304973,2,0,P|27:305|-17:294,1,97.4999955368044
199,52,305204,1,0,0:0:0:0:
226,290,305319,1,0,0:0:0:0:
0,192,305434,1,0,0:0:0:0:
293,44,305550,1,0,0:0:0:0:
278,360,305665,6,0,P|203:368|163:357,1,97.4999955368044
304,143,305896,2,0,P|379:135|419:146,1,97.4999955368044
502,236,306127,1,0,0:0:0:0:
288,15,306242,1,0,0:0:0:0:
188,281,306357,1,0,0:0:0:0:
408,49,306473,1,0,0:0:0:0:
104,9,306588,6,0,P|81:88|75:132,1,97.4999955368044
453,176,306819,2,0,P|442:128|427:82,1,97.4999955368044
316,349,307050,2,0,P|390:342|444:317,1,97.4999955368044
171,181,307280,2,0,P|97:188|43:213,1,97.4999955368044
322,185,307511,6,0,P|308:84|268:-5,1,194.999991073609
35,159,307857,1,0,0:0:0:0:
294,291,307973,2,0,P|383:276|416:251,1,97.4999955368044
146,116,308204,2,0,P|56:130|23:155,1,97.4999955368044
147,350,308434,5,0,0:0:0:0:
289,51,308550,1,0,0:0:0:0:
486,302,308665,2,0,P|395:314|362:307,1,97.4999955368044
146,85,308896,1,0,0:0:0:0:
309,280,309011,1,0,0:0:0:0:
55,334,309127,1,0,0:0:0:0:
45,311,309184,1,0,0:0:0:0:
39,287,309242,1,0,0:0:0:0:
34,264,309300,1,0,0:0:0:0:
32,241,309357,6,0,P|30:188|31:181,1,48.7499977684022
112,93,309473,2,0,P|114:146|113:153,1,48.7499977684022
133,281,309588,2,0,P|131:228|132:221,1,48.7499977684022
213,133,309704,2,0,P|215:186|214:193,1,48.7499977684022
244,284,309819,5,0,0:0:0:0:
330,49,309934,1,0,0:0:0:0:
500,257,310050,1,0,0:0:0:0:
503,279,310107,1,0,0:0:0:0:
506,304,310165,1,0,0:0:0:0:
505,329,310223,1,0,0:0:0:0:
502,353,310280,6,0,B|385:316|387:397|263:362,1,225.000008583069
73,200,310627,1,0,0:0:0:0:
323,150,310742,2,0,P|329:209|317:292,1,112.500004291535
38,198,310973,2,0,P|32:139|44:56,1,112.500004291535
274,40,311203,5,0,0:0:0:0:
182,270,311319,1,0,0:0:0:0:
184,15,311434,1,0,0:0:0:0:
423,139,311550,1,0,0:0:0:0:
150,167,311665,1,0,0:0:0:0:
415,30,311781,1,0,0:0:0:0:
399,328,311896,2,0,P|331:324|277:305,1,112.500004291535
215,18,312127,6,0,P|273:88|295:218,1,225.000008583069
87,353,312473,1,0,0:0:0:0:
74,104,312588,2,0,P|143:117|208:159,1,112.500004291535
289,339,312819,1,0,0:0:0:0:
426,126,312934,1,0,0:0:0:0:
105,249,313050,6,0,P|28:240|-15:218,1,112.500004291535
214,48,313281,1,0,0:0:0:0:
275,306,313396,1,0,0:0:0:0:
460,128,313511,2,0,P|459:48|443:-4,1,112.500004291535
191,149,313742,1,0,0:0:0:0:
451,306,313857,1,0,0:0:0:0:
214,48,313973,6,0,B|103:31|108:115|3:107,1,225.000008583069
163,350,314319,1,0,0:0:0:0:
317,108,314434,2,0,P|314:53|292:1,1,112.500004291535
84,128,314665,2,0,P|62:179|59:235,1,112.500004291535
304,363,314896,5,0,0:0:0:0:
198,124,315011,1,0,0:0:0:0:
27,349,315127,2,0,P|102:358|139:346,1,112.500004291535
358,158,315357,2,0,P|412:145|467:156,1,112.500004291535
244,268,315588,1,0,0:0:0:0:
243,21,315704,1,0,0:0:0:0:
20,143,315819,6,0,P|3:222|3:282,1,112.500004291535
276,161,316050,2,0,P|271:104|257:50,1,112.500004291535
167,316,316280,1,0,0:0:0:0:
465,262,316396,1,0,0:0:0:0:
146,100,316511,2,0,P|49:112|6:133,1,112.500004291535
272,339,316742,5,0,0:0:0:0:
345,44,316857,1,0,0:0:0:0:
35,116,316973,2,0,P|16:188|12:246,1,112.500004291535
302,326,317204,2,0,P|295:270|279:216,1,112.500004291535
81,36,317434,1,0,0:0:0:0:
129,337,317550,1,0,0:0:0:0:
414,141,317665,6,0,P|445:202|479:371,1,225.000008583069
182,260,318011,1,0,0:0:0:0:
363,36,318127,2,0,P|456:41|499:64,1,112.500004291535
319,294,318357,2,0,P|226:289|183:266,1,112.500004291535
103,50,318588,6,0,P|149:102|175:173,1,112.500004291535
22,341,318819,2,0,P|44:275|92:217,1,112.500004291535
256,99,319050,1,0,0:0:0:0:
224,358,319165,1,0,0:0:0:0:
12,179,319280,1,0,0:0:0:0:
361,58,319396,1,0,0:0:0:0:
178,278,319511,6,0,P|126:194|83:70,1,225.000008583069
390,44,319857,1,0,0:0:0:0:
331,330,319973,2,0,P|258:356|195:355,1,112.500004291535
405,151,320204,2,0,P|460:157|512:178,1,112.500004291535
242,266,320434,5,0,0:0:0:0:
295,1,320550,1,0,0:0:0:0:
21,93,320665,2,0,P|1:192|1:253,1,112.500004291535
258,290,320896,1,0,0:0:0:0:
215,16,321011,1,0,0:0:0:0:
504,95,321127,2,0,P|503:174|493:227,1,112.500004291535
226,292,321357,6,0,P|178:189|172:78,1,225.000008583069
492,59,321704,1,0,0:0:0:0:
392,348,321819,2,0,P|306:359|254:352,1,112.500004291535
21,93,322050,2,0,P|107:82|159:89,1,112.500004291535
342,212,322280,5,0,0:0:0:0:
117,321,322396,1,0,0:0:0:0:
278,64,322511,1,0,0:0:0:0:
278,64,322569,1,0,0:0:0:0:
278,64,322627,1,0,0:0:0:0:
306,349,322742,5,0,0:0:0:0:
125,86,322857,1,0,0:0:0:0:
445,71,322973,1,0,0:0:0:0:
454,99,323030,1,0,0:0:0:0:
460,127,323088,1,0,0:0:0:0:
465,152,323146,1,0,0:0:0:0:
467,183,323203,5,0,0:0:0:0:
297,319,323319,1,0,0:0:0:0:
245,78,323434,1,0,0:0:0:0:
194,307,323550,1,0,0:0:0:0:
262,53,323665,1,0,0:0:0:0:
95,265,323780,1,0,0:0:0:0:
14,24,323896,1,0,0:0:0:0:
42,24,323953,1,0,0:0:0:0:
70,27,324011,1,0,0:0:0:0:
97,33,324069,1,0,0:0:0:0:
123,43,324127,5,0,0:0:0:0:
301,234,324242,1,0,0:0:0:0:
74,297,324357,1,0,0:0:0:0:
284,37,324473,1,0,0:0:0:0:
428,350,324588,5,0,0:0:0:0:
401,341,324645,1,0,0:0:0:0:
373,337,324703,1,0,0:0:0:0:
345,338,324761,1,0,0:0:0:0:
317,342,324818,1,0,0:0:0:0:
289,346,324876,1,0,0:0:0:0:
261,347,324934,1,0,0:0:0:0:
233,345,324991,1,0,0:0:0:0:
205,340,325050,6,0,P|164:254|159:211,1,112.500004291535
373,108,325280,2,0,P|357:161|328:209,1,112.500004291535
46,296,325511,1,0,0:0:0:0:
143,24,325627,1,0,0:0:0:0:
357,229,325742,2,0,P|427:248|473:246,1,112.500004291535
318,19,325973,5,0,0:0:0:0:
205,273,326088,1,0,0:0:0:0:
26,79,326204,2,0,P|79:61|135:61,1,112.500004291535
328,207,326434,1,0,0:0:0:0:
79,335,326550,1,0,0:0:0:0:
249,97,326665,1,0,0:0:0:0:
365,362,326780,1,0,0:0:0:0:
0,114,326896,6,0,B|94:160|141:71|246:126,1,225.000008583069
351,331,327242,1,0,0:0:0:0:
492,114,327357,2,0,P|391:76|357:78,1,112.500004291535
212,292,327588,2,0,P|313:330|347:328,1,112.500004291535
84,173,327819,6,0,P|0:241|-14:271,1,112.500004291535
251,121,328050,2,0,P|233:14|214:-13,1,112.500004291535
48,265,328280,1,0,0:0:0:0:
313,218,328396,1,0,0:0:0:0:
88,41,328511,1,0,0:0:0:0:
121,351,328627,1,0,0:0:0:0:
404,167,328742,6,0,P|489:177|524:196,1,112.500004291535
304,335,328973,1,0,0:0:0:0:
246,80,329088,1,0,0:0:0:0:
44,233,329204,2,0,P|23:294|16:351,1,112.500004291535
284,310,329434,1,0,0:0:0:0:
128,89,329550,1,0,0:0:0:0:
431,55,329665,6,0,P|437:129|432:205,1,112.500004291535
187,280,329896,1,0,0:0:0:0:
340,68,330011,1,0,0:0:0:0:
468,294,330127,2,0,P|408:331|365:341,1,112.500004291535
152,273,330357,1,0,0:0:0:0:
309,53,330473,1,0,0:0:0:0:
21,34,330588,6,0,P|6:91|3:156,1,112.500004291535
309,293,330819,2,0,P|305:236|290:182,1,112.500004291535
24,317,331050,2,0,P|80:313|134:298,1,112.500004291535
286,33,331280,2,0,P|229:36|175:51,1,112.500004291535
341,311,331511,5,0,0:0:0:0:
477,59,331627,1,0,0:0:0:0:
185,179,331742,2,0,P|168:262|162:315,1,112.500004291535
445,230,331973,5,0,0:0:0:0:
249,25,332088,1,0,0:0:0:0:
211,22,332145,1,0,0:0:0:0:
174,24,332203,1,0,0:0:0:0:
137,30,332261,1,0,0:0:0:0:
101,42,332318,1,0,0:0:0:0:
67,57,332376,1,0,0:0:0:0:
45,79,332434,6,0,P|26:158|23:222,1,112.500004291535
216,319,332665,2,0,P|209:263|194:208,1,112.500004291535
362,14,332896,2,0,P|355:69|340:124,1,112.500004291535
459,340,333127,2,0,P|452:284|437:229,1,112.500004291535
189,126,333357,5,0,0:0:0:0:
223,350,333473,1,0,0:0:0:0:
414,200,333588,1,0,0:0:0:0:
81,194,333704,1,0,0:0:0:0:
355,321,333819,1,0,0:0:0:0:
292,42,333934,1,0,0:0:0:0:
49,210,334050,2,0,P|42:273|44:327,1,112.500004291535
216,103,334280,6,0,P|145:59|1:50,1,225.000008583069
72,342,334627,1,0,0:0:0:0:
311,163,334742,2,0,P|313:92|302:38,1,112.500004291535
270,291,334973,2,0,P|330:328|382:345,1,112.500004291535
189,83,335204,5,0,0:0:0:0:
106,346,335319,1,0,0:0:0:0:
429,279,335434,2,0,P|428:198|410:147,1,112.500004291535
166,60,335665,1,0,0:0:0:0:
298,318,335780,1,0,0:0:0:0:
473,61,335896,2,0,P|401:44|350:45,1,112.500004291535
155,345,336127,6,0,P|211:342|265:327,1,112.500004291535
163,90,336357,1,0,0:0:0:0:
5,294,336473,1,0,0:0:0:0:
313,146,336588,2,0,P|321:81|310:12,1,112.500004291535
0,96,336819,2,0,P|52:135|117:160,1,112.500004291535
289,20,337050,5,0,0:0:0:0:
227,288,337165,1,0,0:0:0:0:
409,55,337280,1,0,0:0:0:0:
422,338,337396,1,0,0:0:0:0:
132,229,337511,5,0,0:0:0:0:
161,209,337568,1,0,0:0:0:0:
194,198,337626,1,0,0:0:0:0:
229,195,337684,1,0,0:0:0:0:
264,200,337741,1,0,0:0:0:0:
298,208,337799,1,0,0:0:0:0:
333,213,337857,1,0,0:0:0:0:
368,211,337914,1,0,0:0:0:0:
401,199,337973,6,0,P|419:130|415:73,1,112.500004291535
114,22,338204,2,0,P|114:78|130:131,1,112.500004291535
314,310,338434,1,0,0:0:0:0:
242,43,338550,1,0,0:0:0:0:
29,230,338665,2,0,P|14:291|14:352,1,112.500004291535
329,133,338896,5,0,0:0:0:0:
36,87,339011,1,0,0:0:0:0:
138,359,339127,2,0,P|212:368|259:363,1,112.500004291535
430,142,339357,1,0,0:0:0:0:
148,237,339473,1,0,0:0:0:0:
439,350,339588,1,0,0:0:0:0:
388,46,339704,1,0,0:0:0:0:
123,256,339819,6,0,P|84:195|61:37,1,225.000008583069
361,72,340165,1,0,0:0:0:0:
189,348,340280,2,0,P|91:358|52:352,1,112.500004291535
338,91,340511,1,0,0:0:0:0:
277,378,340627,1,0,0:0:0:0:
55,166,340742,6,0,P|46:80|57:26,1,112.500004291535
396,177,340973,2,0,P|399:232|390:288,1,112.500004291535
194,34,341204,1,0,0:0:0:0:
432,173,341319,1,0,0:0:0:0:
152,306,341434,1,0,0:0:0:0:
340,46,341550,1,0,0:0:0:0:
450,310,341665,6,0,B|349:329|338:250|221:262,1,225.000008583069
25,361,342011,1,0,0:0:0:0:
31,128,342127,2,0,P|111:134|170:151,1,112.500004291535
286,345,342357,2,0,P|206:339|147:322,1,112.500004291535
324,81,342588,5,0,0:0:0:0:
410,356,342704,1,0,0:0:0:0:
85,280,342819,2,0,P|91:213|106:161,1,112.500004291535
355,86,343050,2,0,P|368:140|372:196,1,112.500004291535
115,298,343280,1,0,0:0:0:0:
120,41,343396,1,0,0:0:0:0:
120,41,343454,1,0,0:0:0:0:
120,41,343511,6,0,B|240:11|350:58,1,225.000008583069
373,341,343857,1,0,0:0:0:0:
98,265,343973,2,0,P|100:191|123:138,1,112.500004291535
415,107,344204,2,0,P|431:160|430:216,1,112.500004291535
21,65,344434,6,0,P|20:136|74:294,1,225.000008583069
339,326,344780,1,0,0:0:0:0:
253,47,344896,2,0,P|169:56|105:91,1,112.500004291535
239,350,345127,1,0,0:0:0:0:
415,107,345242,1,0,0:0:0:0:
94,163,345357,6,0,P|71:247|65:316,1,112.500004291535
445,124,345588,2,0,P|468:208|474:277,1,112.500004291535
128,171,345819,1,0,0:0:0:0:
400,20,345934,1,0,0:0:0:0:
415,330,346050,2,0,P|329:343|276:340,1,112.500004291535
101,41,346280,6,0,P|194:59|247:89,1,112.500004291535
136,298,346511,2,0,P|105:208|104:147,1,112.500004291535
342,140,346742,2,0,P|279:211|227:242,1,112.500004291535
6,240,346973,2,0,P|99:257|152:288,1,112.500004291535
247,367,347204,6,0,B|360:387|360:310|473:323,1,225.000008583069
457,47,347550,1,0,0:0:0:0:
211,174,347665,2,0,P|233:254|252:301,1,112.500004291535
421,147,347896,1,0,0:0:0:0:
93,25,348011,1,0,0:0:0:0:
103,351,348127,6,0,P|189:364|233:360,1,112.500004291535
324,127,348357,2,0,P|265:125|210:136,1,112.500004291535
388,303,348588,1,0,0:0:0:0:
360,17,348704,1,0,0:0:0:0:
100,194,348819,1,0,0:0:0:0:
434,100,348934,1,0,0:0:0:0:
27,111,349050,6,0,P|9:192|11:345,1,225.000008583069
263,377,349396,1,0,0:0:0:0:
223,147,349511,2,0,P|125:159|76:189,1,112.500004291535
362,308,349742,2,0,P|400:217|399:159,1,112.500004291535
143,28,349973,6,0,P|104:118|105:176,1,112.500004291535
453,70,350204,2,0,P|369:43|297:52,1,112.500004291535
96,279,350434,1,0,0:0:0:0:
245,39,350550,1,0,0:0:0:0:
384,284,350665,1,0,0:0:0:0:
140,62,350780,1,0,0:0:0:0:
41,355,350896,6,0,P|107:367|273:347,1,225.000008583069
325,87,351242,1,0,0:0:0:0:
68,152,351357,2,0,P|71:234|88:299,1,112.500004291535
414,277,351588,2,0,P|423:221|423:165,1,112.500004291535
40,169,351819,6,0,P|55:249|82:311,1,112.500004291535
442,258,352050,2,0,P|442:201|433:146,1,112.500004291535
130,131,352280,1,0,0:0:0:0:
316,320,352396,1,0,0:0:0:0:
378,71,352511,1,0,0:0:0:0:
138,241,352627,1,0,0:0:0:0:
439,368,352742,6,0,P|450:293|420:111,1,225.000008583069
155,103,353088,1,0,0:0:0:0:
203,377,353204,2,0,P|292:364|318:348,1,112.500004291535
83,168,353434,2,0,P|12:223|-2:250,1,112.500004291535
223,362,353665,6,0,P|306:329|328:307,1,112.500004291535
62,182,353895,2,0,P|5:252|-2:281,1,112.500004291535
244,230,354127,1,0,0:0:0:0:
75,46,354242,1,0,0:0:0:0:
182,310,354357,1,0,0:0:0:0:
352,87,354473,1,0,0:0:0:0:
461,340,354588,6,0,P|395:328|346:306,1,112.500004291535
153,147,354819,2,0,P|219:159|268:181,1,112.500004291535
440,366,355050,2,0,P|377:341|333:310,1,112.500004291535
173,120,355281,2,0,P|235:144|279:175,1,112.500004291535
82,359,355511,5,0,0:0:0:0:
14,72,355626,1,0,0:0:0:0:
331,316,355742,5,0,0:0:0:0:
263,29,355857,1,0,0:0:0:0:
136,262,355973,5,0,0:0:0:0:
470,185,356088,1,0,0:0:0:0:
153,56,356204,5,0,0:0:0:0:
224,364,356319,1,0,0:0:0:0:
459,88,356434,6,0,L|340:111,1,112.500004291535
331,316,356665,2,0,L|450:293,1,112.500004291535
253,84,356896,1,0,0:0:0:0:
156,319,357011,1,0,0:0:0:0:
14,116,357127,2,0,L|133:126,1,112.500004291535
176,345,357357,6,0,L|57:335,1,112.500004291535
287,90,357588,2,0,L|406:100,1,112.500004291535
206,242,357819,1,0,0:0:0:0:
167,37,357934,1,0,0:0:0:0:
373,5,358050,1,0,0:0:0:0:
412,211,358165,1,0,0:0:0:0:
172,248,358280,6,0,L|51:266,1,112.500004291535
23,59,358511,2,0,L|144:41,1,112.500004291535
289,235,358742,1,0,0:0:0:0:
40,278,358857,1,0,0:0:0:0:
274,95,358973,2,0,L|396:115,1,112.500004291535
351,342,359204,6,0,L|229:322,1,112.500004291535
88,135,359434,2,0,L|210:155,1,112.500004291535
45,308,359665,1,0,0:0:0:0:
11,55,359780,1,0,0:0:0:0:
279,23,359896,1,0,0:0:0:0:
313,276,360011,1,0,0:0:0:0:
15,310,360127,6,0,L|41:181,1,112.500004291535
272,60,360357,2,0,L|246:189,1,112.500004291535
213,336,360588,1,0,0:0:0:0:
143,123,360704,1,0,0:0:0:0:
375,171,360819,2,0,L|500:197,1,112.500004291535
279,274,361050,5,0,0:0:0:0:
307,50,361165,1,0,0:0:0:0:
106,123,361280,2,0,L|79:248,1,112.500004291535
397,281,361511,2,0,L|374:170,1,112.500004291535
249,271,361742,1,0,0:0:0:0:
475,362,361857,1,0,0:0:0:0:
452,130,361973,6,0,L|429:19,1,112.500004291535
196,34,362204,2,0,L|218:144,1,112.500004291535
116,330,362434,1,0,0:0:0:0:
68,66,362550,1,0,0:0:0:0:
335,141,362665,2,0,L|450:169,1,112.500004291535
108,209,362896,6,0,L|74:95,1,112.500004291535
251,334,363127,1,0,0:0:0:0:
227,141,363242,2,0,L|193:27,1,112.500004291535
45,292,363473,1,0,0:0:0:0:
374,282,363588,2,0,L|340:168,1,112.500004291535
41,47,363819,6,0,B|8:153|8:153|39:283,1,225.000008583069
229,357,364165,1,0,0:0:0:0:
223,132,364280,2,0,L|78:160,1,112.500004291535
346,287,364511,2,0,L|491:259,1,112.500004291535
199,108,364742,5,0,0:0:0:0:
261,358,364857,1,0,0:0:0:0:
466,174,364973,2,0,L|438:58,1,112.500004291535
163,18,365204,1,0,0:0:0:0:
128,270,365319,1,0,0:0:0:0:
374,310,365434,1,0,0:0:0:0:
409,59,365551,1,0,0:0:0:0:
148,159,365665,6,0,L|123:293,1,112.500004291535
339,302,365896,1,0,0:0:0:0:
280,36,366011,1,0,0:0:0:0:
38,200,366127,2,0,L|13:334,1,112.500004291535
312,175,366357,2,0,L|291:64,1,112.500004291535
221,311,366588,5,0,0:0:0:0:
471,164,366704,1,0,0:0:0:0:
194,40,366819,2,0,L|73:63,1,112.500004291535
0,350,367050,2,0,L|224:310,1,225.000008583069
323,57,367396,1,0,0:0:0:0:
67,132,367511,6,0,L|90:253,1,112.500004291535
386,369,367742,2,0,L|343:147,1,225.000008583069
60,99,368088,1,0,0:0:0:0:
154,349,368204,2,0,L|308:320,1,112.500004291535
433,36,368434,6,0,L|279:65,1,112.500004291535
118,161,368665,2,0,L|271:194,1,112.500004291535
488,236,368896,2,0,L|334:202,1,112.500004291535
88,151,369127,1,0,0:0:0:0:
322,56,369242,1,0,0:0:0:0:
278,310,369357,6,0,L|124:276,1,112.500004291535
87,29,369588,2,0,L|240:62,1,112.500004291535
28,260,369819,2,0,L|61:106,1,112.500004291535
315,84,370050,2,0,L|281:237,1,112.500004291535
260,339,370280,5,0,0:0:0:0:
166,87,370396,1,0,0:0:0:0:
422,134,370511,1,0,0:0:0:0:
121,179,370627,1,0,0:0:0:0:
488,58,370742,5,0,0:0:0:0:
494,84,370799,1,0,0:0:0:0:
500,112,370857,1,0,0:0:0:0:
505,140,370915,1,0,0:0:0:0:
508,168,370972,1,0,0:0:0:0:
510,196,371030,1,0,0:0:0:0:
510,224,371088,1,0,0:0:0:0:
509,252,371145,1,0,0:0:0:0:
507,283,371204,6,0,B|392:273|402:337|257:327,1,225.000008583069
0,196,371665,2,0,P|130:181|225:217,1,225.000008583069
294,5,372127,6,0,B|321:-24|357:-7|354:31|354:31|315:171,1,225.000008583069
245,358,372588,2,0,P|289:307|328:282,1,112.500004291535
474,272,372819,1,0,0:0:0:0:
474,272,372934,1,0,0:0:0:0:
223,227,373050,6,0,B|105:233|125:303|8:293,1,225.000008583069
41,71,373511,2,0,P|51:157|39:211,1,112.500004291535
152,29,373742,1,0,0:0:0:0:
208,190,373857,1,0,0:0:0:0:
329,70,373973,6,0,P|418:63|509:204,1,225.000008583069
394,294,374434,2,0,P|381:217|394:159,1,112.500004291535
248,338,374665,2,0,P|169:340|114:319,1,112.500004291535,0|0,2:0|2:0,2:0:0:0:
26,41,374896,6,0,P|140:77|212:188,1,225.000008583069
96,227,375357,1,0,0:0:0:0:
96,227,375472,1,0,0:0:0:0:
253,63,375588,1,0,0:0:0:0:
253,63,375704,1,0,0:0:0:0:
298,273,375819,6,0,B|198:270|199:348|81:345,1,225.000008583069
372,196,376280,2,0,P|414:254|434:312,1,112.500004291535
512,44,376511,2,0,P|470:102|450:160,1,112.500004291535
322,54,376742,6,0,P|219:25|80:20,1,225.000008583069
22,210,377204,1,0,0:0:0:0:
189,118,377319,1,0,0:0:0:0:
38,230,377434,1,0,0:0:0:0:
205,138,377549,1,0,0:0:0:0:
219,338,377665,6,0,P|155:319|-8:339,1,225.000008583069
320,259,378127,2,0,P|347:321|344:387,1,112.500004291535
355,154,378357,2,0,P|409:194|439:252,1,112.500004291535
432,44,378588,6,0,B|191:50|286:217|24:218,1,450.000017166138
46,22,379511,6,0,P|102:79|117:121,1,112.500004291535
92,331,379742,1,0,0:0:0:0:
92,331,379857,2,0,P|36:274|21:232,1,112.500004291535
265,99,380088,1,0,0:0:0:0:
265,99,380203,2,0,P|243:175|214:209,1,112.500004291535
107,144,380434,5,0,0:0:0:0:
107,144,380550,1,0,0:0:0:0:
351,10,380665,2,0,P|383:74|381:139,1,112.500004291535
122,275,380896,2,0,P|94:226|87:171,1,112.500004291535
370,260,381127,2,0,P|306:292|241:290,1,112.500004291535
109,37,381357,6,0,P|157:9|212:2,1,112.500004291535
429,97,381588,1,0,0:0:0:0:
429,97,381704,1,0,0:0:0:0:
230,216,381819,2,0,P|202:167|195:112,1,112.500004291535
457,89,382050,2,0,P|484:137|491:192,1,112.500004291535
208,237,382280,5,0,0:0:0:0:
297,8,382396,1,0,0:0:0:0:
337,329,382511,1,0,0:0:0:0:
49,185,382627,1,0,0:0:0:0:
388,164,382742,5,0,0:0:0:0:
152,371,382857,1,0,0:0:0:0:
88,82,382973,1,0,0:0:0:0:
99,73,383030,1,0,0:0:0:0:
110,65,383088,1,0,0:0:0:0:
123,59,383146,1,0,0:0:0:0:
136,53,383203,1,0,0:0:0:0:
100,295,383319,1,0,0:0:0:0:
86,300,383377,1,0,0:0:0:0:
71,301,383434,6,0,P|24:211|11:150,1,112.500004291535
312,23,383665,2,0,P|318:78|314:134,1,112.500004291535
250,326,383896,1,0,0:0:0:0:
223,79,384011,1,0,0:0:0:0:
477,147,384127,2,0,B|274:151|342:311|66:300,1,450
