osu file format v14

[General]
AudioFilename: audio.mp3
AudioLeadIn: 0
PreviewTime: 197568
Countdown: 0
SampleSet: Soft
StackLeniency: 0.7
Mode: 0
LetterboxInBreaks: 0
WidescreenStoryboard: 0

[Editor]
DistanceSpacing: 0.2
BeatDivisor: 8
GridSize: 32
TimelineZoom: 2.1

[Metadata]
Title:IMAGE -MATERIAL-
TitleUnicode:IMAGE -MATERIAL-
Artist:Tatsh
ArtistUnicode:Tatsh
Creator:Sotarks
Version:-TERMINAL-
Source:
Tags:english vocalist vocals TatshMusicCircle Konami Digital Entertainment 2011 rock (新曲) (shinkyoku) reflec beat limelight 福山沙織 fukuyama saori rock
BeatmapID:3301339
BeatmapSetID:1616833

[Difficulty]
HPDrainRate:5.2
CircleSize:4
OverallDifficulty:9.7
ApproachRate:10
SliderMultiplier:2.22
SliderTickRate:1

[Events]
//Background and Video events
0,0,"bg.jpg",0,0
//Break Periods
2,49211,55934
//Storyboard Layer 0 (Background)
//Storyboard Layer 1 (Fail)
//Storyboard Layer 2 (Pass)
//Storyboard Layer 3 (Foreground)
//Storyboard Layer 4 (Overlay)
//Storyboard Sound Samples

[TimingPoints]
6549,461.538461538462,4,2,22,62,1,0
6549,-161.290322580645,4,2,22,62,0,0
8279,-161.290322580645,4,2,22,5,0,0
8395,-161.290322580645,4,2,22,62,0,0
10125,-161.290322580645,4,2,22,5,0,0
10241,-192.307692307692,4,2,22,62,0,0
11972,-161.290322580645,4,2,22,5,0,0
12087,-454.545454545455,4,2,22,62,0,0
13818,-161.290322580645,4,2,22,5,0,0
13933,-161.290322580645,4,2,22,62,0,0
15664,-161.290322580645,4,2,22,5,0,0
15779,-161.290322580645,4,2,22,62,0,0
17510,-161.290322580645,4,2,22,5,0,0
17625,-192.307692307692,4,2,22,62,0,0
21087,-161.290322580645,4,2,22,5,0,0
21318,-192.307692307692,4,2,22,62,0,0
26856,-454.545454545455,4,2,22,62,0,0
28702,-192.307692307692,4,2,22,62,0,0
32395,-238.095238095238,4,2,22,62,0,0
35164,-454.545454545455,4,2,22,62,0,0
35972,-161.290322580645,4,2,22,5,0,0
36087,-192.307692307692,4,2,22,62,0,0
36549,-454.545454545455,4,2,22,62,0,0
39664,-161.290322580645,4,2,22,5,0,0
39779,-192.307692307692,4,2,22,62,0,0
40587,-161.290322580645,4,2,22,5,0,0
40702,-238.095238095238,4,2,22,62,0,0
41510,-161.290322580645,4,2,22,5,0,0
41625,-454.545454545455,4,2,22,62,0,0
49011,230.769230769231,4,2,22,52,1,0
56395,-121.951219512195,4,2,22,72,0,0
64011,-98.0392156862744,4,2,22,72,0,0
64703,-121.951219512195,4,2,22,72,0,0
64934,-98.0392156862745,4,2,22,72,0,0
66549,-121.951219512195,4,2,22,72,0,0
88703,-98.0392156862744,4,2,22,82,0,0
89164,-108.695652173913,4,2,22,82,0,0
103472,-121.951219512195,4,2,22,72,0,0
120087,-121.951219512195,4,2,22,72,0,0
126087,-98.0392156862744,4,2,22,72,0,0
127472,-121.951219512195,4,2,22,72,0,0
149626,-192.307692307692,4,2,22,62,0,0
160703,-121.951219512195,4,2,22,62,0,0
166241,-98.0392156862744,4,2,22,82,0,0
166702,-108.695652173913,4,2,22,82,0,0
181011,-121.951219512195,4,2,22,72,0,0
197626,-108.695652173913,4,2,22,92,0,0
227164,461.538461538462,4,2,22,52,1,0
227164,-161.290322580645,4,2,22,52,0,0
252664,714.285714285714,4,2,22,52,1,0
252664,-161.290322580645,4,2,22,52,0,0
253021,800,4,2,22,52,1,0
253482,582.52427184466,4,2,22,52,1,0
254064,560.747663551402,4,2,22,52,1,0
254064,-161.290322580645,4,2,22,52,0,0
255229,652.173913043478,4,2,22,52,1,0
256533,773.19587628866,4,2,22,52,1,0
256533,-192.307692307692,4,2,22,52,0,0
257692,-312.5,4,2,22,52,0,0
258852,784.313725490196,4,2,22,52,1,0
258852,-833.333333333333,4,2,22,42,0,0
262969,-833.333333333333,4,2,22,5,0,0
263166,230.769230769231,4,2,22,82,1,0
263166,-98.0392156862745,4,2,22,82,0,0
277935,-121.951219512195,4,2,22,72,0,0
295473,-98.0392156862744,4,2,22,82,0,0
295934,-108.695652173913,4,2,22,82,0,0
310242,-108.695652173913,4,2,22,92,0,0
356396,-121.951219512195,4,2,22,72,0,0
371166,-98.0392156862744,4,2,22,72,0,0
373012,-98.0392156862745,4,2,22,72,0,0
373242,-138.888888888889,4,2,22,72,0,0
373473,-98.0392156862745,4,2,22,72,0,0
378550,-192.307692307692,4,2,22,72,0,0
379473,-121.951219512195,4,2,22,72,0,0
379819,-98.0392156862745,4,2,22,72,0,0
380166,-121.951219512195,4,2,22,72,0,0
388700,461.538461538462,3,2,22,22,1,0
404853,500,4,2,22,22,1,0
405353,571.428571428571,4,2,22,22,1,0
405924,600,4,2,22,22,1,0
406374,615.384615384615,4,2,22,22,1,0
406835,631.578947368421,4,2,22,22,1,0
407308,659.340659340659,4,2,22,22,1,0
410922,612.244897959184,3,2,22,22,1,0
411534,545.454545454546,4,2,22,22,1,0
411806,472.44094488189,4,2,22,22,1,0
412042,500,4,2,22,22,1,0
412542,535.714285714286,4,2,22,22,1,0
412809,472.44094488189,4,2,22,22,1,0
413045,491.803278688525,4,2,22,22,1,0
413290,454.545454545455,4,2,22,22,1,0
413517,468.75,4,2,22,22,1,0
413751,400,4,2,22,22,1,0
413951,508.474576271186,4,2,22,22,1,0
414205,451.127819548872,4,2,22,22,1,0
414430,428.571428571429,4,2,22,22,1,0
414644,402.684563758389,4,2,22,22,1,0
414845,495.867768595041,4,2,22,22,1,0
415092,387.096774193548,4,2,22,22,1,0
415285,495.867768595041,4,2,22,22,1,0
415532,465.116279069767,4,2,22,22,1,0
415764,428.571428571429,4,2,22,22,1,0
416406,422.535211267606,4,2,22,22,1,0
416617,495.867768595041,4,2,22,22,1,0
417112,444.444444444444,4,2,22,22,1,0
417334,582.52427184466,4,2,22,22,1,0
417625,517.241379310345,4,2,22,22,1,0
417883,722.89156626506,4,2,22,22,1,0
418244,923.076923076923,4,2,22,22,1,0
419167,939.2,4,2,22,22,1,0

[Colours]
Combo1 : 153,97,96
Combo2 : 190,190,190
Combo3 : 158,180,182
Combo4 : 180,181,153
Combo5 : 181,175,106
Combo6 : 132,179,177
Combo7 : 224,199,150
Combo8 : 192,97,97

[HitObjects]
0,306,6549,6,0,B|64:309|130:236|130:236|151:165|51:128|20:254|129:237|129:237|192:168|290:180,1,516.149979522859,6|0,1:2|0:2,0:0:0:0:
359,201,8395,6,0,B|427:162|487:51|424:-27|345:-6|303:148|456:88|455:333,1,516.149979522859,6|0,1:2|0:2,0:0:0:0:
342,348,10241,102,0,P|264:353|355:335,1,432.899997357788,6|0,1:2|0:2,0:0:0:0:
299,292,12087,6,0,B|201:274|221:354|121:325,1,183.150005589295,2|0,0:2|0:2,0:0:0:0:
49,350,13933,102,0,B|13:291|74:242|74:242|162:255|213:185|214:86|132:29|54:43|8:100,1,516.149979522859,6|0,1:2|0:2,0:0:0:0:
86,152,15779,6,0,B|165:10|400:75|282:328|518:281,1,516.149979522859,6|0,1:2|0:2,0:0:0:0:
455,171,17625,101,6,1:2:0:0:
256,192,17741,12,0,21087,0:2:0:0:
280,153,21318,6,0,P|242:160|211:172,1,57.7199996477051,6|0,1:2|0:2,0:0:0:0:
152,190,21779,2,0,P|114:183|83:171,1,57.7199996477051,2|0,0:2|0:2,0:0:0:0:
16,167,22241,1,2,0:2:0:0:
185,263,22702,1,2,0:2:0:0:
382,78,23164,102,0,P|389:116|401:154,1,57.7199996477051,6|0,1:2|0:2,0:0:0:0:
439,197,23625,2,0,P|434:225|426:253,1,57.7199996477051,2|0,0:2|0:2,0:0:0:0:
441,328,24087,1,2,0:2:0:0:
284,238,24549,1,2,0:2:0:0:
210,294,24779,1,0,0:2:0:0:
279,352,25010,6,0,B|190:217|244:70|244:70|316:122|318:205,1,432.899997357788,6|0,1:2|0:2,0:0:0:0:
314,205,26856,102,0,P|374:174|454:186,1,146.520004471436,2|0,0:2|0:2,0:0:0:0:
65,358,28702,6,0,P|60:321|52:290,1,57.7199996477051,6|0,1:2|0:2,0:0:0:0:
86,225,29164,2,0,P|91:188|99:157,1,57.7199996477051,2|0,0:2|0:2,0:0:0:0:
57,100,29625,1,2,0:2:0:0:
168,315,30087,1,2,0:2:0:0:
398,133,30549,102,0,P|358:142|328:155,1,57.7199996477051,6|0,1:2|0:2,0:0:0:0:
263,124,31010,2,0,P|235:114|207:109,1,57.7199996477051,2|0,0:2|0:2,0:0:0:0:
155,53,31472,1,2,0:2:0:0:
437,286,31933,1,2,0:2:0:0:
360,239,32164,1,0,0:2:0:0:
408,173,32395,6,0,B|290:105|203:220|271:282|130:364|45:269,1,419.579987195435,6|0,1:2|0:2,0:0:0:0:
58,282,35164,102,0,P|65:239|75:187,1,85.4700026083375,2|0,0:2|0:2,0:0:0:0:
44,173,36087,6,0,P|71:166|107:163,1,57.7199996477051,6|0,1:2|0:2,0:0:0:0:
166,89,36549,2,0,P|242:169|441:127,1,329.67001006073,2|0,0:2|0:2,0:0:0:0:
471,107,39779,102,0,P|457:152|431:319,1,202.019998766968,6|0,1:2|0:2,0:0:0:0:
348,279,40702,2,0,P|293:289|190:339,1,163.169995020447,2|0,0:2|0:2,0:0:0:0:
137,288,41625,2,0,P|71:304|16:252,1,146.520004471436,2|2,0:2|0:2,0:0:0:0:
256,101,43472,5,6,1:2:0:0:
256,192,43587,12,0,49011,0:2:0:0:
85,87,56395,6,0,P|103:169|114:259,1,136.530002083283,6|0,1:2|0:2,0:0:0:0:
105,252,56626,2,0,P|151:276|204:259,1,91.020001388855,8|0,0:2|0:2,0:0:0:0:
390,78,56857,1,0,1:2:0:0:
238,155,56972,1,0,1:2:0:0:
392,310,57087,2,0,P|401:264|417:197,1,91.020001388855,8|0,0:2|0:2,0:0:0:0:
256,23,57318,6,0,P|263:57|269:90,1,45.5100006944275,0|0,1:2|0:2,0:0:0:0:
284,182,57434,2,0,P|291:216|297:249,1,45.5100006944275,0|0,1:2|0:2,0:0:0:0:
320,367,57549,2,0,P|245:381|185:332,1,136.530002083283,8|0,0:2|0:2,0:0:0:0:
178,328,57780,1,0,1:2:0:0:
381,207,57895,1,0,1:2:0:0:
190,81,58011,1,8,0:2:0:0:
145,222,58126,1,0,1:2:0:0:
343,79,58241,102,0,P|406:90|506:106,1,136.530002083283,0|0,1:2|0:2,0:0:0:0:
506,96,58472,2,0,P|520:154|498:207,1,91.020001388855,8|0,0:2|0:2,0:0:0:0:
279,294,58703,1,0,1:2:0:0:
411,123,58818,1,0,1:2:0:0:
511,267,58934,1,8,0:2:0:0:
394,364,59049,6,0,P|381:312|366:262,1,91.020001388855,0|0,1:2|0:2,0:0:0:0:
315,61,59280,1,0,1:2:0:0:
312,78,59337,1,0,1:2:0:0:
309,96,59395,2,0,P|234:107|171:121,1,136.530002083283,8|0,0:2|0:2,0:0:0:0:
139,99,59626,1,0,1:2:0:0:
198,267,59741,1,0,1:2:0:0:
30,79,59857,1,8,0:2:0:0:
0,224,59972,2,0,P|26:219|59:212,1,45.5100006944275,0|0,1:2|0:2,0:0:0:0:
252,152,60087,102,0,B|355:127|318:220|451:185,1,182.04000277771,6|8,1:2|0:2,0:0:0:0:
198,267,60434,2,0,P|139:282|87:305,1,91.020001388855,0|0,0:2|1:2,0:0:0:0:
342,300,60664,1,0,1:2:0:0:
141,185,60780,1,8,0:2:0:0:
323,109,60895,1,0,0:2:0:0:
219,28,61011,5,0,1:2:0:0:
219,28,61126,1,0,1:2:0:0:
357,207,61241,1,8,0:2:0:0:
451,42,61357,1,0,0:2:0:0:
219,133,61472,1,0,1:2:0:0:
367,321,61587,1,0,1:2:0:0:
461,146,61703,1,8,0:2:0:0:
277,256,61818,101,0,1:2:0:0:
277,256,61876,1,0,1:2:0:0:
277,256,61934,2,0,P|169:279|94:245,1,182.04000277771,6|8,1:2|0:2,0:0:0:0:
10,108,62280,2,0,P|72:125|108:141,1,91.020001388855,2|0,0:2|1:2,0:0:0:0:
294,59,62511,1,0,1:2:0:0:
202,0,62626,2,0,P|184:97|169:198,1,182.04000277771,10|0,0:2|1:2,0:0:0:0:
251,363,62972,1,0,1:2:0:0:
277,256,63087,2,0,P|215:273|179:289,1,91.020001388855,8|0,0:2|0:2,0:0:0:0:
391,176,63318,5,0,1:2:0:0:
92,265,63434,1,8,0:2:0:0:
394,187,63549,1,0,1:2:0:0:
95,276,63665,1,0,1:2:0:0:
433,284,63780,102,0,P|409:278|378:271,1,45.5100006944275,2|0,1:2|2:2,0:0:0:0:
179,199,63895,2,0,P|203:205|234:212,1,45.5100006944275,2|0,1:2|2:2,0:0:0:0:
312,332,64011,2,0,P|303:258|288:120,1,169.83000103656,10|0,0:2|0:2,0:0:0:0:
286,132,64241,5,2,1:2:0:0:
175,314,64357,1,2,1:2:0:0:
396,209,64472,1,10,0:2:0:0:
144,68,64587,101,0,1:2:0:0:
148,84,64644,1,0,1:2:0:0:
152,100,64703,2,0,P|192:109|218:114,1,45.5100006944275,2|0,1:2|0:2,0:0:0:0:
423,93,64818,2,0,P|395:86|370:81,1,45.5100006944275,2|0,1:2|0:2,0:0:0:0:
276,209,64934,2,0,P|285:135|300:-3,1,169.83000103656,10|0,0:2|0:2,0:0:0:0:
299,10,65164,5,2,1:2:0:0:
223,273,65280,1,2,1:2:0:0:
291,15,65395,1,10,0:2:0:0:
215,278,65511,1,0,1:2:0:0:
398,115,65626,101,2,1:2:0:0:
369,119,65683,1,0,1:2:0:0:
341,123,65741,1,2,1:2:0:0:
313,127,65799,1,0,1:2:0:0:
285,131,65857,2,0,B|193:121|219:185|111:166,1,169.83000103656,10|0,0:2|0:2,0:0:0:0:
98,154,66087,1,2,1:2:0:0:
304,259,66203,1,2,1:2:0:0:
301,242,66260,1,0,1:2:0:0:
298,225,66318,1,10,0:2:0:0:
93,297,66434,1,2,1:2:0:0:
184,188,66549,5,2,1:2:0:0:
184,188,66664,1,0,1:2:0:0:
278,333,66780,1,8,0:2:0:0:
47,222,66895,1,0,0:2:0:0:
217,77,67011,1,0,1:2:0:0:
313,195,67126,1,0,1:2:0:0:
84,101,67241,1,8,0:2:0:0:
344,223,67357,101,0,1:2:0:0:
344,223,67414,1,0,1:2:0:0:
344,223,67472,2,0,P|410:235|477:203,1,136.530002083283,6|0,1:2|0:2,0:0:0:0:
490,182,67703,1,8,0:2:0:0:
301,43,67818,2,0,P|247:68|203:80,1,91.020001388855,2|0,0:2|1:2,0:0:0:0:
25,185,68049,1,0,1:2:0:0:
135,16,68164,1,10,0:2:0:0:
254,240,68280,1,0,0:2:0:0:
136,157,68395,5,2,1:2:0:0:
136,157,68511,1,0,1:2:0:0:
323,311,68626,2,0,P|339:238|350:199,1,91.020001388855,8|0,0:2|0:2,0:0:0:0:
490,40,68857,1,8,1:2:0:0:
222,144,68972,1,8,1:2:0:0:
495,63,69087,1,8,1:2:0:0:
227,167,69202,1,8,1:2:0:0:
450,285,69318,101,6,1:3:0:0:
303,60,69434,1,4,0:3:0:0:
207,311,69549,1,4,0:3:0:0:
454,160,69664,1,4,0:3:0:0:
201,45,69780,1,4,0:3:0:0:
342,310,69895,1,4,0:3:0:0:
495,63,70011,1,4,0:3:0:0:
227,167,70126,1,4,0:3:0:0:
376,356,70241,5,8,0:3:0:0:
377,342,70298,1,8,0:3:0:0:
378,328,70356,1,8,0:3:0:0:
380,315,70414,1,8,0:3:0:0:
381,301,70471,1,8,0:3:0:0:
383,288,70529,1,8,0:3:0:0:
384,274,70587,1,8,0:3:0:0:
386,260,70644,1,8,0:3:0:0:
387,247,70702,1,8,0:2:0:0:
178,294,70818,1,8,0:2:0:0:
489,192,70934,1,8,0:2:0:0:
160,292,71049,1,8,0:2:0:0:
377,78,71164,102,0,P|387:140|403:231,1,136.530002083283,6|0,1:2|0:2,0:0:0:0:
387,247,71395,1,10,0:2:0:0:
182,158,71511,2,0,P|242:139|279:120,1,91.020001388855,2|0,1:2|0:2,0:0:0:0:
162,334,71741,1,2,1:2:0:0:
23,217,71857,2,0,P|40:145|49:90,1,91.020001388855,10|0,0:2|0:2,0:0:0:0:
261,244,72087,1,2,1:2:0:0:
162,334,72203,2,0,P|150:289|141:245,1,91.020001388855,2|8,1:2|0:2,0:0:0:0:
158,134,72434,1,0,1:2:0:0:
57,208,72549,1,2,1:2:0:0:
190,73,72664,1,0,1:2:0:0:
32,275,72780,1,10,0:2:0:0:
273,95,72895,1,2,0:2:0:0:
153,361,73011,6,0,P|205:314|288:325,1,136.530002083283,2|0,1:2|0:2,0:0:0:0:
292,330,73241,1,10,0:2:0:0:
465,216,73357,2,0,P|443:166|427:118,1,91.020001388855,2|0,1:2|0:2,0:0:0:0:
195,135,73587,1,2,1:2:0:0:
255,234,73703,2,0,P|319:209|368:195,1,91.020001388855,10|0,0:2|0:2,0:0:0:0:
268,25,73934,1,2,1:2:0:0:
188,103,74049,2,0,P|231:117|273:134,1,91.020001388855,2|8,1:2|0:2,0:0:0:0:
465,216,74280,1,0,0:2:0:0:
352,80,74395,1,2,1:2:0:0:
255,234,74511,1,2,1:2:0:0:
361,294,74626,2,0,P|371:243|383:193,1,91.020001388855,10|0,0:2|0:2,0:0:0:0:
131,43,74857,102,0,P|147:113|165:199,1,136.530002083283,6|0,1:2|0:2,0:0:0:0:
150,214,75087,1,10,0:2:0:0:
284,67,75203,2,0,P|339:86|399:100,1,91.020001388855,2|0,1:2|0:2,0:0:0:0:
395,310,75434,1,2,1:2:0:0:
242,210,75549,2,0,P|285:198|328:182,1,91.020001388855,10|0,0:2|0:2,0:0:0:0:
147,357,75780,1,2,1:2:0:0:
45,287,75895,2,0,P|62:200|77:102,1,182.04000277771,10|0,0:2|0:2,0:0:0:0:
166,17,76241,1,10,0:2:0:0:
6,77,76357,1,0,1:2:0:0:
249,81,76472,1,2,1:2:0:0:
12,181,76587,1,2,1:2:0:0:
335,129,76703,6,0,P|387:120|473:197,1,136.530002083283,6|0,1:2|0:2,0:0:0:0:
490,153,76934,1,10,0:2:0:0:
337,347,77049,2,0,P|271:326|229:319,1,91.020001388855,2|0,1:2|0:2,0:0:0:0:
98,163,77280,1,2,1:2:0:0:
249,81,77395,2,0,P|234:136|221:196,1,91.020001388855,10|0,0:2|0:2,0:0:0:0:
122,338,77626,1,2,1:2:0:0:
325,241,77741,1,10,0:2:0:0:
156,106,77857,1,8,0:2:0:0:
156,106,78087,101,10,0:2:0:0:
261,308,78203,1,8,0:3:0:0:
445,153,78318,1,10,0:3:0:0:
298,59,78434,1,4,0:3:0:0:
370,340,78549,6,0,P|453:331|485:271,1,136.530002083283,6|0,1:2|0:2,0:0:0:0:
483,259,78780,1,10,0:2:0:0:
270,171,78895,2,0,P|215:191|152:204,1,91.020001388855,2|0,1:2|0:2,0:0:0:0:
390,257,79126,1,2,1:2:0:0:
453,128,79241,2,0,P|433:69|423:31,1,91.020001388855,10|0,0:2|0:2,0:0:0:0:
220,73,79472,1,2,1:2:0:0:
305,192,79587,2,0,P|320:149|332:105,1,91.020001388855,2|8,1:2|0:2,0:0:0:0:
232,260,79818,1,0,0:2:0:0:
375,226,79934,1,2,1:2:0:0:
175,301,80049,1,0,1:2:0:0:
435,189,80164,1,10,0:2:0:0:
165,375,80280,1,2,0:2:0:0:
463,213,80395,102,0,P|473:126|484:65,1,136.530002083283,2|0,1:2|0:2,0:0:0:0:
465,54,80626,1,10,0:2:0:0:
301,219,80741,2,0,P|246:200|201:188,1,91.020001388855,2|0,1:2|0:2,0:0:0:0:
44,116,80972,1,2,1:2:0:0:
157,91,81087,2,0,P|132:164|122:203,1,91.020001388855,10|0,0:2|0:2,0:0:0:0:
210,352,81318,1,2,1:2:0:0:
86,263,81434,2,0,P|42:275|0:290,1,91.020001388855,2|8,1:2|0:2,0:0:0:0:
214,191,81664,1,0,0:2:0:0:
44,116,81780,1,2,1:2:0:0:
191,316,81895,1,2,1:2:0:0:
44,116,82011,2,0,P|57:72|72:29,1,91.020001388855,10|0,0:2|0:2,0:0:0:0:
214,191,82241,6,0,P|286:212|363:207,1,136.530002083283,6|0,1:2|0:2,0:0:0:0:
374,202,82472,1,10,0:2:0:0:
512,70,82587,2,0,P|497:126|485:185,1,91.020001388855,2|0,1:2|0:2,0:0:0:0:
374,350,82818,1,2,1:2:0:0:
512,288,82934,2,0,P|468:275|425:260,1,91.020001388855,10|0,0:2|0:2,0:0:0:0:
200,202,83164,1,2,1:2:0:0:
283,108,83280,2,0,P|292:152|305:196,1,91.020001388855,2|8,1:2|0:0,0:0:0:0:
261,302,83511,1,0,0:0:0:0:
390,241,83626,1,10,0:2:0:0:
170,234,83741,1,0,1:2:0:0:
368,129,83857,1,10,0:2:0:0:
102,171,83972,1,10,0:2:0:0:
304,16,84087,102,0,P|363:37|467:52,1,136.530002083283,6|0,1:2|0:2,0:0:0:0:
464,38,84318,1,10,0:2:0:0:
256,137,84434,2,0,P|270:186|281:240,1,91.020001388855,2|0,1:2|0:2,0:0:0:0:
466,309,84664,1,2,1:2:0:0:
395,169,84780,2,0,P|376:259|356:362,1,182.04000277771,10|0,0:2|1:2,0:0:0:0:
486,221,85126,1,0,1:2:0:0:
287,292,85241,1,8,0:2:0:0:
486,221,85357,1,0,1:2:0:0:
274,306,85472,2,0,P|213:286|175:278,1,91.020001388855,6|0,1:2|0:2,0:0:0:0:
334,98,85703,2,0,P|302:130|268:160,1,91.020001388855,10|0,0:2|0:2,0:0:0:0:
428,317,85934,2,0,P|415:273|406:228,1,91.020001388855,2|0,1:2|0:2,0:0:0:0:
186,67,86164,6,0,B|143:121|103:149|103:149|160:195|187:284,1,273.060004166565,14|0,0:2|1:2,0:0:0:0:
268,160,86626,1,8,0:2:0:0:
20,324,86857,101,2,1:2:0:0:
426,170,87087,1,8,0:2:0:0:
102,41,87318,1,2,1:2:0:0:
199,234,87434,1,8,0:2:0:0:
369,105,87549,1,8,0:2:0:0:
253,8,87664,1,8,0:2:0:0:
216,119,87780,5,10,0:3:0:0:
216,119,87837,1,8,0:3:0:0:
216,119,87895,1,8,0:3:0:0:
281,80,88011,1,4,1:3:0:0:
184,41,88126,1,4,1:3:0:0:
327,239,88241,1,6,1:3:0:0:
422,34,88357,1,4,1:3:0:0:
200,236,88472,1,10,0:2:0:0:
204,257,88529,1,10,0:2:0:0:
208,279,88587,1,10,0:2:0:0:
212,301,88645,1,10,0:2:0:0:
216,324,88703,6,0,B|352:282|301:383|459:330,1,226.44000138208,6|8,1:2|0:2,0:0:0:0:
509,190,89049,1,0,0:2:0:0:
313,109,89164,2,0,P|336:169|351:226,1,102.1199965719,0|0,1:2|1:2,0:0:0:0:
472,72,89395,1,8,0:2:0:0:
290,0,89511,1,0,1:2:0:0:
248,230,89626,2,0,P|294:291|396:279,1,153.179994857849,0|0,1:2|0:2,0:0:0:0:
434,337,89857,2,0,P|448:288|467:240,1,102.1199965719,10|0,0:2|0:2,0:0:0:0:
173,307,90087,2,0,P|208:344|239:384,1,102.1199965719,2|0,1:2|0:2,0:0:0:0:
334,101,90318,2,0,P|284:112|233:120,1,102.1199965719,10|0,0:2|1:2,0:0:0:0:
148,90,90491,1,0,1:2:0:0:
148,90,90549,6,0,P|101:143|122:245,1,153.179994857849,2|0,1:2|0:2,0:0:0:0:
90,263,90780,1,10,0:2:0:0:
304,191,90895,2,0,P|365:214|474:217,1,153.179994857849,2|0,1:2|0:2,0:0:0:0:
477,193,91126,1,0,1:2:0:0:
375,60,91241,1,10,0:2:0:0:
229,200,91357,1,0,1:2:0:0:
358,342,91472,2,0,P|368:263|390:135,2,204.239993143799,6|8|0,1:2|0:2|1:2,0:0:0:0:
96,139,92049,1,0,1:2:0:0:
304,191,92164,1,10,0:2:0:0:
54,325,92280,1,2,1:2:0:0:
153,230,92395,102,0,B|266:207|220:301|361:268,1,204.239993143799,6|8,1:2|0:2,0:0:0:0:
512,174,92741,1,0,0:2:0:0:
389,145,92857,2,0,P|415:204|429:247,1,102.1199965719,0|0,1:2|1:2,0:0:0:0:
218,358,93087,1,8,0:2:0:0:
304,191,93203,1,0,1:2:0:0:
454,369,93318,2,0,P|395:343|275:332,1,153.179994857849,0|0,1:2|0:2,0:0:0:0:
245,285,93549,2,0,P|226:229|198:179,1,102.1199965719,10|0,0:2|0:2,0:0:0:0:
459,224,93780,2,0,P|420:268|390:317,1,102.1199965719,2|0,1:2|0:2,0:0:0:0:
292,70,94011,2,0,P|349:81|407:82,1,102.1199965719,10|0,0:2|1:2,0:0:0:0:
489,142,94184,1,0,1:2:0:0:
489,142,94241,6,0,P|380:160|252:187,1,204.239993143799,2|8,1:2|0:2,0:0:0:0:
75,156,94587,1,0,1:2:0:0:
147,82,94703,2,0,P|171:182|197:296,1,204.239993143799,2|8,1:2|0:2,0:0:0:0:
316,362,95049,1,0,1:2:0:0:
104,294,95164,2,0,P|46:315|-8:332,1,102.1199965719,2|0,1:2|0:2,0:0:0:0:
327,193,95395,2,0,P|385:172|439:155,1,102.1199965719,10|0,0:2|0:2,0:0:0:0:
101,82,95626,2,0,P|48:69|-2:61,1,102.1199965719,2|0,1:2|0:2,0:0:0:0:
230,73,95857,2,0,P|283:86|333:94,1,102.1199965719,10|0,0:2|0:2,0:0:0:0:
38,195,96087,102,0,P|103:261|244:232,1,204.239993143799,2|8,1:2|0:2,0:0:0:0:
396,309,96434,2,0,P|322:330|286:348,1,102.1199965719,2|0,0:2|1:2,0:0:0:0:
157,188,96664,1,0,1:2:0:0:
329,93,96780,1,8,0:2:0:0:
149,203,96895,1,0,1:2:0:0:
283,355,97011,1,0,1:2:0:0:
283,355,97126,1,0,1:2:0:0:
200,128,97241,1,8,0:2:0:0:
45,227,97357,1,0,0:2:0:0:
143,351,97472,1,2,1:2:0:0:
173,227,97587,1,2,1:2:0:0:
112,279,97703,1,10,0:2:0:0:
216,304,97818,5,2,1:2:0:0:
216,304,97876,1,0,1:2:0:0:
216,304,97934,2,0,B|339:283|270:378|436:343,1,204.239993143799,2|8,1:2|0:2,0:0:0:0:
392,140,98280,2,0,P|370:222|360:257,1,102.1199965719,2|0,1:2|0:2,0:0:0:0:
488,169,98511,1,0,1:2:0:0:
281,198,98626,2,0,P|196:214|141:225,1,102.1199965719,10|0,0:2|0:2,0:0:0:0:
59,79,98857,2,0,P|109:69|159:59,1,102.1199965719,6|0,1:2|0:2,0:0:0:0:
350,101,99087,2,0,P|268:117|164:134,1,153.179994857849,8|0,0:2|0:2,0:0:0:0:
166,141,99318,1,2,1:2:0:0:
325,300,99434,1,2,1:2:0:0:
417,157,99549,1,10,0:2:0:0:
185,259,99664,1,2,1:2:0:0:
417,157,99780,102,0,P|436:83|313:7,1,204.239993143799,6|8,1:2|0:2,0:0:0:0:
350,3,100126,1,0,1:2:0:0:
166,162,100241,2,0,P|216:176|273:197,1,102.1199965719,2|0,1:2|0:2,0:0:0:0:
293,105,100472,2,0,P|243:91|195:74,1,102.1199965719,8|0,0:2|0:2,0:0:0:0:
224,275,100703,2,0,P|286:305|413:233,1,204.239993143799,6|8,1:2|0:2,0:0:0:0:
402,253,101049,1,0,1:2:0:0:
104,86,101164,2,0,B|70:126|39:146|39:146|83:184|113:287,1,204.239993143799,2|8,1:2|0:2,0:0:0:0:
98,243,101511,1,0,1:2:0:0:
249,141,101626,5,2,1:2:0:0:
26,49,101741,1,8,0:2:0:0:
247,135,101857,1,8,0:2:0:0:
152,42,101972,1,0,1:2:0:0:
238,263,102087,1,8,0:2:0:0:
346,65,102203,1,8,0:2:0:0:
326,71,102260,1,8,0:2:0:0:
306,77,102318,1,8,0:2:0:0:
93,181,102434,2,0,L|150:196,1,51.0599982859498,8|8,0:2|0:2,0:0:0:0:
247,232,102549,101,4,1:2:0:0:
208,131,102664,1,4,0:3:0:0:
142,274,102780,1,4,0:3:0:0:
291,338,102895,1,4,0:3:0:0:
357,195,103011,1,4,0:3:0:0:
228,225,103126,1,8,0:3:0:0:
231,239,103183,1,8,0:3:0:0:
234,254,103241,1,8,0:3:0:0:
327,131,103357,2,0,L|316:72,1,51.0599982859498,4|4,0:3|0:3,0:0:0:0:
304,0,103472,86,0,P|228:19|133:38,1,136.530002083283,6|0,1:2|0:2,0:0:0:0:
132,20,103703,2,0,P|110:59|124:113,1,91.020001388855,8|0,0:2|0:2,0:0:0:0:
167,346,103934,2,0,P|178:254|189:177,1,136.530002083283,2|0,1:2|0:2,0:0:0:0:
179,176,104164,2,0,P|116:180|81:221,1,91.020001388855,8|0,0:2|0:2,0:0:0:0:
288,297,104395,1,2,1:2:0:0:
288,297,104626,6,0,P|334:288|398:276,1,91.020001388855,10|0,0:2|0:2,0:0:0:0:
404,104,104857,1,2,1:2:0:0:
341,185,104972,2,0,P|385:193|430:202,1,91.020001388855,2|8,0:2|0:2,0:0:0:0:
211,99,105203,2,0,P|119:115|22:132,1,182.04000277771,2|0,0:2|0:2,0:0:0:0:
336,24,105549,2,0,P|409:4|492:106,1,182.04000277771,10|0,0:2|1:2,0:0:0:0:
345,232,105895,1,0,0:2:0:0:
255,163,106011,1,10,0:2:0:0:
350,115,106126,1,0,0:2:0:0:
240,273,106241,102,0,P|164:290|70:313,1,136.530002083283,2|0,1:2|0:2,0:0:0:0:
75,294,106472,2,0,P|57:233|40:191,1,91.020001388855,10|0,0:2|0:2,0:0:0:0:
203,134,106703,2,0,P|172:166|142:201,1,91.020001388855,2|0,1:2|0:2,0:0:0:0:
0,93,106934,2,0,P|44:104|88:112,1,91.020001388855,10|0,0:2|0:2,0:0:0:0:
283,200,107164,6,0,P|353:191|438:177,1,136.530002083283,2|0,1:2|0:2,0:0:0:0:
451,175,107395,2,0,P|441:130|426:62,1,91.020001388855,8|0,0:2|0:2,0:0:0:0:
202,178,107626,2,0,P|132:187|47:201,1,136.530002083283,2|0,1:2|0:2,0:0:0:0:
34,203,107857,2,0,P|44:248|59:316,1,91.020001388855,8|0,0:2|0:2,0:0:0:0:
251,103,108087,1,6,1:2:0:0:
251,103,108318,102,0,P|246:48|265:12,1,91.020001388855,10|0,0:2|0:2,0:0:0:0:
316,275,108549,1,2,1:2:0:0:
223,180,108664,2,0,P|266:186|334:195,1,91.020001388855,2|8,0:2|0:2,0:0:0:0:
465,328,108895,2,0,B|354:302|397:391|267:356,1,182.04000277771,2|0,0:2|0:2,0:0:0:0:
135,249,109241,2,0,P|214:262|336:277,1,182.04000277771,10|0,0:2|1:2,0:0:0:0:
124,349,109587,1,2,0:2:0:0:
9,225,109703,1,8,0:2:0:0:
162,149,109818,1,0,0:2:0:0:
102,257,109934,6,0,P|89:183|72:92,1,136.530002083283,2|0,1:2|0:2,0:0:0:0:
68,85,110164,2,0,P|131:69|170:57,1,91.020001388855,10|0,0:2|0:2,0:0:0:0:
388,25,110395,2,0,P|325:41|286:53,1,91.020001388855,2|0,1:2|0:2,0:0:0:0:
125,184,110626,2,0,P|188:168|227:156,1,91.020001388855,10|0,0:2|0:2,0:0:0:0:
477,84,110857,102,0,P|462:154|449:229,1,136.530002083283,6|0,1:2|0:2,0:0:0:0:
464,251,111087,2,0,P|422:277|363:264,1,91.020001388855,8|0,0:2|0:2,0:0:0:0:
74,299,111318,2,0,P|135:306|243:319,1,136.530002083283,2|0,1:2|0:2,0:0:0:0:
252,333,111549,2,0,P|271:281|245:232,1,91.020001388855,8|0,0:2|0:2,0:0:0:0:
156,79,111780,1,2,1:2:0:0:
156,79,112011,6,0,P|147:127|137:175,1,91.020001388855,10|0,0:2|0:2,0:0:0:0:
239,95,112241,1,2,1:2:0:0:
58,137,112357,1,2,0:2:0:0:
239,95,112472,2,0,P|289:104|346:117,1,91.020001388855,10|0,0:2|0:2,0:0:0:0:
502,205,112703,102,0,P|433:206|316:267,1,182.04000277771,2|8,1:2|0:2,0:0:0:0:
118,384,113049,2,0,P|151:323|157:191,1,182.04000277771,2|0,0:2|0:2,0:0:0:0:
237,44,113395,2,0,P|272:103|315:135,1,91.020001388855,10|0,0:2|0:2,0:0:0:0:
255,205,113626,1,2,1:2:0:0:
255,205,113857,6,0,P|188:227|155:249,1,91.020001388855,10|0,0:2|0:2,0:0:0:0:
288,117,114087,2,0,P|302:47|299:8,1,91.020001388855,2|0,1:2|0:2,0:0:0:0:
351,183,114318,2,0,P|403:230|439:247,1,91.020001388855,10|0,0:2|0:2,0:0:0:0:
175,41,114549,102,0,P|79:49|32:125,1,182.04000277771,6|8,1:2|0:2,0:0:0:0:
33,114,114895,1,0,0:2:0:0:
166,241,115011,2,0,P|255:252|351:277,1,182.04000277771,0|8,1:2|0:2,0:0:0:0:
344,274,115357,1,0,0:2:0:0:
505,100,115472,2,0,B|353:70|421:210|217:149,1,273.060004166565,6|0,1:2|0:2,0:0:0:0:
82,45,115934,2,0,B|112:71|157:78|157:78|121:110|112:204,1,182.04000277771,8|0,0:2|0:2,0:0:0:0:
117,166,116280,1,0,1:2:0:0:
35,322,116395,6,0,P|98:335|156:351,1,91.020001388855,2|0,1:2|0:2,0:0:0:0:
141,260,116626,2,0,P|96:251|52:240,1,91.020001388855,0|0,0:2|1:2,0:0:0:0:
245,328,116857,2,0,P|319:354|453:226,1,273.060004166565,8|0,0:2|0:2,0:0:0:0:
322,91,117318,1,2,1:2:0:0:
386,137,117434,1,4,0:3:0:0:
396,64,117549,1,4,0:3:0:0:
318,167,117664,1,8,0:3:0:0:
452,238,117780,101,8,0:2:0:0:
255,0,118011,1,8,0:2:0:0:
101,337,118241,5,10,0:2:0:0:
257,215,118357,1,0,1:2:0:0:
260,228,118414,1,0,1:2:0:0:
263,241,118472,1,8,0:2:0:0:
64,195,118587,2,0,P|70:171|75:148,1,45.5100006944275,0|0,1:2|1:2,0:0:0:0:
157,242,118703,1,8,0:2:0:0:
81,29,118818,1,8,1:3:0:0:
9,261,118934,1,0,1:2:0:0:
9,261,118991,1,0,1:2:0:0:
9,261,119049,1,0,1:2:0:0:
221,85,119164,102,0,P|270:97|330:106,1,91.020001388855,10|0,0:2|0:2,0:0:0:0:
258,358,119395,2,0,P|209:346|149:337,1,91.020001388855,8|8,0:2|0:3,0:0:0:0:
139,342,119568,1,8,0:3:0:0:
139,342,119626,1,8,0:3:0:0:
374,220,119741,1,8,0:3:0:0:
374,220,119799,1,8,0:3:0:0:
374,220,119857,1,8,0:3:0:0:
117,63,119972,2,0,P|124:94|127:110,1,45.5100006944275,4|4,0:3|0:3,0:0:0:0:
121,228,120087,6,0,P|177:248|258:224,1,136.530002083283,6|0,1:2|0:2,0:0:0:0:
264,207,120318,1,10,0:2:0:0:
476,293,120434,2,0,P|464:251|452:170,1,91.020001388855,2|0,1:2|0:2,0:0:0:0:
273,321,120664,1,2,1:2:0:0:
356,384,120780,2,0,P|368:340|376:295,1,91.020001388855,10|0,0:2|0:2,0:0:0:0:
342,93,121011,1,2,1:2:0:0:
264,207,121126,2,0,P|315:193|371:181,1,91.020001388855,2|8,1:2|0:2,0:0:0:0:
182,135,121357,1,0,0:2:0:0:
264,302,121472,1,2,1:2:0:0:
182,135,121587,1,0,1:2:0:0:
22,200,121703,1,10,0:2:0:0:
146,34,121818,1,2,0:2:0:0:
153,274,121934,102,0,P|93:312|5:299,1,136.530002083283,2|0,1:2|0:2,0:0:0:0:
0,290,122164,1,10,0:2:0:0:
182,135,122280,2,0,P|226:145|270:157,1,91.020001388855,2|0,1:2|0:2,0:0:0:0:
433,207,122511,1,2,1:2:0:0:
359,137,122626,2,0,P|346:180|338:225,1,91.020001388855,10|0,0:2|0:2,0:0:0:0:
397,384,122857,1,2,1:2:0:0:
231,281,122972,2,0,P|186:291|142:303,1,91.020001388855,2|8,1:2|0:2,0:0:0:0:
5,349,123203,1,0,0:2:0:0:
52,188,123318,1,2,1:2:0:0:
5,349,123434,1,2,1:2:0:0:
52,188,123549,2,0,P|43:143|31:99,1,91.020001388855,10|0,0:2|0:2,0:0:0:0:
234,0,123780,6,0,P|178:38|180:115,1,136.530002083283,6|0,1:2|0:2,0:0:0:0:
189,133,124011,1,10,0:2:0:0:
366,204,124126,2,0,P|303:217|248:234,1,91.020001388855,2|0,1:2|0:2,0:0:0:0:
417,128,124357,1,2,1:2:0:0:
263,297,124472,1,10,0:2:0:0:
415,342,124587,1,0,0:2:0:0:
366,204,124703,1,2,1:2:0:0:
366,204,124818,1,2,1:2:0:0:
242,321,124934,1,10,0:0:0:0:
440,249,125049,1,0,0:0:0:0:
276,133,125164,1,2,1:2:0:0:
336,253,125280,1,2,1:2:0:0:
470,143,125395,1,10,0:0:0:0:
386,90,125511,1,2,1:2:0:0:
330,161,125626,102,0,P|375:172|385:176,1,45.5100006944275,8|0,1:3|0:0,0:0:0:0:
416,12,125741,2,0,P|394:5|371:1,1,45.5100006944275,8|0,1:3|0:0,0:0:0:0:
335,166,125857,2,0,P|380:177|390:181,1,45.5100006944275,4|0,1:3|0:0,0:0:0:0:
421,17,125972,2,0,P|399:10|376:6,1,45.5100006944275,4|0,1:3|0:0,0:0:0:0:
260,55,126087,6,0,B|401:39|314:138|504:112,1,226.44000138208,14|0,1:2|0:0,0:0:0:0:
260,55,126434,1,8,0:2:0:0:
462,194,126549,1,4,1:2:0:0:
462,194,126780,2,0,P|387:208|339:224,1,113.22000069104,14|0,1:2|0:0,0:0:0:0:
146,277,127011,1,10,0:0:0:0:
233,147,127126,1,8,0:3:0:0:
333,243,127241,1,10,0:3:0:0:
246,315,127357,1,4,0:3:0:0:
246,315,127414,1,4,0:3:0:0:
246,315,127472,102,0,P|234:244|214:163,1,136.530002083283,6|0,1:2|0:2,0:0:0:0:
233,147,127703,1,10,0:2:0:0:
124,305,127818,2,0,P|70:292|28:288,1,91.020001388855,2|0,1:2|0:2,0:0:0:0:
98,99,128049,1,2,1:2:0:0:
149,175,128164,2,0,P|95:188|53:192,1,91.020001388855,10|0,0:2|0:2,0:0:0:0:
298,75,128395,1,2,1:2:0:0:
233,147,128511,2,0,P|223:92|212:52,1,91.020001388855,2|8,1:2|0:2,0:0:0:0:
335,246,128741,1,0,0:2:0:0:
162,204,128857,1,2,1:2:0:0:
335,246,128972,1,0,1:2:0:0:
243,372,129087,1,10,0:2:0:0:
472,296,129203,1,2,0:2:0:0:
367,129,129318,6,0,B|296:126|307:154|223:146,1,136.530002083283,2|0,1:2|0:2,0:0:0:0:
207,138,129549,1,10,0:2:0:0:
45,73,129664,2,0,P|58:140|65:190,1,91.020001388855,2|0,1:2|0:2,0:0:0:0:
79,334,129895,1,2,1:2:0:0:
26,247,130011,2,0,P|73:245|129:246,1,91.020001388855,10|0,0:2|0:2,0:0:0:0:
299,171,130241,1,2,1:2:0:0:
207,138,130357,2,0,P|220:205|227:255,1,91.020001388855,2|8,1:2|0:2,0:0:0:0:
283,343,130587,1,0,0:2:0:0:
168,321,130703,1,2,1:2:0:0:
317,199,130818,1,2,1:2:0:0:
129,127,130934,2,0,P|142:194|149:244,1,91.020001388855,10|0,0:2|0:2,0:0:0:0:
315,37,131164,102,0,P|400:37|443:93,1,136.530002083283,6|0,1:2|0:2,0:0:0:0:
442,90,131395,1,10,0:2:0:0:
397,285,131511,2,0,P|389:237|379:181,1,91.020001388855,2|0,1:2|0:2,0:0:0:0:
482,254,131741,1,2,1:2:0:0:
300,183,131857,2,0,P|307:227|315:272,1,91.020001388855,10|0,0:2|0:2,0:0:0:0:
150,297,132087,1,2,1:2:0:0:
244,319,132203,2,0,P|236:274|228:229,1,91.020001388855,2|10,1:2|0:0,0:0:0:0:
135,96,132434,1,0,0:0:0:0:
303,144,132549,1,2,1:2:0:0:
135,96,132664,1,2,1:2:0:0:
221,10,132780,1,10,0:0:0:0:
21,74,132895,1,2,1:2:0:0:
187,217,133011,5,10,1:3:0:0:
135,96,133126,1,8,1:3:0:0:
201,292,133241,1,8,1:3:0:0:
130,25,133357,1,8,1:3:0:0:
98,271,133472,102,0,B|203:277|173:231|302:234,1,182.04000277771,14|0,0:2|1:2,0:0:0:0:
484,269,133818,1,4,0:3:0:0:
339,115,133934,5,2,0:2:0:0:
355,213,134049,1,2,0:0:0:0:
371,320,134164,2,0,B|326:346|326:346|270:318|275:229,1,182.04000277771,14|8,0:2|0:2,0:0:0:0:
403,85,134511,1,4,0:3:0:0:
190,160,134626,1,4,0:3:0:0:
403,85,134741,1,4,0:3:0:0:
247,22,134857,101,4,1:2:0:0:
247,22,134972,1,0,1:2:0:0:
188,199,135087,2,0,B|92:183|92:183|75:160|98:137,1,136.530002083283,8|0,0:2|0:2,0:0:0:0:
104,134,135318,1,0,1:2:0:0:
265,138,135434,2,0,P|271:202|278:255,1,91.020001388855,0|8,0:2|0:2,0:0:0:0:
9,223,135664,2,0,P|3:159|-4:106,1,91.020001388855,0|0,0:2|1:2,0:0:0:0:
175,42,135895,1,0,1:2:0:0:
83,0,136011,6,0,P|95:77|108:157,1,136.530002083283,8|0,0:2|0:2,0:0:0:0:
110,159,136241,1,0,1:2:0:0:
191,353,136357,2,0,P|124:361|87:383,1,91.020001388855,0|8,0:2|0:2,0:0:0:0:
80,238,136587,2,0,P|147:230|184:208,1,91.020001388855,0|0,0:2|1:2,0:0:0:0:
334,250,136818,1,0,1:2:0:0:
258,172,136934,2,0,P|254:222|248:278,1,91.020001388855,8|0,0:2|0:2,0:0:0:0:
377,358,137164,1,0,1:2:0:0:
377,358,137280,1,0,1:2:0:0:
273,184,137395,2,0,P|269:234|263:290,1,91.020001388855,8|0,0:2|0:2,0:0:0:0:
440,61,137626,102,0,B|342:58|365:107|229:91,1,182.04000277771,4|8,1:2|0:2,0:0:0:0:
28,69,137972,2,0,P|83:50|118:28,1,91.020001388855,0|0,0:2|1:2,0:0:0:0:
125,215,138203,1,0,1:2:0:0:
146,119,138318,2,0,P|91:138|56:160,1,91.020001388855,8|0,0:2|0:2,0:0:0:0:
268,291,138549,5,0,1:2:0:0:
268,291,138664,1,0,1:2:0:0:
405,158,138780,2,0,B|329:154|345:191|248:182,1,136.530002083283,8|0,0:2|0:2,0:0:0:0:
239,178,139011,2,0,P|225:126|249:89,1,91.020001388855,0|0,1:2|0:2,0:0:0:0:
388,257,139241,2,0,P|379:308|371:363,1,91.020001388855,8|0,0:2|0:2,0:0:0:0:
167,251,139472,101,0,1:2:0:0:
167,251,139587,1,0,1:2:0:0:
231,155,139703,2,0,P|260:207|286:241,1,91.020001388855,8|0,0:2|0:2,0:0:0:0:
54,249,139934,2,0,P|78:211|97:170,1,91.020001388855,0|0,1:2|0:2,0:0:0:0:
217,353,140164,2,0,P|172:351|127:356,1,91.020001388855,8|0,0:2|0:2,0:0:0:0:
167,251,140395,6,0,P|250:251|328:243,1,136.530002083283,0|0,1:2|0:2,0:0:0:0:
330,227,140626,2,0,P|353:278|348:335,1,91.020001388855,8|0,0:2|0:2,0:0:0:0:
202,158,140857,2,0,P|208:113|216:68,1,91.020001388855,0|0,1:2|0:2,0:0:0:0:
353,26,141087,2,0,P|346:70|338:115,1,91.020001388855,8|0,0:2|0:2,0:0:0:0:
122,116,141318,102,0,P|47:128|-8:72,1,136.530002083283,0|0,1:2|0:2,0:0:0:0:
0,65,141549,2,0,P|40:59|100:50,1,91.020001388855,8|0,0:2|0:2,0:0:0:0:
116,235,141780,2,0,P|76:241|16:250,1,91.020001388855,0|0,1:2|0:2,0:0:0:0:
215,162,142011,1,8,0:2:0:0:
181,315,142126,1,0,1:2:0:0:
215,162,142241,2,0,B|296:155|273:196|387:181,1,136.530002083283,0|0,1:2|0:2,0:0:0:0:
376,180,142472,2,0,P|380:125|357:94,1,91.020001388855,8|0,0:2|0:2,0:0:0:0:
123,126,142703,2,0,P|133:175|143:233,1,91.020001388855,0|0,1:2|0:2,0:0:0:0:
215,162,142934,1,8,0:2:0:0:
61,201,143049,1,0,1:2:0:0:
230,279,143164,5,0,1:2:0:0:
230,279,143280,1,0,1:2:0:0:
140,215,143395,2,0,P|125:269|110:308,1,91.020001388855,8|0,0:2|0:2,0:0:0:0:
331,234,143626,2,0,P|291:194|265:161,1,91.020001388855,0|0,1:2|0:2,0:0:0:0:
217,384,143857,2,0,P|271:369|312:363,1,91.020001388855,8|0,0:2|0:2,0:0:0:0:
402,136,144087,102,0,P|324:159|233:171,1,136.530002083283,0|0,1:2|0:2,0:0:0:0:
232,169,144318,2,0,P|220:114|244:70,1,91.020001388855,8|0,0:2|0:2,0:0:0:0:
311,245,144549,1,0,1:2:0:0:
153,207,144664,1,0,1:2:0:0:
311,245,144780,2,0,P|318:310|324:357,1,91.020001388855,8|0,0:2|0:2,0:0:0:0:
116,281,145011,6,0,B|105:212|128:223|115:125,1,136.530002083283,0|0,1:2|0:2,0:0:0:0:
100,120,145241,2,0,P|149:96|206:111,1,91.020001388855,8|0,0:2|0:2,0:0:0:0:
204,259,145472,1,0,1:2:0:0:
36,194,145587,1,0,1:2:0:0:
201,271,145703,2,0,P|257:266|300:256,1,91.020001388855,8|0,0:2|0:2,0:0:0:0:
474,155,145934,101,0,1:2:0:0:
474,155,146049,1,0,1:2:0:0:
360,86,146164,2,0,B|379:165|348:149|374:241,1,136.530002083283,8|0,0:2|0:2,0:0:0:0:
388,246,146395,2,0,P|384:299|379:354,1,91.020001388855,0|0,1:2|0:2,0:0:0:0:
193,363,146626,2,0,P|196:317|200:272,1,91.020001388855,8|0,0:2|0:2,0:0:0:0:
288,136,146857,5,0,1:2:0:0:
288,136,146972,1,0,1:2:0:0:
138,177,147087,2,0,P|82:207|-2:183,1,136.530002083283,8|0,0:2|0:2,0:0:0:0:
6,168,147318,2,0,P|13:123|19:69,1,91.020001388855,0|0,1:2|0:2,0:0:0:0:
75,278,147549,2,0,P|68:323|62:377,1,91.020001388855,8|0,0:2|0:2,0:0:0:0:
234,183,147780,102,0,B|310:179|295:208|393:201,1,136.530002083283,0|0,1:2|0:2,0:0:0:0:
390,193,148011,1,8,0:2:0:0:
166,136,148126,2,0,P|117:145|62:154,1,91.020001388855,0|0,1:2|0:2,0:0:0:0:
247,54,148357,1,0,1:2:0:0:
208,254,148472,1,8,0:2:0:0:
247,54,148587,1,8,0:2:0:0:
404,16,148703,5,10,1:3:0:0:
297,138,148818,1,4,0:3:0:0:
294,156,148875,1,4,0:3:0:0:
291,174,148933,1,8,0:3:0:0:
405,296,149049,1,8,0:2:0:0:
210,175,149164,1,0,1:2:0:0:
155,359,149280,1,4,1:3:0:0:
314,354,149395,1,0,1:2:0:0:
86,230,149511,1,8,0:2:0:0:
314,354,149626,102,0,B|308:264|341:284|326:170,1,173.159998943115,6|0,1:2|0:2,0:0:0:0:
345,98,150087,1,0,1:2:0:0:
345,98,150549,2,0,P|261:109|158:124,1,173.159998943115,6|0,1:2|0:2,0:0:0:0:
98,88,151011,1,0,1:2:0:0:
98,88,151472,2,0,P|96:126|91:169,1,57.7199996477051,6|0,1:2|0:2,0:0:0:0:
104,219,151703,2,0,P|101:247|100:276,1,57.7199996477051,0|0,0:2|0:2,0:0:0:0:
81,350,151934,1,0,1:2:0:0:
81,350,152280,5,8,2:2:0:0:
95,354,152337,1,8,2:2:0:0:
109,358,152395,1,10,2:2:0:0:
15,291,152511,1,8,0:2:0:0:
190,341,152626,1,8,0:2:0:0:
15,291,152741,1,8,0:2:0:0:
197,209,152857,101,8,0:3:0:0:
144,129,152972,1,8,0:3:0:0:
55,210,153087,1,4,0:3:0:0:
118,242,153203,1,4,0:3:0:0:
112,165,153318,6,0,B|126:107|105:71|105:71|116:121|71:153,1,173.159998943115,6|0,1:2|0:2,0:0:0:0:
28,87,153780,1,0,1:2:0:0:
28,87,154241,2,0,B|120:117|111:70|200:94,1,173.159998943115,6|0,1:2|0:2,0:0:0:0:
272,58,154703,1,0,1:2:0:0:
272,58,155164,2,0,P|303:63|335:66,1,57.7199996477051,6|0,1:2|0:2,0:0:0:0:
323,142,155395,2,0,P|292:137|260:134,1,57.7199996477051,0|0,0:2|0:2,0:0:0:0:
198,93,155626,1,0,1:2:0:0:
14,258,155972,1,0,0:0:0:0:
336,262,156087,101,10,0:2:0:0:
338,276,156144,1,8,0:2:0:0:
340,290,156202,1,8,0:3:0:0:
204,207,156318,1,8,0:2:0:0:
432,261,156434,2,0,L|421:215,1,28.8599998238525,8|8,0:2|0:2,0:0:0:0:
406,152,156549,1,8,1:3:0:0:
220,293,156664,1,8,0:2:0:0:
316,86,156780,1,8,0:2:0:0:
220,293,156895,1,8,0:2:0:0:
316,86,157011,6,0,P|251:127|154:110,1,173.159998943115,6|0,1:2|0:2,0:0:0:0:
106,62,157472,1,0,1:2:0:0:
106,62,157934,2,0,B|134:160|80:149|112:247,1,173.159998943115,6|0,1:2|0:2,0:0:0:0:
82,303,158395,1,0,1:2:0:0:
82,303,158857,2,0,P|121:308|154:315,1,57.7199996477051,6|0,1:2|0:2,0:0:0:0:
213,308,159087,2,0,P|241:313|270:316,1,57.7199996477051,0|0,0:2|0:2,0:0:0:0:
341,337,159318,1,0,1:2:0:0:
341,337,159664,101,8,0:2:0:0:
338,322,159721,1,8,0:2:0:0:
335,308,159779,1,10,0:2:0:0:
452,180,159895,1,8,0:2:0:0:
248,254,160011,1,8,0:2:0:0:
452,180,160126,1,8,0:2:0:0:
277,98,160241,1,8,0:3:0:0:
356,65,160357,1,4,0:3:0:0:
198,176,160472,1,8,0:2:0:0:
339,221,160587,1,4,0:3:0:0:
198,176,160703,6,0,B|118:175|135:208|49:198,1,136.530002083283,2|0,1:2|0:2,0:0:0:0:
32,195,160934,2,0,P|20:151|40:102,1,91.020001388855,10|0,0:2|0:2,0:0:0:0:
179,263,161164,2,0,P|167:323|159:365,1,91.020001388855,2|0,1:2|0:2,0:0:0:0:
46,384,161395,2,0,P|58:324|66:282,1,91.020001388855,10|0,0:2|0:2,0:0:0:0:
103,65,161626,102,0,P|169:50|236:37,1,136.530002083283,2|0,1:2|0:2,0:0:0:0:
262,26,161857,2,0,P|288:63|286:116,1,91.020001388855,10|0,0:2|0:2,0:0:0:0:
268,245,162087,2,0,P|223:251|179:262,1,91.020001388855,2|0,1:2|0:2,0:0:0:0:
118,150,162318,2,0,P|163:143|207:133,1,91.020001388855,10|0,0:2|0:2,0:0:0:0:
417,9,162549,2,0,P|402:109|390:206,2,182.04000277771,2|8|0,1:2|0:2|1:2,0:0:0:0:
417,9,163126,1,0,0:2:0:0:
326,132,163241,2,0,P|272:156|219:141,1,91.020001388855,8|0,0:2|0:2,0:0:0:0:
61,27,163472,6,0,P|117:35|171:39,1,91.020001388855,4|0,1:2|0:2,0:0:0:0:
132,299,163703,2,0,P|76:291|22:287,1,91.020001388855,8|0,0:2|0:2,0:0:0:0:
91,162,163934,1,0,1:2:0:0:
75,384,164164,1,8,0:2:0:0:
91,162,164395,1,0,1:2:0:0:
75,384,164625,1,8,0:2:0:0:
91,162,164857,1,0,1:2:0:0:
75,384,165087,1,8,0:2:0:0:
15,249,165203,101,8,0:2:0:0:
15,249,165261,1,8,0:2:0:0:
15,249,165318,1,8,0:2:0:0:
188,317,165434,1,8,0:2:0:0:
206,99,165549,1,8,0:2:0:0:
55,144,165664,1,0,1:2:0:0:
154,213,165780,1,10,0:3:0:0:
154,213,165837,1,8,0:3:0:0:
154,213,165895,1,4,0:3:0:0:
154,213,165953,1,4,0:3:0:0:
154,213,166011,2,0,P|207:207|218:207,1,45.5100006944275,10|10,0:2|0:2,0:0:0:0:
295,194,166126,2,0,P|317:190|340:188,1,45.5100006944275,10|10,0:2|0:2,0:0:0:0:
495,158,166241,22,0,P|453:65|327:98,1,226.44000138208,6|8,1:2|0:2,0:0:0:0:
303,296,166587,1,0,0:2:0:0:
395,322,166702,2,0,P|381:271|365:207,1,102.1199965719,0|0,1:2|1:2,0:0:0:0:
135,112,166933,1,8,0:2:0:0:
227,236,167049,1,0,1:2:0:0:
271,148,167164,2,0,P|194:172|97:205,1,153.179994857849,0|0,1:2|0:2,0:0:0:0:
93,204,167395,2,0,P|92:260|139:307,1,102.1199965719,10|0,0:2|0:2,0:0:0:0:
330,85,167626,2,0,P|288:57|237:61,1,102.1199965719,2|0,1:2|0:2,0:0:0:0:
308,323,167857,2,0,P|353:300|375:255,1,102.1199965719,10|0,0:2|1:2,0:0:0:0:
248,193,168030,1,0,1:2:0:0:
252,197,168087,6,0,L|278:353,1,153.179994857849,2|0,1:2|0:2,0:0:0:0:
282,378,168318,1,10,0:2:0:0:
117,267,168434,2,0,P|107:196|162:133,1,153.179994857849,2|0,1:2|0:2,0:0:0:0:
174,125,168665,1,0,1:2:0:0:
305,283,168779,1,10,0:2:0:0:
406,133,168895,1,0,1:2:0:0:
291,9,169010,2,0,P|280:108|263:221,2,204.239993143799,6|8|0,1:2|0:2|1:2,0:0:0:0:
386,216,169587,1,0,1:2:0:0:
191,148,169702,1,10,0:2:0:0:
392,52,169818,1,2,1:2:0:0:
294,309,169933,102,0,B|181:332|227:238|86:271,1,204.239993143799,6|8,1:2|0:2,0:0:0:0:
10,112,170279,1,0,0:2:0:0:
101,66,170395,2,0,P|90:122|77:189,1,102.1199965719,0|0,1:2|1:2,0:0:0:0:
38,356,170625,1,8,0:2:0:0:
191,210,170741,1,0,1:2:0:0:
274,332,170856,2,0,P|191:319|117:307,1,153.179994857849,0|0,1:2|0:2,0:0:0:0:
271,125,171087,2,0,P|290:181|318:231,1,102.1199965719,10|0,0:2|0:2,0:0:0:0:
61,202,171318,2,0,P|100:158|130:109,1,102.1199965719,2|0,1:2|0:2,0:0:0:0:
231,331,171549,2,0,P|174:320|116:319,1,102.1199965719,10|0,0:2|1:2,0:0:0:0:
181,227,171722,1,0,1:2:0:0:
181,227,171780,6,0,B|289:199|265:272|403:239,1,204.239993143799,2|8,1:2|0:2,0:0:0:0:
499,224,172125,1,0,1:2:0:0:
485,338,172241,2,0,P|471:251|450:122,1,204.239993143799,2|8,1:2|0:2,0:0:0:0:
241,69,172587,1,0,1:2:0:0:
351,17,172702,2,0,P|341:69|326:142,1,102.1199965719,2|0,1:2|0:2,0:0:0:0:
287,330,172934,2,0,P|297:280|307:230,1,102.1199965719,10|0,0:2|0:2,0:0:0:0:
165,161,173164,2,0,P|115:170|65:177,1,102.1199965719,2|0,1:2|0:2,0:0:0:0:
82,270,173395,2,0,P|132:261|183:255,1,102.1199965719,10|0,0:2|0:2,0:0:0:0:
331,117,173626,102,0,P|430:111|473:199,1,204.239993143799,2|8,1:2|0:2,0:0:0:0:
357,323,173972,2,0,P|309:303|260:291,1,102.1199965719,2|0,0:2|1:2,0:0:0:0:
346,229,174202,1,0,1:2:0:0:
282,381,174318,1,8,0:2:0:0:
346,229,174433,1,0,1:2:0:0:
125,315,174549,1,0,1:2:0:0:
125,315,174664,1,0,1:2:0:0:
219,173,174779,1,8,0:2:0:0:
128,203,174895,1,0,0:2:0:0:
309,63,175010,1,2,1:2:0:0:
257,270,175125,1,2,1:2:0:0:
55,160,175241,1,10,0:2:0:0:
174,42,175356,5,2,1:2:0:0:
174,42,175414,1,0,1:2:0:0:
174,42,175472,2,0,B|165:147|199:140|193:261,1,204.239993143799,2|8,1:2|0:2,0:0:0:0:
48,367,175818,2,0,P|23:320|40:249,1,102.1199965719,2|0,1:2|0:2,0:0:0:0:
270,314,176049,1,0,1:2:0:0:
193,244,176164,2,0,P|183:306|176:349,1,102.1199965719,10|0,0:2|0:2,0:0:0:0:
211,148,176395,2,0,P|219:97|227:47,1,102.1199965719,6|0,1:2|0:2,0:0:0:0:
452,174,176625,2,0,P|388:213|315:195,1,153.179994857849,8|0,0:2|0:2,0:0:0:0:
75,92,176856,1,2,1:2:0:0:
227,47,176972,1,2,1:2:0:0:
95,227,177087,1,10,0:2:0:0:
257,293,177202,1,2,1:2:0:0:
95,227,177318,102,0,B|191:260|185:171|317:214,1,204.239993143799,6|8,1:2|0:2,0:0:0:0:
452,83,177664,1,0,1:2:0:0:
361,43,177779,2,0,P|373:95|391:177,1,102.1199965719,2|0,1:2|0:2,0:0:0:0:
434,349,178011,2,0,P|422:297|404:215,1,102.1199965719,8|0,0:2|0:2,0:0:0:0:
288,109,178241,2,0,P|187:84|117:163,1,204.239993143799,6|8,1:2|0:2,0:0:0:0:
121,147,178587,1,0,1:2:0:0:
225,379,178703,2,0,B|259:339|290:319|290:319|246:281|216:178,1,204.239993143799,2|8,1:2|0:2,0:0:0:0:
230,221,179049,1,0,1:2:0:0:
151,328,179164,5,2,1:2:0:0:
365,254,179279,1,8,0:2:0:0:
151,328,179395,1,8,0:2:0:0:
365,254,179510,1,0,1:2:0:0:
197,111,179625,1,8,0:2:0:0:
228,209,179741,1,4,1:3:0:0:
234,228,179798,1,0,1:0:0:0:
240,248,179856,1,8,0:2:0:0:
356,62,179972,2,0,L|377:134,1,51.0599982859498,8|0,0:2|0:0,0:0:0:0:
401,195,180087,101,0,1:2:0:0:
197,111,180203,1,8,0:0:0:0:
189,321,180318,1,8,0:0:0:0:
329,262,180433,1,0,1:2:0:0:
127,177,180549,1,8,0:0:0:0:
283,110,180664,1,8,0:0:0:0:
49,224,180780,1,8,1:3:0:0:
356,62,180895,1,4,1:3:0:0:
171,252,181011,86,0,P|158:174|142:79,1,136.530002083283,6|0,1:2|0:2,0:0:0:0:
141,87,181242,2,0,P|177:60|232:67,1,91.020001388855,8|0,0:2|0:2,0:0:0:0:
388,195,181472,2,0,P|400:272|417:368,1,136.530002083283,2|0,1:2|0:2,0:0:0:0:
418,360,181703,2,0,P|381:386|326:379,1,91.020001388855,8|0,0:2|0:2,0:0:0:0:
171,252,181934,1,2,1:2:0:0:
171,252,182165,6,0,P|125:261|61:273,1,91.020001388855,10|0,0:2|0:2,0:0:0:0:
263,119,182396,1,2,1:2:0:0:
164,68,182511,2,0,P|174:111|184:156,1,91.020001388855,2|8,0:2|0:2,0:0:0:0:
81,105,182741,2,0,P|176:112|283:120,1,182.04000277771,2|0,0:2|0:2,0:0:0:0:
257,200,183087,2,0,P|166:193|75:186,1,182.04000277771,10|0,0:2|1:2,0:0:0:0:
146,366,183434,1,0,0:2:0:0:
226,267,183550,1,10,0:2:0:0:
155,289,183665,1,0,0:2:0:0:
313,354,183780,102,0,P|383:364|450:321,1,136.530002083283,2|0,1:2|0:2,0:0:0:0:
472,316,184011,2,0,P|460:274|438:229,1,91.020001388855,10|0,0:2|0:2,0:0:0:0:
261,262,184241,2,0,P|303:272|353:276,1,91.020001388855,2|0,1:2|0:2,0:0:0:0:
399,115,184472,2,0,P|368:146|340:187,1,91.020001388855,10|0,0:2|0:2,0:0:0:0:
119,117,184703,6,0,P|187:108|255:99,1,136.530002083283,2|0,1:2|0:2,0:0:0:0:
281,96,184934,2,0,P|283:47|254:10,1,91.020001388855,8|0,0:2|0:2,0:0:0:0:
177,205,185164,2,0,P|108:196|41:187,1,136.530002083283,2|0,1:2|0:2,0:0:0:0:
15,184,185395,2,0,P|13:135|42:98,1,91.020001388855,8|0,0:2|0:2,0:0:0:0:
193,305,185626,1,6,1:2:0:0:
193,305,185857,102,0,P|238:298|283:292,1,91.020001388855,10|0,0:2|0:2,0:0:0:0:
437,173,186088,1,2,1:2:0:0:
314,109,186203,2,0,P|325:150|343:217,1,91.020001388855,2|8,0:2|0:2,0:0:0:0:
193,305,186434,2,0,P|142:237|187:147,1,182.04000277771,2|0,0:2|0:2,0:0:0:0:
337,196,186780,2,0,B|348:297|300:268|312:373,1,182.04000277771,10|0,0:2|1:2,0:0:0:0:
242,232,187126,1,2,0:2:0:0:
369,127,187242,1,8,0:2:0:0:
301,75,187357,1,0,0:2:0:0:
369,127,187473,6,0,L|503:102,1,136.530002083283,2|0,1:2|0:2,0:0:0:0:
512,131,187703,2,0,P|522:180|496:236,1,91.020001388855,10|0,0:2|0:2,0:0:0:0:
422,321,187934,2,0,P|376:316|331:313,1,91.020001388855,2|0,1:2|0:2,0:0:0:0:
245,280,188164,2,0,P|199:275|154:272,1,91.020001388855,10|0,0:2|0:2,0:0:0:0:
52,362,188396,102,0,P|39:295|24:217,1,136.530002083283,6|0,1:2|0:2,0:0:0:0:
17,199,188626,2,0,P|59:173|118:186,1,91.020001388855,8|0,0:2|0:2,0:0:0:0:
357,241,188857,2,0,P|296:234|188:221,1,136.530002083283,2|0,1:2|0:2,0:0:0:0:
188,226,189088,2,0,P|177:182|196:141,1,91.020001388855,8|0,0:2|0:2,0:0:0:0:
361,351,189319,1,2,1:2:0:0:
361,351,189550,2,0,P|408:339|475:323,1,91.020001388855,10|0,0:2|0:2,0:0:0:0:
282,304,189780,1,2,1:2:0:0:
476,250,189896,1,2,0:2:0:0:
282,304,190011,2,0,P|237:314|193:326,1,91.020001388855,10|0,0:2|0:2,0:0:0:0:
27,359,190241,6,0,P|40:270|54:172,1,182.04000277771,2|8,1:2|0:2,0:0:0:0:
251,54,190587,2,0,P|238:144|224:234,1,182.04000277771,2|0,0:2|0:2,0:0:0:0:
313,136,190934,2,0,P|362:128|436:115,1,91.020001388855,10|0,0:2|0:2,0:0:0:0:
162,155,191165,1,2,1:2:0:0:
162,155,191396,102,0,P|121:175|77:187,1,91.020001388855,10|0,0:2|0:2,0:0:0:0:
262,205,191626,2,0,P|264:159|276:115,1,91.020001388855,2|0,1:2|0:2,0:0:0:0:
169,263,191857,2,0,P|207:287|239:319,1,91.020001388855,10|0,0:2|0:2,0:0:0:0:
370,351,192088,6,0,P|467:356|514:280,1,182.04000277771,6|8,1:2|0:2,0:0:0:0:
512,293,192434,1,0,0:2:0:0:
270,344,192550,2,0,B|170:365|189:310|78:332,1,182.04000277771,0|8,1:2|0:2,0:0:0:0:
91,329,192896,1,0,0:2:0:0:
261,225,193011,2,0,P|272:124|280:62,1,136.530002083283,6|0,1:2|0:0,0:0:0:0:
286,60,193241,2,0,P|238:50|194:80,1,91.020001388855,8|0,0:0|0:2,0:0:0:0:
373,191,193472,2,0,P|420:182|486:172,1,91.020001388855,8|0,0:2|0:0,0:0:0:0:
436,273,193703,1,8,0:2:0:0:
402,99,193818,1,8,0:2:0:0:
473,39,193934,101,2,1:2:0:0:
473,39,194164,2,0,P|383:68|279:71,1,182.04000277771,8|8,0:2|0:2,0:0:0:0:
88,179,194511,1,0,1:0:0:0:
172,279,194626,2,0,P|180:230|192:167,1,91.020001388855,8|0,0:0|0:2,0:0:0:0:
205,115,194857,1,2,1:2:0:0:
205,115,195087,2,0,P|295:120|381:148,1,182.04000277771,4|8,0:3|0:2,0:0:0:0:
493,266,195434,1,0,1:0:0:0:
373,352,195549,2,0,P|381:303|393:240,1,91.020001388855,8|0,0:2|1:0,0:0:0:0:
150,196,195780,5,10,0:2:0:0:
291,303,195895,1,8,1:2:0:0:
381,148,196011,1,8,0:2:0:0:
231,124,196126,1,0,1:2:0:0:
388,262,196241,2,0,P|448:252|495:248,1,91.020001388855,8|8,0:2|1:3,0:0:0:0:
434,24,196472,1,0,1:2:0:0:
403,32,196529,1,0,1:2:0:0:
372,39,196587,1,0,1:2:0:0:
340,43,196645,1,0,1:0:0:0:
308,45,196702,101,10,0:2:0:0:
195,124,196818,1,8,0:2:0:0:
231,124,196875,1,8,0:0:0:0:
267,130,196933,1,8,0:2:0:0:
426,223,197049,2,0,P|374:234|353:243,1,45.5100006944275,8|8,0:3|0:3,0:0:0:0:
249,299,197164,1,8,0:3:0:0:
203,210,197280,1,8,0:3:0:0:
239,216,197338,1,8,0:3:0:0:
275,216,197395,1,8,0:3:0:0:
291,377,197511,1,4,0:3:0:0:
255,377,197568,1,4,0:3:0:0:
219,383,197626,22,0,P|136:371|62:364,1,153.179994857849,6|0,1:2|0:2,0:0:0:0:
36,377,197857,2,0,P|19:330|41:276,1,102.1199965719,8|0,0:2|0:2,0:0:0:0:
158,127,198087,1,0,1:2:0:0:
5,168,198203,1,0,1:2:0:0:
158,127,198318,2,0,P|233:137|275:139,1,102.1199965719,10|0,0:2|0:2,0:0:0:0:
333,308,198549,6,0,P|234:293|89:290,2,204.239993143799,0|8|0,1:2|0:2|1:2,0:0:0:0:
491,210,199126,1,0,1:2:0:0:
360,96,199241,1,8,0:2:0:0:
273,209,199357,1,0,1:2:0:0:
436,344,199472,102,0,P|426:280|422:213,1,102.1199965719,0|0,1:2|0:2,0:0:0:0:
333,277,199703,2,0,P|343:341|347:408,1,102.1199965719,8|0,0:2|0:2,0:0:0:0:
204,325,199934,2,0,P|121:331|41:339,1,153.179994857849,2|0,1:2|0:2,0:0:0:0:
20,354,200164,2,0,P|-3:298|14:247,1,102.1199965719,8|0,0:2|0:2,0:0:0:0:
122,117,200395,6,0,B|237:90|203:170|344:132,1,204.239993143799,2|8,1:2|0:2,0:0:0:0:
459,267,200741,1,0,0:2:0:0:
348,339,200857,2,0,P|361:274|363:218,1,102.1199965719,2|0,1:2|0:2,0:0:0:0:
459,267,201087,2,0,P|446:332|444:388,1,102.1199965719,8|0,0:2|0:2,0:0:0:0:
249,284,201318,102,0,P|225:205|343:139,1,204.239993143799,6|8,1:2|0:2,0:0:0:0:
427,192,201664,2,0,P|451:271|333:337,1,204.239993143799,0|0,1:2|1:2,0:0:0:0:
319,216,202011,1,10,0:2:0:0:
435,99,202126,1,0,1:2:0:0:
304,15,202241,6,0,P|319:84|326:134,1,102.1199965719,0|0,1:2|0:2,0:0:0:0:
121,291,202472,2,0,P|137:192|156:54,1,204.239993143799,8|0,0:2|1:2,0:0:0:0:
64,152,202818,1,0,1:2:0:0:
225,129,202934,1,8,0:2:0:0:
45,256,203049,1,0,1:2:0:0:
248,237,203164,102,0,P|308:259|352:299,1,102.1199965719,0|0,1:2|0:2,0:0:0:0:
411,106,203395,2,0,P|351:84|307:44,1,102.1199965719,8|0,0:2|0:2,0:0:0:0:
330,171,203626,1,2,1:2:0:0:
406,13,203741,1,0,1:2:0:0:
230,83,203857,1,8,0:2:0:0:
435,218,203972,1,0,1:2:0:0:
355,383,204087,6,0,P|346:332|333:257,1,102.1199965719,2|0,1:2|0:2,0:0:0:0:
230,83,204318,2,0,P|220:168|212:259,1,153.179994857849,8|0,0:2|0:2,0:0:0:0:
214,265,204549,2,0,P|159:285|107:260,1,102.1199965719,2|0,1:2|0:2,0:0:0:0:
30,113,204780,1,8,0:2:0:0:
89,366,204895,1,0,1:2:0:0:
30,113,205011,102,0,B|139:101|117:158|247:140,1,204.239993143799,6|8,1:2|0:2,0:0:0:0:
412,87,205357,2,0,P|394:145|419:195,1,102.1199965719,0|0,1:2|0:2,0:0:0:0:
314,159,205587,1,0,1:2:0:0:
490,126,205703,1,10,0:2:0:0:
314,159,205818,1,0,1:2:0:0:
490,126,205934,6,0,P|482:203|474:287,1,153.179994857849,0|0,1:2|0:2,0:0:0:0:
482,301,206164,2,0,P|427:328|380:312,1,102.1199965719,8|0,0:2|0:2,0:0:0:0:
199,227,206395,1,0,1:2:0:0:
228,298,206511,1,0,1:2:0:0:
184,133,206626,1,8,0:2:0:0:
237,384,206741,1,0,1:2:0:0:
184,133,206857,102,0,P|235:79|316:103,1,153.179994857849,0|0,1:2|0:2,0:0:0:0:
322,100,207087,2,0,P|316:156|312:205,1,102.1199965719,8|0,0:2|0:2,0:0:0:0:
53,373,207318,2,0,P|44:296|29:203,1,153.179994857849,2|0,1:2|0:2,0:0:0:0:
18,199,207549,2,0,P|69:167|121:185,1,102.1199965719,8|0,0:2|0:2,0:0:0:0:
344,303,207780,6,0,P|259:310|147:343,1,153.179994857849,2|0,1:2|0:2,0:0:0:0:
174,342,208011,2,0,P|165:277|189:240,1,102.1199965719,8|0,0:2|0:2,0:0:0:0:
411,161,208241,1,2,1:2:0:0:
293,347,208357,1,0,1:2:0:0:
122,192,208472,1,8,0:2:0:0:
260,93,208587,1,0,1:2:0:0:
174,342,208703,102,0,P|59:354|0:267,1,204.239993143799,6|8,1:2|0:2,0:0:0:0:
207,29,209049,2,0,B|207:142|242:127|245:247,1,204.239993143799,0|0,1:2|1:2,0:0:0:0:
344,76,209395,1,8,0:2:0:0:
122,192,209511,1,0,1:2:0:0:
344,76,209626,6,0,P|411:94|464:102,1,102.1199965719,0|0,1:2|0:2,0:0:0:0:
193,158,209857,2,0,P|175:90|155:41,1,102.1199965719,8|0,0:2|0:2,0:0:0:0:
340,243,210087,2,0,P|290:292|257:333,1,102.1199965719,0|0,1:2|0:2,0:0:0:0:
306,146,210318,1,8,0:2:0:0:
306,146,210434,1,0,1:2:0:0:
92,307,210549,102,0,P|76:237|54:177,1,102.1199965719,6|0,1:2|0:2,0:0:0:0:
86,81,210780,1,8,0:2:0:0:
22,118,210895,1,0,1:2:0:0:
239,229,211011,2,0,P|255:159|277:99,1,102.1199965719,2|0,1:2|0:2,0:0:0:0:
274,30,211241,1,8,0:2:0:0:
210,67,211356,1,0,1:2:0:0:
431,284,211472,6,0,P|415:214|393:154,1,102.1199965719,2|0,1:2|0:2,0:0:0:0:
371,76,211703,1,8,0:2:0:0:
435,113,211818,1,0,1:2:0:0:
299,296,211934,2,0,P|253:322|187:310,1,102.1199965719,2|0,1:2|0:2,0:0:0:0:
52,112,212164,1,8,0:2:0:0:
326,211,212280,1,0,1:2:0:0:
52,112,212395,102,0,P|10:168|36:312,1,204.239993143799,6|8,1:2|0:2,0:0:0:0:
220,162,212741,2,0,P|208:114|194:41,1,102.1199965719,0|0,1:2|0:2,0:0:0:0:
122,151,212972,1,0,1:2:0:0:
291,88,213087,1,10,0:2:0:0:
186,271,213203,1,0,1:2:0:0:
271,379,213318,6,0,P|281:303|293:213,1,153.179994857849,0|0,1:2|0:2,0:0:0:0:
289,200,213549,2,0,P|355:186|396:215,1,102.1199965719,8|0,0:2|0:2,0:0:0:0:
186,271,213780,2,0,P|97:288|65:295,1,102.1199965719,0|0,1:2|0:2,0:0:0:0:
122,179,214011,1,8,0:2:0:0:
155,372,214126,1,0,1:2:0:0:
122,179,214241,102,0,P|142:83|214:65,1,153.179994857849,0|0,1:2|0:2,0:0:0:0:
204,74,214472,2,0,P|251:82|307:88,1,102.1199965719,8|0,0:2|0:2,0:0:0:0:
427,249,214703,2,0,B|342:242|363:292|247:279,1,153.179994857849,2|0,1:2|0:2,0:0:0:0:
251,276,214934,2,0,P|235:208|256:175,1,102.1199965719,8|0,0:2|0:2,0:0:0:0:
481,170,215164,6,0,P|470:257|457:359,1,153.179994857849,2|0,1:2|0:2,0:0:0:0:
461,347,215395,2,0,P|411:373|346:350,1,102.1199965719,8|0,0:2|0:2,0:0:0:0:
149,208,215626,2,0,P|94:221|27:240,1,102.1199965719,2|0,1:2|0:2,0:0:0:0:
145,93,215857,1,8,0:2:0:0:
126,328,215972,1,8,0:2:0:0:
126,328,216030,1,8,0:2:0:0:
126,328,216087,102,0,P|189:366|319:329,1,204.239993143799,6|8,1:2|0:2,0:0:0:0:
435,211,216434,1,0,1:2:0:0:
249,259,216549,1,0,1:2:0:0:
422,99,216664,1,8,1:3:0:0:
236,147,216779,1,8,0:2:0:0:
372,319,216895,1,0,1:2:0:0:
435,211,217011,6,0,P|364:218|324:227,1,102.1199965719,2|0,1:2|0:2,0:0:0:0:
35,328,217241,1,8,0:2:0:0:
77,83,217357,1,0,1:2:0:0:
143,330,217472,1,0,1:2:0:0:
181,110,217588,1,8,1:3:0:0:
259,331,217703,1,8,0:2:0:0:
294,144,217819,1,0,1:2:0:0:
104,210,217934,102,0,P|164:217|215:235,1,102.1199965719,0|0,1:2|0:2,0:0:0:0:
247,20,218164,2,0,P|187:13|136:-5,1,102.1199965719,8|0,0:2|0:2,0:0:0:0:
305,189,218395,2,0,P|356:195|413:207,1,102.1199965719,0|0,1:2|0:2,0:0:0:0:
419,111,218626,2,0,P|368:105|311:93,1,102.1199965719,8|0,0:2|0:2,0:0:0:0:
25,110,218857,6,0,P|106:116|203:135,1,153.179994857849,2|0,1:2|0:2,0:0:0:0:
198,147,219087,2,0,P|210:89|177:34,1,102.1199965719,10|0,0:2|0:2,0:0:0:0:
120,250,219318,2,0,P|138:322|144:368,1,102.1199965719,2|0,1:2|0:2,0:0:0:0:
229,270,219549,1,10,0:2:0:0:
42,321,219664,1,0,1:2:0:0:
229,270,219780,102,0,B|314:258|299:296|400:282,1,153.179994857849,2|0,1:2|0:2,0:0:0:0:
404,284,220011,2,0,P|411:225|385:182,1,102.1199965719,8|0,0:2|0:2,0:0:0:0:
255,108,220241,1,0,1:2:0:0:
431,49,220357,1,0,1:2:0:0:
255,108,220472,2,0,P|176:97|139:87,1,102.1199965719,10|0,0:2|0:2,0:0:0:0:
73,286,220703,6,0,P|167:292|305:323,2,204.239993143799,0|8|0,1:2|0:2|1:2,0:0:0:0:
192,189,221280,1,0,1:2:0:0:
0,246,221395,1,8,0:2:0:0:
96,325,221511,1,8,0:2:0:0:
96,325,221568,1,8,0:2:0:0:
96,325,221626,102,0,P|146:326|197:335,1,102.1199965719,0|0,1:2|0:2,0:0:0:0:
341,315,221857,2,0,P|391:316|442:325,1,102.1199965719,8|0,0:2|0:2,0:0:0:0:
197,335,222087,2,0,P|175:268|230:197,1,153.179994857849,2|0,1:2|0:2,0:0:0:0:
237,205,222318,2,0,P|287:206|338:215,1,102.1199965719,8|0,0:2|0:2,0:0:0:0:
361,43,222549,6,0,P|310:41|259:32,1,102.1199965719,2|0,1:2|0:2,0:0:0:0:
93,180,222780,1,8,0:2:0:0:
292,118,222895,1,0,1:2:0:0:
60,94,223011,1,2,1:2:0:0:
259,32,223126,1,8,1:3:0:0:
93,180,223241,1,8,0:2:0:0:
270,288,223357,1,8,0:2:0:0:
270,288,223414,1,8,0:2:0:0:
270,288,223472,102,0,P|360:316|456:247,1,204.239993143799,6|8,1:2|0:2,0:0:0:0:
292,118,223818,2,0,P|224:137|159:139,1,102.1199965719,0|0,1:2|0:2,0:0:0:0:
95,324,224049,1,0,1:2:0:0:
171,261,224164,2,0,P|103:242|38:240,1,102.1199965719,8|0,0:2|0:2,0:0:0:0:
259,374,224395,6,0,P|324:355|442:341,1,153.179994857849,0|0,1:2|0:2,0:0:0:0:
430,346,224626,2,0,P|441:290|411:245,1,102.1199965719,8|0,0:2|0:2,0:0:0:0:
272,96,224857,1,0,1:2:0:0:
170,232,224972,1,0,1:2:0:0:
329,327,225087,1,8,0:2:0:0:
358,180,225203,1,0,1:2:0:0:
75,197,225318,102,0,P|94:267|100:314,1,102.1199965719,6|0,1:2|0:2,0:0:0:0:
454,229,225549,2,0,P|435:159|429:112,1,102.1199965719,8|0,0:2|0:2,0:0:0:0:
198,164,225780,2,0,P|223:218|231:284,1,102.1199965719,0|0,1:2|0:2,0:0:0:0:
319,235,226011,2,0,P|294:181|286:115,1,102.1199965719,8|0,0:2|0:2,0:0:0:0:
221,75,226241,1,0,1:2:0:0:
212,86,226472,5,8,1:3:0:0:
443,114,226587,1,8,1:3:0:0:
224,184,226703,1,8,1:3:0:0:
424,210,226818,1,8,1:3:0:0:
238,288,226934,1,8,1:3:0:0:
379,313,227049,1,8,1:3:0:0:
321,235,227164,38,0,P|327:195|332:149,1,68.8199972697145,2|0,0:2|0:2,0:0:0:0:
330,166,227625,1,0,0:2:0:0:
115,72,227856,2,0,P|109:112|104:158,1,68.8199972697145,2|0,0:2|0:2,0:0:0:0:
106,141,228317,1,0,0:2:0:0:
125,326,228548,5,2,0:2:0:0:
105,236,228779,1,0,0:2:0:0:
30,291,229010,1,0,0:2:0:0:
299,251,229240,1,2,0:2:0:0:
216,197,229471,1,0,0:2:0:0:
300,153,229702,1,0,0:2:0:0:
280,133,229933,101,2,0:2:0:0:
372,285,230164,1,0,0:2:0:0:
462,113,230394,1,0,0:2:0:0:
372,285,230625,1,0,0:2:0:0:
462,113,230856,6,0,P|453:71|450:37,2,68.8199972697145,2|0|0,0:2|0:2|0:2,0:0:0:0:
479,221,231548,2,0,P|486:254|490:288,2,68.8199972697145,2|0|0,0:2|0:2|0:2,0:0:0:0:
330,88,232240,1,2,0:2:0:0:
253,110,232471,1,0,0:2:0:0:
176,132,232702,1,0,0:2:0:0:
353,206,232933,1,2,0:2:0:0:
276,228,233164,1,0,0:2:0:0:
199,250,233395,1,0,0:2:0:0:
292,324,233625,101,2,0:2:0:0:
94,240,233856,1,0,0:2:0:0:
381,141,234087,1,0,0:2:0:0:
122,41,234317,1,2,0:2:0:0:
216,18,234548,6,0,P|258:26|285:28,1,68.8199972697145,2|0,0:2|0:2,0:0:0:0:
283,27,235010,1,0,0:2:0:0:
258,238,235240,2,0,P|216:230|189:228,1,68.8199972697145,2|0,0:2|0:2,0:0:0:0:
190,228,235702,1,0,0:2:0:0:
232,140,235933,101,2,0:2:0:0:
232,140,236164,1,0,0:2:0:0:
232,140,236394,1,0,0:2:0:0:
85,228,236625,1,2,0:2:0:0:
85,228,236856,1,0,0:2:0:0:
219,317,237087,1,0,0:2:0:0:
176,258,237317,1,2,0:2:0:0:
142,316,237548,1,0,0:2:0:0:
307,212,237779,1,0,0:2:0:0:
141,127,238010,1,2,0:2:0:0:
331,334,238240,6,0,P|389:326|410:324,1,68.8199972697145,2|0,0:2|0:2,0:0:0:0:
399,324,238702,1,0,0:2:0:0:
464,273,238933,1,0,0:2:0:0:
377,214,239164,1,2,0:2:0:0:
429,168,239394,1,2,0:2:0:0:
291,220,239625,101,2,0:2:0:0:
378,299,239856,1,0,0:2:0:0:
377,214,240087,1,2,0:2:0:0:
292,298,240317,1,2,0:2:0:0:
206,271,240548,1,0,0:2:0:0:
94,339,240779,1,2,0:2:0:0:
0,174,241010,1,2,0:2:0:0:
112,227,241240,1,0,0:2:0:0:
216,179,241471,1,2,0:2:0:0:
291,220,241702,1,2,0:2:0:0:
124,54,241933,6,0,P|117:99|109:137,1,68.8199972697145,2|0,0:2|0:2,0:0:0:0:
254,65,242394,1,0,0:2:0:0:
303,116,242625,1,2,0:2:0:0:
419,174,242856,2,0,P|426:129|434:91,2,68.8199972697145,0|0|0,0:2|0:2|0:2,0:0:0:0:
366,319,243548,1,2,0:2:0:0:
471,286,243779,1,2,0:2:0:0:
366,319,244010,2,0,P|329:313|289:309,1,68.8199972697145,2|0,0:2|0:2,0:0:0:0:
211,293,244471,2,0,P|176:289|142:283,1,68.8199972697145,2|0,0:2|0:2,0:0:0:0:
52,233,244933,1,2,0:2:0:0:
76,342,245164,1,2,0:2:0:0:
54,232,245394,102,0,P|63:163|69:77,1,137.639994539429,2|0,0:2|0:2,0:0:0:0:
68,95,246087,1,0,0:2:0:0:
283,179,246317,1,2,0:2:0:0:
191,79,246548,1,2,0:2:0:0:
285,14,246779,2,0,P|276:73|271:111,1,68.8199972697145,2|0,0:2|0:2,0:0:0:0:
425,75,247240,1,2,0:2:0:0:
357,27,247471,2,0,P|348:86|343:124,1,68.8199972697145,2|0,0:2|0:2,0:0:0:0:
325,260,247933,2,0,P|334:201|339:163,2,68.8199972697145,0|0|0,0:2|0:2|0:2,0:0:0:0:
244,209,248625,1,2,0:2:0:0:
410,243,248856,1,2,0:2:0:0:
244,209,249087,6,0,B|169:209|182:236|90:232,1,137.639994539429,2|0,0:2|0:2,0:0:0:0:
109,232,249779,1,0,0:2:0:0:
25,141,250010,2,0,P|74:133|103:123,2,68.8199972697145,2|0|0,0:2|0:2|0:2,0:0:0:0:
208,69,250702,2,0,P|159:61|130:51,2,68.8199972697145,2|0|0,0:2|0:2|0:2,0:0:0:0:
272,129,251510,101,2,0:2:0:0:
349,44,251856,5,2,0:2:0:0:
430,169,252202,101,2,0:2:0:0:
430,169,252664,6,0,P|424:212|420:253,1,68.8199972697145,2|0,0:2|0:2,0:0:0:0:
417,352,253482,1,2,0:2:0:0:
306,161,254064,102,0,P|297:227|292:311,1,137.639994539429,2|0,0:2|0:2,0:0:0:0:
292,297,255555,1,2,0:2:0:0:
175,208,256533,6,0,P|112:221|45:243,1,115.43999929541,2|0,0:2|0:2,0:0:0:0:
136,139,257692,2,0,P|97:147|55:160,1,71.04,2|0,0:2|0:2,0:0:0:0:
151,58,258852,102,0,P|69:72|15:92,1,139.860003414551,2|0,0:2|0:2,0:0:0:0:
16,92,263166,86,0,P|8:157|-1:208,1,113.22000069104,6|0,1:2|0:2,0:0:0:0:
119,308,263396,1,8,0:2:0:0:
259,224,263512,1,0,1:2:0:0:
331,298,263627,2,0,P|397:306|462:322,1,113.22000069104,2|4,0:2|0:3,0:0:0:0:
512,103,263858,2,0,P|446:95|381:79,1,113.22000069104,8|0,0:2|0:2,0:0:0:0:
136,112,264089,1,2,1:2:0:0:
231,0,264204,2,0,P|243:105|265:257,1,226.44000138208,8|0,0:2|1:2,0:0:0:0:
194,371,264550,1,10,0:2:0:0:
418,262,264666,1,0,1:2:0:0:
273,108,264781,1,10,0:2:0:0:
140,235,264897,1,0,1:2:0:0:
312,354,265012,6,0,P|322:294|333:240,1,113.22000069104,2|0,1:2|0:2,0:0:0:0:
180,153,265242,1,8,0:2:0:0:
336,54,265358,1,0,1:2:0:0:
240,11,265473,2,0,P|165:32|110:39,1,113.22000069104,2|0,0:2|1:2,0:0:0:0:
133,269,265704,2,0,P|208:248|263:241,1,113.22000069104,8|0,0:2|0:2,0:0:0:0:
255,125,265935,1,2,1:2:0:0:
180,153,266050,1,0,1:2:0:0:
259,331,266166,1,8,0:2:0:0:
334,303,266281,1,0,1:2:0:0:
379,138,266396,101,10,0:2:0:0:
142,265,266512,1,0,1:2:0:0:
379,138,266627,1,10,0:3:0:0:
142,265,266742,1,8,0:2:0:0:
351,211,266858,6,0,B|262:218|270:187|183:193,1,169.83000103656,2|0,1:2|0:2,0:0:0:0:
163,187,267089,1,8,0:2:0:0:
3,90,267204,2,0,P|66:78|116:61,1,113.22000069104,0|2,1:2|0:2,0:0:0:0:
346,109,267435,1,8,0:3:0:0:
181,4,267550,1,8,0:2:0:0:
81,179,267666,1,4,0:3:0:0:
246,227,267781,1,2,1:2:0:0:
184,107,267896,2,0,P|168:214|147:343,1,226.44000138208,8|0,0:2|1:2,0:0:0:0:
310,177,268242,101,10,0:2:0:0:
37,239,268358,1,0,1:2:0:0:
296,308,268473,1,10,0:2:0:0:
115,352,268589,1,0,1:2:0:0:
296,308,268704,6,0,P|359:313|417:329,1,113.22000069104,2|0,1:2|0:2,0:0:0:0:
310,177,268935,1,8,0:2:0:0:
404,144,269050,1,0,1:2:0:0:
439,17,269166,2,0,P|376:12|318:-4,1,113.22000069104,2|0,0:2|1:2,0:0:0:0:
289,284,269396,2,0,P|352:289|410:305,1,113.22000069104,8|0,0:2|0:2,0:0:0:0:
176,90,269627,101,2,1:2:0:0:
141,152,269742,1,0,1:2:0:0:
204,184,269858,1,8,0:2:0:0:
239,122,269973,1,0,1:2:0:0:
59,174,270089,5,10,0:2:0:0:
319,79,270204,1,8,0:3:0:0:
59,174,270319,1,2,1:2:0:0:
205,339,270435,1,8,0:2:0:0:
209,311,270492,1,8,0:2:0:0:
213,283,270550,102,0,P|117:270|48:328,1,169.83000103656,2|0,1:2|0:2,0:0:0:0:
122,365,270781,2,0,P|163:369|199:380,1,56.61000034552,8|0,0:2|0:2,0:0:0:0:
261,372,270896,2,0,P|302:376|338:387,1,56.61000034552,0|0,1:2|0:2,0:0:0:0:
399,360,271012,1,2,0:2:0:0:
306,224,271127,1,0,1:2:0:0:
306,224,271185,1,0,0:2:0:0:
306,224,271242,2,0,P|333:218|361:216,1,56.61000034552,8|0,0:2|0:2,0:0:0:0:
349,132,271358,2,0,P|321:137|293:139,1,56.61000034552,0|0,0:2|0:2,0:0:0:0:
124,253,271473,5,2,1:2:0:0:
139,163,271589,2,0,P|150:86|156:30,1,113.22000069104,8|0,0:2|0:2,0:0:0:0:
319,316,271819,1,0,1:2:0:0:
306,224,271935,2,0,P|295:147|289:91,1,113.22000069104,10|0,0:2|1:2,0:0:0:0:
206,341,272166,1,8,0:2:0:0:
394,210,272281,1,8,0:2:0:0:
394,210,272339,1,8,0:2:0:0:
394,210,272396,102,0,P|448:260|422:358,1,169.83000103656,2|0,1:2|0:2,0:0:0:0:
354,374,272627,2,0,P|284:368|264:368,1,56.61000034552,8|0,0:2|0:2,0:0:0:0:
206,341,272742,2,0,P|136:335|116:335,1,56.61000034552,4|0,0:3|0:2,0:0:0:0:
40,238,272858,1,10,0:3:0:0:
81,254,272915,1,8,0:3:0:0:
126,249,272973,1,8,0:3:0:0:
239,163,273089,6,0,B|318:152|322:182|419:171,1,169.83000103656,8|0,0:2|0:2,0:0:0:0:
419,168,273319,1,2,1:2:0:0:
295,30,273435,1,0,1:2:0:0:
345,298,273550,2,0,P|271:305|222:324,1,113.22000069104,8|0,0:2|0:2,0:0:0:0:
100,75,273781,2,0,P|174:68|223:49,1,113.22000069104,10|0,0:2|0:2,0:0:0:0:
130,258,274012,1,0,1:2:0:0:
217,176,274127,1,0,1:2:0:0:
301,208,274242,102,0,P|380:212|478:224,1,169.83000103656,2|0,1:2|0:2,0:0:0:0:
485,216,274473,1,8,0:2:0:0:
353,109,274589,1,0,1:2:0:0:
261,301,274704,1,2,0:2:0:0:
415,311,274819,1,0,1:2:0:0:
217,176,274935,2,0,P|150:190|127:240,1,113.22000069104,8|0,0:2|0:2,0:0:0:0:
188,366,275166,5,2,1:2:0:0:
261,301,275281,2,0,B|168:294|191:352|84:338,1,169.83000103656,8|0,0:2|0:2,0:0:0:0:
77,334,275512,1,4,1:3:0:0:
217,176,275627,1,10,0:2:0:0:
62,82,275742,1,0,1:2:0:0:
140,16,275858,1,8,0:2:0:0:
143,44,275915,1,8,0:2:0:0:
147,72,275973,1,8,0:2:0:0:
150,100,276031,1,8,0:2:0:0:
151,128,276089,102,0,P|206:149|276:135,1,113.22000069104,2|0,1:2|0:2,0:0:0:0:
454,40,276319,1,8,0:3:0:0:
301,216,276435,1,4,0:3:0:0:
436,304,276550,1,4,0:3:0:0:
188,341,276666,2,0,P|140:345|120:351,1,56.61000034552,8|0,0:2|0:2,0:0:0:0:
301,216,276781,2,0,P|315:240|334:261,1,56.61000034552,8|0,0:2|0:2,0:0:0:0:
139,194,276896,2,0,P|152:170|161:143,1,56.61000034552,8|0,0:2|0:2,0:0:0:0:
216,258,277012,5,0,1:2:0:0:
174,19,277127,1,8,0:2:0:0:
216,258,277242,1,8,0:2:0:0:
391,182,277358,1,8,0:3:0:0:
132,284,277473,1,0,1:2:0:0:
471,156,277589,1,8,0:2:0:0:
319,309,277704,1,8,0:2:0:0:
317,280,277761,1,8,0:2:0:0:
314,252,277819,1,8,0:2:0:0:
311,224,277877,1,8,0:2:0:0:
307,196,277935,38,0,P|344:165|445:204,1,136.530002083283,6|0,1:2|0:2,0:0:0:0:
440,192,278166,1,10,0:2:0:0:
319,309,278281,2,0,P|277:290|233:277,1,91.020001388855,2|0,1:2|0:2,0:0:0:0:
250,46,278511,1,2,1:2:0:0:
327,107,278627,2,0,P|310:179|301:234,1,91.020001388855,10|0,0:2|0:2,0:0:0:0:
113,279,278857,1,2,1:2:0:0:
212,189,278973,2,0,P|224:234|233:278,1,91.020001388855,2|8,1:2|0:2,0:0:0:0:
120,125,279204,1,0,0:2:0:0:
306,195,279319,1,2,1:2:0:0:
219,382,279434,1,0,1:2:0:0:
395,163,279550,1,10,0:2:0:0:
489,299,279665,1,2,0:2:0:0:
232,277,279781,6,0,P|152:285|78:300,1,136.530002083283,2|0,1:2|0:2,0:0:0:0:
77,301,280011,1,10,0:2:0:0:
219,362,280127,2,0,P|278:364|315:314,1,91.020001388855,2|0,1:2|0:2,0:0:0:0:
155,236,280357,1,2,1:2:0:0:
244,186,280473,2,0,P|236:237|229:299,1,91.020001388855,10|0,0:2|0:2,0:0:0:0:
397,130,280704,1,2,1:2:0:0:
326,53,280819,2,0,P|287:29|243:36,1,91.020001388855,2|8,1:2|0:2,0:0:0:0:
79,237,281050,1,0,0:2:0:0:
254,188,281165,1,2,1:2:0:0:
69,91,281281,1,2,1:2:0:0:
152,16,281396,2,0,P|159:60|164:106,1,91.020001388855,10|0,0:2|0:2,0:0:0:0:
417,267,281627,102,0,P|439:198|400:131,1,136.530002083283,6|0,1:2|0:2,0:0:0:0:
397,130,281857,1,10,0:2:0:0:
200,299,281973,2,0,P|145:280|85:266,1,91.020001388855,2|0,1:2|0:2,0:0:0:0:
183,88,282204,1,2,1:2:0:0:
271,148,282319,2,0,P|228:160|185:176,1,91.020001388855,10|0,0:2|0:2,0:0:0:0:
454,79,282550,1,2,1:2:0:0:
376,15,282665,2,0,P|362:106|347:199,1,182.04000277771,10|0,0:2|0:2,0:0:0:0:
248,368,283011,1,10,0:2:0:0:
480,308,283127,1,0,1:2:0:0:
243,339,283242,1,2,1:2:0:0:
497,213,283357,1,2,1:2:0:0:
321,95,283473,6,0,P|269:86|183:163,1,136.530002083283,6|0,1:2|0:2,0:0:0:0:
186,143,283704,1,10,0:2:0:0:
376,285,283819,2,0,P|363:241|353:196,1,91.020001388855,2|0,1:2|0:2,0:0:0:0:
173,268,284050,1,2,1:2:0:0:
255,369,284165,2,0,P|270:314|283:254,1,91.020001388855,10|0,0:2|0:2,0:0:0:0:
378,55,284396,1,2,1:2:0:0:
186,143,284511,1,10,0:2:0:0:
376,285,284627,1,8,0:2:0:0:
376,285,284857,101,10,0:2:0:0:
281,60,284973,1,8,0:3:0:0:
96,268,285088,1,10,0:3:0:0:
119,92,285204,1,4,0:3:0:0:
248,268,285319,6,0,P|314:268|359:219,1,136.530002083283,6|0,1:2|0:2,0:0:0:0:
365,198,285550,1,10,0:2:0:0:
119,221,285666,2,0,P|69:226|-11:245,1,91.020001388855,2|0,1:2|0:2,0:0:0:0:
83,328,285896,1,2,1:2:0:0:
53,138,286012,2,0,P|45:76|44:34,1,91.020001388855,10|0,0:2|0:2,0:0:0:0:
245,125,286242,1,2,1:2:0:0:
142,13,286358,2,0,P|144:58|151:103,1,91.020001388855,2|8,1:2|0:2,0:0:0:0:
233,261,286588,1,0,0:2:0:0:
159,224,286704,1,2,1:2:0:0:
299,183,286819,1,0,1:2:0:0:
67,286,286934,1,10,0:2:0:0:
299,367,287050,1,2,0:2:0:0:
67,286,287165,102,0,P|74:210|80:145,1,136.530002083283,2|0,1:2|0:2,0:0:0:0:
80,135,287396,1,10,0:2:0:0:
299,183,287511,2,0,P|357:193|405:207,1,91.020001388855,2|0,1:2|0:2,0:0:0:0:
374,89,287742,1,2,1:2:0:0:
326,275,287857,2,0,P|313:320|303:371,1,91.020001388855,10|0,0:2|0:2,0:0:0:0:
150,238,288089,1,2,1:2:0:0:
247,214,288204,2,0,P|235:257|225:302,1,91.020001388855,2|8,1:2|0:2,0:0:0:0:
102,362,288434,1,0,0:2:0:0:
76,161,288550,1,2,1:2:0:0:
102,362,288665,1,2,1:2:0:0:
76,161,288781,2,0,P|71:117|63:65,1,91.020001388855,10|0,0:2|0:2,0:0:0:0:
0,123,289011,6,0,P|70:109|160:99,1,136.530002083283,6|0,1:2|0:2,0:0:0:0:
156,99,289242,1,10,0:2:0:0:
330,194,289357,2,0,P|373:184|425:174,1,91.020001388855,2|0,1:2|0:2,0:0:0:0:
208,304,289588,1,2,1:2:0:0:
285,376,289704,2,0,P|292:331|302:280,1,91.020001388855,10|0,0:2|0:2,0:0:0:0:
142,139,289934,1,2,1:2:0:0:
55,231,290050,2,0,P|100:239|160:258,1,91.020001388855,2|8,1:2|0:0,0:0:0:0:
268,52,290281,1,0,0:0:0:0:
142,139,290396,1,10,0:2:0:0:
300,286,290511,1,0,1:2:0:0:
380,121,290627,1,10,0:2:0:0:
208,368,290742,1,10,0:2:0:0:
199,191,290857,102,0,P|194:123|187:38,1,136.530002083283,6|0,1:2|0:2,0:0:0:0:
186,38,291088,1,10,0:2:0:0:
296,200,291204,2,0,P|289:157|282:103,1,91.020001388855,2|0,1:2|0:2,0:0:0:0:
67,249,291434,1,2,1:2:0:0:
131,333,291550,2,0,P|142:236|156:125,1,182.04000277771,10|0,0:2|1:2,0:0:0:0:
310,320,291896,1,0,1:2:0:0:
245,113,292011,1,8,0:2:0:0:
26,163,292127,1,0,0:2:0:0:
245,113,292242,2,0,P|300:99|351:96,1,91.020001388855,6|0,1:2|0:2,0:0:0:0:
152,152,292473,2,0,P|112:111|84:68,1,91.020001388855,10|0,0:2|0:2,0:0:0:0:
232,217,292704,2,0,P|216:271|193:317,1,91.020001388855,2|0,1:2|0:2,0:0:0:0:
9,325,292935,6,0,P|117:326|298:377,1,273.060004166565,14|0,0:2|1:2,0:0:0:0:
397,267,293396,2,0,P|385:205|380:157,1,91.020001388855,8|0,0:2|0:0,0:0:0:0:
265,252,293627,1,2,1:2:0:0:
506,185,293742,1,8,0:0:0:0:
265,252,293858,1,8,0:2:0:0:
265,252,294089,1,2,1:2:0:0:
399,61,294204,1,8,0:2:0:0:
264,6,294319,101,8,0:2:0:0:
269,28,294376,1,8,0:0:0:0:
274,50,294434,1,8,0:2:0:0:
372,191,294550,1,10,0:3:0:0:
367,169,294608,1,8,0:3:0:0:
362,147,294665,1,8,0:3:0:0:
182,90,294781,5,8,1:2:0:0:
206,128,294838,1,8,1:2:0:0:
215,172,294896,1,8,1:3:0:0:
423,99,295012,1,0,1:2:0:0:
399,61,295069,1,0,1:2:0:0:
390,17,295127,1,8,1:2:0:0:
294,126,295242,101,10,0:2:0:0:
288,157,295299,1,10,0:2:0:0:
283,188,295357,1,10,0:2:0:0:
280,220,295415,1,10,0:2:0:0:
277,252,295473,22,0,P|342:296|466:204,1,226.44000138208,6|8,1:2|0:2,0:0:0:0:
294,126,295819,1,0,0:2:0:0:
398,61,295934,2,0,P|387:110|379:161,1,102.1199965719,0|0,1:2|1:2,0:0:0:0:
277,252,296165,1,8,0:2:0:0:
470,200,296281,1,0,1:2:0:0:
277,252,296396,2,0,P|192:234|116:236,1,153.179994857849,0|0,1:2|0:2,0:0:0:0:
97,244,296627,2,0,P|79:198|95:147,1,102.1199965719,10|0,0:2|0:2,0:0:0:0:
290,28,296858,2,0,P|339:35|375:75,1,102.1199965719,2|0,1:2|0:2,0:0:0:0:
380,303,297089,2,0,P|349:342|297:353,1,102.1199965719,10|0,0:2|1:2,0:0:0:0:
239,281,297261,1,0,1:2:0:0:
239,281,297319,6,0,P|248:208|259:127,1,153.179994857849,2|0,1:2|0:2,0:0:0:0:
261,108,297550,1,10,0:2:0:0:
97,244,297665,2,0,P|21:235|-8:164,1,153.179994857849,2|0,1:2|0:2,0:0:0:0:
0,147,297896,1,0,1:2:0:0:
167,70,298011,1,10,0:2:0:0:
6,326,298127,1,0,1:2:0:0:
239,281,298242,2,0,P|341:253|456:248,2,204.239993143799,6|8|0,1:2|0:2|1:2,0:0:0:0:
323,123,298819,1,0,1:2:0:0:
373,343,298934,1,10,0:2:0:0:
323,123,299050,1,2,1:2:0:0:
190,187,299165,102,0,B|77:210|123:116|-18:149,1,204.239993143799,6|8,1:2|0:2,0:0:0:0:
231,33,299511,1,0,0:2:0:0:
143,0,299627,2,0,P|154:49|162:100,1,102.1199965719,0|0,1:2|1:2,0:0:0:0:
128,305,299857,1,8,0:2:0:0:
299,146,299973,1,0,1:2:0:0:
190,187,300089,1,0,1:2:0:0:
190,187,300319,6,0,P|251:192|296:206,1,102.1199965719,10|0,0:2|0:2,0:0:0:0:
323,20,300550,2,0,P|295:63|259:99,1,102.1199965719,2|0,1:2|0:2,0:0:0:0:
396,222,300781,2,0,P|373:176|360:127,1,102.1199965719,10|0,0:2|1:2,0:0:0:0:
483,168,300954,1,0,1:2:0:0:
483,168,301011,102,0,P|370:164|262:229,1,204.239993143799,2|8,1:2|0:2,0:0:0:0:
121,282,301357,1,0,1:2:0:0:
161,384,301473,2,0,P|165:285|190:183,1,204.239993143799,2|8,1:2|0:2,0:0:0:0:
323,20,301819,1,0,1:2:0:0:
136,80,301935,2,0,P|81:103|24:107,1,102.1199965719,2|0,1:2|0:2,0:0:0:0:
318,38,302166,2,0,P|373:15|430:11,1,102.1199965719,10|0,0:2|0:2,0:0:0:0:
189,166,302396,2,0,P|134:189|77:193,1,102.1199965719,2|0,1:2|0:2,0:0:0:0:
292,154,302627,2,0,P|347:131|404:127,1,102.1199965719,10|0,0:2|0:2,0:0:0:0:
226,332,302858,6,0,P|116:350|52:283,1,204.239993143799,2|8,1:2|0:2,0:0:0:0:
0,171,303204,2,0,P|7:120|19:70,1,102.1199965719,2|0,0:2|1:2,0:0:0:0:
153,231,303434,1,0,1:2:0:0:
256,67,303550,1,8,0:2:0:0:
145,246,303665,1,0,1:2:0:0:
43,65,303781,1,0,1:2:0:0:
153,231,303896,1,0,1:2:0:0:
270,53,304011,1,8,0:2:0:0:
135,132,304127,1,0,0:2:0:0:
286,271,304242,1,2,1:2:0:0:
337,129,304357,1,2,1:2:0:0:
264,181,304473,1,10,0:2:0:0:
365,218,304588,101,2,1:2:0:0:
365,218,304646,1,0,1:2:0:0:
365,218,304704,2,0,P|432:182|394:41,1,204.239993143799,2|8,1:2|0:2,0:0:0:0:
274,17,305050,2,0,P|215:22|141:44,1,102.1199965719,2|0,1:2|0:2,0:0:0:0:
337,129,305281,1,0,1:2:0:0:
104,220,305396,1,10,0:2:0:0:
263,180,305512,1,0,0:2:0:0:
33,267,305627,1,6,1:2:0:0:
33,267,305858,2,0,P|98:268|188:286,1,153.179994857849,8|0,0:2|0:2,0:0:0:0:
201,292,306088,1,2,1:2:0:0:
365,218,306204,1,2,1:2:0:0:
147,158,306319,1,10,0:2:0:0:
341,114,306434,1,2,1:2:0:0:
147,158,306550,6,0,P|59:159|15:112,1,153.179994857849,6|0,1:2|0:0,0:0:0:0:
10,97,306781,1,8,0:2:0:0:
184,0,306896,1,0,1:2:0:0:
145,242,307012,2,0,P|136:308|134:364,1,102.1199965719,2|0,1:2|0:2,0:0:0:0:
237,358,307242,2,0,P|244:307|247:256,1,102.1199965719,8|0,0:2|0:2,0:0:0:0:
279,6,307473,2,0,P|387:-14|461:52,1,204.239993143799,6|8,1:2|0:2,0:0:0:0:
284,180,307819,1,0,1:2:0:0:
381,283,307935,2,0,B|350:189|387:185|357:72,1,204.239993143799,2|8,1:2|0:2,0:0:0:0:
360,82,308281,1,0,1:2:0:0:
257,204,308396,101,2,1:2:0:0:
512,257,308511,1,8,0:2:0:0:
257,204,308627,2,0,P|198:207|144:218,1,102.1199965719,8|0,0:2|1:2,0:0:0:0:
211,105,308858,1,8,0:2:0:0:
219,292,308973,1,8,0:2:0:0:
219,292,309031,1,8,0:2:0:0:
219,292,309089,2,0,P|228:351|229:360,1,51.0599982859498,8|8,0:2|0:0,0:0:0:0:
328,327,309204,2,0,P|319:268|318:259,1,51.0599982859498,8|8,0:2|0:2,0:0:0:0:
303,98,309319,1,4,1:2:0:0:
360,185,309435,5,4,0:3:0:0:
314,183,309492,1,4,0:3:0:0:
269,192,309550,1,4,0:3:0:0:
252,16,309666,1,4,0:3:0:0:
295,18,309723,1,4,0:3:0:0:
340,9,309781,1,4,0:3:0:0:
180,139,309896,1,8,0:3:0:0:
164,136,309954,1,8,0:3:0:0:
149,134,310012,1,8,0:3:0:0:
79,57,310127,1,4,0:3:0:0:
94,54,310184,1,4,0:3:0:0:
109,52,310242,102,0,P|99:142|90:225,1,153.179994857849,6|0,1:2|0:2,0:0:0:0:
91,234,310473,2,0,P|35:254|-8:227,1,102.1199965719,8|0,0:2|0:2,0:0:0:0:
180,139,310703,1,0,1:2:0:0:
4,91,310819,1,0,1:2:0:0:
180,139,310934,2,0,P|225:147|280:162,1,102.1199965719,10|0,0:2|0:2,0:0:0:0:
426,64,311165,6,0,B|326:28|313:69|224:24,2,204.239993143799,0|8|0,1:2|0:2|1:2,0:0:0:0:
256,261,311742,1,0,1:2:0:0:
481,180,311857,1,8,0:2:0:0:
256,261,311973,1,0,1:2:0:0:
240,126,312088,102,0,P|235:75|226:24,1,102.1199965719,0|0,1:2|0:2,0:0:0:0:
323,0,312319,2,0,P|327:50|336:101,1,102.1199965719,8|0,0:2|0:2,0:0:0:0:
360,324,312550,2,0,P|287:364|199:349,1,153.179994857849,2|0,1:2|0:2,0:0:0:0:
202,348,312780,2,0,P|193:298|215:253,1,102.1199965719,8|0,0:2|0:2,0:0:0:0:
437,146,313011,6,0,B|322:173|356:93|215:131,1,204.239993143799,2|8,1:2|0:2,0:0:0:0:
52,117,313357,1,0,0:2:0:0:
163,45,313473,2,0,P|150:110|148:166,1,102.1199965719,2|0,1:2|0:2,0:0:0:0:
52,117,313703,2,0,P|65:52|67:-4,1,102.1199965719,8|0,0:2|0:2,0:0:0:0:
262,100,313935,102,0,P|286:179|168:245,1,204.239993143799,6|8,1:2|0:2,0:0:0:0:
84,192,314281,2,0,P|60:113|178:47,1,204.239993143799,0|0,1:2|1:2,0:0:0:0:
192,168,314627,1,10,0:2:0:0:
76,285,314742,1,0,1:2:0:0:
207,369,314857,6,0,P|192:300|185:250,1,102.1199965719,0|0,1:2|0:2,0:0:0:0:
390,93,315088,2,0,B|431:119|421:170|421:170|355:202|369:299,1,204.239993143799,8|0,0:2|1:2,0:0:0:0:
466,248,315434,1,0,1:2:0:0:
289,223,315550,1,8,0:2:0:0:
466,248,315665,1,0,1:2:0:0:
263,147,315780,102,0,P|203:125|159:85,1,102.1199965719,0|0,1:2|0:2,0:0:0:0:
100,278,316011,2,0,P|160:300|204:340,1,102.1199965719,8|0,0:2|0:2,0:0:0:0:
181,213,316242,1,2,1:2:0:0:
105,371,316357,1,0,1:2:0:0:
281,301,316473,1,8,0:2:0:0:
76,166,316588,1,0,1:2:0:0:
156,1,316703,6,0,P|165:52|178:127,1,102.1199965719,2|0,1:2|0:2,0:0:0:0:
281,301,316934,2,0,P|291:216|299:125,1,153.179994857849,8|0,0:2|0:2,0:0:0:0:
297,119,317165,2,0,P|352:99|404:124,1,102.1199965719,2|0,1:2|0:2,0:0:0:0:
481,271,317396,1,8,0:2:0:0:
422,18,317511,1,0,1:2:0:0:
481,271,317627,102,0,P|391:220|277:256,1,204.239993143799,6|8,1:2|0:2,0:0:0:0:
99,297,317973,2,0,P|117:239|92:189,1,102.1199965719,0|0,1:2|0:2,0:0:0:0:
197,225,318203,1,0,1:2:0:0:
21,258,318319,1,10,0:2:0:0:
197,225,318434,1,0,1:2:0:0:
21,258,318550,6,0,P|29:181|37:97,1,153.179994857849,0|0,1:2|0:2,0:0:0:0:
29,83,318780,2,0,P|84:56|131:72,1,102.1199965719,8|0,0:2|0:2,0:0:0:0:
312,157,319011,1,0,1:2:0:0:
283,86,319127,1,0,1:2:0:0:
327,251,319242,1,8,0:2:0:0:
274,0,319357,1,0,1:2:0:0:
327,251,319473,102,0,P|276:305|195:281,1,153.179994857849,0|0,1:2|0:2,0:0:0:0:
189,284,319703,2,0,P|195:228|199:179,1,102.1199965719,8|0,0:2|0:2,0:0:0:0:
458,11,319934,2,0,P|467:88|482:181,1,153.179994857849,2|0,1:2|0:2,0:0:0:0:
493,185,320165,2,0,P|442:217|390:199,1,102.1199965719,8|0,0:2|0:2,0:0:0:0:
167,81,320396,6,0,P|238:66|323:52,1,153.179994857849,2|0,1:2|0:2,0:0:0:0:
340,44,320627,2,0,P|349:109|325:146,1,102.1199965719,8|0,0:2|0:2,0:0:0:0:
100,223,320857,1,2,1:2:0:0:
218,37,320973,1,0,1:2:0:0:
389,192,321088,1,8,0:2:0:0:
251,291,321203,1,0,1:2:0:0:
337,42,321319,102,0,P|452:30|511:117,1,204.239993143799,6|8,1:2|0:2,0:0:0:0:
308,366,321665,2,0,B|308:253|273:268|270:148,1,204.239993143799,0|0,1:2|1:2,0:0:0:0:
107,36,322012,2,0,P|103:96|92:159,1,102.1199965719,8|0,0:2|1:2,0:0:0:0:
188,74,322242,5,0,1:2:0:0:
11,103,322358,1,8,0:2:0:0:
244,185,322473,1,8,0:2:0:0:
55,246,322589,1,8,0:3:0:0:
333,157,322704,1,0,1:2:0:0:
96,137,322819,1,8,0:3:0:0:
262,71,322935,1,8,0:2:0:0:
192,0,323050,1,4,1:3:0:0:
335,251,323166,101,14,0:2:0:0:
426,108,323281,1,8,0:3:0:0:
262,71,323396,1,8,0:2:0:0:
244,185,323512,1,8,0:2:0:0:
358,32,323627,1,6,0:3:0:0:
168,112,323742,1,0,1:2:0:0:
333,292,323858,1,8,0:2:0:0:
335,251,323915,1,8,0:0:0:0:
343,211,323973,1,8,0:2:0:0:
213,285,324089,5,10,0:2:0:0:
471,237,324204,1,0,1:2:0:0:
213,285,324319,1,8,0:2:0:0:
370,119,324435,1,8,1:3:0:0:
370,119,324492,1,4,1:3:0:0:
370,119,324550,2,0,P|364:158|361:189,1,51.0599982859498,10|8,0:2|0:0,0:0:0:0:
168,112,324666,2,0,P|174:73|177:42,1,51.0599982859498,4|4,1:3|1:3,0:0:0:0:
261,0,324781,1,8,0:2:0:0:
265,50,324838,1,8,0:0:0:0:
270,101,324896,1,8,0:2:0:0:
274,152,324954,1,8,0:0:0:0:
278,203,325012,102,0,P|194:213|114:234,1,153.179994857849,6|0,1:2|0:0,0:0:0:0:
107,234,325242,1,8,0:2:0:0:
367,159,325358,2,0,P|423:160|469:170,1,102.1199965719,0|0,1:2|0:2,0:0:0:0:
404,297,325588,1,0,1:2:0:0:
279,203,325703,1,10,0:2:0:0:
427,73,325819,1,0,1:2:0:0:
231,0,325934,6,0,P|221:76|209:166,1,153.179994857849,0|0,1:2|0:2,0:0:0:0:
207,179,326165,2,0,P|141:193|100:164,1,102.1199965719,8|0,0:2|0:2,0:0:0:0:
325,113,326396,2,0,P|414:96|446:89,1,102.1199965719,0|0,1:2|0:2,0:0:0:0:
389,205,326627,1,8,0:2:0:0:
356,12,326742,1,0,1:2:0:0:
389,205,326857,102,0,P|369:301|297:319,1,153.179994857849,0|0,1:2|0:2,0:0:0:0:
307,310,327088,2,0,P|260:302|204:296,1,102.1199965719,8|0,0:2|0:2,0:0:0:0:
84,135,327319,2,0,B|169:142|148:92|264:105,1,153.179994857849,2|0,1:2|0:2,0:0:0:0:
260,108,327550,2,0,P|276:176|255:209,1,102.1199965719,8|0,0:2|0:2,0:0:0:0:
30,214,327780,6,0,P|41:127|54:25,1,153.179994857849,2|0,1:2|0:2,0:0:0:0:
50,37,328011,2,0,P|100:11|165:34,1,102.1199965719,8|0,0:2|0:2,0:0:0:0:
362,176,328242,2,0,P|417:163|484:144,1,102.1199965719,2|0,1:2|0:2,0:0:0:0:
366,291,328473,1,8,0:2:0:0:
385,56,328588,1,8,0:2:0:0:
385,56,328646,1,8,0:2:0:0:
385,56,328704,102,0,B|323:30|264:31|264:31|243:68|187:88,1,204.239993143799,6|8,1:2|0:2,0:0:0:0:
4,151,329050,2,0,P|57:152|112:163,1,102.1199965719,0|0,1:2|1:2,0:0:0:0:
278,234,329281,1,8,1:3:0:0:
195,289,329396,2,0,P|172:231|193:181,1,102.1199965719,10|0,0:2|1:2,0:0:0:0:
322,126,329627,6,0,P|311:217|295:364,2,204.239993143799,0|8|0,1:2|0:2|1:2,0:0:0:0:
236,0,330204,1,8,1:3:0:0:
422,123,330319,1,8,0:2:0:0:
278,234,330435,1,0,1:2:0:0:
390,285,330550,102,0,P|440:307|500:303,1,102.1199965719,0|0,1:2|0:2,0:0:0:0:
322,126,330781,2,0,P|243:140|156:153,1,153.179994857849,8|0,0:2|0:0,0:0:0:0:
144,156,331012,2,0,P|125:103|145:63,1,102.1199965719,2|0,1:2|0:2,0:0:0:0:
278,234,331242,2,0,P|268:291|259:344,1,102.1199965719,8|0,0:2|0:2,0:0:0:0:
459,218,331473,6,0,P|448:141|432:42,1,153.179994857849,2|0,1:2|0:2,0:0:0:0:
432,43,331704,2,0,P|367:37|335:65,1,102.1199965719,8|0,0:2|0:2,0:0:0:0:
278,234,331935,1,2,1:2:0:0:
144,156,332050,1,8,0:2:0:0:
144,156,332108,1,8,0:0:0:0:
144,156,332166,2,0,P|195:144|202:142,1,51.0599982859498,8|8,0:2|0:0,0:0:0:0:
278,234,332281,2,0,P|253:239|228:245,1,51.0599982859498,8|8,1:2|0:0,0:0:0:0:
103,277,332396,102,0,P|113:203|133:59,1,204.239993143799,6|8,1:2|0:2,0:0:0:0:
323,0,332742,2,0,P|354:45|345:100,1,102.1199965719,0|0,0:2|1:2,0:0:0:0:
228,245,332973,1,0,1:2:0:0:
451,156,333089,1,10,0:2:0:0:
451,156,333204,1,0,0:2:0:0:
434,283,333319,6,0,P|427:338|422:387,1,102.1199965719,0|0,1:2|0:0,0:0:0:0:
336,379,333550,2,0,P|342:328|347:277,1,102.1199965719,8|0,0:2|0:0,0:0:0:0:
366,148,333781,1,0,1:2:0:0:
366,148,333896,1,0,1:2:0:0:
243,187,334012,1,8,0:2:0:0:
484,115,334127,1,8,0:2:0:0:
243,187,334242,102,0,B|159:181|171:223|76:211,1,153.179994857849,0|0,1:2|0:0,0:0:0:0:
63,213,334473,2,0,P|49:165|75:116,1,102.1199965719,8|0,0:2|0:2,0:0:0:0:
222,35,334704,2,0,P|233:113|244:197,1,153.179994857849,2|0,1:2|0:2,0:0:0:0:
245,217,334935,2,0,P|307:229|348:202,1,102.1199965719,8|0,0:2|0:2,0:0:0:0:
512,102,335166,2,0,B|452:74|422:73|422:73|396:106|350:125,1,153.179994857849,2|0,1:2|0:0,0:0:0:0:
356,124,335396,2,0,P|327:72|356:24,1,102.1199965719,8|0,0:2|1:2,0:0:0:0:
453,184,335627,2,0,P|441:263|432:336,1,153.179994857849,2|0,1:2|0:0,0:0:0:0:
426,365,335858,2,0,P|370:377|325:336,1,102.1199965719,8|8,0:2|0:2,0:0:0:0:
48,178,336089,6,0,B|163:160|129:236|280:212,1,204.239993143799,6|8,1:2|0:2,0:0:0:0:
456,81,336435,2,0,P|379:25|273:42,1,204.239993143799,0|0,1:2|1:2,0:0:0:0:
401,288,336781,2,0,P|411:221|418:178,1,102.1199965719,8|0,0:2|0:2,0:0:0:0:
244,216,337012,101,8,0:2:0:0:
266,255,337069,1,8,0:2:0:0:
273,300,337127,1,8,0:2:0:0:
354,119,337242,1,8,0:2:0:0:
354,119,337358,1,8,0:3:0:0:
140,171,337473,2,0,P|94:181|74:187,1,51.0599982859498,4|4,0:3|0:3,0:0:0:0:
354,119,337589,2,0,P|400:109|420:103,1,51.0599982859498,4|4,0:3|0:3,0:0:0:0:
245,0,337704,1,8,0:0:0:0:
242,25,337761,1,8,0:0:0:0:
240,50,337819,1,8,0:0:0:0:
238,76,337877,1,8,0:0:0:0:
236,101,337935,6,0,P|291:115|338:83,1,102.1199965719,6|0,1:2|0:2,0:0:0:0:
108,31,338166,1,8,0:2:0:0:
136,96,338281,1,0,1:2:0:0:
92,248,338396,2,0,P|37:262|-10:230,1,102.1199965719,2|0,1:2|0:2,0:0:0:0:
220,178,338627,1,8,0:2:0:0:
192,243,338742,1,0,1:2:0:0:
269,351,338858,2,0,P|324:365|371:333,1,102.1199965719,2|0,1:2|0:0,0:0:0:0:
395,102,339089,101,8,0:0:0:0:
322,262,339204,1,8,0:3:0:0:
512,265,339319,1,8,0:2:0:0:
489,149,339435,1,8,0:3:0:0:
260,198,339550,1,8,1:2:0:0:
235,203,339607,1,8,1:2:0:0:
210,208,339665,1,8,1:2:0:0:
185,213,339723,1,8,1:2:0:0:
160,219,339781,6,0,P|101:152|168:43,1,204.239993143799,6|8,1:2|0:2,0:0:0:0:
337,161,340127,2,0,P|329:211|321:261,1,102.1199965719,0|0,1:2|0:2,0:0:0:0:
197,125,340358,1,0,1:2:0:0:
440,190,340473,1,10,0:2:0:0:
379,33,340589,1,0,1:2:0:0:
363,138,340704,102,0,P|349:225|335:312,1,153.179994857849,0|0,1:2|0:2,0:0:0:0:
337,312,340935,2,0,P|383:329|439:300,1,102.1199965719,8|0,0:2|0:2,0:0:0:0:
263,183,341166,1,0,1:2:0:0:
234,264,341281,1,0,0:2:0:0:
84,159,341396,1,8,0:2:0:0:
128,287,341512,1,0,1:2:0:0:
20,222,341627,6,0,B|95:207|95:253|189:230,1,153.179994857849,0|0,1:2|0:2,0:0:0:0:
196,235,341858,2,0,P|212:179|186:138,1,102.1199965719,8|0,0:2|0:2,0:0:0:0:
355,4,342089,2,0,P|341:88|329:173,1,153.179994857849,2|0,1:2|0:2,0:0:0:0:
321,183,342319,2,0,P|374:203|424:181,1,102.1199965719,8|0,0:2|0:2,0:0:0:0:
212,47,342550,102,0,P|132:50|49:73,1,153.179994857849,2|0,1:2|0:2,0:0:0:0:
31,64,342781,2,0,P|13:122|36:157,1,102.1199965719,8|0,0:2|0:2,0:0:0:0:
120,302,343012,1,2,1:2:0:0:
164,133,343127,1,0,0:2:0:0:
0,238,343242,1,8,0:2:0:0:
238,205,343358,1,8,0:2:0:0:
263,201,343415,1,8,0:2:0:0:
288,197,343473,6,0,P|294:142|301:91,1,102.1199965719,6|0,1:2|0:0,0:0:0:0:
393,93,343704,2,0,P|386:143|380:194,1,102.1199965719,8|0,0:2|1:2,0:0:0:0:
165,138,343935,2,0,P|171:83|178:32,1,102.1199965719,0|8,1:2|1:3,0:0:0:0:
512,144,344166,2,0,P|506:199|499:250,1,102.1199965719,8|0,0:2|1:2,0:0:0:0:
408,353,344396,102,0,P|350:333|288:339,1,102.1199965719,2|0,1:2|0:2,0:0:0:0:
355,126,344627,2,0,P|366:186|402:236,1,102.1199965719,8|0,0:2|1:2,0:0:0:0:
157,294,344858,2,0,P|203:253|229:197,1,102.1199965719,0|8,1:2|1:3,0:0:0:0:
225,78,345089,1,8,0:2:0:0:
304,248,345204,1,0,1:2:0:0:
225,78,345319,6,0,P|165:77|65:100,1,153.179994857849,0|0,1:2|0:0,0:0:0:0:
46,107,345550,2,0,P|18:59|38:12,1,102.1199965719,8|0,0:2|0:2,0:0:0:0:
225,78,345781,2,0,P|216:167|207:265,1,153.179994857849,0|0,1:2|0:0,0:0:0:0:
210,254,346012,2,0,P|271:266|307:244,1,102.1199965719,8|0,0:2|0:2,0:0:0:0:
491,309,346242,102,0,P|411:314|301:337,1,153.179994857849,2|0,1:2|0:2,0:0:0:0:
306,337,346473,2,0,P|284:286|310:241,1,102.1199965719,10|0,0:2|0:2,0:0:0:0:
441,86,346704,2,0,P|366:99|308:103,1,102.1199965719,2|0,1:2|0:2,0:0:0:0:
372,0,346935,1,10,0:2:0:0:
407,193,347050,1,0,1:2:0:0:
215,225,347166,6,0,B|135:217|143:268|25:246,1,153.179994857849,2|0,1:2|0:2,0:0:0:0:
35,254,347396,2,0,P|20:204|51:153,1,102.1199965719,8|0,0:2|0:2,0:0:0:0:
158,39,347627,1,0,1:2:0:0:
0,87,347742,1,0,1:2:0:0:
158,39,347858,2,0,P|215:39|275:48,1,102.1199965719,10|0,0:2|0:2,0:0:0:0:
429,214,348089,102,0,P|410:91|404:2,2,204.239993143799,0|8|0,1:2|0:2|1:2,0:0:0:0:
324,105,348666,1,0,1:2:0:0:
509,124,348781,1,8,0:2:0:0:
418,315,348896,1,8,0:2:0:0:
418,315,348954,1,8,0:2:0:0:
418,315,349012,6,0,P|368:316|317:325,1,102.1199965719,0|0,1:2|0:2,0:0:0:0:
173,305,349243,2,0,P|123:306|72:315,1,102.1199965719,8|0,0:2|0:2,0:0:0:0:
317,325,349473,2,0,P|339:258|284:187,1,153.179994857849,2|0,1:2|0:2,0:0:0:0:
277,195,349704,2,0,P|227:196|176:205,1,102.1199965719,8|0,0:2|0:2,0:0:0:0:
153,33,349935,102,0,P|204:31|255:22,1,102.1199965719,2|0,1:2|0:2,0:0:0:0:
421,170,350166,1,8,0:2:0:0:
222,108,350281,1,0,1:2:0:0:
333,44,350397,1,2,1:2:0:0:
249,273,350512,1,8,1:3:0:0:
66,161,350627,1,8,0:2:0:0:
156,38,350742,1,8,0:2:0:0:
156,38,350800,1,8,0:2:0:0:
156,38,350858,6,0,P|150:131|143:218,1,153.179994857849,6|0,1:2|0:0,0:0:0:0:
145,211,351089,1,8,0:2:0:0:
240,93,351204,1,0,1:2:0:0:
66,161,351319,1,0,0:2:0:0:
240,93,351435,1,0,1:2:0:0:
215,268,351550,2,0,P|208:334|202:379,1,102.1199965719,8|0,0:2|0:2,0:0:0:0:
290,311,351781,102,0,P|201:318|112:335,1,153.179994857849,0|0,1:2|0:2,0:0:0:0:
111,339,352012,2,0,P|92:289|127:233,1,102.1199965719,8|0,0:2|0:2,0:0:0:0:
171,120,352242,1,0,1:2:0:0:
100,149,352358,1,0,1:2:0:0:
293,174,352473,1,8,0:2:0:0:
0,69,352589,1,0,1:2:0:0:
86,54,352704,6,0,P|165:44|264:37,1,153.179994857849,6|0,1:2|0:0,0:0:0:0:
260,21,352935,2,0,P|284:74|267:121,1,102.1199965719,8|0,0:2|0:2,0:0:0:0:
252,293,353166,2,0,P|314:281|368:283,1,102.1199965719,0|0,1:2|1:2,0:0:0:0:
346,193,353396,2,0,P|284:205|230:203,1,102.1199965719,8|0,0:2|0:2,0:0:0:0:
320,377,353627,101,0,1:2:0:0:
273,114,353742,1,0,1:0:0:0:
165,270,353858,1,8,1:3:0:0:
428,223,353973,1,0,1:2:0:0:
327,384,354089,1,0,1:2:0:0:
435,230,354204,1,0,1:2:0:0:
283,123,354319,1,8,0:2:0:0:
172,277,354435,1,0,1:2:0:0:
334,244,354550,6,0,P|401:232|444:229,1,102.1199965719,0|0,1:2|0:0,0:0:0:0:
172,277,354781,2,0,P|105:289|62:292,1,102.1199965719,8|0,0:2|0:0,0:0:0:0:
236,137,355012,1,0,1:2:0:0:
288,373,355127,1,0,1:0:0:0:
236,137,355242,2,0,P|219:83|233:37,1,102.1199965719,8|0,0:2|1:2,0:0:0:0:
86,118,355473,101,8,0:2:0:0:
355,53,355589,1,8,0:2:0:0:
88,199,355704,1,8,0:2:0:0:
391,130,355819,1,8,0:2:0:0:
88,278,355935,1,8,0:2:0:0:
429,208,356050,1,8,0:2:0:0:
90,359,356166,1,8,0:2:0:0:
466,285,356281,1,8,0:2:0:0:
163,207,356396,86,0,P|171:141|184:41,1,136.530002083283,2|0,0:2|0:2,0:0:0:0:
183,52,356627,1,8,0:2:0:0:
344,168,356742,2,0,P|301:194|240:179,1,91.020001388855,0|0,1:2|0:2,0:0:0:0:
441,61,356973,1,0,1:2:0:0:
417,256,357089,2,0,P|412:304|407:358,1,91.020001388855,8|0,0:2|0:2,0:0:0:0:
261,191,357319,5,0,1:2:0:0:
194,263,357435,2,0,P|237:289|298:274,1,91.020001388855,0|8,1:2|0:2,0:0:0:0:
170,76,357666,2,0,P|115:81|54:91,1,91.020001388855,0|0,0:2|1:2,0:0:0:0:
287,62,357896,1,8,0:2:0:0:
0,94,358012,1,8,0:2:0:0:
384,158,358242,102,0,P|332:193|231:173,1,136.530002083283,2|0,1:2|0:2,0:0:0:0:
239,183,358473,1,8,0:2:0:0:
37,240,358589,2,0,P|28:294|59:337,1,91.020001388855,0|0,1:2|0:2,0:0:0:0:
226,362,358819,1,0,1:2:0:0:
140,294,358935,2,0,P|135:342|130:396,1,91.020001388855,8|0,0:2|0:2,0:0:0:0:
335,220,359166,5,0,1:2:0:0:
239,183,359281,2,0,P|244:231|249:285,1,91.020001388855,0|8,1:2|0:2,0:0:0:0:
247,273,359512,1,0,0:2:0:0:
110,194,359627,1,8,0:2:0:0:
335,220,359742,1,0,1:2:0:0:
289,59,359858,1,0,1:2:0:0:
377,319,359973,1,8,1:2:0:0:
247,273,360089,102,0,P|142:267|51:299,1,182.04000277771,6|8,1:2|0:2,0:0:0:0:
163,100,360435,2,0,P|198:133|196:197,1,91.020001388855,0|0,1:2|0:2,0:0:0:0:
52,37,360666,1,0,1:2:0:0:
298,58,360781,1,8,0:2:0:0:
187,0,360896,1,0,1:2:0:0:
318,171,361012,5,0,1:2:0:0:
448,54,361127,1,0,1:2:0:0:
318,171,361242,2,0,P|316:226|320:271,1,91.020001388855,8|0,0:2|0:2,0:0:0:0:
222,263,361473,2,0,P|224:217|222:172,1,91.020001388855,8|0,0:2|0:2,0:0:0:0:
392,202,361704,1,0,1:2:0:0:
140,235,361819,1,8,0:2:0:0:
313,46,361935,102,0,P|260:73|176:62,1,136.530002083283,2|0,1:2|0:2,0:0:0:0:
163,58,362166,1,8,0:2:0:0:
318,171,362281,2,0,P|335:228|323:267,1,91.020001388855,0|0,1:2|0:2,0:0:0:0:
213,373,362512,1,8,0:2:0:0:
359,341,362627,1,0,1:2:0:0:
213,373,362742,1,0,1:2:0:0:
224,242,362858,6,0,B|214:161|244:154|235:52,1,182.04000277771,10|0,0:2|1:2,0:0:0:0:
236,62,363204,1,8,0:2:0:0:
113,185,363319,1,8,0:2:0:0:
354,140,363435,1,0,1:2:0:0:
113,185,363550,1,8,0:2:0:0:
441,299,363781,102,0,P|363:305|282:325,1,136.530002083283,6|0,1:2|0:2,0:0:0:0:
280,327,364012,1,8,0:2:0:0:
348,139,364127,2,0,P|380:188|371:237,1,91.020001388855,0|0,1:2|0:2,0:0:0:0:
172,119,364358,1,0,1:2:0:0:
269,80,364473,2,0,P|263:134|257:189,1,91.020001388855,8|0,0:2|0:2,0:0:0:0:
78,284,364704,5,0,1:2:0:0:
171,327,364819,2,0,P|166:281|161:236,1,91.020001388855,0|8,1:2|0:2,0:0:0:0:
161,236,365050,1,0,1:2:0:0:
5,123,365166,1,8,0:2:0:0:
269,80,365281,2,0,P|333:70|390:71,1,91.020001388855,8|0,0:2|1:2,0:0:0:0:
137,31,365512,1,8,0:2:0:0:
422,13,365627,102,0,P|451:64|430:156,1,136.530002083283,2|0,1:2|0:2,0:0:0:0:
429,160,365858,1,8,0:2:0:0:
343,299,365973,2,0,P|336:360|355:393,1,91.020001388855,0|0,1:2|0:2,0:0:0:0:
490,228,366204,1,0,1:2:0:0:
244,269,366319,2,0,P|192:274|137:288,1,91.020001388855,8|0,0:2|0:2,0:0:0:0:
429,160,366550,5,0,1:2:0:0:
183,201,366665,2,0,P|131:206|76:220,1,91.020001388855,8|0,0:2|0:2,0:0:0:0:
93,214,366896,1,0,1:2:0:0:
364,59,367012,2,0,P|400:136|382:232,1,182.04000277771,8|0,0:2|1:2,0:0:0:0:
188,323,367358,1,8,0:2:0:0:
279,377,367473,102,0,P|271:313|255:202,1,136.530002083283,6|0,1:2|0:2,0:0:0:0:
258,221,367704,1,8,0:2:0:0:
151,71,367819,1,0,1:2:0:0:
326,96,367935,1,0,1:2:0:0:
151,71,368050,1,0,1:2:0:0:
412,133,368166,2,0,P|399:69|401:26,1,91.020001388855,8|0,0:2|0:2,0:0:0:0:
63,35,368396,6,0,P|76:99|74:142,1,91.020001388855,0|0,1:2|0:2,0:0:0:0:
218,278,368627,1,8,0:2:0:0:
140,341,368742,2,0,P|114:298|126:244,1,91.020001388855,0|0,1:2|0:2,0:0:0:0:
117,259,368973,1,0,1:2:0:0:
285,344,369089,1,8,0:2:0:0:
13,280,369204,1,0,1:2:0:0:
203,179,369319,102,0,B|301:154|277:228|400:200,1,182.04000277771,2|8,1:2|0:2,0:0:0:0:
87,15,369666,2,0,B|56:60|26:79|26:79|51:125|55:179,1,182.04000277771,0|0,1:2|1:2,0:0:0:0:
218,278,370012,1,8,0:2:0:0:
218,278,370242,5,8,0:2:0:0:
378,118,370358,1,8,0:3:0:0:
183,13,370473,1,4,0:3:0:0:
124,183,370589,2,0,P|177:200|187:207,1,45.5100006944275,0|0,1:2|1:2,0:0:0:0:
308,94,370704,1,8,0:2:0:0:
265,80,370761,1,8,0:2:0:0:
222,94,370819,1,8,0:2:0:0:
179,108,370877,1,8,0:2:0:0:
136,96,370935,1,8,0:2:0:0:
311,188,371050,1,0,1:2:0:0:
33,37,371166,102,0,P|65:163|87:272,1,226.44000138208,6|0,1:2|0:2,0:0:0:0:
468,116,371627,2,0,P|436:242|414:351,1,226.44000138208,6|0,0:2|0:2,0:0:0:0:
171,128,372089,6,0,P|193:197|188:243,1,113.22000069104,6|0,1:2|0:2,0:0:0:0:
346,237,372319,2,0,P|324:168|329:122,1,113.22000069104,8|0,0:2|0:2,0:0:0:0:
227,367,372550,1,2,1:2:0:0:
289,16,372781,1,10,0:2:0:0:
101,193,372896,1,8,0:3:0:0:
431,320,373012,102,0,P|426:241|409:133,1,169.83000103656,6|0,1:2|0:2,0:0:0:0:
345,87,373242,2,0,P|387:60|432:73,1,79.9200019511719,8|0,0:2|0:2,0:0:0:0:
131,298,373473,2,0,P|136:219|153:111,1,169.83000103656,2|0,1:2|0:2,0:0:0:0:
208,63,373704,1,8,0:2:0:0:
12,204,373819,1,8,0:3:0:0:
268,195,373935,6,0,P|342:197|402:211,1,113.22000069104,2|0,1:2|0:2,0:0:0:0:
385,0,374166,2,0,P|346:63|304:108,1,113.22000069104,8|0,0:2|0:2,0:0:0:0:
512,186,374396,2,0,P|476:120|458:61,1,113.22000069104,2|0,1:2|0:2,0:0:0:0:
345,312,374627,1,10,0:2:0:0:
394,130,374742,1,4,0:3:0:0:
120,347,374858,102,0,P|100:231|62:101,1,226.44000138208,6|8,1:2|0:2,0:0:0:0:
70,126,375319,1,2,1:2:0:0:
309,290,375435,1,8,0:2:0:0:
231,32,375550,1,0,1:2:0:0:
309,290,375666,1,8,0:2:0:0:
339,183,375781,6,0,P|272:194|226:210,1,113.22000069104,2|0,1:2|0:2,0:0:0:0:
191,120,376012,2,0,P|258:109|304:93,1,113.22000069104,8|0,0:2|0:2,0:0:0:0:
60,234,376242,1,2,1:2:0:0:
471,87,376473,1,10,0:2:0:0:
394,374,376704,102,0,P|374:258|336:128,1,226.44000138208,2|8,1:2|0:2,0:0:0:0:
344,153,377166,1,2,1:2:0:0:
105,317,377282,1,8,0:2:0:0:
183,59,377397,1,8,0:2:0:0:
105,317,377513,1,8,0:2:0:0:
0,142,377627,6,0,B|176:99|138:228|346:192,1,339.66000207312,6|0,1:2|0:2,0:0:0:0:
397,306,378089,2,0,P|323:310|268:337,1,113.22000069104,2|0,1:2|0:2,0:0:0:0:
231,86,378319,2,0,P|305:82|360:55,1,113.22000069104,10|0,0:2|0:2,0:0:0:0:
466,168,378550,102,0,B|317:146|349:261|179:223,1,288.599998238525,6|0,1:2|0:2,0:0:0:0:
45,140,379242,1,8,0:2:0:0:
96,308,379358,1,0,1:2:0:0:
45,140,379473,6,0,P|37:95|65:52,1,91.020001388855,8|0,0:2|0:2,0:0:0:0:
230,153,379704,1,0,1:2:0:0:
123,0,379819,2,0,P|147:109|167:248,1,226.44000138208,10|0,0:2|0:2,0:0:0:0:
286,362,380166,2,0,P|294:318|272:279,1,91.020001388855,8|0,0:2|0:2,0:0:0:0:
415,162,380396,101,2,1:2:0:0:
349,87,380512,2,0,B|335:132|313:163|313:163|345:202|368:255,1,182.04000277771,8|0,0:2|0:2,0:0:0:0:
230,153,380858,1,8,0:2:0:0:
415,162,380973,1,0,1:2:0:0:
226,165,381089,1,8,0:2:0:0:
411,174,381204,1,0,1:2:0:0:
136,117,381319,6,0,P|151:175|159:228,1,91.020001388855,8|0,0:2|0:2,0:0:0:0:
184,333,381550,1,0,1:2:0:0:
306,63,381666,2,0,P|314:107|326:151,1,91.020001388855,8|0,0:2|0:2,0:0:0:0:
375,288,381897,1,0,1:2:0:0:
147,108,382012,2,0,P|162:166|170:219,1,91.020001388855,8|0,0:2|0:2,0:0:0:0:
195,324,382243,101,2,1:2:0:0:
245,137,382358,1,8,0:2:0:0:
57,51,382473,1,8,0:3:0:0:
271,256,382589,1,4,0:3:0:0:
359,32,382704,1,8,0:2:0:0:
180,0,382819,1,8,0:3:0:0:
344,197,382935,1,8,0:3:0:0:
388,202,382992,1,8,0:3:0:0:
428,182,383050,1,8,0:2:0:0:
468,163,383108,1,8,0:2:0:0:
512,170,383166,5,6,1:2:0:0:
245,73,383281,1,4,0:3:0:0:
202,89,383338,1,4,0:3:0:0:
157,93,383396,1,8,0:2:0:0:
214,362,383512,1,8,0:3:0:0:
257,346,383569,1,8,0:3:0:0:
302,342,383627,1,8,0:2:0:0:
116,182,383742,1,0,1:2:0:0:
332,216,383858,1,8,0:2:0:0:
116,182,383973,1,4,0:3:0:0:
350,56,384089,101,6,1:2:0:0:
