osu file format v14

[General]
AudioFilename: 03 IMAGE -MATERIAL-(Version 0).mp3
AudioLeadIn: 1500
PreviewTime: 92337
Countdown: 0
SampleSet: None
StackLeniency: 0.7
Mode: 3
LetterboxInBreaks: 1
SpecialStyle: 0
WidescreenStoryboard: 0

[Editor]
DistanceSpacing: 0.8
BeatDivisor: 4
GridSize: 16
TimelineZoom: 0.8

[Metadata]
Title:IMAGE -MATERIAL-
TitleUnicode:IMAGE -MATERIAL-
Artist:Tatsh
ArtistUnicode:Tatsh
Creator:Fullerene-
Version:Refraction
Source:
Tags:reflec beat limelight shift side a
BeatmapID:1048210
BeatmapSetID:492000

[Difficulty]
HPDrainRate:8.5
CircleSize:4
OverallDifficulty:9
ApproachRate:9
SliderMultiplier:1.4
SliderTickRate:1

[Events]
//Background and Video events
0,0,"bg.png",0,0
//Break Periods
2,21576,25622
//Storyboard Layer 0 (Background)
//Storyboard Layer 1 (Fail)
//Storyboard Layer 2 (Pass)
//Storyboard Layer 3 (Foreground)
//Storyboard Sound Samples

[TimingPoints]
6607,230.769,4,3,0,15,1,0
28760,-100,4,3,0,15,0,1
43530,-100,4,3,0,15,0,0
61068,-100,4,3,0,15,0,1
75837,-100,4,3,0,15,0,0
92453,-100,4,3,0,15,0,1
121991,-100,4,3,0,5,0,0
151241,-111.111111111111,4,3,0,5,0,0
152510,-125,4,3,0,5,0,0
153664,-142.857142857143,4,3,0,5,0,0
153837,-166.666666666667,4,3,0,5,0,0
154299,-200,4,3,0,5,0,0
155222,-250.000000000001,4,3,0,5,0,0
156145,-333.333333333334,4,3,0,5,0,0
157068,-100,4,3,0,15,0,0
165376,-100,4,3,0,15,0,1
172760,-100,4,3,0,15,0,0
190299,-100,4,3,0,15,0,1
204606,-100,4,3,0,15,0,0
205068,-100,4,3,0,15,0,1
251222,-100,4,3,0,15,0,0
278914,-100,4,3,0,15,0,1
279375,-100,4,3,0,15,0,0

[HitObjects]
192,0,6606,5,0,1:0:0:0:
320,0,6606,128,0,8395:0:0:0:0:
448,0,6606,128,0,8395:0:0:0:0:
64,0,6606,128,0,8395:0:0:0:0:
448,0,8453,128,0,10183:0:0:0:0:
320,0,8453,128,0,10183:0:0:0:0:
64,0,8453,128,0,10183:0:0:0:0:
64,0,10299,128,0,13876:0:0:0:0:
192,0,10299,128,0,13876:0:0:0:0:
320,0,10299,1,0,0:0:0:0:
448,0,10299,128,0,12145:0:0:0:0:
320,0,12145,128,0,13876:0:0:0:0:
448,0,13068,1,0,0:0:0:0:
320,0,13991,128,0,15780:0:0:0:0:
448,0,13991,128,0,15780:0:0:0:0:
192,0,13991,1,0,0:0:0:0:
64,0,13991,128,0,15780:0:0:0:0:
448,0,15837,128,0,17568:0:0:0:0:
320,0,15837,128,0,17568:0:0:0:0:
64,0,15837,128,0,17568:0:0:0:0:
192,0,16760,1,0,0:0:0:0:
192,0,17683,128,0,21376:0:0:0:0:
448,0,17683,128,0,21376:0:0:0:0:
320,0,17683,1,0,0:0:0:0:
64,0,17683,128,0,21376:0:0:0:0:
320,0,19068,1,0,0:0:0:0:
320,0,19530,1,0,0:0:0:0:
320,0,21376,1,0,0:0:0:0:
448,0,26222,132,0,28299:0:0:0:0:
448,0,28760,1,0,0:0:0:0:
192,0,28760,1,0,0:0:0:0:
64,0,28760,1,0,0:0:0:0:
320,0,28818,1,0,0:0:0:0:
192,0,28876,1,0,0:0:0:0:
64,0,28933,1,0,0:0:0:0:
448,0,28991,1,0,0:0:0:0:
320,0,28991,1,0,0:0:0:0:
192,0,29049,1,0,0:0:0:0:
64,0,29106,1,0,0:0:0:0:
320,0,29164,1,0,0:0:0:0:
448,0,29222,1,0,0:0:0:0:
64,0,29222,1,0,0:0:0:0:
192,0,29280,1,0,0:0:0:0:
320,0,29337,1,0,0:0:0:0:
192,0,29395,1,0,0:0:0:0:
448,0,29453,1,0,0:0:0:0:
320,0,29453,1,0,0:0:0:0:
64,0,29510,1,0,0:0:0:0:
192,0,29568,1,0,0:0:0:0:
448,0,29626,1,0,0:0:0:0:
320,0,29683,1,0,0:0:0:0:
64,0,29683,1,0,0:0:0:0:
192,0,29741,1,0,0:0:0:0:
320,0,29799,1,0,0:0:0:0:
192,0,29856,1,0,0:0:0:0:
448,0,29914,1,0,0:0:0:0:
64,0,29914,1,0,0:0:0:0:
320,0,29972,1,0,0:0:0:0:
192,0,30030,1,0,0:0:0:0:
64,0,30087,1,0,0:0:0:0:
448,0,30145,1,0,0:0:0:0:
320,0,30145,1,0,0:0:0:0:
64,0,30203,1,0,0:0:0:0:
192,0,30260,1,0,0:0:0:0:
320,0,30318,1,0,0:0:0:0:
448,0,30376,1,0,0:0:0:0:
64,0,30376,1,0,0:0:0:0:
192,0,30433,1,0,0:0:0:0:
448,0,30491,1,0,0:0:0:0:
320,0,30549,1,0,0:0:0:0:
192,0,30606,1,0,0:0:0:0:
64,0,30606,1,0,0:0:0:0:
448,0,30664,1,0,0:0:0:0:
320,0,30722,1,0,0:0:0:0:
192,0,30780,1,0,0:0:0:0:
320,0,30837,1,0,0:0:0:0:
64,0,30895,1,0,0:0:0:0:
448,0,30953,1,0,0:0:0:0:
192,0,30953,1,0,0:0:0:0:
320,0,31010,1,0,0:0:0:0:
192,0,31068,1,0,0:0:0:0:
64,0,31126,1,0,0:0:0:0:
320,0,31183,1,0,0:0:0:0:
448,0,31241,1,0,0:0:0:0:
64,0,31241,1,0,0:0:0:0:
192,0,31299,1,0,0:0:0:0:
320,0,31356,1,0,0:0:0:0:
192,0,31414,1,0,0:0:0:0:
448,0,31472,1,0,0:0:0:0:
64,0,31472,1,0,0:0:0:0:
320,0,31530,1,0,0:0:0:0:
192,0,31587,1,0,0:0:0:0:
448,0,31645,1,0,0:0:0:0:
320,0,31703,1,0,0:0:0:0:
192,0,31760,1,0,0:0:0:0:
64,0,31760,1,0,0:0:0:0:
448,0,31818,1,0,0:0:0:0:
64,0,31876,1,0,0:0:0:0:
192,0,31933,1,0,0:0:0:0:
448,0,31991,1,0,0:0:0:0:
320,0,31991,1,0,0:0:0:0:
192,0,32049,1,0,0:0:0:0:
320,0,32106,1,0,0:0:0:0:
448,0,32164,1,0,0:0:0:0:
192,0,32222,1,0,0:0:0:0:
64,0,32222,1,0,0:0:0:0:
320,0,32280,1,0,0:0:0:0:
448,0,32337,1,0,0:0:0:0:
64,0,32337,1,0,0:0:0:0:
192,0,32395,1,0,0:0:0:0:
448,0,32453,1,0,0:0:0:0:
320,0,32453,1,0,0:0:0:0:
192,0,32510,1,0,0:0:0:0:
64,0,32568,1,0,0:0:0:0:
448,0,32626,1,0,0:0:0:0:
320,0,32683,1,0,0:0:0:0:
192,0,32741,1,0,0:0:0:0:
448,0,32799,1,0,0:0:0:0:
64,0,32799,1,0,0:0:0:0:
192,0,32856,1,0,0:0:0:0:
320,0,32914,1,0,0:0:0:0:
448,0,32972,1,0,0:0:0:0:
64,0,33030,1,0,0:0:0:0:
192,0,33087,1,0,0:0:0:0:
448,0,33145,1,0,0:0:0:0:
320,0,33145,1,0,0:0:0:0:
192,0,33203,1,0,0:0:0:0:
64,0,33260,1,0,0:0:0:0:
448,0,33318,1,0,0:0:0:0:
192,0,33376,1,0,0:0:0:0:
64,0,33376,1,0,0:0:0:0:
320,0,33433,1,0,0:0:0:0:
192,0,33491,1,0,0:0:0:0:
448,0,33549,1,0,0:0:0:0:
320,0,33606,1,0,0:0:0:0:
64,0,33606,1,0,0:0:0:0:
192,0,33664,1,0,0:0:0:0:
320,0,33722,1,0,0:0:0:0:
448,0,33780,1,0,0:0:0:0:
192,0,33837,1,0,0:0:0:0:
64,0,33837,1,0,0:0:0:0:
320,0,33895,1,0,0:0:0:0:
192,0,33953,1,0,0:0:0:0:
64,0,34010,1,0,0:0:0:0:
448,0,34068,1,0,0:0:0:0:
320,0,34068,1,0,0:0:0:0:
64,0,34126,1,0,0:0:0:0:
192,0,34183,1,0,0:0:0:0:
320,0,34241,1,0,0:0:0:0:
448,0,34299,1,0,0:0:0:0:
192,0,34299,1,0,0:0:0:0:
64,0,34356,1,0,0:0:0:0:
448,0,34414,1,0,0:0:0:0:
320,0,34472,1,0,0:0:0:0:
64,0,34530,1,0,0:0:0:0:
192,0,34587,1,0,0:0:0:0:
448,0,34645,1,0,0:0:0:0:
320,0,34645,1,0,0:0:0:0:
192,0,34703,1,0,0:0:0:0:
64,0,34760,1,0,0:0:0:0:
320,0,34818,1,0,0:0:0:0:
192,0,34876,1,0,0:0:0:0:
448,0,34933,1,0,0:0:0:0:
320,0,34991,1,0,0:0:0:0:
192,0,35049,1,0,0:0:0:0:
64,0,35049,1,0,0:0:0:0:
448,0,35106,1,0,0:0:0:0:
320,0,35164,1,0,0:0:0:0:
192,0,35222,1,0,0:0:0:0:
64,0,35222,1,0,0:0:0:0:
320,0,35280,1,0,0:0:0:0:
448,0,35337,1,0,0:0:0:0:
192,0,35395,1,0,0:0:0:0:
448,0,35453,1,0,0:0:0:0:
64,0,35453,1,0,0:0:0:0:
320,0,35510,1,0,0:0:0:0:
192,0,35568,1,0,0:0:0:0:
448,0,35626,1,0,0:0:0:0:
192,0,35683,1,0,0:0:0:0:
64,0,35683,1,0,0:0:0:0:
320,0,35741,1,0,0:0:0:0:
448,0,35799,1,0,0:0:0:0:
64,0,35799,1,0,0:0:0:0:
192,0,35856,1,0,0:0:0:0:
320,0,35914,1,0,0:0:0:0:
448,0,35972,1,0,0:0:0:0:
320,0,36030,1,0,0:0:0:0:
192,0,36087,1,0,0:0:0:0:
448,0,36145,1,0,0:0:0:0:
64,0,36145,1,0,0:0:0:0:
320,0,36203,1,0,0:0:0:0:
448,0,36260,1,0,0:0:0:0:
192,0,36260,1,0,0:0:0:0:
320,0,36318,1,0,0:0:0:0:
448,0,36376,1,0,0:0:0:0:
64,0,36376,1,0,0:0:0:0:
192,0,36433,1,0,0:0:0:0:
320,0,36491,1,0,0:0:0:0:
448,0,36549,1,0,0:0:0:0:
320,0,36606,1,0,0:0:0:0:
64,0,36606,1,0,0:0:0:0:
192,0,36664,1,0,0:0:0:0:
448,0,36722,1,0,0:0:0:0:
64,0,36722,1,0,0:0:0:0:
192,0,36780,1,0,0:0:0:0:
320,0,36837,1,0,0:0:0:0:
64,0,36837,1,0,0:0:0:0:
448,0,36895,1,0,0:0:0:0:
192,0,36953,1,0,0:0:0:0:
64,0,37010,1,0,0:0:0:0:
320,0,37068,1,0,0:0:0:0:
192,0,37068,1,0,0:0:0:0:
448,0,37126,1,0,0:0:0:0:
320,0,37183,1,0,0:0:0:0:
64,0,37183,1,0,0:0:0:0:
448,0,37241,1,0,0:0:0:0:
320,0,37299,1,0,0:0:0:0:
192,0,37299,1,0,0:0:0:0:
64,0,37356,1,0,0:0:0:0:
448,0,37414,1,0,0:0:0:0:
320,0,37472,1,0,0:0:0:0:
448,0,37530,1,0,0:0:0:0:
192,0,37530,1,0,0:0:0:0:
64,0,37587,1,0,0:0:0:0:
320,0,37645,1,0,0:0:0:0:
192,0,37645,1,0,0:0:0:0:
64,0,37703,1,0,0:0:0:0:
448,0,37760,1,0,0:0:0:0:
192,0,37760,1,0,0:0:0:0:
320,0,37818,1,0,0:0:0:0:
64,0,37876,1,0,0:0:0:0:
192,0,37933,1,0,0:0:0:0:
448,0,37991,1,0,0:0:0:0:
64,0,37991,1,0,0:0:0:0:
320,0,38049,1,0,0:0:0:0:
448,0,38106,1,0,0:0:0:0:
192,0,38106,1,0,0:0:0:0:
320,0,38164,1,0,0:0:0:0:
448,0,38222,1,0,0:0:0:0:
64,0,38222,1,0,0:0:0:0:
320,0,38280,1,0,0:0:0:0:
448,0,38337,1,0,0:0:0:0:
192,0,38337,1,0,0:0:0:0:
320,0,38395,1,0,0:0:0:0:
448,0,38453,1,0,0:0:0:0:
64,0,38453,1,0,0:0:0:0:
192,0,38510,1,0,0:0:0:0:
320,0,38568,1,0,0:0:0:0:
64,0,38568,1,0,0:0:0:0:
192,0,38626,1,0,0:0:0:0:
448,0,38683,1,0,0:0:0:0:
64,0,38683,1,0,0:0:0:0:
192,0,38741,1,0,0:0:0:0:
320,0,38799,1,0,0:0:0:0:
64,0,38799,1,0,0:0:0:0:
192,0,38856,1,0,0:0:0:0:
448,0,38914,1,0,0:0:0:0:
64,0,38914,1,0,0:0:0:0:
320,0,38972,1,0,0:0:0:0:
192,0,39030,1,0,0:0:0:0:
320,0,39087,1,0,0:0:0:0:
192,0,39145,1,0,0:0:0:0:
64,0,39145,1,0,0:0:0:0:
448,0,39203,1,0,0:0:0:0:
320,0,39260,1,0,0:0:0:0:
192,0,39318,1,0,0:0:0:0:
448,0,39376,1,0,0:0:0:0:
64,0,39376,1,0,0:0:0:0:
320,0,39433,1,0,0:0:0:0:
192,0,39491,1,0,0:0:0:0:
64,0,39491,1,0,0:0:0:0:
320,0,39549,1,0,0:0:0:0:
192,0,39606,1,0,0:0:0:0:
64,0,39606,1,0,0:0:0:0:
448,0,39664,1,0,0:0:0:0:
320,0,39722,1,0,0:0:0:0:
448,0,39780,1,0,0:0:0:0:
64,0,39837,1,0,0:0:0:0:
192,0,39895,1,0,0:0:0:0:
448,0,39953,1,0,0:0:0:0:
320,0,39953,1,0,0:0:0:0:
64,0,40010,1,0,0:0:0:0:
192,0,40068,1,0,0:0:0:0:
320,0,40126,1,0,0:0:0:0:
192,0,40183,1,0,0:0:0:0:
448,0,40241,1,0,0:0:0:0:
320,0,40241,1,0,0:0:0:0:
64,0,40299,1,0,0:0:0:0:
192,0,40356,1,0,0:0:0:0:
320,0,40414,1,0,0:0:0:0:
192,0,40472,1,0,0:0:0:0:
448,0,40530,1,0,0:0:0:0:
320,0,40530,1,0,0:0:0:0:
64,0,40587,1,0,0:0:0:0:
192,0,40645,1,0,0:0:0:0:
64,0,40703,1,0,0:0:0:0:
448,0,40760,1,0,0:0:0:0:
320,0,40760,1,0,0:0:0:0:
192,0,40818,1,0,0:0:0:0:
64,0,40876,1,0,0:0:0:0:
320,0,40933,1,0,0:0:0:0:
448,0,40991,1,0,0:0:0:0:
192,0,40991,1,0,0:0:0:0:
64,0,41049,1,0,0:0:0:0:
320,0,41106,1,0,0:0:0:0:
448,0,41164,1,0,0:0:0:0:
192,0,41222,1,0,0:0:0:0:
64,0,41222,1,0,0:0:0:0:
320,0,41280,1,0,0:0:0:0:
192,0,41337,1,0,0:0:0:0:
64,0,41337,1,0,0:0:0:0:
320,0,41395,1,0,0:0:0:0:
192,0,41453,1,0,0:0:0:0:
64,0,41453,1,0,0:0:0:0:
320,0,41510,1,0,0:0:0:0:
192,0,41568,1,0,0:0:0:0:
64,0,41568,1,0,0:0:0:0:
320,0,41626,1,0,0:0:0:0:
448,0,41683,1,0,0:0:0:0:
192,0,41683,1,0,0:0:0:0:
64,0,41683,1,0,0:0:0:0:
320,0,41741,1,0,0:0:0:0:
192,0,41799,1,0,0:0:0:0:
64,0,41799,1,0,0:0:0:0:
320,0,41856,1,0,0:0:0:0:
448,0,41914,1,0,0:0:0:0:
64,0,41914,1,0,0:0:0:0:
192,0,41972,1,0,0:0:0:0:
448,0,42030,1,0,0:0:0:0:
320,0,42030,1,0,0:0:0:0:
192,0,42087,1,0,0:0:0:0:
448,0,42145,1,0,0:0:0:0:
64,0,42145,1,0,0:0:0:0:
320,0,42203,1,0,0:0:0:0:
192,0,42260,1,0,0:0:0:0:
64,0,42260,1,0,0:0:0:0:
320,0,42318,1,0,0:0:0:0:
192,0,42376,1,0,0:0:0:0:
64,0,42376,1,0,0:0:0:0:
320,0,42433,1,0,0:0:0:0:
448,0,42491,1,0,0:0:0:0:
64,0,42491,1,0,0:0:0:0:
192,0,42549,1,0,0:0:0:0:
448,0,42606,1,0,0:0:0:0:
320,0,42606,1,0,0:0:0:0:
192,0,42664,1,0,0:0:0:0:
64,0,42664,1,0,0:0:0:0:
448,0,42722,1,0,0:0:0:0:
320,0,42722,1,0,0:0:0:0:
192,0,42780,1,0,0:0:0:0:
64,0,42780,1,0,0:0:0:0:
448,0,42837,1,0,0:0:0:0:
320,0,42837,1,0,0:0:0:0:
192,0,42895,1,0,0:0:0:0:
448,0,42953,1,0,0:0:0:0:
64,0,42953,1,0,0:0:0:0:
320,0,43010,1,0,0:0:0:0:
192,0,43010,1,0,0:0:0:0:
448,0,43068,1,0,0:0:0:0:
64,0,43068,1,0,0:0:0:0:
320,0,43126,1,0,0:0:0:0:
192,0,43183,1,0,0:0:0:0:
64,0,43183,1,0,0:0:0:0:
320,0,43241,1,0,0:0:0:0:
192,0,43299,1,0,0:0:0:0:
64,0,43299,1,0,0:0:0:0:
320,0,43356,1,0,0:0:0:0:
448,0,43414,1,0,0:0:0:0:
64,0,43414,1,0,0:0:0:0:
192,0,43472,1,0,0:0:0:0:
448,0,43530,1,0,0:0:0:0:
320,0,43530,1,0,0:0:0:0:
64,0,43530,1,0,0:0:0:0:
192,0,43587,1,0,0:0:0:0:
448,0,43645,1,0,0:0:0:0:
320,0,43703,1,0,0:0:0:0:
192,0,43760,1,0,0:0:0:0:
320,0,43818,1,0,0:0:0:0:
192,0,43876,1,0,0:0:0:0:
64,0,43876,1,0,0:0:0:0:
448,0,43933,1,0,0:0:0:0:
320,0,43991,1,0,0:0:0:0:
192,0,44049,1,0,0:0:0:0:
64,0,44106,1,0,0:0:0:0:
192,0,44164,1,0,0:0:0:0:
448,0,44222,1,0,0:0:0:0:
320,0,44222,1,0,0:0:0:0:
64,0,44280,1,0,0:0:0:0:
192,0,44337,1,0,0:0:0:0:
320,0,44395,1,0,0:0:0:0:
448,0,44453,1,0,0:0:0:0:
64,0,44510,1,0,0:0:0:0:
320,0,44568,1,0,0:0:0:0:
192,0,44568,1,0,0:0:0:0:
64,0,44626,1,0,0:0:0:0:
448,0,44683,1,0,0:0:0:0:
320,0,44741,1,0,0:0:0:0:
192,0,44799,1,0,0:0:0:0:
320,0,44856,1,0,0:0:0:0:
448,0,44914,1,0,0:0:0:0:
64,0,44914,1,0,0:0:0:0:
192,0,44972,1,0,0:0:0:0:
320,0,45030,1,0,0:0:0:0:
448,0,45087,1,0,0:0:0:0:
192,0,45145,1,0,0:0:0:0:
64,0,45145,1,0,0:0:0:0:
320,0,45203,1,0,0:0:0:0:
192,0,45260,1,0,0:0:0:0:
64,0,45318,1,0,0:0:0:0:
448,0,45376,1,0,0:0:0:0:
320,0,45376,1,0,0:0:0:0:
192,0,45433,1,0,0:0:0:0:
64,0,45491,1,0,0:0:0:0:
320,0,45549,1,0,0:0:0:0:
192,0,45606,1,0,0:0:0:0:
448,0,45664,1,0,0:0:0:0:
320,0,45722,1,0,0:0:0:0:
64,0,45722,1,0,0:0:0:0:
192,0,45780,1,0,0:0:0:0:
320,0,45837,1,0,0:0:0:0:
448,0,45895,1,0,0:0:0:0:
192,0,45953,1,0,0:0:0:0:
320,0,46010,1,0,0:0:0:0:
192,0,46068,1,0,0:0:0:0:
64,0,46068,1,0,0:0:0:0:
448,0,46126,1,0,0:0:0:0:
320,0,46183,1,0,0:0:0:0:
64,0,46241,1,0,0:0:0:0:
192,0,46299,1,0,0:0:0:0:
320,0,46356,1,0,0:0:0:0:
448,0,46414,1,0,0:0:0:0:
64,0,46414,1,0,0:0:0:0:
192,0,46472,1,0,0:0:0:0:
320,0,46530,1,0,0:0:0:0:
192,0,46587,1,0,0:0:0:0:
448,0,46645,1,0,0:0:0:0:
320,0,46703,1,0,0:0:0:0:
192,0,46760,1,0,0:0:0:0:
64,0,46760,1,0,0:0:0:0:
448,0,46818,1,0,0:0:0:0:
320,0,46876,1,0,0:0:0:0:
192,0,46933,1,0,0:0:0:0:
320,0,46991,1,0,0:0:0:0:
64,0,46991,1,0,0:0:0:0:
448,0,47049,1,0,0:0:0:0:
192,0,47106,1,0,0:0:0:0:
320,0,47164,1,0,0:0:0:0:
448,0,47222,1,0,0:0:0:0:
64,0,47222,1,0,0:0:0:0:
192,0,47280,1,0,0:0:0:0:
320,0,47337,1,0,0:0:0:0:
64,0,47395,1,0,0:0:0:0:
192,0,47453,1,0,0:0:0:0:
64,0,47510,1,0,0:0:0:0:
448,0,47568,1,0,0:0:0:0:
320,0,47568,1,0,0:0:0:0:
192,0,47626,1,0,0:0:0:0:
64,0,47683,1,0,0:0:0:0:
448,0,47741,1,0,0:0:0:0:
320,0,47799,1,0,0:0:0:0:
192,0,47856,1,0,0:0:0:0:
448,0,47914,1,0,0:0:0:0:
64,0,47914,1,0,0:0:0:0:
192,0,47972,1,0,0:0:0:0:
320,0,48030,1,0,0:0:0:0:
64,0,48087,1,0,0:0:0:0:
192,0,48145,1,0,0:0:0:0:
320,0,48203,1,0,0:0:0:0:
192,0,48260,1,0,0:0:0:0:
64,0,48260,1,0,0:0:0:0:
448,0,48318,1,0,0:0:0:0:
320,0,48376,1,0,0:0:0:0:
192,0,48433,1,0,0:0:0:0:
320,0,48491,1,0,0:0:0:0:
192,0,48549,1,0,0:0:0:0:
448,0,48606,1,0,0:0:0:0:
64,0,48606,1,0,0:0:0:0:
320,0,48664,1,0,0:0:0:0:
192,0,48722,1,0,0:0:0:0:
320,0,48780,1,0,0:0:0:0:
448,0,48837,1,0,0:0:0:0:
64,0,48837,1,0,0:0:0:0:
192,0,48895,1,0,0:0:0:0:
320,0,48953,1,0,0:0:0:0:
192,0,49010,1,0,0:0:0:0:
448,0,49068,1,0,0:0:0:0:
64,0,49068,1,0,0:0:0:0:
320,0,49126,1,0,0:0:0:0:
192,0,49183,1,0,0:0:0:0:
64,0,49241,1,0,0:0:0:0:
448,0,49299,1,0,0:0:0:0:
64,0,49356,1,0,0:0:0:0:
320,0,49414,1,0,0:0:0:0:
192,0,49414,1,0,0:0:0:0:
448,0,49472,1,0,0:0:0:0:
64,0,49530,1,0,0:0:0:0:
448,0,49587,1,0,0:0:0:0:
320,0,49645,1,0,0:0:0:0:
192,0,49703,1,0,0:0:0:0:
448,0,49760,1,0,0:0:0:0:
64,0,49760,1,0,0:0:0:0:
192,0,49818,1,0,0:0:0:0:
320,0,49876,1,0,0:0:0:0:
448,0,49933,1,0,0:0:0:0:
192,0,49991,1,0,0:0:0:0:
64,0,49991,1,0,0:0:0:0:
320,0,50049,1,0,0:0:0:0:
192,0,50106,1,0,0:0:0:0:
64,0,50106,1,0,0:0:0:0:
448,0,50164,1,0,0:0:0:0:
320,0,50222,1,0,0:0:0:0:
448,0,50280,1,0,0:0:0:0:
192,0,50337,1,0,0:0:0:0:
320,0,50395,1,0,0:0:0:0:
448,0,50453,1,0,0:0:0:0:
64,0,50453,1,0,0:0:0:0:
192,0,50510,1,0,0:0:0:0:
448,0,50568,1,0,0:0:0:0:
64,0,50568,1,0,0:0:0:0:
320,0,50626,1,0,0:0:0:0:
192,0,50683,1,0,0:0:0:0:
64,0,50741,1,0,0:0:0:0:
448,0,50799,1,0,0:0:0:0:
320,0,50799,1,0,0:0:0:0:
64,0,50856,1,0,0:0:0:0:
448,0,50914,1,0,0:0:0:0:
320,0,50914,1,0,0:0:0:0:
192,0,50914,1,0,0:0:0:0:
64,0,50972,1,0,0:0:0:0:
448,0,51030,1,0,0:0:0:0:
320,0,51087,1,0,0:0:0:0:
192,0,51145,1,0,0:0:0:0:
64,0,51145,1,0,0:0:0:0:
320,0,51203,1,0,0:0:0:0:
448,0,51260,1,0,0:0:0:0:
64,0,51260,1,0,0:0:0:0:
192,0,51318,1,0,0:0:0:0:
320,0,51376,1,0,0:0:0:0:
192,0,51433,1,0,0:0:0:0:
448,0,51491,1,0,0:0:0:0:
320,0,51491,1,0,0:0:0:0:
64,0,51549,1,0,0:0:0:0:
448,0,51606,1,0,0:0:0:0:
192,0,51606,1,0,0:0:0:0:
320,0,51664,1,0,0:0:0:0:
192,0,51722,1,0,0:0:0:0:
64,0,51780,1,0,0:0:0:0:
448,0,51837,1,0,0:0:0:0:
320,0,51837,1,0,0:0:0:0:
192,0,51895,1,0,0:0:0:0:
448,0,51953,1,0,0:0:0:0:
64,0,51953,1,0,0:0:0:0:
320,0,52010,1,0,0:0:0:0:
192,0,52068,1,0,0:0:0:0:
64,0,52126,1,0,0:0:0:0:
448,0,52183,1,0,0:0:0:0:
320,0,52183,1,0,0:0:0:0:
192,0,52241,1,0,0:0:0:0:
448,0,52299,1,0,0:0:0:0:
64,0,52299,1,0,0:0:0:0:
320,0,52356,1,0,0:0:0:0:
192,0,52414,1,0,0:0:0:0:
64,0,52414,1,0,0:0:0:0:
320,0,52472,1,0,0:0:0:0:
448,0,52530,1,0,0:0:0:0:
64,0,52530,1,0,0:0:0:0:
192,0,52587,1,0,0:0:0:0:
448,0,52645,1,0,0:0:0:0:
320,0,52645,1,0,0:0:0:0:
64,0,52703,1,0,0:0:0:0:
320,0,52760,1,0,0:0:0:0:
192,0,52760,1,0,0:0:0:0:
448,0,52818,1,0,0:0:0:0:
64,0,52876,1,0,0:0:0:0:
192,0,52933,1,0,0:0:0:0:
448,0,52991,1,0,0:0:0:0:
320,0,52991,1,0,0:0:0:0:
192,0,53049,1,0,0:0:0:0:
448,0,53106,1,0,0:0:0:0:
64,0,53106,1,0,0:0:0:0:
320,0,53164,1,0,0:0:0:0:
192,0,53222,1,0,0:0:0:0:
320,0,53280,1,0,0:0:0:0:
192,0,53337,1,0,0:0:0:0:
64,0,53337,1,0,0:0:0:0:
448,0,53395,1,0,0:0:0:0:
320,0,53453,1,0,0:0:0:0:
64,0,53453,1,0,0:0:0:0:
192,0,53510,1,0,0:0:0:0:
320,0,53568,1,0,0:0:0:0:
448,0,53626,1,0,0:0:0:0:
192,0,53683,1,0,0:0:0:0:
64,0,53683,1,0,0:0:0:0:
448,0,53741,1,0,0:0:0:0:
320,0,53799,1,0,0:0:0:0:
192,0,53799,1,0,0:0:0:0:
64,0,53856,1,0,0:0:0:0:
448,0,53914,1,0,0:0:0:0:
320,0,53972,1,0,0:0:0:0:
192,0,54030,1,0,0:0:0:0:
64,0,54030,1,0,0:0:0:0:
320,0,54087,1,0,0:0:0:0:
448,0,54145,1,0,0:0:0:0:
64,0,54145,1,0,0:0:0:0:
192,0,54203,1,0,0:0:0:0:
448,0,54260,1,0,0:0:0:0:
320,0,54260,1,0,0:0:0:0:
192,0,54318,1,0,0:0:0:0:
448,0,54376,1,0,0:0:0:0:
64,0,54376,1,0,0:0:0:0:
320,0,54433,1,0,0:0:0:0:
192,0,54491,1,0,0:0:0:0:
320,0,54549,1,0,0:0:0:0:
448,0,54606,1,0,0:0:0:0:
64,0,54606,1,0,0:0:0:0:
192,0,54664,1,0,0:0:0:0:
320,0,54722,1,0,0:0:0:0:
64,0,54780,1,0,0:0:0:0:
448,0,54837,1,0,0:0:0:0:
192,0,54837,1,0,0:0:0:0:
320,0,54895,1,0,0:0:0:0:
192,0,54953,1,0,0:0:0:0:
64,0,54953,1,0,0:0:0:0:
448,0,55010,1,0,0:0:0:0:
320,0,55068,1,0,0:0:0:0:
192,0,55126,1,0,0:0:0:0:
448,0,55183,1,0,0:0:0:0:
64,0,55183,1,0,0:0:0:0:
192,0,55241,1,0,0:0:0:0:
448,0,55299,1,0,0:0:0:0:
320,0,55299,1,0,0:0:0:0:
64,0,55356,1,0,0:0:0:0:
192,0,55414,1,0,0:0:0:0:
320,0,55472,1,0,0:0:0:0:
448,0,55530,1,0,0:0:0:0:
64,0,55530,1,0,0:0:0:0:
320,0,55587,1,0,0:0:0:0:
192,0,55645,1,0,0:0:0:0:
64,0,55645,1,0,0:0:0:0:
448,0,55703,1,0,0:0:0:0:
320,0,55760,1,0,0:0:0:0:
192,0,55818,1,0,0:0:0:0:
448,0,55876,1,0,0:0:0:0:
64,0,55876,1,0,0:0:0:0:
320,0,55933,1,0,0:0:0:0:
192,0,55991,1,0,0:0:0:0:
64,0,55991,1,0,0:0:0:0:
320,0,56049,1,0,0:0:0:0:
448,0,56106,1,0,0:0:0:0:
64,0,56106,1,0,0:0:0:0:
192,0,56164,1,0,0:0:0:0:
448,0,56222,1,0,0:0:0:0:
320,0,56222,1,0,0:0:0:0:
64,0,56280,1,0,0:0:0:0:
320,0,56337,1,0,0:0:0:0:
192,0,56337,1,0,0:0:0:0:
448,0,56395,1,0,0:0:0:0:
192,0,56453,1,0,0:0:0:0:
64,0,56453,1,0,0:0:0:0:
448,0,56510,1,0,0:0:0:0:
320,0,56568,1,0,0:0:0:0:
192,0,56626,1,0,0:0:0:0:
448,0,56683,1,0,0:0:0:0:
64,0,56683,1,0,0:0:0:0:
320,0,56741,1,0,0:0:0:0:
192,0,56799,1,0,0:0:0:0:
64,0,56799,1,0,0:0:0:0:
320,0,56856,1,0,0:0:0:0:
448,0,56914,1,0,0:0:0:0:
192,0,56972,1,0,0:0:0:0:
448,0,57030,1,0,0:0:0:0:
64,0,57030,1,0,0:0:0:0:
320,0,57087,1,0,0:0:0:0:
192,0,57145,1,0,0:0:0:0:
64,0,57145,1,0,0:0:0:0:
448,0,57203,1,0,0:0:0:0:
320,0,57260,1,0,0:0:0:0:
192,0,57318,1,0,0:0:0:0:
448,0,57376,1,0,0:0:0:0:
64,0,57376,1,0,0:0:0:0:
320,0,57433,1,0,0:0:0:0:
192,0,57491,1,0,0:0:0:0:
64,0,57549,1,0,0:0:0:0:
448,0,57606,1,0,0:0:0:0:
320,0,57606,1,0,0:0:0:0:
64,0,57664,1,0,0:0:0:0:
192,0,57722,1,0,0:0:0:0:
320,0,57780,1,0,0:0:0:0:
448,0,57837,1,0,0:0:0:0:
192,0,57837,1,0,0:0:0:0:
64,0,57837,1,0,0:0:0:0:
320,0,57895,1,0,0:0:0:0:
64,0,57953,1,0,0:0:0:0:
192,0,58010,1,0,0:0:0:0:
448,0,58068,1,0,0:0:0:0:
320,0,58068,1,0,0:0:0:0:
64,0,58068,1,0,0:0:0:0:
192,0,58126,1,0,0:0:0:0:
448,0,58183,1,0,0:0:0:0:
320,0,58241,1,0,0:0:0:0:
448,0,58299,1,0,0:0:0:0:
192,0,58299,1,0,0:0:0:0:
64,0,58299,1,0,0:0:0:0:
320,0,58356,1,0,0:0:0:0:
64,0,58414,1,0,0:0:0:0:
192,0,58472,1,0,0:0:0:0:
448,0,58530,1,0,0:0:0:0:
320,0,58530,1,0,0:0:0:0:
64,0,58530,1,0,0:0:0:0:
192,0,58587,1,0,0:0:0:0:
448,0,58645,1,0,0:0:0:0:
320,0,58703,1,0,0:0:0:0:
448,0,58760,1,0,0:0:0:0:
64,0,58760,1,0,0:0:0:0:
320,0,58818,1,0,0:0:0:0:
192,0,58876,1,0,0:0:0:0:
64,0,58933,1,0,0:0:0:0:
448,0,58991,1,0,0:0:0:0:
320,0,58991,1,0,0:0:0:0:
64,0,59049,1,0,0:0:0:0:
192,0,59106,1,0,0:0:0:0:
320,0,59164,1,0,0:0:0:0:
448,0,59222,1,0,0:0:0:0:
64,0,59222,1,0,0:0:0:0:
320,0,59280,1,0,0:0:0:0:
192,0,59337,1,0,0:0:0:0:
64,0,59395,1,0,0:0:0:0:
448,0,59453,1,0,0:0:0:0:
320,0,59453,1,0,0:0:0:0:
64,0,59510,1,0,0:0:0:0:
192,0,59568,1,0,0:0:0:0:
320,0,59626,1,0,0:0:0:0:
448,0,59683,1,0,0:0:0:0:
64,0,59683,1,0,0:0:0:0:
320,0,59741,1,0,0:0:0:0:
192,0,59799,1,0,0:0:0:0:
64,0,59799,1,0,0:0:0:0:
448,0,59856,1,0,0:0:0:0:
320,0,59914,1,0,0:0:0:0:
192,0,59914,1,0,0:0:0:0:
64,0,59972,1,0,0:0:0:0:
448,0,60030,1,0,0:0:0:0:
320,0,60030,1,0,0:0:0:0:
64,0,60087,1,0,0:0:0:0:
448,0,60145,1,0,0:0:0:0:
320,0,60145,1,0,0:0:0:0:
192,0,60203,1,0,0:0:0:0:
448,0,60260,1,0,0:0:0:0:
64,0,60260,1,0,0:0:0:0:
320,0,60318,1,0,0:0:0:0:
192,0,60376,1,0,0:0:0:0:
64,0,60376,1,0,0:0:0:0:
448,0,60491,1,0,0:0:0:0:
64,0,60491,1,0,0:0:0:0:
448,0,60606,1,0,0:0:0:0:
320,0,60606,1,0,0:0:0:0:
192,0,60664,1,0,0:0:0:0:
448,0,60722,1,0,0:0:0:0:
320,0,60722,1,0,0:0:0:0:
192,0,60780,1,0,0:0:0:0:
448,0,60837,1,0,0:0:0:0:
320,0,60837,1,0,0:0:0:0:
192,0,60895,1,0,0:0:0:0:
64,0,60895,1,0,0:0:0:0:
448,0,60953,1,0,0:0:0:0:
320,0,60953,1,0,0:0:0:0:
192,0,61010,1,0,0:0:0:0:
64,0,61010,1,0,0:0:0:0:
448,0,61068,1,0,0:0:0:0:
320,0,61068,1,0,0:0:0:0:
64,0,61126,1,0,0:0:0:0:
448,0,61183,1,0,0:0:0:0:
64,0,61241,1,0,0:0:0:0:
320,0,61299,1,0,0:0:0:0:
192,0,61299,1,0,0:0:0:0:
448,0,61356,1,0,0:0:0:0:
64,0,61414,1,0,0:0:0:0:
192,0,61472,1,0,0:0:0:0:
448,0,61530,1,0,0:0:0:0:
320,0,61530,1,0,0:0:0:0:
192,0,61587,1,0,0:0:0:0:
64,0,61645,1,0,0:0:0:0:
320,0,61703,1,0,0:0:0:0:
448,0,61760,1,0,0:0:0:0:
64,0,61760,1,0,0:0:0:0:
192,0,61818,1,0,0:0:0:0:
320,0,61876,1,0,0:0:0:0:
192,0,61933,1,0,0:0:0:0:
448,0,61991,1,0,0:0:0:0:
320,0,61991,1,0,0:0:0:0:
64,0,62049,1,0,0:0:0:0:
192,0,62106,1,0,0:0:0:0:
448,0,62164,1,0,0:0:0:0:
320,0,62222,1,0,0:0:0:0:
64,0,62222,1,0,0:0:0:0:
448,0,62280,1,0,0:0:0:0:
192,0,62337,1,0,0:0:0:0:
64,0,62395,1,0,0:0:0:0:
448,0,62453,1,0,0:0:0:0:
320,0,62453,1,0,0:0:0:0:
192,0,62510,1,0,0:0:0:0:
448,0,62568,1,0,0:0:0:0:
320,0,62626,1,0,0:0:0:0:
192,0,62683,1,0,0:0:0:0:
64,0,62683,1,0,0:0:0:0:
320,0,62741,1,0,0:0:0:0:
64,0,62799,1,0,0:0:0:0:
192,0,62856,1,0,0:0:0:0:
448,0,62914,1,0,0:0:0:0:
320,0,62914,1,0,0:0:0:0:
64,0,62972,1,0,0:0:0:0:
192,0,63030,1,0,0:0:0:0:
64,0,63087,1,0,0:0:0:0:
448,0,63145,1,0,0:0:0:0:
320,0,63145,1,0,0:0:0:0:
192,0,63203,1,0,0:0:0:0:
448,0,63260,1,0,0:0:0:0:
64,0,63260,1,0,0:0:0:0:
192,0,63318,1,0,0:0:0:0:
320,0,63376,1,0,0:0:0:0:
448,0,63433,1,0,0:0:0:0:
192,0,63491,1,0,0:0:0:0:
64,0,63491,1,0,0:0:0:0:
320,0,63549,1,0,0:0:0:0:
64,0,63606,1,0,0:0:0:0:
192,0,63664,1,0,0:0:0:0:
448,0,63722,1,0,0:0:0:0:
320,0,63722,1,0,0:0:0:0:
192,0,63780,1,0,0:0:0:0:
448,0,63837,1,0,0:0:0:0:
320,0,63837,1,0,0:0:0:0:
64,0,63895,1,0,0:0:0:0:
192,0,63953,1,0,0:0:0:0:
320,0,64010,1,0,0:0:0:0:
448,0,64068,1,0,0:0:0:0:
64,0,64068,1,0,0:0:0:0:
320,0,64126,1,0,0:0:0:0:
192,0,64183,1,0,0:0:0:0:
64,0,64241,1,0,0:0:0:0:
448,0,64299,1,0,0:0:0:0:
320,0,64299,1,0,0:0:0:0:
192,0,64356,1,0,0:0:0:0:
448,0,64414,1,0,0:0:0:0:
64,0,64414,1,0,0:0:0:0:
320,0,64472,1,0,0:0:0:0:
192,0,64530,1,0,0:0:0:0:
64,0,64530,1,0,0:0:0:0:
320,0,64587,1,0,0:0:0:0:
448,0,64645,1,0,0:0:0:0:
64,0,64645,1,0,0:0:0:0:
192,0,64703,1,0,0:0:0:0:
448,0,64760,1,0,0:0:0:0:
320,0,64760,1,0,0:0:0:0:
192,0,64818,1,0,0:0:0:0:
448,0,64876,1,0,0:0:0:0:
320,0,64933,1,0,0:0:0:0:
192,0,64991,1,0,0:0:0:0:
64,0,64991,1,0,0:0:0:0:
320,0,65049,1,0,0:0:0:0:
192,0,65106,1,0,0:0:0:0:
64,0,65164,1,0,0:0:0:0:
448,0,65222,1,0,0:0:0:0:
320,0,65222,1,0,0:0:0:0:
64,0,65280,1,0,0:0:0:0:
192,0,65337,1,0,0:0:0:0:
320,0,65395,1,0,0:0:0:0:
448,0,65453,1,0,0:0:0:0:
64,0,65453,1,0,0:0:0:0:
320,0,65510,1,0,0:0:0:0:
192,0,65568,1,0,0:0:0:0:
64,0,65568,1,0,0:0:0:0:
448,0,65626,1,0,0:0:0:0:
320,0,65683,1,0,0:0:0:0:
192,0,65683,1,0,0:0:0:0:
64,0,65741,1,0,0:0:0:0:
448,0,65799,1,0,0:0:0:0:
320,0,65856,1,0,0:0:0:0:
192,0,65914,1,0,0:0:0:0:
64,0,65914,1,0,0:0:0:0:
448,0,65972,1,0,0:0:0:0:
320,0,66030,1,0,0:0:0:0:
192,0,66087,1,0,0:0:0:0:
448,0,66145,1,0,0:0:0:0:
64,0,66145,1,0,0:0:0:0:
192,0,66203,1,0,0:0:0:0:
320,0,66260,1,0,0:0:0:0:
448,0,66318,1,0,0:0:0:0:
192,0,66376,1,0,0:0:0:0:
64,0,66376,1,0,0:0:0:0:
320,0,66433,1,0,0:0:0:0:
192,0,66491,1,0,0:0:0:0:
64,0,66549,1,0,0:0:0:0:
448,0,66606,1,0,0:0:0:0:
320,0,66606,1,0,0:0:0:0:
64,0,66664,1,0,0:0:0:0:
192,0,66722,1,0,0:0:0:0:
320,0,66780,1,0,0:0:0:0:
448,0,66837,1,0,0:0:0:0:
64,0,66837,1,0,0:0:0:0:
192,0,66895,1,0,0:0:0:0:
320,0,66953,1,0,0:0:0:0:
192,0,67010,1,0,0:0:0:0:
448,0,67068,1,0,0:0:0:0:
64,0,67068,1,0,0:0:0:0:
320,0,67126,1,0,0:0:0:0:
64,0,67183,1,0,0:0:0:0:
192,0,67241,1,0,0:0:0:0:
448,0,67299,1,0,0:0:0:0:
320,0,67299,1,0,0:0:0:0:
192,0,67356,1,0,0:0:0:0:
64,0,67414,1,0,0:0:0:0:
448,0,67472,1,0,0:0:0:0:
320,0,67530,1,0,0:0:0:0:
64,0,67530,1,0,0:0:0:0:
192,0,67587,1,0,0:0:0:0:
448,0,67645,1,0,0:0:0:0:
320,0,67703,1,0,0:0:0:0:
192,0,67760,1,0,0:0:0:0:
64,0,67760,1,0,0:0:0:0:
448,0,67818,1,0,0:0:0:0:
320,0,67876,1,0,0:0:0:0:
192,0,67933,1,0,0:0:0:0:
448,0,67991,1,0,0:0:0:0:
320,0,67991,1,0,0:0:0:0:
64,192,67991,128,0,68453:0:0:0:0:
192,0,68049,1,0,0:0:0:0:
448,0,68106,1,0,0:0:0:0:
320,0,68106,1,0,0:0:0:0:
192,0,68164,1,0,0:0:0:0:
448,0,68222,1,0,0:0:0:0:
320,0,68222,1,0,0:0:0:0:
192,0,68280,1,0,0:0:0:0:
448,0,68337,1,0,0:0:0:0:
320,0,68337,1,0,0:0:0:0:
192,0,68395,1,0,0:0:0:0:
448,0,68453,1,0,0:0:0:0:
320,0,68453,1,0,0:0:0:0:
192,0,68510,1,0,0:0:0:0:
448,0,68568,1,0,0:0:0:0:
64,0,68626,1,0,0:0:0:0:
320,0,68683,1,0,0:0:0:0:
192,0,68683,1,0,0:0:0:0:
448,0,68741,1,0,0:0:0:0:
320,0,68799,1,0,0:0:0:0:
192,0,68856,1,0,0:0:0:0:
448,0,68914,1,0,0:0:0:0:
64,0,68914,1,0,0:0:0:0:
192,0,68972,1,0,0:0:0:0:
320,0,69030,1,0,0:0:0:0:
448,0,69087,1,0,0:0:0:0:
192,0,69145,1,0,0:0:0:0:
64,0,69145,1,0,0:0:0:0:
320,0,69203,1,0,0:0:0:0:
64,0,69260,1,0,0:0:0:0:
192,0,69318,1,0,0:0:0:0:
448,0,69376,1,0,0:0:0:0:
320,0,69376,1,0,0:0:0:0:
192,0,69433,1,0,0:0:0:0:
320,0,69491,1,0,0:0:0:0:
448,0,69549,1,0,0:0:0:0:
192,0,69606,1,0,0:0:0:0:
64,0,69606,1,0,0:0:0:0:
448,0,69664,1,0,0:0:0:0:
320,0,69722,1,0,0:0:0:0:
192,0,69780,1,0,0:0:0:0:
448,0,69837,1,0,0:0:0:0:
64,0,69837,1,0,0:0:0:0:
320,0,69895,1,0,0:0:0:0:
192,0,69953,1,0,0:0:0:0:
64,0,69953,1,0,0:0:0:0:
320,0,70010,1,0,0:0:0:0:
448,0,70068,1,0,0:0:0:0:
64,0,70068,1,0,0:0:0:0:
192,0,70126,1,0,0:0:0:0:
448,0,70183,1,0,0:0:0:0:
320,0,70183,1,0,0:0:0:0:
64,0,70241,1,0,0:0:0:0:
320,0,70299,1,0,0:0:0:0:
192,0,70299,1,0,0:0:0:0:
64,0,70356,1,0,0:0:0:0:
448,0,70414,1,0,0:0:0:0:
320,0,70472,1,0,0:0:0:0:
192,0,70530,1,0,0:0:0:0:
64,0,70530,1,0,0:0:0:0:
320,0,70587,1,0,0:0:0:0:
448,0,70645,1,0,0:0:0:0:
64,0,70645,1,0,0:0:0:0:
192,0,70703,1,0,0:0:0:0:
448,0,70760,1,0,0:0:0:0:
320,0,70760,1,0,0:0:0:0:
64,0,70818,1,0,0:0:0:0:
192,0,70876,1,0,0:0:0:0:
64,0,70933,1,0,0:0:0:0:
448,0,70991,1,0,0:0:0:0:
320,0,70991,1,0,0:0:0:0:
192,0,71049,1,0,0:0:0:0:
64,0,71106,1,0,0:0:0:0:
192,0,71164,1,0,0:0:0:0:
448,0,71222,1,0,0:0:0:0:
320,0,71222,1,0,0:0:0:0:
64,0,71280,1,0,0:0:0:0:
192,0,71337,1,0,0:0:0:0:
320,0,71395,1,0,0:0:0:0:
448,0,71453,1,0,0:0:0:0:
64,0,71453,1,0,0:0:0:0:
192,0,71510,1,0,0:0:0:0:
448,0,71568,1,0,0:0:0:0:
320,0,71626,1,0,0:0:0:0:
192,0,71683,1,0,0:0:0:0:
64,0,71683,1,0,0:0:0:0:
320,0,71741,1,0,0:0:0:0:
448,0,71799,1,0,0:0:0:0:
64,0,71799,1,0,0:0:0:0:
192,0,71856,1,0,0:0:0:0:
448,0,71914,1,0,0:0:0:0:
64,0,71914,1,0,0:0:0:0:
320,0,71972,1,0,0:0:0:0:
192,0,72030,1,0,0:0:0:0:
64,0,72030,1,0,0:0:0:0:
320,0,72087,1,0,0:0:0:0:
448,0,72145,1,0,0:0:0:0:
192,0,72145,1,0,0:0:0:0:
64,0,72203,1,0,0:0:0:0:
320,0,72260,1,0,0:0:0:0:
192,0,72318,1,0,0:0:0:0:
448,0,72376,1,0,0:0:0:0:
320,0,72376,1,0,0:0:0:0:
64,0,72433,1,0,0:0:0:0:
192,0,72491,1,0,0:0:0:0:
320,0,72549,1,0,0:0:0:0:
448,0,72606,1,0,0:0:0:0:
64,0,72606,1,0,0:0:0:0:
192,0,72664,1,0,0:0:0:0:
320,0,72722,1,0,0:0:0:0:
192,0,72780,1,0,0:0:0:0:
320,0,72837,1,0,0:0:0:0:
64,0,72837,1,0,0:0:0:0:
448,0,72895,1,0,0:0:0:0:
192,0,72953,1,0,0:0:0:0:
320,0,73010,1,0,0:0:0:0:
448,0,73068,1,0,0:0:0:0:
64,0,73068,1,0,0:0:0:0:
320,0,73126,1,0,0:0:0:0:
192,0,73183,1,0,0:0:0:0:
64,0,73241,1,0,0:0:0:0:
448,0,73299,1,0,0:0:0:0:
320,0,73299,1,0,0:0:0:0:
64,0,73356,1,0,0:0:0:0:
192,0,73414,1,0,0:0:0:0:
320,0,73472,1,0,0:0:0:0:
448,0,73530,1,0,0:0:0:0:
64,0,73530,1,0,0:0:0:0:
192,0,73587,1,0,0:0:0:0:
64,0,73645,1,0,0:0:0:0:
192,0,73703,1,0,0:0:0:0:
448,0,73760,1,0,0:0:0:0:
320,0,73760,1,0,0:0:0:0:
64,0,73818,1,0,0:0:0:0:
192,0,73876,1,0,0:0:0:0:
320,0,73933,1,0,0:0:0:0:
448,0,73991,1,0,0:0:0:0:
64,0,73991,1,0,0:0:0:0:
192,0,74049,1,0,0:0:0:0:
448,0,74106,1,0,0:0:0:0:
320,0,74106,1,0,0:0:0:0:
192,0,74164,1,0,0:0:0:0:
448,0,74222,1,0,0:0:0:0:
64,0,74222,1,0,0:0:0:0:
320,0,74280,1,0,0:0:0:0:
192,0,74337,1,0,0:0:0:0:
320,0,74395,1,0,0:0:0:0:
448,0,74453,1,0,0:0:0:0:
64,0,74453,1,0,0:0:0:0:
192,0,74510,1,0,0:0:0:0:
448,0,74568,1,0,0:0:0:0:
320,0,74568,1,0,0:0:0:0:
192,0,74626,1,0,0:0:0:0:
64,0,74626,1,0,0:0:0:0:
448,0,74683,1,0,0:0:0:0:
320,0,74683,1,0,0:0:0:0:
192,0,74741,1,0,0:0:0:0:
64,0,74741,1,0,0:0:0:0:
448,0,74799,1,0,0:0:0:0:
320,0,74799,1,0,0:0:0:0:
192,0,74856,1,0,0:0:0:0:
448,0,74914,1,0,0:0:0:0:
64,0,74914,1,0,0:0:0:0:
320,0,74972,1,0,0:0:0:0:
192,0,74972,1,0,0:0:0:0:
448,0,75030,1,0,0:0:0:0:
64,0,75030,1,0,0:0:0:0:
320,0,75087,1,0,0:0:0:0:
192,0,75145,1,0,0:0:0:0:
64,0,75145,1,0,0:0:0:0:
320,0,75203,1,0,0:0:0:0:
448,0,75260,1,0,0:0:0:0:
64,0,75260,1,0,0:0:0:0:
192,0,75318,1,0,0:0:0:0:
448,0,75376,1,0,0:0:0:0:
320,0,75376,1,0,0:0:0:0:
192,0,75433,1,0,0:0:0:0:
448,0,75491,1,0,0:0:0:0:
320,0,75491,1,0,0:0:0:0:
192,0,75549,1,0,0:0:0:0:
64,0,75549,1,0,0:0:0:0:
448,0,75606,1,0,0:0:0:0:
320,0,75606,1,0,0:0:0:0:
192,0,75664,1,0,0:0:0:0:
64,0,75664,1,0,0:0:0:0:
448,0,75722,1,0,0:0:0:0:
320,0,75722,1,0,0:0:0:0:
192,0,75780,1,0,0:0:0:0:
448,0,75837,1,0,0:0:0:0:
320,0,75837,1,0,0:0:0:0:
64,0,75837,1,0,0:0:0:0:
448,0,76068,1,0,0:0:0:0:
64,0,76068,1,0,0:0:0:0:
448,0,76299,1,0,0:0:0:0:
448,0,76530,1,0,0:0:0:0:
64,0,76530,1,0,0:0:0:0:
448,0,76760,1,0,0:0:0:0:
448,0,76991,1,0,0:0:0:0:
320,0,76991,128,0,77049:0:0:0:0:
448,0,77222,1,0,0:0:0:0:
64,0,77222,128,0,77280:0:0:0:0:
192,0,77337,128,0,77395:0:0:0:0:
448,0,77453,1,0,0:0:0:0:
320,0,77453,1,0,0:0:0:0:
448,0,77568,1,0,0:0:0:0:
192,0,77568,128,0,77626:0:0:0:0:
448,0,77683,1,0,0:0:0:0:
448,0,77914,1,0,0:0:0:0:
64,0,77914,128,0,77972:0:0:0:0:
448,0,78145,1,0,0:0:0:0:
192,0,78260,128,0,78318:0:0:0:0:
448,0,78376,1,0,0:0:0:0:
320,0,78376,1,0,0:0:0:0:
448,0,78491,1,0,0:0:0:0:
448,0,78606,1,0,0:0:0:0:
64,0,78606,128,0,78664:0:0:0:0:
448,0,78837,1,0,0:0:0:0:
320,0,78837,128,0,78895:0:0:0:0:
448,0,79068,1,0,0:0:0:0:
64,0,79068,128,0,79126:0:0:0:0:
448,0,79299,1,0,0:0:0:0:
320,0,79299,128,0,79356:0:0:0:0:
448,0,79414,1,0,0:0:0:0:
64,0,79530,1,0,0:0:0:0:
448,0,79760,1,0,0:0:0:0:
64,0,79760,1,0,0:0:0:0:
64,0,79991,1,0,0:0:0:0:
448,0,80222,1,0,0:0:0:0:
64,0,80222,1,0,0:0:0:0:
192,0,80453,1,0,0:0:0:0:
64,0,80453,1,0,0:0:0:0:
320,0,80683,128,0,80741:0:0:0:0:
64,0,80683,1,0,0:0:0:0:
448,0,80914,128,0,80972:0:0:0:0:
64,0,80914,1,0,0:0:0:0:
320,0,81030,128,0,81087:0:0:0:0:
192,0,81145,1,0,0:0:0:0:
64,0,81145,1,0,0:0:0:0:
320,0,81260,128,0,81318:0:0:0:0:
64,0,81260,1,0,0:0:0:0:
64,0,81376,1,0,0:0:0:0:
448,0,81606,128,0,81664:0:0:0:0:
64,0,81606,1,0,0:0:0:0:
64,0,81837,1,0,0:0:0:0:
320,0,81953,128,0,82010:0:0:0:0:
192,0,82068,1,0,0:0:0:0:
64,0,82068,1,0,0:0:0:0:
448,0,82299,128,0,82356:0:0:0:0:
64,0,82299,1,0,0:0:0:0:
320,0,82530,128,0,82587:0:0:0:0:
64,0,82530,1,0,0:0:0:0:
448,0,82760,128,0,82818:0:0:0:0:
64,0,82760,1,0,0:0:0:0:
320,0,82991,128,0,83049:0:0:0:0:
64,0,82991,1,0,0:0:0:0:
64,0,83106,1,0,0:0:0:0:
448,0,83222,1,0,0:0:0:0:
320,0,83222,1,0,0:0:0:0:
448,0,83453,1,0,0:0:0:0:
64,0,83453,1,0,0:0:0:0:
448,0,83683,1,0,0:0:0:0:
448,0,83914,1,0,0:0:0:0:
64,0,83914,1,0,0:0:0:0:
448,0,84145,1,0,0:0:0:0:
448,0,84376,1,0,0:0:0:0:
320,0,84376,128,0,84433:0:0:0:0:
448,0,84606,1,0,0:0:0:0:
64,0,84606,128,0,84664:0:0:0:0:
320,0,84722,128,0,84779:0:0:0:0:
448,0,84837,1,0,0:0:0:0:
192,0,84837,128,0,84895:0:0:0:0:
448,0,84953,1,0,0:0:0:0:
320,0,84953,128,0,85010:0:0:0:0:
448,0,85068,1,0,0:0:0:0:
64,0,85068,128,0,85126:0:0:0:0:
448,0,85299,1,0,0:0:0:0:
320,0,85299,1,0,0:0:0:0:
192,0,85414,128,0,85472:0:0:0:0:
448,0,85529,1,0,0:0:0:0:
448,0,85760,1,0,0:0:0:0:
320,0,85760,128,0,85818:0:0:0:0:
448,0,85876,1,0,0:0:0:0:
448,0,85991,1,0,0:0:0:0:
64,0,85991,128,0,86049:0:0:0:0:
448,0,86222,1,0,0:0:0:0:
320,0,86222,128,0,86279:0:0:0:0:
448,0,86453,1,0,0:0:0:0:
64,0,86453,128,0,86510:0:0:0:0:
448,0,86683,1,0,0:0:0:0:
320,0,86683,128,0,86741:0:0:0:0:
448,0,86799,1,0,0:0:0:0:
64,0,86914,1,0,0:0:0:0:
320,0,87145,1,0,0:0:0:0:
64,0,87145,1,0,0:0:0:0:
64,0,87376,1,0,0:0:0:0:
192,0,87606,1,0,0:0:0:0:
64,0,87606,1,0,0:0:0:0:
64,0,87722,1,0,0:0:0:0:
448,0,87837,1,0,0:0:0:0:
192,0,87837,1,0,0:0:0:0:
448,0,88068,1,0,0:0:0:0:
448,0,88299,1,0,0:0:0:0:
320,0,88299,1,0,0:0:0:0:
448,0,88529,1,0,0:0:0:0:
448,0,88645,1,0,0:0:0:0:
64,0,88760,1,0,0:0:0:0:
64,0,88991,1,0,0:0:0:0:
448,0,89106,1,0,0:0:0:0:
448,0,89222,1,0,0:0:0:0:
64,0,89222,1,0,0:0:0:0:
64,0,89453,1,0,0:0:0:0:
64,0,89568,1,0,0:0:0:0:
448,0,89683,1,0,0:0:0:0:
448,0,89914,1,0,0:0:0:0:
448,0,90145,1,0,0:0:0:0:
192,0,90145,1,0,0:0:0:0:
448,0,90376,1,0,0:0:0:0:
64,0,90376,1,0,0:0:0:0:
448,0,90606,1,0,0:0:0:0:
320,0,90606,1,0,0:0:0:0:
192,0,90606,1,0,0:0:0:0:
320,0,90722,1,0,0:0:0:0:
64,0,90722,1,0,0:0:0:0:
448,0,90837,1,0,0:0:0:0:
192,0,90837,1,0,0:0:0:0:
448,0,90953,1,0,0:0:0:0:
320,0,90953,1,0,0:0:0:0:
192,0,91068,1,0,0:0:0:0:
64,0,91068,1,0,0:0:0:0:
448,0,91183,1,0,0:0:0:0:
64,0,91183,1,0,0:0:0:0:
320,0,91299,1,0,0:0:0:0:
192,0,91299,1,0,0:0:0:0:
448,0,91356,1,0,0:0:0:0:
64,0,91356,1,0,0:0:0:0:
320,0,91414,1,0,0:0:0:0:
192,0,91414,1,0,0:0:0:0:
448,0,91529,1,0,0:0:0:0:
64,0,91529,1,0,0:0:0:0:
320,0,91645,1,0,0:0:0:0:
192,0,91645,1,0,0:0:0:0:
320,0,91760,1,0,0:0:0:0:
64,0,91760,1,0,0:0:0:0:
448,0,91876,1,0,0:0:0:0:
192,0,91876,1,0,0:0:0:0:
320,0,91933,1,0,0:0:0:0:
64,0,91933,1,0,0:0:0:0:
448,0,91991,1,0,0:0:0:0:
192,0,91991,1,0,0:0:0:0:
320,0,92106,1,0,0:0:0:0:
64,0,92106,1,0,0:0:0:0:
448,0,92164,1,0,0:0:0:0:
192,0,92164,1,0,0:0:0:0:
320,0,92222,1,0,0:0:0:0:
64,0,92222,1,0,0:0:0:0:
448,0,92337,1,0,0:0:0:0:
192,0,92337,1,0,0:0:0:0:
320,0,92395,1,0,0:0:0:0:
64,0,92395,1,0,0:0:0:0:
448,0,92453,1,0,0:0:0:0:
192,0,92453,1,0,0:0:0:0:
320,0,92510,1,0,0:0:0:0:
448,0,92568,1,0,0:0:0:0:
64,0,92626,1,0,0:0:0:0:
320,0,92683,1,0,0:0:0:0:
192,0,92683,1,0,0:0:0:0:
448,0,92741,1,0,0:0:0:0:
320,0,92799,1,0,0:0:0:0:
192,0,92856,1,0,0:0:0:0:
448,0,92914,1,0,0:0:0:0:
64,0,92914,1,0,0:0:0:0:
320,0,92972,1,0,0:0:0:0:
192,0,93029,1,0,0:0:0:0:
448,0,93087,1,0,0:0:0:0:
320,0,93145,1,0,0:0:0:0:
192,0,93145,1,0,0:0:0:0:
64,0,93145,1,0,0:0:0:0:
448,0,93203,1,0,0:0:0:0:
64,0,93260,1,0,0:0:0:0:
320,0,93318,1,0,0:0:0:0:
192,0,93376,1,0,0:0:0:0:
64,0,93376,1,0,0:0:0:0:
448,0,93433,1,0,0:0:0:0:
320,0,93491,1,0,0:0:0:0:
192,0,93549,1,0,0:0:0:0:
448,0,93606,1,0,0:0:0:0:
64,0,93606,1,0,0:0:0:0:
320,0,93664,1,0,0:0:0:0:
192,0,93722,1,0,0:0:0:0:
320,0,93779,1,0,0:0:0:0:
192,0,93837,1,0,0:0:0:0:
64,0,93837,1,0,0:0:0:0:
448,0,93895,1,0,0:0:0:0:
320,0,93953,1,0,0:0:0:0:
64,0,94010,1,0,0:0:0:0:
448,0,94068,1,0,0:0:0:0:
192,0,94068,1,0,0:0:0:0:
320,0,94126,1,0,0:0:0:0:
448,0,94183,1,0,0:0:0:0:
64,0,94183,1,0,0:0:0:0:
192,0,94241,1,0,0:0:0:0:
320,0,94299,1,0,0:0:0:0:
64,0,94299,1,0,0:0:0:0:
448,0,94356,1,0,0:0:0:0:
192,0,94414,1,0,0:0:0:0:
320,0,94472,1,0,0:0:0:0:
192,0,94529,1,0,0:0:0:0:
64,0,94529,1,0,0:0:0:0:
448,0,94587,1,0,0:0:0:0:
320,0,94645,1,0,0:0:0:0:
192,0,94703,1,0,0:0:0:0:
448,0,94760,1,0,0:0:0:0:
320,0,94760,1,0,0:0:0:0:
64,0,94760,1,0,0:0:0:0:
192,0,94818,1,0,0:0:0:0:
320,0,94876,1,0,0:0:0:0:
448,0,94933,1,0,0:0:0:0:
192,0,94991,1,0,0:0:0:0:
64,0,94991,1,0,0:0:0:0:
448,0,95049,1,0,0:0:0:0:
320,0,95106,1,0,0:0:0:0:
192,0,95164,1,0,0:0:0:0:
448,0,95222,1,0,0:0:0:0:
320,0,95222,1,0,0:0:0:0:
64,0,95222,1,0,0:0:0:0:
192,0,95279,1,0,0:0:0:0:
448,0,95337,1,0,0:0:0:0:
64,0,95395,1,0,0:0:0:0:
448,0,95453,1,0,0:0:0:0:
320,0,95453,1,0,0:0:0:0:
64,0,95510,1,0,0:0:0:0:
192,0,95568,1,0,0:0:0:0:
320,0,95626,1,0,0:0:0:0:
448,0,95683,1,0,0:0:0:0:
192,0,95683,1,0,0:0:0:0:
64,0,95683,1,0,0:0:0:0:
320,0,95741,1,0,0:0:0:0:
192,0,95799,1,0,0:0:0:0:
64,0,95856,1,0,0:0:0:0:
448,0,95914,1,0,0:0:0:0:
320,0,95914,1,0,0:0:0:0:
64,0,95972,1,0,0:0:0:0:
448,0,96029,1,0,0:0:0:0:
192,0,96029,1,0,0:0:0:0:
320,0,96087,1,0,0:0:0:0:
448,0,96145,1,0,0:0:0:0:
192,0,96145,1,0,0:0:0:0:
64,0,96145,1,0,0:0:0:0:
320,0,96203,1,0,0:0:0:0:
192,0,96260,1,0,0:0:0:0:
64,0,96318,1,0,0:0:0:0:
448,0,96376,1,0,0:0:0:0:
320,0,96376,1,0,0:0:0:0:
64,0,96433,1,0,0:0:0:0:
192,0,96491,1,0,0:0:0:0:
320,0,96549,1,0,0:0:0:0:
192,0,96606,1,0,0:0:0:0:
64,0,96606,1,0,0:0:0:0:
320,0,96664,1,0,0:0:0:0:
448,0,96722,1,0,0:0:0:0:
64,0,96779,1,0,0:0:0:0:
448,0,96837,1,0,0:0:0:0:
320,0,96837,1,0,0:0:0:0:
192,0,96837,1,0,0:0:0:0:
64,0,96895,1,0,0:0:0:0:
448,0,96953,1,0,0:0:0:0:
320,0,97010,1,0,0:0:0:0:
192,0,97068,1,0,0:0:0:0:
64,0,97068,1,0,0:0:0:0:
320,0,97126,1,0,0:0:0:0:
192,0,97183,1,0,0:0:0:0:
64,0,97241,1,0,0:0:0:0:
448,0,97299,1,0,0:0:0:0:
320,0,97299,1,0,0:0:0:0:
192,0,97356,1,0,0:0:0:0:
64,0,97414,1,0,0:0:0:0:
320,0,97472,1,0,0:0:0:0:
192,0,97529,1,0,0:0:0:0:
64,0,97529,1,0,0:0:0:0:
320,0,97587,1,0,0:0:0:0:
448,0,97645,1,0,0:0:0:0:
192,0,97703,1,0,0:0:0:0:
320,0,97760,1,0,0:0:0:0:
64,0,97760,1,0,0:0:0:0:
448,0,97818,1,0,0:0:0:0:
192,0,97876,1,0,0:0:0:0:
320,0,97933,1,0,0:0:0:0:
448,0,97991,1,0,0:0:0:0:
192,0,97991,1,0,0:0:0:0:
64,0,97991,1,0,0:0:0:0:
320,0,98049,1,0,0:0:0:0:
64,0,98106,1,0,0:0:0:0:
192,0,98164,1,0,0:0:0:0:
448,0,98222,1,0,0:0:0:0:
320,0,98222,1,0,0:0:0:0:
64,0,98222,1,0,0:0:0:0:
192,0,98279,1,0,0:0:0:0:
448,0,98337,1,0,0:0:0:0:
320,0,98395,1,0,0:0:0:0:
448,0,98453,1,0,0:0:0:0:
192,0,98453,1,0,0:0:0:0:
64,0,98453,1,0,0:0:0:0:
320,0,98510,1,0,0:0:0:0:
192,0,98568,1,0,0:0:0:0:
64,0,98626,1,0,0:0:0:0:
448,0,98683,1,0,0:0:0:0:
320,0,98683,1,0,0:0:0:0:
64,0,98741,1,0,0:0:0:0:
192,0,98799,1,0,0:0:0:0:
320,0,98856,1,0,0:0:0:0:
448,0,98914,1,0,0:0:0:0:
192,0,98914,1,0,0:0:0:0:
64,0,98914,1,0,0:0:0:0:
320,0,98972,1,0,0:0:0:0:
192,0,99029,1,0,0:0:0:0:
64,0,99087,1,0,0:0:0:0:
448,0,99145,1,0,0:0:0:0:
320,0,99145,1,0,0:0:0:0:
192,0,99203,1,0,0:0:0:0:
64,0,99260,1,0,0:0:0:0:
448,0,99318,1,0,0:0:0:0:
320,0,99376,1,0,0:0:0:0:
192,0,99376,1,0,0:0:0:0:
64,0,99376,1,0,0:0:0:0:
448,0,99433,1,0,0:0:0:0:
192,0,99491,1,0,0:0:0:0:
320,0,99549,1,0,0:0:0:0:
448,0,99606,1,0,0:0:0:0:
64,0,99606,1,0,0:0:0:0:
192,0,99664,1,0,0:0:0:0:
448,0,99722,1,0,0:0:0:0:
320,0,99722,1,0,0:0:0:0:
192,0,99779,1,0,0:0:0:0:
448,0,99837,1,0,0:0:0:0:
320,0,99837,1,0,0:0:0:0:
64,0,99837,1,0,0:0:0:0:
192,0,99895,1,0,0:0:0:0:
320,0,99953,1,0,0:0:0:0:
448,0,100010,1,0,0:0:0:0:
192,0,100068,1,0,0:0:0:0:
64,0,100068,1,0,0:0:0:0:
448,0,100126,1,0,0:0:0:0:
320,0,100183,1,0,0:0:0:0:
192,0,100241,1,0,0:0:0:0:
448,0,100299,1,0,0:0:0:0:
64,0,100299,1,0,0:0:0:0:
192,0,100356,1,0,0:0:0:0:
320,0,100414,1,0,0:0:0:0:
64,0,100472,1,0,0:0:0:0:
448,0,100529,1,0,0:0:0:0:
320,0,100529,1,0,0:0:0:0:
192,0,100529,1,0,0:0:0:0:
64,0,100587,1,0,0:0:0:0:
448,0,100645,1,0,0:0:0:0:
320,0,100703,1,0,0:0:0:0:
192,0,100760,1,0,0:0:0:0:
64,0,100760,1,0,0:0:0:0:
320,0,100818,1,0,0:0:0:0:
64,0,100876,1,0,0:0:0:0:
192,0,100933,1,0,0:0:0:0:
448,0,100991,1,0,0:0:0:0:
320,0,100991,1,0,0:0:0:0:
192,0,101049,1,0,0:0:0:0:
320,0,101106,1,0,0:0:0:0:
64,0,101164,1,0,0:0:0:0:
448,0,101222,1,0,0:0:0:0:
192,0,101222,1,0,0:0:0:0:
320,0,101279,1,0,0:0:0:0:
192,0,101337,1,0,0:0:0:0:
64,0,101395,1,0,0:0:0:0:
448,0,101453,1,0,0:0:0:0:
320,0,101453,1,0,0:0:0:0:
192,0,101510,1,0,0:0:0:0:
320,0,101568,1,0,0:0:0:0:
64,0,101568,1,0,0:0:0:0:
448,0,101626,1,0,0:0:0:0:
320,0,101683,1,0,0:0:0:0:
192,0,101683,1,0,0:0:0:0:
448,0,101741,1,0,0:0:0:0:
64,0,101799,1,0,0:0:0:0:
192,0,101856,1,0,0:0:0:0:
448,0,101914,1,0,0:0:0:0:
320,0,101914,1,0,0:0:0:0:
64,0,101972,1,0,0:0:0:0:
192,0,102029,1,0,0:0:0:0:
320,0,102087,1,0,0:0:0:0:
448,0,102145,1,0,0:0:0:0:
192,0,102145,1,0,0:0:0:0:
64,0,102145,1,0,0:0:0:0:
320,0,102203,1,0,0:0:0:0:
64,0,102260,1,0,0:0:0:0:
448,0,102318,1,0,0:0:0:0:
320,0,102376,1,0,0:0:0:0:
192,0,102376,1,0,0:0:0:0:
64,0,102433,1,0,0:0:0:0:
448,0,102491,1,0,0:0:0:0:
192,0,102549,1,0,0:0:0:0:
448,0,102606,1,0,0:0:0:0:
320,0,102606,1,0,0:0:0:0:
64,0,102606,1,0,0:0:0:0:
192,0,102664,1,0,0:0:0:0:
320,0,102722,1,0,0:0:0:0:
64,0,102779,1,0,0:0:0:0:
448,0,102837,1,0,0:0:0:0:
192,0,102837,1,0,0:0:0:0:
320,0,102895,1,0,0:0:0:0:
64,0,102953,1,0,0:0:0:0:
448,0,103010,1,0,0:0:0:0:
320,0,103068,1,0,0:0:0:0:
192,0,103068,1,0,0:0:0:0:
64,0,103068,1,0,0:0:0:0:
448,0,103126,1,0,0:0:0:0:
192,0,103183,1,0,0:0:0:0:
320,0,103241,1,0,0:0:0:0:
448,0,103299,1,0,0:0:0:0:
64,0,103299,1,0,0:0:0:0:
192,0,103356,1,0,0:0:0:0:
448,0,103414,1,0,0:0:0:0:
320,0,103414,1,0,0:0:0:0:
64,0,103472,1,0,0:0:0:0:
448,0,103529,1,0,0:0:0:0:
320,0,103529,1,0,0:0:0:0:
192,0,103529,1,0,0:0:0:0:
64,0,103587,1,0,0:0:0:0:
192,0,103645,1,0,0:0:0:0:
320,0,103703,1,0,0:0:0:0:
448,0,103760,1,0,0:0:0:0:
64,0,103760,1,0,0:0:0:0:
192,0,103818,1,0,0:0:0:0:
320,0,103876,1,0,0:0:0:0:
448,0,103933,1,0,0:0:0:0:
320,0,103991,1,0,0:0:0:0:
64,0,103991,1,0,0:0:0:0:
448,0,104049,1,0,0:0:0:0:
192,0,104106,1,0,0:0:0:0:
320,0,104164,1,0,0:0:0:0:
448,0,104222,1,0,0:0:0:0:
64,0,104222,1,0,0:0:0:0:
320,0,104279,1,0,0:0:0:0:
192,0,104337,1,0,0:0:0:0:
64,0,104337,1,0,0:0:0:0:
320,0,104395,1,0,0:0:0:0:
448,0,104453,1,0,0:0:0:0:
64,0,104453,1,0,0:0:0:0:
192,0,104510,1,0,0:0:0:0:
448,0,104568,1,0,0:0:0:0:
320,0,104568,1,0,0:0:0:0:
192,0,104626,1,0,0:0:0:0:
448,0,104683,1,0,0:0:0:0:
64,0,104683,1,0,0:0:0:0:
320,0,104741,1,0,0:0:0:0:
192,0,104799,1,0,0:0:0:0:
64,0,104799,1,0,0:0:0:0:
320,0,104856,1,0,0:0:0:0:
448,0,104914,1,0,0:0:0:0:
64,0,104914,1,0,0:0:0:0:
192,0,104972,1,0,0:0:0:0:
448,0,105029,1,0,0:0:0:0:
320,0,105029,1,0,0:0:0:0:
192,0,105087,1,0,0:0:0:0:
448,0,105145,1,0,0:0:0:0:
64,0,105145,1,0,0:0:0:0:
320,0,105203,1,0,0:0:0:0:
192,0,105260,1,0,0:0:0:0:
320,0,105318,1,0,0:0:0:0:
448,0,105376,1,0,0:0:0:0:
192,0,105376,1,0,0:0:0:0:
64,0,105376,1,0,0:0:0:0:
320,0,105433,1,0,0:0:0:0:
64,0,105491,1,0,0:0:0:0:
192,0,105549,1,0,0:0:0:0:
448,0,105606,1,0,0:0:0:0:
320,0,105606,1,0,0:0:0:0:
64,0,105664,1,0,0:0:0:0:
192,0,105722,1,0,0:0:0:0:
320,0,105779,1,0,0:0:0:0:
448,0,105837,1,0,0:0:0:0:
192,0,105837,1,0,0:0:0:0:
64,0,105837,1,0,0:0:0:0:
320,0,105895,1,0,0:0:0:0:
192,0,105953,1,0,0:0:0:0:
64,0,106010,1,0,0:0:0:0:
448,0,106068,1,0,0:0:0:0:
320,0,106068,1,0,0:0:0:0:
192,0,106126,1,0,0:0:0:0:
320,0,106183,1,0,0:0:0:0:
192,0,106241,1,0,0:0:0:0:
448,0,106299,1,0,0:0:0:0:
320,0,106299,1,0,0:0:0:0:
64,0,106299,1,0,0:0:0:0:
192,0,106356,1,0,0:0:0:0:
448,0,106414,1,0,0:0:0:0:
320,0,106472,1,0,0:0:0:0:
192,0,106529,1,0,0:0:0:0:
64,0,106529,1,0,0:0:0:0:
448,0,106587,1,0,0:0:0:0:
320,0,106645,1,0,0:0:0:0:
192,0,106703,1,0,0:0:0:0:
448,0,106760,1,0,0:0:0:0:
320,0,106760,1,0,0:0:0:0:
64,0,106760,1,0,0:0:0:0:
192,0,106818,1,0,0:0:0:0:
320,0,106876,1,0,0:0:0:0:
448,0,106933,1,0,0:0:0:0:
192,0,106991,1,0,0:0:0:0:
64,0,106991,1,0,0:0:0:0:
448,0,107049,1,0,0:0:0:0:
320,0,107106,1,0,0:0:0:0:
64,0,107106,1,0,0:0:0:0:
192,0,107164,1,0,0:0:0:0:
448,0,107222,1,0,0:0:0:0:
320,0,107222,1,0,0:0:0:0:
64,0,107222,1,0,0:0:0:0:
192,0,107279,1,0,0:0:0:0:
448,0,107337,1,0,0:0:0:0:
64,0,107395,1,0,0:0:0:0:
320,0,107453,1,0,0:0:0:0:
192,0,107453,1,0,0:0:0:0:
64,0,107510,1,0,0:0:0:0:
448,0,107568,1,0,0:0:0:0:
320,0,107626,1,0,0:0:0:0:
192,0,107683,1,0,0:0:0:0:
64,0,107683,1,0,0:0:0:0:
320,0,107741,1,0,0:0:0:0:
192,0,107799,1,0,0:0:0:0:
448,0,107856,1,0,0:0:0:0:
320,0,107914,1,0,0:0:0:0:
192,0,107914,1,0,0:0:0:0:
64,0,107914,1,0,0:0:0:0:
448,0,107972,1,0,0:0:0:0:
64,0,108029,1,0,0:0:0:0:
320,0,108087,1,0,0:0:0:0:
448,0,108145,1,0,0:0:0:0:
192,0,108145,1,0,0:0:0:0:
64,0,108203,1,0,0:0:0:0:
320,0,108260,1,0,0:0:0:0:
192,0,108318,1,0,0:0:0:0:
448,0,108376,1,0,0:0:0:0:
320,0,108376,1,0,0:0:0:0:
64,0,108433,1,0,0:0:0:0:
192,0,108491,1,0,0:0:0:0:
320,0,108549,1,0,0:0:0:0:
448,0,108606,1,0,0:0:0:0:
64,0,108606,1,0,0:0:0:0:
192,0,108664,1,0,0:0:0:0:
320,0,108722,1,0,0:0:0:0:
448,0,108779,1,0,0:0:0:0:
192,0,108837,1,0,0:0:0:0:
64,0,108837,1,0,0:0:0:0:
320,0,108895,1,0,0:0:0:0:
192,0,108953,1,0,0:0:0:0:
64,0,108953,1,0,0:0:0:0:
448,0,109010,1,0,0:0:0:0:
320,0,109068,1,0,0:0:0:0:
192,0,109068,1,0,0:0:0:0:
64,0,109126,1,0,0:0:0:0:
320,0,109183,1,0,0:0:0:0:
448,0,109241,1,0,0:0:0:0:
192,0,109299,1,0,0:0:0:0:
64,0,109299,1,0,0:0:0:0:
448,0,109356,1,0,0:0:0:0:
320,0,109414,1,0,0:0:0:0:
192,0,109472,1,0,0:0:0:0:
448,0,109529,1,0,0:0:0:0:
320,0,109529,1,0,0:0:0:0:
64,0,109529,1,0,0:0:0:0:
192,0,109587,1,0,0:0:0:0:
448,0,109645,1,0,0:0:0:0:
64,0,109703,1,0,0:0:0:0:
320,0,109760,1,0,0:0:0:0:
192,0,109760,1,0,0:0:0:0:
448,0,109818,1,0,0:0:0:0:
64,0,109876,1,0,0:0:0:0:
320,0,109933,1,0,0:0:0:0:
448,0,109991,1,0,0:0:0:0:
192,0,109991,1,0,0:0:0:0:
64,0,109991,1,0,0:0:0:0:
320,0,110049,1,0,0:0:0:0:
192,0,110106,1,0,0:0:0:0:
448,0,110164,1,0,0:0:0:0:
320,0,110222,1,0,0:0:0:0:
64,0,110222,1,0,0:0:0:0:
192,0,110279,1,0,0:0:0:0:
448,0,110337,1,0,0:0:0:0:
64,0,110395,1,0,0:0:0:0:
448,0,110453,1,0,0:0:0:0:
320,0,110453,1,0,0:0:0:0:
192,0,110453,1,0,0:0:0:0:
64,0,110510,1,0,0:0:0:0:
320,0,110568,1,0,0:0:0:0:
192,0,110626,1,0,0:0:0:0:
448,0,110683,1,0,0:0:0:0:
64,0,110683,1,0,0:0:0:0:
320,0,110741,1,0,0:0:0:0:
192,0,110799,1,0,0:0:0:0:
64,0,110799,1,0,0:0:0:0:
448,0,110856,1,0,0:0:0:0:
320,0,110914,1,0,0:0:0:0:
192,0,110914,1,0,0:0:0:0:
64,0,110914,1,0,0:0:0:0:
448,0,110972,1,0,0:0:0:0:
64,0,111029,1,0,0:0:0:0:
192,0,111087,1,0,0:0:0:0:
448,0,111145,1,0,0:0:0:0:
320,0,111145,1,0,0:0:0:0:
192,0,111203,1,0,0:0:0:0:
320,0,111260,1,0,0:0:0:0:
448,0,111318,1,0,0:0:0:0:
192,0,111376,1,0,0:0:0:0:
64,0,111376,1,0,0:0:0:0:
448,0,111433,1,0,0:0:0:0:
320,0,111491,1,0,0:0:0:0:
192,0,111549,1,0,0:0:0:0:
448,0,111606,1,0,0:0:0:0:
64,0,111606,1,0,0:0:0:0:
192,0,111664,1,0,0:0:0:0:
320,0,111722,1,0,0:0:0:0:
64,0,111779,1,0,0:0:0:0:
448,0,111837,1,0,0:0:0:0:
320,0,111837,1,0,0:0:0:0:
192,0,111837,1,0,0:0:0:0:
64,0,111895,1,0,0:0:0:0:
448,0,111953,1,0,0:0:0:0:
192,0,112010,1,0,0:0:0:0:
320,0,112068,1,0,0:0:0:0:
64,0,112068,1,0,0:0:0:0:
448,0,112126,1,0,0:0:0:0:
64,0,112183,1,0,0:0:0:0:
192,0,112241,1,0,0:0:0:0:
448,0,112299,1,0,0:0:0:0:
320,0,112299,1,0,0:0:0:0:
192,0,112356,1,0,0:0:0:0:
64,0,112414,1,0,0:0:0:0:
320,0,112472,1,0,0:0:0:0:
448,0,112529,1,0,0:0:0:0:
192,0,112529,1,0,0:0:0:0:
64,0,112587,1,0,0:0:0:0:
448,0,112645,1,0,0:0:0:0:
320,0,112645,1,0,0:0:0:0:
192,0,112703,1,0,0:0:0:0:
448,0,112760,1,0,0:0:0:0:
64,0,112760,1,0,0:0:0:0:
192,0,112818,1,0,0:0:0:0:
320,0,112876,1,0,0:0:0:0:
64,0,112933,1,0,0:0:0:0:
448,0,112991,1,0,0:0:0:0:
192,0,112991,1,0,0:0:0:0:
320,0,113049,1,0,0:0:0:0:
64,0,113106,1,0,0:0:0:0:
448,0,113164,1,0,0:0:0:0:
320,0,113222,1,0,0:0:0:0:
192,0,113222,1,0,0:0:0:0:
64,0,113279,1,0,0:0:0:0:
448,0,113337,1,0,0:0:0:0:
320,0,113395,1,0,0:0:0:0:
192,0,113453,1,0,0:0:0:0:
64,0,113453,1,0,0:0:0:0:
320,0,113510,1,0,0:0:0:0:
192,0,113568,1,0,0:0:0:0:
448,0,113626,1,0,0:0:0:0:
320,0,113683,1,0,0:0:0:0:
192,0,113683,1,0,0:0:0:0:
64,0,113683,1,0,0:0:0:0:
448,0,113741,1,0,0:0:0:0:
64,0,113799,1,0,0:0:0:0:
320,0,113856,1,0,0:0:0:0:
448,0,113914,1,0,0:0:0:0:
192,0,113914,1,0,0:0:0:0:
64,0,113914,1,0,0:0:0:0:
320,0,113972,1,0,0:0:0:0:
192,0,114029,1,0,0:0:0:0:
64,0,114087,1,0,0:0:0:0:
448,0,114145,1,0,0:0:0:0:
320,0,114145,1,0,0:0:0:0:
192,0,114145,1,0,0:0:0:0:
64,0,114203,1,0,0:0:0:0:
448,0,114260,1,0,0:0:0:0:
320,0,114318,1,0,0:0:0:0:
448,0,114376,1,0,0:0:0:0:
192,0,114376,1,0,0:0:0:0:
64,0,114376,1,0,0:0:0:0:
320,0,114433,1,0,0:0:0:0:
192,0,114491,1,0,0:0:0:0:
64,0,114549,1,0,0:0:0:0:
448,0,114606,1,0,0:0:0:0:
320,0,114606,1,0,0:0:0:0:
192,0,114606,1,0,0:0:0:0:
64,0,114664,1,0,0:0:0:0:
448,0,114722,1,0,0:0:0:0:
320,0,114779,1,0,0:0:0:0:
192,0,114837,1,0,0:0:0:0:
64,0,114837,1,0,0:0:0:0:
320,0,114895,1,0,0:0:0:0:
192,0,114953,1,0,0:0:0:0:
448,0,115010,1,0,0:0:0:0:
320,0,115068,1,0,0:0:0:0:
64,0,115068,1,0,0:0:0:0:
448,0,115126,1,0,0:0:0:0:
192,0,115183,1,0,0:0:0:0:
320,0,115241,1,0,0:0:0:0:
448,0,115299,1,0,0:0:0:0:
192,0,115299,1,0,0:0:0:0:
64,0,115299,1,0,0:0:0:0:
320,0,115356,1,0,0:0:0:0:
192,0,115414,1,0,0:0:0:0:
64,0,115472,1,0,0:0:0:0:
448,0,115529,1,0,0:0:0:0:
320,0,115529,1,0,0:0:0:0:
64,0,115587,1,0,0:0:0:0:
192,0,115645,1,0,0:0:0:0:
320,0,115703,1,0,0:0:0:0:
448,0,115760,1,0,0:0:0:0:
64,0,115760,1,0,0:0:0:0:
192,0,115818,1,0,0:0:0:0:
448,0,115876,1,0,0:0:0:0:
320,0,115933,1,0,0:0:0:0:
192,0,115991,1,0,0:0:0:0:
64,0,115991,1,0,0:0:0:0:
320,0,116049,1,0,0:0:0:0:
192,0,116106,1,0,0:0:0:0:
448,0,116164,1,0,0:0:0:0:
320,0,116222,1,0,0:0:0:0:
64,0,116222,1,0,0:0:0:0:
192,0,116279,1,0,0:0:0:0:
448,0,116337,1,0,0:0:0:0:
320,0,116337,1,0,0:0:0:0:
192,0,116395,1,0,0:0:0:0:
64,0,116395,1,0,0:0:0:0:
448,0,116453,1,0,0:0:0:0:
320,0,116453,1,0,0:0:0:0:
64,0,116510,1,0,0:0:0:0:
192,0,116568,1,0,0:0:0:0:
320,0,116626,1,0,0:0:0:0:
448,0,116683,1,0,0:0:0:0:
64,0,116683,1,0,0:0:0:0:
192,0,116741,1,0,0:0:0:0:
320,0,116799,1,0,0:0:0:0:
192,0,116856,1,0,0:0:0:0:
448,0,116914,1,0,0:0:0:0:
320,0,116914,1,0,0:0:0:0:
64,0,116914,1,0,0:0:0:0:
192,0,116972,1,0,0:0:0:0:
448,0,117029,1,0,0:0:0:0:
320,0,117087,1,0,0:0:0:0:
192,0,117145,1,0,0:0:0:0:
64,0,117145,1,0,0:0:0:0:
448,0,117203,1,0,0:0:0:0:
320,0,117260,1,0,0:0:0:0:
192,0,117318,1,0,0:0:0:0:
448,0,117376,1,0,0:0:0:0:
320,0,117376,1,0,0:0:0:0:
64,0,117376,1,0,0:0:0:0:
192,0,117433,1,0,0:0:0:0:
320,0,117491,1,0,0:0:0:0:
192,0,117549,1,0,0:0:0:0:
448,0,117606,1,0,0:0:0:0:
64,0,117606,1,0,0:0:0:0:
320,0,117664,1,0,0:0:0:0:
192,0,117722,1,0,0:0:0:0:
448,0,117779,1,0,0:0:0:0:
320,0,117837,1,0,0:0:0:0:
192,0,117837,1,0,0:0:0:0:
64,0,117837,1,0,0:0:0:0:
448,0,117895,1,0,0:0:0:0:
64,0,117953,1,0,0:0:0:0:
320,0,118010,1,0,0:0:0:0:
448,0,118068,1,0,0:0:0:0:
192,0,118068,1,0,0:0:0:0:
64,0,118126,1,0,0:0:0:0:
448,0,118183,1,0,0:0:0:0:
320,0,118183,1,0,0:0:0:0:
64,0,118241,1,0,0:0:0:0:
448,0,118299,1,0,0:0:0:0:
320,0,118299,1,0,0:0:0:0:
192,0,118299,1,0,0:0:0:0:
64,0,118356,1,0,0:0:0:0:
448,0,118414,1,0,0:0:0:0:
320,0,118472,1,0,0:0:0:0:
192,0,118529,1,0,0:0:0:0:
64,0,118529,1,0,0:0:0:0:
448,0,118587,1,0,0:0:0:0:
64,0,118645,1,0,0:0:0:0:
192,0,118703,1,0,0:0:0:0:
448,0,118760,1,0,0:0:0:0:
320,0,118760,1,0,0:0:0:0:
192,0,118818,1,0,0:0:0:0:
64,0,118876,1,0,0:0:0:0:
320,0,118933,1,0,0:0:0:0:
448,0,118991,1,0,0:0:0:0:
192,0,118991,1,0,0:0:0:0:
64,0,119049,1,0,0:0:0:0:
320,0,119106,1,0,0:0:0:0:
192,0,119164,1,0,0:0:0:0:
448,0,119222,1,0,0:0:0:0:
64,0,119222,1,0,0:0:0:0:
192,0,119279,1,0,0:0:0:0:
320,0,119337,1,0,0:0:0:0:
448,0,119395,1,0,0:0:0:0:
192,0,119453,1,0,0:0:0:0:
64,0,119453,1,0,0:0:0:0:
448,0,119510,1,0,0:0:0:0:
320,0,119568,1,0,0:0:0:0:
192,0,119626,1,0,0:0:0:0:
448,0,119683,1,0,0:0:0:0:
64,0,119683,1,0,0:0:0:0:
320,0,119741,1,0,0:0:0:0:
192,0,119799,1,0,0:0:0:0:
320,0,119856,1,0,0:0:0:0:
448,0,119914,1,0,0:0:0:0:
64,0,119914,1,0,0:0:0:0:
192,0,119972,1,0,0:0:0:0:
448,0,120029,1,0,0:0:0:0:
320,0,120029,1,0,0:0:0:0:
192,0,120087,1,0,0:0:0:0:
448,0,120145,1,0,0:0:0:0:
320,0,120145,1,0,0:0:0:0:
64,0,120145,1,0,0:0:0:0:
192,0,120203,1,0,0:0:0:0:
320,0,120260,1,0,0:0:0:0:
448,0,120318,1,0,0:0:0:0:
192,0,120376,1,0,0:0:0:0:
64,0,120376,1,0,0:0:0:0:
320,0,120433,1,0,0:0:0:0:
64,0,120491,1,0,0:0:0:0:
448,0,120549,1,0,0:0:0:0:
320,0,120606,1,0,0:0:0:0:
192,0,120606,1,0,0:0:0:0:
448,0,120664,1,0,0:0:0:0:
64,0,120722,1,0,0:0:0:0:
192,0,120779,1,0,0:0:0:0:
448,0,120837,1,0,0:0:0:0:
320,0,120837,1,0,0:0:0:0:
192,0,120895,1,0,0:0:0:0:
448,0,120953,1,0,0:0:0:0:
320,0,121010,1,0,0:0:0:0:
192,0,121068,1,0,0:0:0:0:
64,0,121068,1,0,0:0:0:0:
448,0,121126,1,0,0:0:0:0:
64,0,121183,1,0,0:0:0:0:
192,0,121241,1,0,0:0:0:0:
448,0,121299,1,0,0:0:0:0:
320,0,121299,1,0,0:0:0:0:
192,0,121356,1,0,0:0:0:0:
448,0,121414,1,0,0:0:0:0:
320,0,121414,1,0,0:0:0:0:
192,0,121472,1,0,0:0:0:0:
448,0,121529,1,0,0:0:0:0:
320,0,121529,1,0,0:0:0:0:
192,0,121587,1,0,0:0:0:0:
448,0,121645,1,0,0:0:0:0:
320,0,121645,1,0,0:0:0:0:
192,0,121703,1,0,0:0:0:0:
448,0,121760,1,0,0:0:0:0:
320,0,121760,1,0,0:0:0:0:
192,0,121818,1,0,0:0:0:0:
448,0,121876,1,0,0:0:0:0:
320,0,121876,1,0,0:0:0:0:
64,0,121991,1,0,0:0:0:0:
192,0,122222,1,0,0:0:0:0:
320,0,122453,1,0,0:0:0:0:
448,0,122683,1,0,0:0:0:0:
64,0,122683,1,0,0:0:0:0:
320,0,122914,1,0,0:0:0:0:
192,0,123145,1,0,0:0:0:0:
448,0,123376,1,0,0:0:0:0:
64,0,123376,1,0,0:0:0:0:
320,0,123606,1,0,0:0:0:0:
64,0,123837,1,0,0:0:0:0:
448,0,124068,1,0,0:0:0:0:
320,0,124068,1,0,0:0:0:0:
192,0,124299,1,0,0:0:0:0:
64,0,124529,1,0,0:0:0:0:
448,0,124760,1,0,0:0:0:0:
192,0,124760,1,0,0:0:0:0:
320,0,124991,128,0,125222:0:0:0:0:
192,0,125222,128,0,125453:0:0:0:0:
320,0,125453,128,0,125683:0:0:0:0:
448,0,125683,1,0,0:0:0:0:
192,0,125683,128,0,126376:0:0:0:0:
64,0,125914,1,0,0:0:0:0:
320,0,126145,1,0,0:0:0:0:
64,0,126376,128,0,127068:0:0:0:0:
448,0,126376,1,0,0:0:0:0:
192,0,126606,1,0,0:0:0:0:
320,0,126837,1,0,0:0:0:0:
192,0,127068,128,0,128453:0:0:0:0:
448,0,127068,1,0,0:0:0:0:
320,0,127299,1,0,0:0:0:0:
64,0,127529,1,0,0:0:0:0:
448,0,127760,1,0,0:0:0:0:
320,0,127760,1,0,0:0:0:0:
64,0,127991,1,0,0:0:0:0:
320,0,128222,1,0,0:0:0:0:
448,0,128453,1,0,0:0:0:0:
64,0,128453,128,0,128683:0:0:0:0:
192,0,128683,128,0,128914:0:0:0:0:
320,0,128914,128,0,129145:0:0:0:0:
448,0,129145,128,0,129376:0:0:0:0:
64,192,129145,1,0,0:0:0:0:
320,0,129376,128,0,130068:0:0:0:0:
192,0,129376,1,0,0:0:0:0:
64,0,129606,1,0,0:0:0:0:
448,0,129837,1,0,0:0:0:0:
192,0,130068,128,0,130760:0:0:0:0:
64,0,130068,1,0,0:0:0:0:
320,0,130299,1,0,0:0:0:0:
448,0,130529,1,0,0:0:0:0:
320,0,130760,128,0,131914:0:0:0:0:
64,0,130760,1,0,0:0:0:0:
448,0,130991,1,0,0:0:0:0:
192,0,131222,1,0,0:0:0:0:
448,0,131453,1,0,0:0:0:0:
64,0,131453,1,0,0:0:0:0:
192,0,131683,1,0,0:0:0:0:
64,0,131914,128,0,132606:0:0:0:0:
448,0,132145,1,0,0:0:0:0:
192,0,132145,1,0,0:0:0:0:
320,0,132376,1,0,0:0:0:0:
192,0,132606,128,0,133068:0:0:0:0:
448,0,132837,1,0,0:0:0:0:
64,0,132837,1,0,0:0:0:0:
320,0,133068,128,0,133991:0:0:0:0:
64,0,133068,1,0,0:0:0:0:
192,0,133299,1,0,0:0:0:0:
448,0,133529,1,0,0:0:0:0:
64,0,133760,1,0,0:0:0:0:
448,0,133991,128,0,136760:0:0:0:0:
192,0,134222,1,0,0:0:0:0:
320,0,134453,1,0,0:0:0:0:
64,0,134453,1,0,0:0:0:0:
192,0,134683,1,0,0:0:0:0:
64,0,134914,1,0,0:0:0:0:
320,0,135145,1,0,0:0:0:0:
192,0,135376,1,0,0:0:0:0:
320,0,135606,1,0,0:0:0:0:
192,0,135837,1,0,0:0:0:0:
64,0,135837,1,0,0:0:0:0:
320,0,136068,1,0,0:0:0:0:
64,0,136299,1,0,0:0:0:0:
192,0,136529,1,0,0:0:0:0:
64,0,136760,128,0,139760:0:0:0:0:
320,0,136760,1,0,0:0:0:0:
192,0,136991,1,0,0:0:0:0:
320,0,137222,1,0,0:0:0:0:
448,0,137453,1,0,0:0:0:0:
320,0,137683,1,0,0:0:0:0:
448,0,137914,1,0,0:0:0:0:
192,0,138145,1,0,0:0:0:0:
320,0,138376,1,0,0:0:0:0:
448,0,138606,1,0,0:0:0:0:
320,0,138837,1,0,0:0:0:0:
192,0,139068,1,0,0:0:0:0:
448,0,139299,1,0,0:0:0:0:
192,0,139529,1,0,0:0:0:0:
448,0,139760,128,0,140222:0:0:0:0:
320,0,139991,1,0,0:0:0:0:
192,0,140222,128,0,140914:0:0:0:0:
64,0,140222,1,0,0:0:0:0:
320,0,140453,1,0,0:0:0:0:
448,0,140683,1,0,0:0:0:0:
320,0,140914,128,0,142760:0:0:0:0:
64,192,141145,1,0,0:0:0:0:
192,0,141376,1,0,0:0:0:0:
448,0,141606,1,0,0:0:0:0:
64,0,141606,1,0,0:0:0:0:
192,0,141837,1,0,0:0:0:0:
192,192,142068,1,0,0:0:0:0:
448,192,142068,1,0,0:0:0:0:
448,192,142299,1,0,0:0:0:0:
64,192,142299,1,0,0:0:0:0:
192,192,142529,1,0,0:0:0:0:
64,0,142760,128,0,143453:0:0:0:0:
448,192,142760,1,0,0:0:0:0:
448,0,142991,1,0,0:0:0:0:
320,0,143222,1,0,0:0:0:0:
192,0,143453,128,0,143683:0:0:0:0:
320,0,143683,128,0,143914:0:0:0:0:
448,0,143914,128,0,144837:0:0:0:0:
64,0,143914,1,0,0:0:0:0:
192,0,144145,1,0,0:0:0:0:
64,0,144376,1,0,0:0:0:0:
192,0,144606,1,0,0:0:0:0:
320,192,144606,1,0,0:0:0:0:
64,0,144837,128,0,145529:0:0:0:0:
320,0,144837,1,0,0:0:0:0:
192,0,145068,1,0,0:0:0:0:
320,0,145299,1,0,0:0:0:0:
192,0,145529,128,0,146395:0:0:0:0:
448,0,145529,1,0,0:0:0:0:
64,0,145760,1,0,0:0:0:0:
320,0,145991,1,0,0:0:0:0:
448,0,146337,1,0,0:0:0:0:
320,0,146395,128,0,147491:0:0:0:0:
64,0,146568,1,0,0:0:0:0:
192,0,146683,1,0,0:0:0:0:
64,0,147029,1,0,0:0:0:0:
448,0,147203,1,0,0:0:0:0:
192,0,147376,1,0,0:0:0:0:
448,0,147491,128,0,148876:0:0:0:0:
64,0,147491,1,0,0:0:0:0:
192,0,147606,1,0,0:0:0:0:
320,0,147837,1,0,0:0:0:0:
192,0,148299,1,0,0:0:0:0:
64,0,148876,128,0,151241:0:0:0:0:
320,0,148876,1,0,0:0:0:0:
192,0,148991,1,0,0:0:0:0:
448,0,149453,1,0,0:0:0:0:
320,0,150376,1,0,0:0:0:0:
192,0,151241,128,0,152510:0:0:0:0:
320,0,152510,128,0,153664:0:0:0:0:
448,0,153664,128,0,157933:0:0:0:0:
448,0,157991,1,0,0:0:0:0:
192,0,157991,1,0,0:0:0:0:
64,0,157991,1,0,0:0:0:0:
320,0,158049,1,0,0:0:0:0:
192,0,158106,1,0,0:0:0:0:
320,0,158164,1,0,0:0:0:0:
448,0,158222,1,0,0:0:0:0:
64,0,158222,1,0,0:0:0:0:
192,0,158279,1,0,0:0:0:0:
448,0,158337,1,0,0:0:0:0:
320,0,158337,1,0,0:0:0:0:
192,0,158395,1,0,0:0:0:0:
448,0,158453,1,0,0:0:0:0:
64,0,158453,1,0,0:0:0:0:
320,0,158510,1,0,0:0:0:0:
192,0,158568,1,0,0:0:0:0:
64,0,158568,1,0,0:0:0:0:
320,0,158626,1,0,0:0:0:0:
448,0,158683,1,0,0:0:0:0:
192,0,158683,1,0,0:0:0:0:
64,0,158741,1,0,0:0:0:0:
320,0,158799,1,0,0:0:0:0:
192,0,158856,1,0,0:0:0:0:
448,0,158914,1,0,0:0:0:0:
320,0,158914,1,0,0:0:0:0:
64,0,158972,1,0,0:0:0:0:
448,0,159029,1,0,0:0:0:0:
192,0,159029,1,0,0:0:0:0:
320,0,159087,1,0,0:0:0:0:
192,0,159145,1,0,0:0:0:0:
64,0,159145,1,0,0:0:0:0:
320,0,159203,1,0,0:0:0:0:
448,0,159260,1,0,0:0:0:0:
64,0,159260,1,0,0:0:0:0:
192,0,159318,1,0,0:0:0:0:
448,0,159376,1,0,0:0:0:0:
320,0,159376,1,0,0:0:0:0:
64,0,159433,1,0,0:0:0:0:
320,0,159491,1,0,0:0:0:0:
192,0,159491,1,0,0:0:0:0:
64,0,159549,1,0,0:0:0:0:
448,0,159606,1,0,0:0:0:0:
320,0,159606,1,0,0:0:0:0:
192,0,159664,1,0,0:0:0:0:
448,0,159722,1,0,0:0:0:0:
64,0,159722,1,0,0:0:0:0:
320,0,159779,1,0,0:0:0:0:
192,0,159837,1,0,0:0:0:0:
64,0,159837,1,0,0:0:0:0:
448,0,159895,1,0,0:0:0:0:
320,0,159953,1,0,0:0:0:0:
192,0,160010,1,0,0:0:0:0:
448,0,160068,1,0,0:0:0:0:
64,0,160068,1,0,0:0:0:0:
192,0,160126,1,0,0:0:0:0:
448,0,160183,1,0,0:0:0:0:
320,0,160183,1,0,0:0:0:0:
64,0,160241,1,0,0:0:0:0:
192,0,160299,1,0,0:0:0:0:
320,0,160356,1,0,0:0:0:0:
448,0,160414,1,0,0:0:0:0:
64,0,160414,1,0,0:0:0:0:
320,0,160472,1,0,0:0:0:0:
192,0,160529,1,0,0:0:0:0:
64,0,160529,1,0,0:0:0:0:
448,0,160587,1,0,0:0:0:0:
320,0,160645,1,0,0:0:0:0:
64,0,160702,1,0,0:0:0:0:
448,0,160760,1,0,0:0:0:0:
192,0,160760,1,0,0:0:0:0:
320,0,160818,1,0,0:0:0:0:
192,0,160876,1,0,0:0:0:0:
64,0,160876,1,0,0:0:0:0:
320,0,160933,1,0,0:0:0:0:
448,0,160991,1,0,0:0:0:0:
64,0,160991,1,0,0:0:0:0:
192,0,161049,1,0,0:0:0:0:
448,0,161106,1,0,0:0:0:0:
320,0,161106,1,0,0:0:0:0:
192,0,161164,1,0,0:0:0:0:
448,0,161222,1,0,0:0:0:0:
64,0,161222,1,0,0:0:0:0:
320,0,161279,1,0,0:0:0:0:
192,0,161337,1,0,0:0:0:0:
64,0,161337,1,0,0:0:0:0:
448,0,161395,1,0,0:0:0:0:
320,0,161452,1,0,0:0:0:0:
192,0,161452,1,0,0:0:0:0:
64,0,161510,1,0,0:0:0:0:
448,0,161568,1,0,0:0:0:0:
320,0,161568,1,0,0:0:0:0:
192,0,161626,1,0,0:0:0:0:
448,0,161683,1,0,0:0:0:0:
320,0,161683,1,0,0:0:0:0:
64,0,161741,1,0,0:0:0:0:
192,0,161799,1,0,0:0:0:0:
320,0,161856,1,0,0:0:0:0:
448,0,161914,1,0,0:0:0:0:
64,0,161914,1,0,0:0:0:0:
192,0,161972,1,0,0:0:0:0:
448,0,162029,1,0,0:0:0:0:
320,0,162029,1,0,0:0:0:0:
192,0,162087,1,0,0:0:0:0:
64,0,162145,1,0,0:0:0:0:
448,0,162202,1,0,0:0:0:0:
320,0,162260,1,0,0:0:0:0:
192,0,162260,1,0,0:0:0:0:
448,0,162318,1,0,0:0:0:0:
192,0,162376,1,0,0:0:0:0:
64,0,162376,1,0,0:0:0:0:
320,0,162433,1,0,0:0:0:0:
448,0,162491,1,0,0:0:0:0:
64,0,162491,1,0,0:0:0:0:
192,0,162549,1,0,0:0:0:0:
448,0,162606,1,0,0:0:0:0:
320,0,162606,1,0,0:0:0:0:
192,0,162664,1,0,0:0:0:0:
320,0,162722,1,0,0:0:0:0:
64,0,162722,1,0,0:0:0:0:
448,0,162779,1,0,0:0:0:0:
192,0,162837,1,0,0:0:0:0:
64,0,162837,1,0,0:0:0:0:
448,0,162895,1,0,0:0:0:0:
192,0,162952,1,0,0:0:0:0:
64,0,162952,1,0,0:0:0:0:
320,0,163010,1,0,0:0:0:0:
448,0,163068,1,0,0:0:0:0:
64,0,163068,1,0,0:0:0:0:
192,0,163126,1,0,0:0:0:0:
448,0,163183,1,0,0:0:0:0:
320,0,163183,1,0,0:0:0:0:
192,0,163241,1,0,0:0:0:0:
320,0,163299,1,0,0:0:0:0:
64,0,163299,1,0,0:0:0:0:
192,0,163356,1,0,0:0:0:0:
448,0,163414,1,0,0:0:0:0:
320,0,163414,1,0,0:0:0:0:
192,0,163472,1,0,0:0:0:0:
448,0,163529,1,0,0:0:0:0:
64,0,163529,1,0,0:0:0:0:
320,0,163587,1,0,0:0:0:0:
64,0,163645,1,0,0:0:0:0:
192,0,163702,1,0,0:0:0:0:
448,0,163760,1,0,0:0:0:0:
320,0,163760,1,0,0:0:0:0:
64,0,163818,1,0,0:0:0:0:
320,0,163876,1,0,0:0:0:0:
192,0,163876,1,0,0:0:0:0:
64,0,163933,1,0,0:0:0:0:
448,0,163991,1,0,0:0:0:0:
320,0,164049,1,0,0:0:0:0:
192,0,164106,1,0,0:0:0:0:
64,0,164106,1,0,0:0:0:0:
448,0,164164,1,0,0:0:0:0:
320,0,164222,1,0,0:0:0:0:
192,0,164222,1,0,0:0:0:0:
448,0,164279,1,0,0:0:0:0:
192,0,164337,1,0,0:0:0:0:
64,0,164337,1,0,0:0:0:0:
320,0,164395,1,0,0:0:0:0:
448,0,164452,1,0,0:0:0:0:
64,0,164452,1,0,0:0:0:0:
192,0,164510,1,0,0:0:0:0:
448,0,164568,1,0,0:0:0:0:
320,0,164568,1,0,0:0:0:0:
192,0,164626,1,0,0:0:0:0:
448,0,164683,1,0,0:0:0:0:
64,0,164683,1,0,0:0:0:0:
320,0,164741,1,0,0:0:0:0:
192,0,164799,1,0,0:0:0:0:
64,0,164799,1,0,0:0:0:0:
320,0,164856,1,0,0:0:0:0:
448,0,164914,1,0,0:0:0:0:
64,0,164914,1,0,0:0:0:0:
192,0,164972,1,0,0:0:0:0:
448,0,165029,1,0,0:0:0:0:
320,0,165029,1,0,0:0:0:0:
192,0,165087,1,0,0:0:0:0:
448,0,165145,1,0,0:0:0:0:
64,0,165145,1,0,0:0:0:0:
320,0,165202,1,0,0:0:0:0:
192,0,165260,1,0,0:0:0:0:
64,0,165260,1,0,0:0:0:0:
448,0,165318,1,0,0:0:0:0:
320,0,165318,1,0,0:0:0:0:
192,0,165376,1,0,0:0:0:0:
64,0,165376,1,0,0:0:0:0:
448,0,165414,1,0,0:0:0:0:
320,0,165452,1,0,0:0:0:0:
192,0,165491,1,0,0:0:0:0:
448,0,165529,1,0,0:0:0:0:
320,0,165568,1,0,0:0:0:0:
64,0,165606,1,0,0:0:0:0:
192,0,165645,1,0,0:0:0:0:
320,0,165683,1,0,0:0:0:0:
448,0,165722,1,0,0:0:0:0:
64,0,165760,1,0,0:0:0:0:
192,0,165799,1,0,0:0:0:0:
320,0,165837,1,0,0:0:0:0:
64,0,165876,1,0,0:0:0:0:
448,0,165914,1,0,0:0:0:0:
320,0,165952,1,0,0:0:0:0:
192,0,165991,1,0,0:0:0:0:
64,0,166029,1,0,0:0:0:0:
448,0,166068,1,0,0:0:0:0:
320,0,166106,1,0,0:0:0:0:
192,0,166145,1,0,0:0:0:0:
448,0,166183,1,0,0:0:0:0:
64,0,166222,1,0,0:0:0:0:
320,0,166260,1,0,0:0:0:0:
192,0,166299,1,0,0:0:0:0:
448,0,166337,1,0,0:0:0:0:
64,0,166376,1,0,0:0:0:0:
320,0,166414,1,0,0:0:0:0:
192,0,166452,1,0,0:0:0:0:
448,0,166491,1,0,0:0:0:0:
320,0,166529,1,0,0:0:0:0:
192,0,166568,1,0,0:0:0:0:
64,0,166606,1,0,0:0:0:0:
448,0,166645,1,0,0:0:0:0:
320,0,166683,1,0,0:0:0:0:
64,0,166722,1,0,0:0:0:0:
192,0,166760,1,0,0:0:0:0:
320,0,166799,1,0,0:0:0:0:
448,0,166837,1,0,0:0:0:0:
192,0,166876,1,0,0:0:0:0:
320,0,166914,1,0,0:0:0:0:
64,0,166952,1,0,0:0:0:0:
448,0,166991,1,0,0:0:0:0:
192,0,167029,1,0,0:0:0:0:
320,0,167068,1,0,0:0:0:0:
64,0,167106,1,0,0:0:0:0:
448,0,167145,1,0,0:0:0:0:
192,0,167164,1,0,0:0:0:0:
320,0,167183,1,0,0:0:0:0:
64,0,167222,1,0,0:0:0:0:
448,0,167260,1,0,0:0:0:0:
192,0,167299,1,0,0:0:0:0:
320,0,167337,1,0,0:0:0:0:
64,0,167376,1,0,0:0:0:0:
192,0,167414,1,0,0:0:0:0:
448,0,167452,1,0,0:0:0:0:
320,0,167491,1,0,0:0:0:0:
192,0,167529,1,0,0:0:0:0:
64,0,167568,1,0,0:0:0:0:
320,0,167606,1,0,0:0:0:0:
192,0,167645,1,0,0:0:0:0:
448,0,167683,1,0,0:0:0:0:
64,0,167722,1,0,0:0:0:0:
320,0,167741,1,0,0:0:0:0:
192,0,167760,1,0,0:0:0:0:
448,0,167799,1,0,0:0:0:0:
64,0,167837,1,0,0:0:0:0:
320,0,167876,1,0,0:0:0:0:
448,0,167914,1,0,0:0:0:0:
192,0,167914,1,0,0:0:0:0:
64,0,167952,1,0,0:0:0:0:
320,0,167991,1,0,0:0:0:0:
192,0,168029,1,0,0:0:0:0:
448,0,168068,1,0,0:0:0:0:
320,0,168106,1,0,0:0:0:0:
192,0,168145,1,0,0:0:0:0:
64,0,168145,1,0,0:0:0:0:
448,0,168183,1,0,0:0:0:0:
320,0,168222,1,0,0:0:0:0:
64,0,168260,1,0,0:0:0:0:
192,0,168299,1,0,0:0:0:0:
448,0,168337,1,0,0:0:0:0:
320,0,168376,1,0,0:0:0:0:
192,0,168414,1,0,0:0:0:0:
64,0,168452,1,0,0:0:0:0:
448,0,168491,1,0,0:0:0:0:
192,0,168529,1,0,0:0:0:0:
320,0,168568,1,0,0:0:0:0:
64,0,168606,1,0,0:0:0:0:
448,0,168645,1,0,0:0:0:0:
320,0,168683,1,0,0:0:0:0:
64,0,168722,1,0,0:0:0:0:
192,0,168760,1,0,0:0:0:0:
448,0,168799,1,0,0:0:0:0:
64,0,168837,1,0,0:0:0:0:
320,0,168876,1,0,0:0:0:0:
192,0,168914,1,0,0:0:0:0:
448,0,168952,1,0,0:0:0:0:
64,0,168991,1,0,0:0:0:0:
192,0,169029,1,0,0:0:0:0:
320,0,169068,1,0,0:0:0:0:
448,0,169126,1,0,0:0:0:0:
64,0,169154,1,0,0:0:0:0:
192,0,169183,1,0,0:0:0:0:
320,0,169212,1,0,0:0:0:0:
448,0,169241,1,0,0:0:0:0:
192,0,169299,1,0,0:0:0:0:
64,0,169299,1,0,0:0:0:0:
320,0,169356,1,0,0:0:0:0:
448,0,169414,1,0,0:0:0:0:
64,0,169414,1,0,0:0:0:0:
192,0,169472,1,0,0:0:0:0:
320,0,169529,1,0,0:0:0:0:
192,0,169587,1,0,0:0:0:0:
448,0,169645,1,0,0:0:0:0:
64,0,169645,1,0,0:0:0:0:
320,0,169702,1,0,0:0:0:0:
192,0,169760,1,0,0:0:0:0:
64,0,169760,1,0,0:0:0:0:
320,0,169818,1,0,0:0:0:0:
192,0,169876,1,0,0:0:0:0:
448,0,169933,1,0,0:0:0:0:
320,0,169991,1,0,0:0:0:0:
64,0,169991,1,0,0:0:0:0:
192,0,170049,1,0,0:0:0:0:
448,0,170106,1,0,0:0:0:0:
320,0,170106,1,0,0:0:0:0:
64,0,170164,1,0,0:0:0:0:
192,0,170222,1,0,0:0:0:0:
320,0,170279,1,0,0:0:0:0:
448,0,170337,1,0,0:0:0:0:
64,0,170337,1,0,0:0:0:0:
192,0,170395,1,0,0:0:0:0:
448,0,170452,1,0,0:0:0:0:
320,0,170452,1,0,0:0:0:0:
192,0,170510,1,0,0:0:0:0:
320,0,170568,1,0,0:0:0:0:
448,0,170626,1,0,0:0:0:0:
192,0,170683,1,0,0:0:0:0:
64,0,170683,1,0,0:0:0:0:
448,0,170741,1,0,0:0:0:0:
320,0,170741,1,0,0:0:0:0:
192,0,170799,1,0,0:0:0:0:
64,0,170799,1,0,0:0:0:0:
448,0,170856,1,0,0:0:0:0:
320,0,170856,1,0,0:0:0:0:
192,0,170914,1,0,0:0:0:0:
64,0,170914,1,0,0:0:0:0:
448,0,170972,1,0,0:0:0:0:
320,0,171029,1,0,0:0:0:0:
448,0,171087,1,0,0:0:0:0:
192,0,171145,1,0,0:0:0:0:
64,0,171145,1,0,0:0:0:0:
320,0,171202,1,0,0:0:0:0:
192,0,171260,1,0,0:0:0:0:
64,0,171260,1,0,0:0:0:0:
320,0,171318,1,0,0:0:0:0:
448,0,171376,1,0,0:0:0:0:
64,0,171376,1,0,0:0:0:0:
192,0,171433,1,0,0:0:0:0:
448,0,171491,1,0,0:0:0:0:
320,0,171491,1,0,0:0:0:0:
192,0,171549,1,0,0:0:0:0:
448,0,171606,1,0,0:0:0:0:
320,0,171606,1,0,0:0:0:0:
64,0,171664,1,0,0:0:0:0:
320,0,171722,1,0,0:0:0:0:
192,0,171779,1,0,0:0:0:0:
448,0,171837,1,0,0:0:0:0:
64,0,171837,1,0,0:0:0:0:
320,0,171895,1,0,0:0:0:0:
192,0,171952,1,0,0:0:0:0:
64,0,171952,1,0,0:0:0:0:
320,0,172010,1,0,0:0:0:0:
192,0,172068,1,0,0:0:0:0:
64,0,172068,1,0,0:0:0:0:
448,0,172126,1,0,0:0:0:0:
320,0,172183,1,0,0:0:0:0:
192,0,172241,1,0,0:0:0:0:
448,0,172299,1,0,0:0:0:0:
64,0,172299,1,0,0:0:0:0:
320,0,172356,1,0,0:0:0:0:
192,0,172414,1,0,0:0:0:0:
64,0,172414,1,0,0:0:0:0:
320,0,172472,1,0,0:0:0:0:
192,0,172529,1,0,0:0:0:0:
64,0,172529,1,0,0:0:0:0:
448,0,172587,1,0,0:0:0:0:
320,0,172587,1,0,0:0:0:0:
192,0,172645,1,0,0:0:0:0:
64,0,172645,1,0,0:0:0:0:
448,0,172702,1,0,0:0:0:0:
320,0,172702,1,0,0:0:0:0:
192,0,172760,1,0,0:0:0:0:
64,0,172760,1,0,0:0:0:0:
320,0,172818,1,0,0:0:0:0:
448,0,172876,1,0,0:0:0:0:
192,0,172933,1,0,0:0:0:0:
64,0,172991,1,0,0:0:0:0:
192,0,173049,1,0,0:0:0:0:
448,0,173106,1,0,0:0:0:0:
320,0,173106,1,0,0:0:0:0:
64,0,173164,1,0,0:0:0:0:
192,0,173222,1,0,0:0:0:0:
320,0,173279,1,0,0:0:0:0:
448,0,173337,1,0,0:0:0:0:
320,0,173395,1,0,0:0:0:0:
192,0,173452,1,0,0:0:0:0:
64,0,173452,1,0,0:0:0:0:
448,0,173510,1,0,0:0:0:0:
320,0,173568,1,0,0:0:0:0:
192,0,173626,1,0,0:0:0:0:
64,0,173683,1,0,0:0:0:0:
448,0,173741,1,0,0:0:0:0:
320,0,173799,1,0,0:0:0:0:
192,0,173799,1,0,0:0:0:0:
448,0,173856,1,0,0:0:0:0:
64,0,173914,1,0,0:0:0:0:
192,0,173972,1,0,0:0:0:0:
320,0,174029,1,0,0:0:0:0:
192,0,174087,1,0,0:0:0:0:
448,0,174145,1,0,0:0:0:0:
64,0,174145,1,0,0:0:0:0:
320,0,174202,1,0,0:0:0:0:
192,0,174260,1,0,0:0:0:0:
64,0,174318,1,0,0:0:0:0:
448,0,174376,1,0,0:0:0:0:
320,0,174376,1,0,0:0:0:0:
192,0,174433,1,0,0:0:0:0:
320,0,174491,1,0,0:0:0:0:
448,0,174549,1,0,0:0:0:0:
192,0,174606,1,0,0:0:0:0:
64,0,174606,1,0,0:0:0:0:
320,0,174664,1,0,0:0:0:0:
448,0,174722,1,0,0:0:0:0:
192,0,174779,1,0,0:0:0:0:
320,0,174837,1,0,0:0:0:0:
64,0,174895,1,0,0:0:0:0:
448,0,174952,1,0,0:0:0:0:
192,0,174952,1,0,0:0:0:0:
320,0,175010,1,0,0:0:0:0:
192,0,175068,1,0,0:0:0:0:
64,0,175126,1,0,0:0:0:0:
320,0,175183,1,0,0:0:0:0:
192,0,175241,1,0,0:0:0:0:
448,0,175299,1,0,0:0:0:0:
320,0,175299,1,0,0:0:0:0:
64,0,175356,1,0,0:0:0:0:
192,0,175414,1,0,0:0:0:0:
448,0,175472,1,0,0:0:0:0:
320,0,175529,1,0,0:0:0:0:
192,0,175587,1,0,0:0:0:0:
448,0,175645,1,0,0:0:0:0:
64,0,175645,1,0,0:0:0:0:
320,0,175702,1,0,0:0:0:0:
192,0,175760,1,0,0:0:0:0:
320,0,175818,1,0,0:0:0:0:
64,0,175876,1,0,0:0:0:0:
192,0,175933,1,0,0:0:0:0:
448,0,175991,1,0,0:0:0:0:
320,0,175991,1,0,0:0:0:0:
64,0,176049,1,0,0:0:0:0:
192,0,176106,1,0,0:0:0:0:
320,0,176164,1,0,0:0:0:0:
448,0,176222,1,0,0:0:0:0:
192,0,176222,1,0,0:0:0:0:
64,0,176279,1,0,0:0:0:0:
320,0,176337,1,0,0:0:0:0:
192,0,176395,1,0,0:0:0:0:
448,0,176452,1,0,0:0:0:0:
64,0,176452,1,0,0:0:0:0:
320,0,176510,1,0,0:0:0:0:
192,0,176568,1,0,0:0:0:0:
448,0,176626,1,0,0:0:0:0:
320,0,176683,1,0,0:0:0:0:
448,0,176741,1,0,0:0:0:0:
192,0,176799,1,0,0:0:0:0:
64,0,176799,1,0,0:0:0:0:
320,0,176856,1,0,0:0:0:0:
448,0,176914,1,0,0:0:0:0:
64,0,176972,1,0,0:0:0:0:
192,0,177029,1,0,0:0:0:0:
320,0,177087,1,0,0:0:0:0:
448,0,177145,1,0,0:0:0:0:
64,0,177145,1,0,0:0:0:0:
320,0,177202,1,0,0:0:0:0:
192,0,177260,1,0,0:0:0:0:
448,0,177318,1,0,0:0:0:0:
320,0,177376,1,0,0:0:0:0:
192,0,177433,1,0,0:0:0:0:
448,0,177491,1,0,0:0:0:0:
320,0,177491,1,0,0:0:0:0:
64,0,177549,1,0,0:0:0:0:
192,0,177606,1,0,0:0:0:0:
320,0,177664,1,0,0:0:0:0:
192,0,177722,1,0,0:0:0:0:
320,0,177779,1,0,0:0:0:0:
448,0,177837,1,0,0:0:0:0:
64,0,177837,1,0,0:0:0:0:
192,0,177895,1,0,0:0:0:0:
320,0,177952,1,0,0:0:0:0:
192,0,178010,1,0,0:0:0:0:
448,0,178068,1,0,0:0:0:0:
64,0,178068,1,0,0:0:0:0:
320,0,178126,1,0,0:0:0:0:
192,0,178183,1,0,0:0:0:0:
320,0,178241,1,0,0:0:0:0:
448,0,178299,1,0,0:0:0:0:
64,0,178299,1,0,0:0:0:0:
192,0,178356,1,0,0:0:0:0:
320,0,178414,1,0,0:0:0:0:
448,0,178472,1,0,0:0:0:0:
64,0,178529,1,0,0:0:0:0:
448,0,178587,1,0,0:0:0:0:
320,0,178645,1,0,0:0:0:0:
192,0,178645,1,0,0:0:0:0:
64,0,178702,1,0,0:0:0:0:
448,0,178760,1,0,0:0:0:0:
64,0,178818,1,0,0:0:0:0:
192,0,178876,1,0,0:0:0:0:
320,0,178933,1,0,0:0:0:0:
448,0,178991,1,0,0:0:0:0:
64,0,178991,1,0,0:0:0:0:
320,0,179049,1,0,0:0:0:0:
192,0,179106,1,0,0:0:0:0:
64,0,179164,1,0,0:0:0:0:
448,0,179222,1,0,0:0:0:0:
320,0,179222,1,0,0:0:0:0:
192,0,179279,1,0,0:0:0:0:
448,0,179337,1,0,0:0:0:0:
320,0,179337,1,0,0:0:0:0:
192,0,179395,1,0,0:0:0:0:
448,0,179452,1,0,0:0:0:0:
64,0,179452,1,0,0:0:0:0:
320,0,179510,1,0,0:0:0:0:
192,0,179568,1,0,0:0:0:0:
320,0,179626,1,0,0:0:0:0:
448,0,179683,1,0,0:0:0:0:
64,0,179683,1,0,0:0:0:0:
192,0,179741,1,0,0:0:0:0:
448,0,179799,1,0,0:0:0:0:
64,0,179799,1,0,0:0:0:0:
320,0,179856,1,0,0:0:0:0:
192,0,179914,1,0,0:0:0:0:
64,0,179972,1,0,0:0:0:0:
448,0,180029,1,0,0:0:0:0:
320,0,180029,1,0,0:0:0:0:
64,0,180087,1,0,0:0:0:0:
448,0,180145,1,0,0:0:0:0:
320,0,180145,1,0,0:0:0:0:
192,0,180145,1,0,0:0:0:0:
64,0,180202,1,0,0:0:0:0:
448,0,180260,1,0,0:0:0:0:
320,0,180318,1,0,0:0:0:0:
192,0,180376,1,0,0:0:0:0:
64,0,180376,1,0,0:0:0:0:
320,0,180433,1,0,0:0:0:0:
448,0,180491,1,0,0:0:0:0:
64,0,180491,1,0,0:0:0:0:
192,0,180549,1,0,0:0:0:0:
448,0,180606,1,0,0:0:0:0:
320,0,180664,1,0,0:0:0:0:
192,0,180722,1,0,0:0:0:0:
64,0,180722,1,0,0:0:0:0:
448,0,180779,1,0,0:0:0:0:
320,0,180837,1,0,0:0:0:0:
64,0,180837,1,0,0:0:0:0:
192,0,180895,1,0,0:0:0:0:
320,0,180952,1,0,0:0:0:0:
448,0,181010,1,0,0:0:0:0:
192,0,181068,1,0,0:0:0:0:
64,0,181068,1,0,0:0:0:0:
320,0,181126,1,0,0:0:0:0:
448,0,181183,1,0,0:0:0:0:
64,0,181183,1,0,0:0:0:0:
192,0,181241,1,0,0:0:0:0:
320,0,181299,1,0,0:0:0:0:
448,0,181356,1,0,0:0:0:0:
192,0,181414,1,0,0:0:0:0:
64,0,181414,1,0,0:0:0:0:
320,0,181472,1,0,0:0:0:0:
448,0,181529,1,0,0:0:0:0:
64,0,181529,1,0,0:0:0:0:
192,0,181587,1,0,0:0:0:0:
448,0,181645,1,0,0:0:0:0:
320,0,181645,1,0,0:0:0:0:
192,0,181702,1,0,0:0:0:0:
448,0,181760,1,0,0:0:0:0:
64,0,181760,1,0,0:0:0:0:
320,0,181818,1,0,0:0:0:0:
192,0,181876,1,0,0:0:0:0:
64,0,181876,1,0,0:0:0:0:
448,0,181933,1,0,0:0:0:0:
320,0,181991,1,0,0:0:0:0:
192,0,181991,1,0,0:0:0:0:
64,0,182049,1,0,0:0:0:0:
448,0,182106,1,0,0:0:0:0:
320,0,182164,1,0,0:0:0:0:
192,0,182222,1,0,0:0:0:0:
64,0,182222,1,0,0:0:0:0:
320,0,182279,1,0,0:0:0:0:
448,0,182337,1,0,0:0:0:0:
64,0,182337,1,0,0:0:0:0:
192,0,182395,1,0,0:0:0:0:
320,0,182452,1,0,0:0:0:0:
192,0,182510,1,0,0:0:0:0:
448,0,182568,1,0,0:0:0:0:
320,0,182568,1,0,0:0:0:0:
64,0,182626,1,0,0:0:0:0:
448,0,182683,1,0,0:0:0:0:
192,0,182683,1,0,0:0:0:0:
320,0,182741,1,0,0:0:0:0:
192,0,182799,1,0,0:0:0:0:
64,0,182856,1,0,0:0:0:0:
448,0,182914,1,0,0:0:0:0:
320,0,182914,1,0,0:0:0:0:
64,0,182972,1,0,0:0:0:0:
320,0,183029,1,0,0:0:0:0:
192,0,183029,1,0,0:0:0:0:
448,0,183087,1,0,0:0:0:0:
64,0,183145,1,0,0:0:0:0:
192,0,183202,1,0,0:0:0:0:
448,0,183260,1,0,0:0:0:0:
320,0,183260,1,0,0:0:0:0:
192,0,183318,1,0,0:0:0:0:
448,0,183376,1,0,0:0:0:0:
64,0,183376,1,0,0:0:0:0:
320,0,183433,1,0,0:0:0:0:
192,0,183491,1,0,0:0:0:0:
64,0,183491,1,0,0:0:0:0:
320,0,183549,1,0,0:0:0:0:
448,0,183606,1,0,0:0:0:0:
64,0,183606,1,0,0:0:0:0:
192,0,183664,1,0,0:0:0:0:
320,0,183722,1,0,0:0:0:0:
192,0,183779,1,0,0:0:0:0:
448,0,183837,1,0,0:0:0:0:
64,0,183837,1,0,0:0:0:0:
320,0,183895,1,0,0:0:0:0:
192,0,183952,1,0,0:0:0:0:
448,0,184010,1,0,0:0:0:0:
320,0,184068,1,0,0:0:0:0:
64,0,184068,1,0,0:0:0:0:
192,0,184126,1,0,0:0:0:0:
448,0,184183,1,0,0:0:0:0:
320,0,184183,1,0,0:0:0:0:
64,0,184241,1,0,0:0:0:0:
192,0,184299,1,0,0:0:0:0:
320,0,184356,1,0,0:0:0:0:
448,0,184414,1,0,0:0:0:0:
64,0,184414,1,0,0:0:0:0:
320,0,184472,1,0,0:0:0:0:
192,0,184529,1,0,0:0:0:0:
64,0,184529,1,0,0:0:0:0:
448,0,184587,1,0,0:0:0:0:
320,0,184645,1,0,0:0:0:0:
192,0,184702,1,0,0:0:0:0:
448,0,184760,1,0,0:0:0:0:
64,0,184760,1,0,0:0:0:0:
192,0,184818,1,0,0:0:0:0:
448,0,184876,1,0,0:0:0:0:
320,0,184876,1,0,0:0:0:0:
64,0,184933,1,0,0:0:0:0:
192,0,184991,1,0,0:0:0:0:
320,0,185049,1,0,0:0:0:0:
448,0,185106,1,0,0:0:0:0:
64,0,185106,1,0,0:0:0:0:
192,0,185164,1,0,0:0:0:0:
448,0,185222,1,0,0:0:0:0:
320,0,185222,1,0,0:0:0:0:
192,0,185279,1,0,0:0:0:0:
448,0,185337,1,0,0:0:0:0:
64,0,185337,1,0,0:0:0:0:
320,0,185395,1,0,0:0:0:0:
448,0,185452,1,0,0:0:0:0:
192,0,185452,1,0,0:0:0:0:
64,0,185510,1,0,0:0:0:0:
448,0,185568,1,0,0:0:0:0:
320,0,185568,1,0,0:0:0:0:
64,0,185626,1,0,0:0:0:0:
448,0,185683,1,0,0:0:0:0:
192,0,185683,1,0,0:0:0:0:
320,0,185741,1,0,0:0:0:0:
192,0,185799,1,0,0:0:0:0:
320,0,185856,1,0,0:0:0:0:
448,0,185914,1,0,0:0:0:0:
64,0,185914,1,0,0:0:0:0:
192,0,185972,1,0,0:0:0:0:
448,0,186029,1,0,0:0:0:0:
320,0,186029,1,0,0:0:0:0:
192,0,186087,1,0,0:0:0:0:
64,0,186145,1,0,0:0:0:0:
320,0,186202,1,0,0:0:0:0:
448,0,186260,1,0,0:0:0:0:
64,0,186260,1,0,0:0:0:0:
192,0,186318,1,0,0:0:0:0:
448,0,186376,1,0,0:0:0:0:
320,0,186376,1,0,0:0:0:0:
64,0,186433,1,0,0:0:0:0:
192,0,186491,1,0,0:0:0:0:
320,0,186549,1,0,0:0:0:0:
448,0,186606,1,0,0:0:0:0:
64,0,186606,1,0,0:0:0:0:
192,0,186664,1,0,0:0:0:0:
320,0,186722,1,0,0:0:0:0:
448,0,186779,1,0,0:0:0:0:
192,0,186837,1,0,0:0:0:0:
64,0,186837,1,0,0:0:0:0:
448,0,186895,1,0,0:0:0:0:
320,0,186952,1,0,0:0:0:0:
192,0,187010,1,0,0:0:0:0:
448,0,187068,1,0,0:0:0:0:
320,0,187068,1,0,0:0:0:0:
64,0,187068,1,0,0:0:0:0:
192,0,187126,1,0,0:0:0:0:
448,0,187183,1,0,0:0:0:0:
320,0,187241,1,0,0:0:0:0:
448,0,187299,1,0,0:0:0:0:
192,0,187299,1,0,0:0:0:0:
64,0,187299,1,0,0:0:0:0:
320,0,187356,1,0,0:0:0:0:
64,0,187414,1,0,0:0:0:0:
192,0,187472,1,0,0:0:0:0:
448,0,187529,1,0,0:0:0:0:
320,0,187529,1,0,0:0:0:0:
64,0,187529,1,0,0:0:0:0:
192,0,187587,1,0,0:0:0:0:
448,0,187645,1,0,0:0:0:0:
320,0,187702,1,0,0:0:0:0:
448,0,187760,1,0,0:0:0:0:
192,0,187760,1,0,0:0:0:0:
64,0,187760,1,0,0:0:0:0:
320,0,187818,1,0,0:0:0:0:
64,0,187876,1,0,0:0:0:0:
192,0,187933,1,0,0:0:0:0:
448,0,187991,1,0,0:0:0:0:
64,0,187991,1,0,0:0:0:0:
192,0,188049,1,0,0:0:0:0:
320,0,188106,1,0,0:0:0:0:
448,0,188164,1,0,0:0:0:0:
192,0,188222,1,0,0:0:0:0:
64,0,188222,1,0,0:0:0:0:
448,0,188279,1,0,0:0:0:0:
320,0,188337,1,0,0:0:0:0:
192,0,188395,1,0,0:0:0:0:
448,0,188452,1,0,0:0:0:0:
64,0,188452,1,0,0:0:0:0:
192,0,188510,1,0,0:0:0:0:
320,0,188568,1,0,0:0:0:0:
64,0,188568,1,0,0:0:0:0:
448,0,188626,1,0,0:0:0:0:
192,0,188683,1,0,0:0:0:0:
64,0,188683,1,0,0:0:0:0:
320,0,188741,1,0,0:0:0:0:
448,0,188799,1,0,0:0:0:0:
192,0,188856,1,0,0:0:0:0:
448,0,188914,1,0,0:0:0:0:
320,0,188914,1,0,0:0:0:0:
192,0,188972,1,0,0:0:0:0:
448,0,189029,1,0,0:0:0:0:
320,0,189029,1,0,0:0:0:0:
64,0,189087,1,0,0:0:0:0:
320,0,189145,1,0,0:0:0:0:
192,0,189145,1,0,0:0:0:0:
448,0,189202,1,0,0:0:0:0:
64,0,189202,1,0,0:0:0:0:
320,0,189260,1,0,0:0:0:0:
192,0,189260,1,0,0:0:0:0:
448,0,189318,1,0,0:0:0:0:
192,0,189376,1,0,0:0:0:0:
64,0,189376,1,0,0:0:0:0:
448,0,189433,1,0,0:0:0:0:
320,0,189433,1,0,0:0:0:0:
192,0,189491,1,0,0:0:0:0:
64,0,189491,1,0,0:0:0:0:
448,0,189606,1,0,0:0:0:0:
320,0,189606,1,0,0:0:0:0:
192,0,189664,1,0,0:0:0:0:
64,0,189664,1,0,0:0:0:0:
448,0,189722,1,0,0:0:0:0:
320,0,189722,1,0,0:0:0:0:
192,0,189837,1,0,0:0:0:0:
64,0,189837,1,0,0:0:0:0:
448,0,189895,1,0,0:0:0:0:
320,0,189895,1,0,0:0:0:0:
192,0,189952,1,0,0:0:0:0:
64,0,189952,1,0,0:0:0:0:
448,0,190010,1,0,0:0:0:0:
320,0,190010,1,0,0:0:0:0:
192,0,190068,1,0,0:0:0:0:
64,0,190068,1,0,0:0:0:0:
448,0,190126,1,0,0:0:0:0:
320,0,190126,1,0,0:0:0:0:
192,0,190183,1,0,0:0:0:0:
64,0,190183,1,0,0:0:0:0:
448,0,190241,1,0,0:0:0:0:
320,0,190241,1,0,0:0:0:0:
192,0,190299,1,0,0:0:0:0:
64,0,190299,1,0,0:0:0:0:
448,0,190356,1,0,0:0:0:0:
64,0,190414,1,0,0:0:0:0:
448,0,190472,1,0,0:0:0:0:
320,0,190529,1,0,0:0:0:0:
192,0,190529,1,0,0:0:0:0:
64,0,190587,1,0,0:0:0:0:
448,0,190645,1,0,0:0:0:0:
320,0,190702,1,0,0:0:0:0:
192,0,190760,1,0,0:0:0:0:
64,0,190760,1,0,0:0:0:0:
320,0,190818,1,0,0:0:0:0:
448,0,190876,1,0,0:0:0:0:
192,0,190933,1,0,0:0:0:0:
448,0,190991,1,0,0:0:0:0:
64,0,190991,1,0,0:0:0:0:
320,0,191049,1,0,0:0:0:0:
192,0,191106,1,0,0:0:0:0:
320,0,191164,1,0,0:0:0:0:
192,0,191222,1,0,0:0:0:0:
64,0,191222,1,0,0:0:0:0:
448,0,191279,1,0,0:0:0:0:
320,0,191337,1,0,0:0:0:0:
64,0,191395,1,0,0:0:0:0:
448,0,191452,1,0,0:0:0:0:
320,0,191452,1,0,0:0:0:0:
192,0,191452,1,0,0:0:0:0:
64,0,191510,1,0,0:0:0:0:
448,0,191568,1,0,0:0:0:0:
320,0,191626,1,0,0:0:0:0:
448,0,191683,1,0,0:0:0:0:
192,0,191683,1,0,0:0:0:0:
64,0,191683,1,0,0:0:0:0:
320,0,191741,1,0,0:0:0:0:
64,0,191799,1,0,0:0:0:0:
192,0,191856,1,0,0:0:0:0:
448,0,191914,1,0,0:0:0:0:
320,0,191914,1,0,0:0:0:0:
64,0,191914,1,0,0:0:0:0:
192,0,191972,1,0,0:0:0:0:
448,0,192029,1,0,0:0:0:0:
64,0,192087,1,0,0:0:0:0:
448,0,192145,1,0,0:0:0:0:
320,0,192145,1,0,0:0:0:0:
192,0,192145,1,0,0:0:0:0:
64,0,192202,1,0,0:0:0:0:
320,0,192260,1,0,0:0:0:0:
448,0,192318,1,0,0:0:0:0:
192,0,192376,1,0,0:0:0:0:
64,0,192376,1,0,0:0:0:0:
320,0,192433,1,0,0:0:0:0:
448,0,192491,1,0,0:0:0:0:
192,0,192491,1,0,0:0:0:0:
64,0,192491,1,0,0:0:0:0:
320,0,192549,1,0,0:0:0:0:
64,0,192606,1,0,0:0:0:0:
192,0,192664,1,0,0:0:0:0:
448,0,192722,1,0,0:0:0:0:
320,0,192722,1,0,0:0:0:0:
64,0,192722,1,0,0:0:0:0:
192,0,192779,1,0,0:0:0:0:
448,0,192837,1,0,0:0:0:0:
320,0,192895,1,0,0:0:0:0:
448,0,192952,1,0,0:0:0:0:
192,0,192952,1,0,0:0:0:0:
64,0,192952,1,0,0:0:0:0:
320,0,193010,1,0,0:0:0:0:
192,0,193068,1,0,0:0:0:0:
64,0,193068,1,0,0:0:0:0:
448,0,193126,1,0,0:0:0:0:
320,0,193183,1,0,0:0:0:0:
192,0,193241,1,0,0:0:0:0:
448,0,193299,1,0,0:0:0:0:
64,0,193299,1,0,0:0:0:0:
192,0,193356,1,0,0:0:0:0:
320,0,193414,1,0,0:0:0:0:
448,0,193472,1,0,0:0:0:0:
192,0,193529,1,0,0:0:0:0:
64,0,193529,1,0,0:0:0:0:
320,0,193587,1,0,0:0:0:0:
448,0,193645,1,0,0:0:0:0:
64,0,193645,1,0,0:0:0:0:
192,0,193702,1,0,0:0:0:0:
448,0,193760,1,0,0:0:0:0:
320,0,193760,1,0,0:0:0:0:
192,0,193818,1,0,0:0:0:0:
448,0,193876,1,0,0:0:0:0:
64,0,193876,1,0,0:0:0:0:
320,0,193933,1,0,0:0:0:0:
448,0,193991,1,0,0:0:0:0:
192,0,193991,1,0,0:0:0:0:
64,0,193991,1,0,0:0:0:0:
320,0,194049,1,0,0:0:0:0:
64,0,194106,1,0,0:0:0:0:
192,0,194164,1,0,0:0:0:0:
448,0,194222,1,0,0:0:0:0:
320,0,194222,1,0,0:0:0:0:
192,0,194279,1,0,0:0:0:0:
320,0,194337,1,0,0:0:0:0:
448,0,194395,1,0,0:0:0:0:
192,0,194452,1,0,0:0:0:0:
64,0,194452,1,0,0:0:0:0:
448,0,194510,1,0,0:0:0:0:
320,0,194568,1,0,0:0:0:0:
192,0,194626,1,0,0:0:0:0:
448,0,194683,1,0,0:0:0:0:
64,0,194683,1,0,0:0:0:0:
192,0,194741,1,0,0:0:0:0:
320,0,194799,1,0,0:0:0:0:
64,0,194856,1,0,0:0:0:0:
448,0,194914,1,0,0:0:0:0:
320,0,194914,1,0,0:0:0:0:
192,0,194972,1,0,0:0:0:0:
64,0,195029,1,0,0:0:0:0:
320,0,195087,1,0,0:0:0:0:
448,0,195145,1,0,0:0:0:0:
192,0,195145,1,0,0:0:0:0:
64,0,195145,1,0,0:0:0:0:
320,0,195202,1,0,0:0:0:0:
192,0,195260,1,0,0:0:0:0:
64,0,195318,1,0,0:0:0:0:
448,0,195376,1,0,0:0:0:0:
320,0,195376,1,0,0:0:0:0:
192,0,195376,1,0,0:0:0:0:
64,0,195433,1,0,0:0:0:0:
320,0,195491,1,0,0:0:0:0:
448,0,195549,1,0,0:0:0:0:
320,0,195606,1,0,0:0:0:0:
192,0,195606,1,0,0:0:0:0:
64,0,195606,1,0,0:0:0:0:
448,0,195664,1,0,0:0:0:0:
64,0,195722,1,0,0:0:0:0:
192,0,195779,1,0,0:0:0:0:
448,0,195837,1,0,0:0:0:0:
320,0,195837,1,0,0:0:0:0:
64,0,195837,1,0,0:0:0:0:
192,0,195895,1,0,0:0:0:0:
320,0,195952,1,0,0:0:0:0:
448,0,196010,1,0,0:0:0:0:
192,0,196068,1,0,0:0:0:0:
64,0,196068,1,0,0:0:0:0:
320,0,196126,1,0,0:0:0:0:
448,0,196183,1,0,0:0:0:0:
192,0,196241,1,0,0:0:0:0:
448,0,196299,1,0,0:0:0:0:
320,0,196299,1,0,0:0:0:0:
64,0,196299,1,0,0:0:0:0:
192,0,196356,1,0,0:0:0:0:
448,0,196414,1,0,0:0:0:0:
320,0,196472,1,0,0:0:0:0:
192,0,196529,1,0,0:0:0:0:
64,0,196529,1,0,0:0:0:0:
320,0,196587,1,0,0:0:0:0:
448,0,196645,1,0,0:0:0:0:
64,0,196702,1,0,0:0:0:0:
448,0,196760,1,0,0:0:0:0:
320,0,196760,1,0,0:0:0:0:
192,0,196760,1,0,0:0:0:0:
64,0,196818,1,0,0:0:0:0:
320,0,196876,1,0,0:0:0:0:
448,0,196933,1,0,0:0:0:0:
320,0,196991,1,0,0:0:0:0:
192,0,196991,1,0,0:0:0:0:
64,0,196991,1,0,0:0:0:0:
448,0,197049,1,0,0:0:0:0:
192,0,197106,1,0,0:0:0:0:
320,0,197164,1,0,0:0:0:0:
448,0,197222,1,0,0:0:0:0:
192,0,197222,1,0,0:0:0:0:
64,0,197222,1,0,0:0:0:0:
320,0,197279,1,0,0:0:0:0:
64,0,197337,1,0,0:0:0:0:
448,0,197395,1,0,0:0:0:0:
320,0,197452,1,0,0:0:0:0:
192,0,197452,1,0,0:0:0:0:
64,0,197452,1,0,0:0:0:0:
448,0,197510,1,0,0:0:0:0:
192,0,197568,1,0,0:0:0:0:
320,0,197626,1,0,0:0:0:0:
448,0,197683,1,0,0:0:0:0:
192,0,197683,1,0,0:0:0:0:
64,0,197683,1,0,0:0:0:0:
320,0,197741,1,0,0:0:0:0:
64,0,197799,1,0,0:0:0:0:
448,0,197856,1,0,0:0:0:0:
320,0,197914,1,0,0:0:0:0:
192,0,197914,1,0,0:0:0:0:
64,0,197972,1,0,0:0:0:0:
192,0,198029,1,0,0:0:0:0:
320,0,198087,1,0,0:0:0:0:
448,0,198145,1,0,0:0:0:0:
192,0,198145,1,0,0:0:0:0:
64,0,198145,1,0,0:0:0:0:
320,0,198202,1,0,0:0:0:0:
448,0,198260,1,0,0:0:0:0:
192,0,198318,1,0,0:0:0:0:
448,0,198376,1,0,0:0:0:0:
64,0,198376,1,0,0:0:0:0:
192,0,198433,1,0,0:0:0:0:
448,0,198491,1,0,0:0:0:0:
320,0,198549,1,0,0:0:0:0:
192,0,198606,1,0,0:0:0:0:
64,0,198606,1,0,0:0:0:0:
320,0,198664,1,0,0:0:0:0:
192,0,198722,1,0,0:0:0:0:
64,0,198779,1,0,0:0:0:0:
448,0,198837,1,0,0:0:0:0:
320,0,198837,1,0,0:0:0:0:
64,0,198895,1,0,0:0:0:0:
192,0,198952,1,0,0:0:0:0:
320,0,199010,1,0,0:0:0:0:
448,0,199068,1,0,0:0:0:0:
64,0,199068,1,0,0:0:0:0:
192,0,199126,1,0,0:0:0:0:
448,0,199183,1,0,0:0:0:0:
320,0,199183,1,0,0:0:0:0:
192,0,199241,1,0,0:0:0:0:
448,0,199299,1,0,0:0:0:0:
64,0,199299,1,0,0:0:0:0:
320,0,199356,1,0,0:0:0:0:
192,0,199414,1,0,0:0:0:0:
64,0,199414,1,0,0:0:0:0:
448,0,199472,1,0,0:0:0:0:
320,0,199529,1,0,0:0:0:0:
192,0,199529,1,0,0:0:0:0:
64,0,199529,1,0,0:0:0:0:
448,0,199587,1,0,0:0:0:0:
64,0,199645,1,0,0:0:0:0:
192,0,199702,1,0,0:0:0:0:
448,0,199760,1,0,0:0:0:0:
320,0,199760,1,0,0:0:0:0:
192,0,199818,1,0,0:0:0:0:
448,0,199876,1,0,0:0:0:0:
64,0,199876,1,0,0:0:0:0:
320,0,199933,1,0,0:0:0:0:
448,0,199991,1,0,0:0:0:0:
64,0,199991,1,0,0:0:0:0:
192,0,200049,1,0,0:0:0:0:
320,0,200106,1,0,0:0:0:0:
448,0,200164,1,0,0:0:0:0:
192,0,200222,1,0,0:0:0:0:
64,0,200222,1,0,0:0:0:0:
320,0,200279,1,0,0:0:0:0:
448,0,200337,1,0,0:0:0:0:
320,0,200395,1,0,0:0:0:0:
192,0,200452,1,0,0:0:0:0:
64,0,200452,1,0,0:0:0:0:
448,0,200510,1,0,0:0:0:0:
320,0,200568,1,0,0:0:0:0:
64,0,200568,1,0,0:0:0:0:
192,0,200626,1,0,0:0:0:0:
448,0,200683,1,0,0:0:0:0:
64,0,200683,1,0,0:0:0:0:
320,0,200741,1,0,0:0:0:0:
192,0,200799,1,0,0:0:0:0:
64,0,200799,1,0,0:0:0:0:
320,0,200856,1,0,0:0:0:0:
448,0,200914,1,0,0:0:0:0:
192,0,200914,1,0,0:0:0:0:
64,0,200972,1,0,0:0:0:0:
448,0,201029,1,0,0:0:0:0:
320,0,201029,1,0,0:0:0:0:
64,0,201087,1,0,0:0:0:0:
448,0,201145,1,0,0:0:0:0:
192,0,201145,1,0,0:0:0:0:
320,0,201202,1,0,0:0:0:0:
448,0,201260,1,0,0:0:0:0:
64,0,201260,1,0,0:0:0:0:
192,0,201318,1,0,0:0:0:0:
320,0,201376,1,0,0:0:0:0:
64,0,201376,1,0,0:0:0:0:
448,0,201433,1,0,0:0:0:0:
192,0,201491,1,0,0:0:0:0:
320,0,201549,1,0,0:0:0:0:
192,0,201606,1,0,0:0:0:0:
64,0,201606,1,0,0:0:0:0:
448,0,201664,1,0,0:0:0:0:
320,0,201722,1,0,0:0:0:0:
192,0,201779,1,0,0:0:0:0:
448,0,201837,1,0,0:0:0:0:
64,0,201837,1,0,0:0:0:0:
320,0,201895,1,0,0:0:0:0:
192,0,201952,1,0,0:0:0:0:
320,0,202010,1,0,0:0:0:0:
448,0,202068,1,0,0:0:0:0:
192,0,202068,1,0,0:0:0:0:
64,0,202126,1,0,0:0:0:0:
320,0,202183,1,0,0:0:0:0:
192,0,202241,1,0,0:0:0:0:
448,0,202299,1,0,0:0:0:0:
320,0,202299,1,0,0:0:0:0:
64,0,202299,1,0,0:0:0:0:
192,0,202356,1,0,0:0:0:0:
320,0,202414,1,0,0:0:0:0:
448,0,202472,1,0,0:0:0:0:
192,0,202529,1,0,0:0:0:0:
64,0,202529,1,0,0:0:0:0:
448,0,202587,1,0,0:0:0:0:
64,0,202645,1,0,0:0:0:0:
320,0,202702,1,0,0:0:0:0:
448,0,202760,1,0,0:0:0:0:
192,0,202760,1,0,0:0:0:0:
64,0,202760,1,0,0:0:0:0:
320,0,202818,1,0,0:0:0:0:
192,0,202876,1,0,0:0:0:0:
64,0,202933,1,0,0:0:0:0:
448,0,202991,1,0,0:0:0:0:
320,0,202991,1,0,0:0:0:0:
64,0,203049,1,0,0:0:0:0:
192,0,203106,1,0,0:0:0:0:
320,0,203164,1,0,0:0:0:0:
448,0,203222,1,0,0:0:0:0:
192,0,203222,1,0,0:0:0:0:
64,0,203222,1,0,0:0:0:0:
320,0,203279,1,0,0:0:0:0:
192,0,203337,1,0,0:0:0:0:
64,0,203337,1,0,0:0:0:0:
320,0,203395,1,0,0:0:0:0:
448,0,203452,1,0,0:0:0:0:
64,0,203452,1,0,0:0:0:0:
192,0,203510,1,0,0:0:0:0:
320,0,203568,1,0,0:0:0:0:
192,0,203626,1,0,0:0:0:0:
448,0,203683,1,0,0:0:0:0:
64,0,203683,1,0,0:0:0:0:
320,0,203741,1,0,0:0:0:0:
192,0,203799,1,0,0:0:0:0:
64,0,203799,1,0,0:0:0:0:
448,0,203856,1,0,0:0:0:0:
320,0,203856,1,0,0:0:0:0:
192,0,203914,1,0,0:0:0:0:
64,0,203914,1,0,0:0:0:0:
448,0,203972,1,0,0:0:0:0:
320,0,203972,1,0,0:0:0:0:
192,0,204029,1,0,0:0:0:0:
64,0,204029,1,0,0:0:0:0:
448,0,204087,1,0,0:0:0:0:
320,0,204087,1,0,0:0:0:0:
192,0,204145,1,0,0:0:0:0:
64,0,204145,1,0,0:0:0:0:
320,0,204202,1,0,0:0:0:0:
448,0,204260,1,0,0:0:0:0:
64,0,204260,1,0,0:0:0:0:
320,0,204318,1,0,0:0:0:0:
192,0,204318,1,0,0:0:0:0:
448,0,204376,1,0,0:0:0:0:
64,0,204376,1,0,0:0:0:0:
192,0,204433,1,0,0:0:0:0:
448,0,204491,1,0,0:0:0:0:
320,0,204491,1,0,0:0:0:0:
192,0,204549,1,0,0:0:0:0:
448,0,204606,1,0,0:0:0:0:
64,0,204606,1,0,0:0:0:0:
320,0,204664,1,0,0:0:0:0:
192,0,204722,1,0,0:0:0:0:
64,0,204722,1,0,0:0:0:0:
448,0,204779,1,0,0:0:0:0:
320,0,204779,1,0,0:0:0:0:
192,0,204837,1,0,0:0:0:0:
64,0,204837,1,0,0:0:0:0:
320,0,204895,1,0,0:0:0:0:
192,0,204952,1,0,0:0:0:0:
64,0,204952,1,0,0:0:0:0:
448,0,205010,1,0,0:0:0:0:
320,0,205010,1,0,0:0:0:0:
192,0,205068,1,0,0:0:0:0:
64,0,205068,1,0,0:0:0:0:
320,0,205126,1,0,0:0:0:0:
192,0,205183,1,0,0:0:0:0:
64,0,205241,1,0,0:0:0:0:
448,0,205299,1,0,0:0:0:0:
320,0,205299,1,0,0:0:0:0:
64,0,205356,1,0,0:0:0:0:
192,0,205414,1,0,0:0:0:0:
320,0,205472,1,0,0:0:0:0:
448,0,205529,1,0,0:0:0:0:
64,0,205529,1,0,0:0:0:0:
192,0,205587,1,0,0:0:0:0:
320,0,205645,1,0,0:0:0:0:
64,0,205702,1,0,0:0:0:0:
448,0,205760,1,0,0:0:0:0:
320,0,205760,1,0,0:0:0:0:
192,0,205760,1,0,0:0:0:0:
64,0,205818,1,0,0:0:0:0:
448,0,205876,1,0,0:0:0:0:
192,0,205933,1,0,0:0:0:0:
448,0,205991,1,0,0:0:0:0:
320,0,205991,1,0,0:0:0:0:
64,0,206049,1,0,0:0:0:0:
192,0,206106,1,0,0:0:0:0:
320,0,206164,1,0,0:0:0:0:
448,0,206222,1,0,0:0:0:0:
64,0,206222,1,0,0:0:0:0:
192,0,206279,1,0,0:0:0:0:
320,0,206337,1,0,0:0:0:0:
192,0,206395,1,0,0:0:0:0:
448,0,206452,1,0,0:0:0:0:
320,0,206452,1,0,0:0:0:0:
64,0,206510,1,0,0:0:0:0:
192,0,206568,1,0,0:0:0:0:
448,0,206626,1,0,0:0:0:0:
320,0,206683,1,0,0:0:0:0:
64,0,206683,1,0,0:0:0:0:
192,0,206741,1,0,0:0:0:0:
448,0,206799,1,0,0:0:0:0:
64,0,206799,1,0,0:0:0:0:
320,0,206856,1,0,0:0:0:0:
192,0,206914,1,0,0:0:0:0:
64,0,206914,1,0,0:0:0:0:
320,0,206972,1,0,0:0:0:0:
192,0,207029,1,0,0:0:0:0:
64,0,207087,1,0,0:0:0:0:
448,0,207145,1,0,0:0:0:0:
320,0,207145,1,0,0:0:0:0:
64,0,207202,1,0,0:0:0:0:
192,0,207260,1,0,0:0:0:0:
320,0,207318,1,0,0:0:0:0:
448,0,207376,1,0,0:0:0:0:
192,0,207376,1,0,0:0:0:0:
64,0,207376,1,0,0:0:0:0:
320,0,207433,1,0,0:0:0:0:
192,0,207491,1,0,0:0:0:0:
64,0,207549,1,0,0:0:0:0:
448,0,207606,1,0,0:0:0:0:
320,0,207606,1,0,0:0:0:0:
64,0,207664,1,0,0:0:0:0:
192,0,207722,1,0,0:0:0:0:
320,0,207779,1,0,0:0:0:0:
448,0,207837,1,0,0:0:0:0:
192,0,207837,1,0,0:0:0:0:
64,0,207837,1,0,0:0:0:0:
320,0,207895,1,0,0:0:0:0:
64,0,207952,1,0,0:0:0:0:
448,0,208010,1,0,0:0:0:0:
192,0,208068,1,0,0:0:0:0:
64,0,208068,1,0,0:0:0:0:
448,0,208126,1,0,0:0:0:0:
320,0,208183,1,0,0:0:0:0:
192,0,208241,1,0,0:0:0:0:
448,0,208299,1,0,0:0:0:0:
320,0,208299,1,0,0:0:0:0:
64,0,208299,1,0,0:0:0:0:
192,0,208356,1,0,0:0:0:0:
320,0,208414,1,0,0:0:0:0:
448,0,208472,1,0,0:0:0:0:
192,0,208529,1,0,0:0:0:0:
64,0,208529,1,0,0:0:0:0:
448,0,208587,1,0,0:0:0:0:
320,0,208645,1,0,0:0:0:0:
64,0,208645,1,0,0:0:0:0:
192,0,208702,1,0,0:0:0:0:
448,0,208760,1,0,0:0:0:0:
320,0,208760,1,0,0:0:0:0:
64,0,208760,1,0,0:0:0:0:
192,0,208818,1,0,0:0:0:0:
320,0,208876,1,0,0:0:0:0:
448,0,208933,1,0,0:0:0:0:
192,0,208991,1,0,0:0:0:0:
64,0,208991,1,0,0:0:0:0:
448,0,209049,1,0,0:0:0:0:
320,0,209106,1,0,0:0:0:0:
192,0,209164,1,0,0:0:0:0:
448,0,209222,1,0,0:0:0:0:
320,0,209222,1,0,0:0:0:0:
192,0,209279,1,0,0:0:0:0:
64,0,209337,1,0,0:0:0:0:
448,0,209395,1,0,0:0:0:0:
320,0,209452,1,0,0:0:0:0:
192,0,209452,1,0,0:0:0:0:
64,0,209452,1,0,0:0:0:0:
448,0,209510,1,0,0:0:0:0:
64,0,209568,1,0,0:0:0:0:
192,0,209626,1,0,0:0:0:0:
448,0,209683,1,0,0:0:0:0:
320,0,209683,1,0,0:0:0:0:
192,0,209741,1,0,0:0:0:0:
320,0,209799,1,0,0:0:0:0:
448,0,209856,1,0,0:0:0:0:
192,0,209914,1,0,0:0:0:0:
64,0,209914,1,0,0:0:0:0:
320,0,209972,1,0,0:0:0:0:
448,0,210029,1,0,0:0:0:0:
192,0,210087,1,0,0:0:0:0:
448,0,210145,1,0,0:0:0:0:
320,0,210145,1,0,0:0:0:0:
192,0,210202,1,0,0:0:0:0:
64,0,210260,1,0,0:0:0:0:
320,0,210318,1,0,0:0:0:0:
448,0,210376,1,0,0:0:0:0:
192,0,210376,1,0,0:0:0:0:
64,0,210433,1,0,0:0:0:0:
448,0,210491,1,0,0:0:0:0:
320,0,210491,1,0,0:0:0:0:
192,0,210549,1,0,0:0:0:0:
448,0,210606,1,0,0:0:0:0:
320,0,210606,1,0,0:0:0:0:
64,0,210606,1,0,0:0:0:0:
192,0,210664,1,0,0:0:0:0:
448,0,210722,1,0,0:0:0:0:
320,0,210779,1,0,0:0:0:0:
448,0,210837,1,0,0:0:0:0:
192,0,210837,1,0,0:0:0:0:
64,0,210837,1,0,0:0:0:0:
320,0,210895,1,0,0:0:0:0:
64,0,210952,1,0,0:0:0:0:
192,0,211010,1,0,0:0:0:0:
448,0,211068,1,0,0:0:0:0:
320,0,211068,1,0,0:0:0:0:
64,0,211068,1,0,0:0:0:0:
192,0,211126,1,0,0:0:0:0:
320,0,211183,1,0,0:0:0:0:
448,0,211241,1,0,0:0:0:0:
192,0,211299,1,0,0:0:0:0:
64,0,211299,1,0,0:0:0:0:
448,0,211356,1,0,0:0:0:0:
320,0,211414,1,0,0:0:0:0:
192,0,211472,1,0,0:0:0:0:
448,0,211529,1,0,0:0:0:0:
320,0,211529,1,0,0:0:0:0:
64,0,211529,1,0,0:0:0:0:
192,0,211587,1,0,0:0:0:0:
320,0,211645,1,0,0:0:0:0:
448,0,211702,1,0,0:0:0:0:
192,0,211760,1,0,0:0:0:0:
64,0,211760,1,0,0:0:0:0:
320,0,211818,1,0,0:0:0:0:
448,0,211876,1,0,0:0:0:0:
64,0,211933,1,0,0:0:0:0:
448,0,211991,1,0,0:0:0:0:
320,0,211991,1,0,0:0:0:0:
192,0,211991,1,0,0:0:0:0:
64,0,212049,1,0,0:0:0:0:
320,0,212106,1,0,0:0:0:0:
192,0,212164,1,0,0:0:0:0:
448,0,212222,1,0,0:0:0:0:
64,0,212222,1,0,0:0:0:0:
320,0,212279,1,0,0:0:0:0:
192,0,212337,1,0,0:0:0:0:
64,0,212337,1,0,0:0:0:0:
320,0,212395,1,0,0:0:0:0:
448,0,212452,1,0,0:0:0:0:
192,0,212452,1,0,0:0:0:0:
64,0,212452,1,0,0:0:0:0:
320,0,212510,1,0,0:0:0:0:
192,0,212568,1,0,0:0:0:0:
64,0,212626,1,0,0:0:0:0:
448,0,212683,1,0,0:0:0:0:
320,0,212683,1,0,0:0:0:0:
64,0,212741,1,0,0:0:0:0:
192,0,212799,1,0,0:0:0:0:
320,0,212856,1,0,0:0:0:0:
448,0,212914,1,0,0:0:0:0:
64,0,212914,1,0,0:0:0:0:
320,0,212972,1,0,0:0:0:0:
192,0,213029,1,0,0:0:0:0:
448,0,213087,1,0,0:0:0:0:
320,0,213145,1,0,0:0:0:0:
192,0,213145,1,0,0:0:0:0:
64,0,213145,1,0,0:0:0:0:
448,0,213202,1,0,0:0:0:0:
64,0,213260,1,0,0:0:0:0:
192,0,213318,1,0,0:0:0:0:
448,0,213376,1,0,0:0:0:0:
320,0,213376,1,0,0:0:0:0:
192,0,213433,1,0,0:0:0:0:
448,0,213491,1,0,0:0:0:0:
320,0,213549,1,0,0:0:0:0:
192,0,213606,1,0,0:0:0:0:
64,0,213606,1,0,0:0:0:0:
320,0,213664,1,0,0:0:0:0:
192,0,213722,1,0,0:0:0:0:
448,0,213779,1,0,0:0:0:0:
320,0,213837,1,0,0:0:0:0:
64,0,213837,1,0,0:0:0:0:
192,0,213895,1,0,0:0:0:0:
320,0,213952,1,0,0:0:0:0:
448,0,214010,1,0,0:0:0:0:
192,0,214068,1,0,0:0:0:0:
64,0,214068,1,0,0:0:0:0:
320,0,214126,1,0,0:0:0:0:
448,0,214183,1,0,0:0:0:0:
192,0,214183,1,0,0:0:0:0:
64,0,214241,1,0,0:0:0:0:
320,0,214299,1,0,0:0:0:0:
192,0,214299,1,0,0:0:0:0:
64,0,214356,1,0,0:0:0:0:
448,0,214414,1,0,0:0:0:0:
320,0,214472,1,0,0:0:0:0:
192,0,214529,1,0,0:0:0:0:
64,0,214529,1,0,0:0:0:0:
448,0,214587,1,0,0:0:0:0:
320,0,214645,1,0,0:0:0:0:
192,0,214702,1,0,0:0:0:0:
448,0,214760,1,0,0:0:0:0:
320,0,214760,1,0,0:0:0:0:
64,0,214760,1,0,0:0:0:0:
192,0,214818,1,0,0:0:0:0:
448,0,214876,1,0,0:0:0:0:
64,0,214933,1,0,0:0:0:0:
320,0,214991,1,0,0:0:0:0:
192,0,214991,1,0,0:0:0:0:
448,0,215049,1,0,0:0:0:0:
64,0,215106,1,0,0:0:0:0:
320,0,215164,1,0,0:0:0:0:
448,0,215222,1,0,0:0:0:0:
192,0,215222,1,0,0:0:0:0:
64,0,215222,1,0,0:0:0:0:
320,0,215279,1,0,0:0:0:0:
192,0,215337,1,0,0:0:0:0:
448,0,215395,1,0,0:0:0:0:
320,0,215452,1,0,0:0:0:0:
64,0,215452,1,0,0:0:0:0:
192,0,215510,1,0,0:0:0:0:
448,0,215568,1,0,0:0:0:0:
64,0,215626,1,0,0:0:0:0:
448,0,215683,1,0,0:0:0:0:
320,0,215683,1,0,0:0:0:0:
192,0,215683,1,0,0:0:0:0:
64,0,215741,1,0,0:0:0:0:
320,0,215799,1,0,0:0:0:0:
192,0,215856,1,0,0:0:0:0:
448,0,215914,1,0,0:0:0:0:
64,0,215914,1,0,0:0:0:0:
320,0,215972,1,0,0:0:0:0:
192,0,216029,1,0,0:0:0:0:
64,0,216029,1,0,0:0:0:0:
448,0,216087,1,0,0:0:0:0:
320,0,216145,1,0,0:0:0:0:
192,0,216145,1,0,0:0:0:0:
64,0,216145,1,0,0:0:0:0:
448,0,216202,1,0,0:0:0:0:
64,0,216260,1,0,0:0:0:0:
192,0,216318,1,0,0:0:0:0:
448,0,216376,1,0,0:0:0:0:
320,0,216376,1,0,0:0:0:0:
192,0,216433,1,0,0:0:0:0:
320,0,216491,1,0,0:0:0:0:
64,0,216549,1,0,0:0:0:0:
448,0,216606,1,0,0:0:0:0:
192,0,216606,1,0,0:0:0:0:
64,0,216664,1,0,0:0:0:0:
192,0,216722,1,0,0:0:0:0:
320,0,216779,1,0,0:0:0:0:
448,0,216837,1,0,0:0:0:0:
64,0,216837,1,0,0:0:0:0:
192,0,216895,1,0,0:0:0:0:
448,0,216952,1,0,0:0:0:0:
320,0,216952,1,0,0:0:0:0:
192,0,217010,1,0,0:0:0:0:
448,0,217068,1,0,0:0:0:0:
64,0,217068,1,0,0:0:0:0:
320,0,217126,1,0,0:0:0:0:
192,0,217183,1,0,0:0:0:0:
64,0,217183,1,0,0:0:0:0:
320,0,217241,1,0,0:0:0:0:
448,0,217299,1,0,0:0:0:0:
64,0,217299,1,0,0:0:0:0:
192,0,217356,1,0,0:0:0:0:
448,0,217414,1,0,0:0:0:0:
320,0,217414,1,0,0:0:0:0:
192,0,217472,1,0,0:0:0:0:
448,0,217529,1,0,0:0:0:0:
64,0,217529,1,0,0:0:0:0:
320,0,217587,1,0,0:0:0:0:
192,0,217645,1,0,0:0:0:0:
64,0,217645,1,0,0:0:0:0:
320,0,217702,1,0,0:0:0:0:
448,0,217760,1,0,0:0:0:0:
64,0,217760,1,0,0:0:0:0:
192,0,217818,1,0,0:0:0:0:
448,0,217876,1,0,0:0:0:0:
320,0,217876,1,0,0:0:0:0:
192,0,217933,1,0,0:0:0:0:
448,0,217991,1,0,0:0:0:0:
320,0,217991,1,0,0:0:0:0:
64,0,217991,1,0,0:0:0:0:
192,0,218049,1,0,0:0:0:0:
448,0,218106,1,0,0:0:0:0:
320,0,218164,1,0,0:0:0:0:
192,0,218222,1,0,0:0:0:0:
64,0,218222,1,0,0:0:0:0:
320,0,218279,1,0,0:0:0:0:
448,0,218337,1,0,0:0:0:0:
64,0,218337,1,0,0:0:0:0:
192,0,218395,1,0,0:0:0:0:
448,0,218452,1,0,0:0:0:0:
320,0,218452,1,0,0:0:0:0:
192,0,218510,1,0,0:0:0:0:
64,0,218510,1,0,0:0:0:0:
448,0,218568,1,0,0:0:0:0:
320,0,218568,1,0,0:0:0:0:
192,0,218626,1,0,0:0:0:0:
448,0,218683,1,0,0:0:0:0:
64,0,218683,1,0,0:0:0:0:
320,0,218741,1,0,0:0:0:0:
192,0,218741,1,0,0:0:0:0:
448,0,218799,1,0,0:0:0:0:
64,0,218799,1,0,0:0:0:0:
320,0,218856,1,0,0:0:0:0:
192,0,218856,1,0,0:0:0:0:
448,0,218914,1,0,0:0:0:0:
64,0,218914,1,0,0:0:0:0:
320,0,218972,1,0,0:0:0:0:
192,0,219029,1,0,0:0:0:0:
64,0,219029,1,0,0:0:0:0:
320,0,219087,1,0,0:0:0:0:
448,0,219145,1,0,0:0:0:0:
64,0,219145,1,0,0:0:0:0:
192,0,219202,1,0,0:0:0:0:
448,0,219260,1,0,0:0:0:0:
320,0,219260,1,0,0:0:0:0:
192,0,219318,1,0,0:0:0:0:
64,0,219318,1,0,0:0:0:0:
448,0,219376,1,0,0:0:0:0:
320,0,219376,1,0,0:0:0:0:
192,0,219433,1,0,0:0:0:0:
448,0,219491,1,0,0:0:0:0:
320,0,219491,1,0,0:0:0:0:
192,0,219549,1,0,0:0:0:0:
64,0,219549,1,0,0:0:0:0:
448,0,219606,1,0,0:0:0:0:
320,0,219606,1,0,0:0:0:0:
192,0,219664,1,0,0:0:0:0:
64,0,219664,1,0,0:0:0:0:
448,0,219722,1,0,0:0:0:0:
320,0,219722,1,0,0:0:0:0:
192,0,219779,1,0,0:0:0:0:
448,0,219837,1,0,0:0:0:0:
320,0,219837,1,0,0:0:0:0:
64,0,219837,1,0,0:0:0:0:
192,0,219895,1,0,0:0:0:0:
320,0,219952,1,0,0:0:0:0:
64,0,220010,1,0,0:0:0:0:
448,0,220068,1,0,0:0:0:0:
192,0,220068,1,0,0:0:0:0:
320,0,220126,1,0,0:0:0:0:
64,0,220183,1,0,0:0:0:0:
192,0,220241,1,0,0:0:0:0:
448,0,220299,1,0,0:0:0:0:
320,0,220299,1,0,0:0:0:0:
192,0,220356,1,0,0:0:0:0:
320,0,220414,1,0,0:0:0:0:
64,0,220472,1,0,0:0:0:0:
448,0,220529,1,0,0:0:0:0:
320,0,220529,1,0,0:0:0:0:
192,0,220529,1,0,0:0:0:0:
64,0,220587,1,0,0:0:0:0:
448,0,220645,1,0,0:0:0:0:
192,0,220702,1,0,0:0:0:0:
320,0,220760,1,0,0:0:0:0:
64,0,220760,1,0,0:0:0:0:
448,0,220818,1,0,0:0:0:0:
192,0,220876,1,0,0:0:0:0:
320,0,220933,1,0,0:0:0:0:
192,0,220991,1,0,0:0:0:0:
64,0,220991,1,0,0:0:0:0:
448,0,221049,1,0,0:0:0:0:
320,0,221106,1,0,0:0:0:0:
192,0,221164,1,0,0:0:0:0:
448,0,221222,1,0,0:0:0:0:
64,0,221222,1,0,0:0:0:0:
320,0,221279,1,0,0:0:0:0:
192,0,221337,1,0,0:0:0:0:
64,0,221395,1,0,0:0:0:0:
448,0,221452,1,0,0:0:0:0:
320,0,221452,1,0,0:0:0:0:
192,0,221510,1,0,0:0:0:0:
448,0,221568,1,0,0:0:0:0:
320,0,221568,1,0,0:0:0:0:
64,0,221626,1,0,0:0:0:0:
320,0,221683,1,0,0:0:0:0:
192,0,221683,1,0,0:0:0:0:
448,0,221741,1,0,0:0:0:0:
192,0,221799,1,0,0:0:0:0:
64,0,221856,1,0,0:0:0:0:
448,0,221914,1,0,0:0:0:0:
320,0,221914,1,0,0:0:0:0:
64,0,221972,1,0,0:0:0:0:
192,0,222029,1,0,0:0:0:0:
320,0,222087,1,0,0:0:0:0:
448,0,222145,1,0,0:0:0:0:
192,0,222145,1,0,0:0:0:0:
64,0,222145,1,0,0:0:0:0:
320,0,222202,1,0,0:0:0:0:
64,0,222260,1,0,0:0:0:0:
448,0,222318,1,0,0:0:0:0:
320,0,222376,1,0,0:0:0:0:
192,0,222376,1,0,0:0:0:0:
64,0,222433,1,0,0:0:0:0:
448,0,222491,1,0,0:0:0:0:
192,0,222549,1,0,0:0:0:0:
448,0,222606,1,0,0:0:0:0:
320,0,222606,1,0,0:0:0:0:
64,0,222606,1,0,0:0:0:0:
192,0,222664,1,0,0:0:0:0:
320,0,222722,1,0,0:0:0:0:
64,0,222779,1,0,0:0:0:0:
448,0,222837,1,0,0:0:0:0:
192,0,222837,1,0,0:0:0:0:
320,0,222895,1,0,0:0:0:0:
64,0,222952,1,0,0:0:0:0:
448,0,223010,1,0,0:0:0:0:
320,0,223068,1,0,0:0:0:0:
192,0,223068,1,0,0:0:0:0:
64,0,223068,1,0,0:0:0:0:
448,0,223126,1,0,0:0:0:0:
192,0,223183,1,0,0:0:0:0:
320,0,223241,1,0,0:0:0:0:
448,0,223299,1,0,0:0:0:0:
64,0,223299,1,0,0:0:0:0:
192,0,223356,1,0,0:0:0:0:
448,0,223414,1,0,0:0:0:0:
320,0,223414,1,0,0:0:0:0:
64,0,223472,1,0,0:0:0:0:
448,0,223529,1,0,0:0:0:0:
320,0,223529,1,0,0:0:0:0:
192,0,223529,1,0,0:0:0:0:
64,0,223587,1,0,0:0:0:0:
320,0,223645,1,0,0:0:0:0:
448,0,223702,1,0,0:0:0:0:
192,0,223760,1,0,0:0:0:0:
64,0,223760,1,0,0:0:0:0:
320,0,223818,1,0,0:0:0:0:
192,0,223876,1,0,0:0:0:0:
64,0,223933,1,0,0:0:0:0:
448,0,223991,1,0,0:0:0:0:
320,0,223991,1,0,0:0:0:0:
64,0,224049,1,0,0:0:0:0:
192,0,224106,1,0,0:0:0:0:
320,0,224164,1,0,0:0:0:0:
448,0,224222,1,0,0:0:0:0:
192,0,224222,1,0,0:0:0:0:
64,0,224222,1,0,0:0:0:0:
320,0,224279,1,0,0:0:0:0:
192,0,224337,1,0,0:0:0:0:
448,0,224395,1,0,0:0:0:0:
320,0,224452,1,0,0:0:0:0:
64,0,224452,1,0,0:0:0:0:
448,0,224510,1,0,0:0:0:0:
64,0,224568,1,0,0:0:0:0:
320,0,224626,1,0,0:0:0:0:
448,0,224683,1,0,0:0:0:0:
192,0,224683,1,0,0:0:0:0:
64,0,224741,1,0,0:0:0:0:
448,0,224799,1,0,0:0:0:0:
320,0,224856,1,0,0:0:0:0:
192,0,224914,1,0,0:0:0:0:
64,0,224914,1,0,0:0:0:0:
320,0,224972,1,0,0:0:0:0:
448,0,225029,1,0,0:0:0:0:
192,0,225087,1,0,0:0:0:0:
320,0,225145,1,0,0:0:0:0:
64,0,225145,1,0,0:0:0:0:
448,0,225202,1,0,0:0:0:0:
192,0,225260,1,0,0:0:0:0:
64,0,225260,1,0,0:0:0:0:
320,0,225318,1,0,0:0:0:0:
448,0,225376,1,0,0:0:0:0:
192,0,225376,1,0,0:0:0:0:
64,0,225376,1,0,0:0:0:0:
320,0,225433,1,0,0:0:0:0:
64,0,225491,1,0,0:0:0:0:
448,0,225549,1,0,0:0:0:0:
320,0,225606,1,0,0:0:0:0:
192,0,225606,1,0,0:0:0:0:
64,0,225606,1,0,0:0:0:0:
448,0,225664,1,0,0:0:0:0:
320,0,225722,1,0,0:0:0:0:
192,0,225779,1,0,0:0:0:0:
448,0,225837,1,0,0:0:0:0:
320,0,225837,1,0,0:0:0:0:
64,0,225837,1,0,0:0:0:0:
192,0,225895,1,0,0:0:0:0:
64,0,225952,1,0,0:0:0:0:
320,0,226010,1,0,0:0:0:0:
448,0,226068,1,0,0:0:0:0:
192,0,226068,1,0,0:0:0:0:
64,0,226126,1,0,0:0:0:0:
320,0,226183,1,0,0:0:0:0:
192,0,226241,1,0,0:0:0:0:
448,0,226299,1,0,0:0:0:0:
320,0,226299,1,0,0:0:0:0:
64,0,226299,1,0,0:0:0:0:
192,0,226356,1,0,0:0:0:0:
320,0,226414,1,0,0:0:0:0:
448,0,226472,1,0,0:0:0:0:
192,0,226529,1,0,0:0:0:0:
64,0,226529,1,0,0:0:0:0:
320,0,226587,1,0,0:0:0:0:
64,0,226645,1,0,0:0:0:0:
448,0,226702,1,0,0:0:0:0:
320,0,226760,1,0,0:0:0:0:
192,0,226760,1,0,0:0:0:0:
64,0,226760,1,0,0:0:0:0:
448,0,226818,1,0,0:0:0:0:
192,0,226876,1,0,0:0:0:0:
64,0,226876,1,0,0:0:0:0:
448,0,226933,1,0,0:0:0:0:
320,0,226933,1,0,0:0:0:0:
192,0,226991,1,0,0:0:0:0:
64,0,226991,1,0,0:0:0:0:
448,0,227049,1,0,0:0:0:0:
320,0,227049,1,0,0:0:0:0:
192,0,227106,1,0,0:0:0:0:
64,0,227106,1,0,0:0:0:0:
448,0,227164,1,0,0:0:0:0:
320,0,227164,1,0,0:0:0:0:
192,0,227222,1,0,0:0:0:0:
64,0,227222,1,0,0:0:0:0:
448,0,227279,1,0,0:0:0:0:
64,0,227337,1,0,0:0:0:0:
192,0,227395,1,0,0:0:0:0:
448,0,227452,1,0,0:0:0:0:
320,0,227452,1,0,0:0:0:0:
192,0,227510,1,0,0:0:0:0:
320,0,227568,1,0,0:0:0:0:
64,0,227626,1,0,0:0:0:0:
448,0,227683,1,0,0:0:0:0:
192,0,227683,1,0,0:0:0:0:
64,0,227741,1,0,0:0:0:0:
320,0,227799,1,0,0:0:0:0:
192,0,227856,1,0,0:0:0:0:
448,0,227914,1,0,0:0:0:0:
320,0,227914,1,0,0:0:0:0:
64,0,227914,1,0,0:0:0:0:
192,0,227972,1,0,0:0:0:0:
320,0,228029,1,0,0:0:0:0:
448,0,228087,1,0,0:0:0:0:
192,0,228145,1,0,0:0:0:0:
64,0,228145,1,0,0:0:0:0:
448,0,228202,1,0,0:0:0:0:
320,0,228260,1,0,0:0:0:0:
192,0,228318,1,0,0:0:0:0:
448,0,228376,1,0,0:0:0:0:
64,0,228376,1,0,0:0:0:0:
320,0,228433,1,0,0:0:0:0:
64,0,228491,1,0,0:0:0:0:
192,0,228549,1,0,0:0:0:0:
448,0,228606,1,0,0:0:0:0:
320,0,228606,1,0,0:0:0:0:
192,0,228664,1,0,0:0:0:0:
320,0,228722,1,0,0:0:0:0:
64,0,228779,1,0,0:0:0:0:
448,0,228837,1,0,0:0:0:0:
192,0,228837,1,0,0:0:0:0:
320,0,228895,1,0,0:0:0:0:
192,0,228952,1,0,0:0:0:0:
64,0,228952,1,0,0:0:0:0:
320,0,229010,1,0,0:0:0:0:
192,0,229068,1,0,0:0:0:0:
64,0,229068,1,0,0:0:0:0:
448,0,229126,1,0,0:0:0:0:
320,0,229183,1,0,0:0:0:0:
192,0,229241,1,0,0:0:0:0:
448,0,229299,1,0,0:0:0:0:
64,0,229299,1,0,0:0:0:0:
320,0,229356,1,0,0:0:0:0:
192,0,229414,1,0,0:0:0:0:
320,0,229472,1,0,0:0:0:0:
448,0,229529,1,0,0:0:0:0:
192,0,229529,1,0,0:0:0:0:
64,0,229529,1,0,0:0:0:0:
320,0,229587,1,0,0:0:0:0:
64,0,229645,1,0,0:0:0:0:
192,0,229702,1,0,0:0:0:0:
448,0,229760,1,0,0:0:0:0:
320,0,229760,1,0,0:0:0:0:
64,0,229818,1,0,0:0:0:0:
192,0,229876,1,0,0:0:0:0:
320,0,229933,1,0,0:0:0:0:
448,0,229991,1,0,0:0:0:0:
192,0,229991,1,0,0:0:0:0:
64,0,229991,1,0,0:0:0:0:
320,0,230049,1,0,0:0:0:0:
192,0,230106,1,0,0:0:0:0:
320,0,230164,1,0,0:0:0:0:
448,0,230222,1,0,0:0:0:0:
64,0,230222,1,0,0:0:0:0:
192,0,230279,1,0,0:0:0:0:
320,0,230337,1,0,0:0:0:0:
64,0,230395,1,0,0:0:0:0:
448,0,230452,1,0,0:0:0:0:
320,0,230452,1,0,0:0:0:0:
192,0,230452,1,0,0:0:0:0:
64,0,230510,1,0,0:0:0:0:
448,0,230568,1,0,0:0:0:0:
192,0,230626,1,0,0:0:0:0:
320,0,230683,1,0,0:0:0:0:
64,0,230683,1,0,0:0:0:0:
448,0,230741,1,0,0:0:0:0:
192,0,230799,1,0,0:0:0:0:
64,0,230799,1,0,0:0:0:0:
448,0,230856,1,0,0:0:0:0:
320,0,230914,1,0,0:0:0:0:
192,0,230914,1,0,0:0:0:0:
64,0,230914,1,0,0:0:0:0:
448,0,230972,1,0,0:0:0:0:
64,0,231029,1,0,0:0:0:0:
192,0,231087,1,0,0:0:0:0:
448,0,231145,1,0,0:0:0:0:
320,0,231145,1,0,0:0:0:0:
64,0,231202,1,0,0:0:0:0:
448,0,231260,1,0,0:0:0:0:
320,0,231318,1,0,0:0:0:0:
192,0,231376,1,0,0:0:0:0:
64,0,231376,1,0,0:0:0:0:
320,0,231433,1,0,0:0:0:0:
448,0,231491,1,0,0:0:0:0:
192,0,231549,1,0,0:0:0:0:
320,0,231606,1,0,0:0:0:0:
64,0,231606,1,0,0:0:0:0:
448,0,231664,1,0,0:0:0:0:
192,0,231722,1,0,0:0:0:0:
320,0,231779,1,0,0:0:0:0:
448,0,231837,1,0,0:0:0:0:
64,0,231837,1,0,0:0:0:0:
320,0,231895,1,0,0:0:0:0:
192,0,231895,1,0,0:0:0:0:
448,0,231952,1,0,0:0:0:0:
64,0,231952,1,0,0:0:0:0:
192,0,232010,1,0,0:0:0:0:
320,0,232068,1,0,0:0:0:0:
448,0,232126,1,0,0:0:0:0:
192,0,232183,1,0,0:0:0:0:
64,0,232183,1,0,0:0:0:0:
448,0,232241,1,0,0:0:0:0:
320,0,232241,1,0,0:0:0:0:
192,0,232299,1,0,0:0:0:0:
64,0,232299,1,0,0:0:0:0:
448,0,232356,1,0,0:0:0:0:
320,0,232414,1,0,0:0:0:0:
192,0,232472,1,0,0:0:0:0:
448,0,232529,1,0,0:0:0:0:
320,0,232529,1,0,0:0:0:0:
192,0,232587,1,0,0:0:0:0:
64,0,232587,1,0,0:0:0:0:
448,0,232645,1,0,0:0:0:0:
320,0,232645,1,0,0:0:0:0:
192,0,232702,1,0,0:0:0:0:
64,0,232702,1,0,0:0:0:0:
448,0,232760,1,0,0:0:0:0:
320,0,232760,1,0,0:0:0:0:
64,0,232818,1,0,0:0:0:0:
192,0,232876,1,0,0:0:0:0:
320,0,232933,1,0,0:0:0:0:
448,0,232991,1,0,0:0:0:0:
64,0,232991,1,0,0:0:0:0:
192,0,233049,1,0,0:0:0:0:
448,0,233106,1,0,0:0:0:0:
64,0,233164,1,0,0:0:0:0:
448,0,233222,1,0,0:0:0:0:
320,0,233222,1,0,0:0:0:0:
192,0,233222,1,0,0:0:0:0:
64,0,233279,1,0,0:0:0:0:
320,0,233337,1,0,0:0:0:0:
192,0,233395,1,0,0:0:0:0:
448,0,233452,1,0,0:0:0:0:
64,0,233452,1,0,0:0:0:0:
320,0,233510,1,0,0:0:0:0:
64,0,233568,1,0,0:0:0:0:
448,0,233626,1,0,0:0:0:0:
320,0,233683,1,0,0:0:0:0:
192,0,233683,1,0,0:0:0:0:
64,0,233683,1,0,0:0:0:0:
448,0,233741,1,0,0:0:0:0:
192,0,233799,1,0,0:0:0:0:
320,0,233856,1,0,0:0:0:0:
448,0,233914,1,0,0:0:0:0:
64,0,233914,1,0,0:0:0:0:
320,0,233972,1,0,0:0:0:0:
192,0,234029,1,0,0:0:0:0:
64,0,234029,1,0,0:0:0:0:
320,0,234087,1,0,0:0:0:0:
448,0,234145,1,0,0:0:0:0:
192,0,234145,1,0,0:0:0:0:
64,0,234145,1,0,0:0:0:0:
320,0,234202,1,0,0:0:0:0:
192,0,234260,1,0,0:0:0:0:
64,0,234260,1,0,0:0:0:0:
320,0,234318,1,0,0:0:0:0:
192,0,234376,1,0,0:0:0:0:
64,0,234376,1,0,0:0:0:0:
448,0,234433,1,0,0:0:0:0:
320,0,234433,1,0,0:0:0:0:
192,0,234491,1,0,0:0:0:0:
64,0,234491,1,0,0:0:0:0:
448,0,234549,1,0,0:0:0:0:
320,0,234549,1,0,0:0:0:0:
192,0,234606,1,0,0:0:0:0:
64,0,234606,1,0,0:0:0:0:
320,0,234664,1,0,0:0:0:0:
192,0,234722,1,0,0:0:0:0:
64,0,234779,1,0,0:0:0:0:
448,0,234837,1,0,0:0:0:0:
320,0,234837,1,0,0:0:0:0:
64,0,234895,1,0,0:0:0:0:
192,0,234952,1,0,0:0:0:0:
320,0,235010,1,0,0:0:0:0:
448,0,235068,1,0,0:0:0:0:
64,0,235068,1,0,0:0:0:0:
192,0,235126,1,0,0:0:0:0:
320,0,235183,1,0,0:0:0:0:
64,0,235241,1,0,0:0:0:0:
448,0,235299,1,0,0:0:0:0:
320,0,235299,1,0,0:0:0:0:
192,0,235299,1,0,0:0:0:0:
64,0,235356,1,0,0:0:0:0:
448,0,235414,1,0,0:0:0:0:
192,0,235472,1,0,0:0:0:0:
320,0,235529,1,0,0:0:0:0:
64,0,235529,1,0,0:0:0:0:
448,0,235587,1,0,0:0:0:0:
192,0,235645,1,0,0:0:0:0:
64,0,235702,1,0,0:0:0:0:
448,0,235760,1,0,0:0:0:0:
320,0,235760,1,0,0:0:0:0:
192,0,235818,1,0,0:0:0:0:
320,0,235876,1,0,0:0:0:0:
448,0,235933,1,0,0:0:0:0:
192,0,235991,1,0,0:0:0:0:
64,0,235991,1,0,0:0:0:0:
320,0,236049,1,0,0:0:0:0:
64,0,236106,1,0,0:0:0:0:
448,0,236164,1,0,0:0:0:0:
320,0,236222,1,0,0:0:0:0:
192,0,236222,1,0,0:0:0:0:
448,0,236279,1,0,0:0:0:0:
320,0,236337,1,0,0:0:0:0:
64,0,236337,1,0,0:0:0:0:
192,0,236395,1,0,0:0:0:0:
448,0,236452,1,0,0:0:0:0:
320,0,236452,1,0,0:0:0:0:
192,0,236510,1,0,0:0:0:0:
64,0,236568,1,0,0:0:0:0:
320,0,236626,1,0,0:0:0:0:
448,0,236683,1,0,0:0:0:0:
192,0,236683,1,0,0:0:0:0:
64,0,236741,1,0,0:0:0:0:
320,0,236799,1,0,0:0:0:0:
192,0,236856,1,0,0:0:0:0:
448,0,236914,1,0,0:0:0:0:
320,0,236914,1,0,0:0:0:0:
64,0,236914,1,0,0:0:0:0:
192,0,236972,1,0,0:0:0:0:
320,0,237029,1,0,0:0:0:0:
448,0,237087,1,0,0:0:0:0:
192,0,237145,1,0,0:0:0:0:
64,0,237145,1,0,0:0:0:0:
448,0,237202,1,0,0:0:0:0:
320,0,237260,1,0,0:0:0:0:
192,0,237318,1,0,0:0:0:0:
448,0,237376,1,0,0:0:0:0:
320,0,237376,1,0,0:0:0:0:
64,0,237376,1,0,0:0:0:0:
192,0,237433,1,0,0:0:0:0:
320,0,237491,1,0,0:0:0:0:
64,0,237549,1,0,0:0:0:0:
448,0,237606,1,0,0:0:0:0:
320,0,237606,1,0,0:0:0:0:
64,0,237664,1,0,0:0:0:0:
192,0,237722,1,0,0:0:0:0:
320,0,237779,1,0,0:0:0:0:
448,0,237837,1,0,0:0:0:0:
192,0,237837,1,0,0:0:0:0:
64,0,237837,1,0,0:0:0:0:
320,0,237895,1,0,0:0:0:0:
192,0,237952,1,0,0:0:0:0:
448,0,238010,1,0,0:0:0:0:
320,0,238068,1,0,0:0:0:0:
64,0,238068,1,0,0:0:0:0:
448,0,238125,1,0,0:0:0:0:
192,0,238183,1,0,0:0:0:0:
64,0,238183,1,0,0:0:0:0:
448,0,238241,1,0,0:0:0:0:
320,0,238241,1,0,0:0:0:0:
192,0,238299,1,0,0:0:0:0:
64,0,238299,1,0,0:0:0:0:
320,0,238356,1,0,0:0:0:0:
192,0,238414,1,0,0:0:0:0:
64,0,238472,1,0,0:0:0:0:
448,0,238529,1,0,0:0:0:0:
320,0,238529,1,0,0:0:0:0:
64,0,238587,1,0,0:0:0:0:
192,0,238645,1,0,0:0:0:0:
320,0,238702,1,0,0:0:0:0:
192,0,238760,1,0,0:0:0:0:
64,0,238760,1,0,0:0:0:0:
448,0,238818,1,0,0:0:0:0:
320,0,238875,1,0,0:0:0:0:
192,0,238933,1,0,0:0:0:0:
448,0,238991,1,0,0:0:0:0:
64,0,238991,1,0,0:0:0:0:
192,0,239049,1,0,0:0:0:0:
320,0,239106,1,0,0:0:0:0:
64,0,239164,1,0,0:0:0:0:
448,0,239222,1,0,0:0:0:0:
320,0,239222,1,0,0:0:0:0:
192,0,239222,1,0,0:0:0:0:
64,0,239279,1,0,0:0:0:0:
448,0,239337,1,0,0:0:0:0:
320,0,239395,1,0,0:0:0:0:
192,0,239452,1,0,0:0:0:0:
64,0,239452,1,0,0:0:0:0:
320,0,239510,1,0,0:0:0:0:
192,0,239568,1,0,0:0:0:0:
64,0,239625,1,0,0:0:0:0:
448,0,239683,1,0,0:0:0:0:
320,0,239683,1,0,0:0:0:0:
192,0,239741,1,0,0:0:0:0:
64,0,239799,1,0,0:0:0:0:
320,0,239856,1,0,0:0:0:0:
448,0,239914,1,0,0:0:0:0:
192,0,239914,1,0,0:0:0:0:
64,0,239972,1,0,0:0:0:0:
448,0,240029,1,0,0:0:0:0:
320,0,240029,1,0,0:0:0:0:
192,0,240087,1,0,0:0:0:0:
448,0,240145,1,0,0:0:0:0:
64,0,240145,1,0,0:0:0:0:
320,0,240202,1,0,0:0:0:0:
192,0,240260,1,0,0:0:0:0:
320,0,240318,1,0,0:0:0:0:
192,0,240375,1,0,0:0:0:0:
64,0,240375,1,0,0:0:0:0:
448,0,240433,1,0,0:0:0:0:
320,0,240491,1,0,0:0:0:0:
64,0,240549,1,0,0:0:0:0:
448,0,240606,1,0,0:0:0:0:
192,0,240606,1,0,0:0:0:0:
320,0,240664,1,0,0:0:0:0:
64,0,240722,1,0,0:0:0:0:
192,0,240779,1,0,0:0:0:0:
448,0,240837,1,0,0:0:0:0:
320,0,240837,1,0,0:0:0:0:
192,0,240895,1,0,0:0:0:0:
320,0,240952,1,0,0:0:0:0:
64,0,241010,1,0,0:0:0:0:
448,0,241068,1,0,0:0:0:0:
320,0,241068,1,0,0:0:0:0:
192,0,241068,1,0,0:0:0:0:
64,0,241125,1,0,0:0:0:0:
448,0,241183,1,0,0:0:0:0:
320,0,241241,1,0,0:0:0:0:
448,0,241299,1,0,0:0:0:0:
192,0,241299,1,0,0:0:0:0:
64,0,241299,1,0,0:0:0:0:
320,0,241356,1,0,0:0:0:0:
192,0,241414,1,0,0:0:0:0:
64,0,241414,1,0,0:0:0:0:
448,0,241472,1,0,0:0:0:0:
320,0,241529,1,0,0:0:0:0:
192,0,241529,1,0,0:0:0:0:
64,0,241529,1,0,0:0:0:0:
448,0,241587,1,0,0:0:0:0:
64,0,241645,1,0,0:0:0:0:
192,0,241702,1,0,0:0:0:0:
448,0,241760,1,0,0:0:0:0:
320,0,241760,1,0,0:0:0:0:
64,0,241760,1,0,0:0:0:0:
192,0,241818,1,0,0:0:0:0:
320,0,241875,1,0,0:0:0:0:
64,0,241933,1,0,0:0:0:0:
448,0,241991,1,0,0:0:0:0:
320,0,241991,1,0,0:0:0:0:
192,0,241991,1,0,0:0:0:0:
64,0,242049,1,0,0:0:0:0:
448,0,242106,1,0,0:0:0:0:
192,0,242164,1,0,0:0:0:0:
320,0,242222,1,0,0:0:0:0:
64,0,242222,1,0,0:0:0:0:
448,0,242279,1,0,0:0:0:0:
192,0,242337,1,0,0:0:0:0:
320,0,242395,1,0,0:0:0:0:
448,0,242452,1,0,0:0:0:0:
64,0,242452,1,0,0:0:0:0:
320,0,242510,1,0,0:0:0:0:
192,0,242568,1,0,0:0:0:0:
448,0,242625,1,0,0:0:0:0:
320,0,242683,1,0,0:0:0:0:
192,0,242683,1,0,0:0:0:0:
64,0,242683,1,0,0:0:0:0:
448,0,242741,1,0,0:0:0:0:
64,0,242799,1,0,0:0:0:0:
320,0,242856,1,0,0:0:0:0:
448,0,242914,1,0,0:0:0:0:
192,0,242914,1,0,0:0:0:0:
64,0,242972,1,0,0:0:0:0:
320,0,243029,1,0,0:0:0:0:
448,0,243087,1,0,0:0:0:0:
192,0,243145,1,0,0:0:0:0:
64,0,243145,1,0,0:0:0:0:
448,0,243202,1,0,0:0:0:0:
320,0,243260,1,0,0:0:0:0:
192,0,243318,1,0,0:0:0:0:
448,0,243375,1,0,0:0:0:0:
64,0,243375,1,0,0:0:0:0:
320,0,243433,1,0,0:0:0:0:
192,0,243491,1,0,0:0:0:0:
320,0,243549,1,0,0:0:0:0:
192,0,243606,1,0,0:0:0:0:
64,0,243606,1,0,0:0:0:0:
448,0,243664,1,0,0:0:0:0:
320,0,243722,1,0,0:0:0:0:
64,0,243722,1,0,0:0:0:0:
448,0,243779,1,0,0:0:0:0:
192,0,243779,1,0,0:0:0:0:
320,0,243837,1,0,0:0:0:0:
64,0,243837,1,0,0:0:0:0:
192,0,243895,1,0,0:0:0:0:
448,0,243952,1,0,0:0:0:0:
320,0,244010,1,0,0:0:0:0:
192,0,244068,1,0,0:0:0:0:
64,0,244068,1,0,0:0:0:0:
320,0,244125,1,0,0:0:0:0:
448,0,244183,1,0,0:0:0:0:
64,0,244241,1,0,0:0:0:0:
448,0,244299,1,0,0:0:0:0:
320,0,244299,1,0,0:0:0:0:
192,0,244299,1,0,0:0:0:0:
64,0,244356,1,0,0:0:0:0:
320,0,244414,1,0,0:0:0:0:
448,0,244472,1,0,0:0:0:0:
192,0,244529,1,0,0:0:0:0:
64,0,244529,1,0,0:0:0:0:
448,0,244587,1,0,0:0:0:0:
320,0,244645,1,0,0:0:0:0:
192,0,244702,1,0,0:0:0:0:
448,0,244760,1,0,0:0:0:0:
320,0,244760,1,0,0:0:0:0:
64,0,244760,1,0,0:0:0:0:
192,0,244818,1,0,0:0:0:0:
320,0,244875,1,0,0:0:0:0:
64,0,244933,1,0,0:0:0:0:
448,0,244991,1,0,0:0:0:0:
192,0,244991,1,0,0:0:0:0:
320,0,245049,1,0,0:0:0:0:
64,0,245106,1,0,0:0:0:0:
192,0,245164,1,0,0:0:0:0:
448,0,245222,1,0,0:0:0:0:
320,0,245222,1,0,0:0:0:0:
64,0,245222,1,0,0:0:0:0:
192,0,245279,1,0,0:0:0:0:
448,0,245337,1,0,0:0:0:0:
192,0,245395,1,0,0:0:0:0:
448,0,245452,1,0,0:0:0:0:
64,0,245452,1,0,0:0:0:0:
320,0,245510,1,0,0:0:0:0:
192,0,245568,1,0,0:0:0:0:
64,0,245568,1,0,0:0:0:0:
320,0,245625,1,0,0:0:0:0:
448,0,245683,1,0,0:0:0:0:
192,0,245683,1,0,0:0:0:0:
64,0,245683,1,0,0:0:0:0:
320,0,245741,1,0,0:0:0:0:
448,0,245799,1,0,0:0:0:0:
64,0,245856,1,0,0:0:0:0:
320,0,245914,1,0,0:0:0:0:
192,0,245914,1,0,0:0:0:0:
448,0,245972,1,0,0:0:0:0:
64,0,246029,1,0,0:0:0:0:
320,0,246087,1,0,0:0:0:0:
192,0,246145,1,0,0:0:0:0:
64,0,246145,1,0,0:0:0:0:
448,0,246202,1,0,0:0:0:0:
320,0,246260,1,0,0:0:0:0:
448,0,246318,1,0,0:0:0:0:
192,0,246375,1,0,0:0:0:0:
64,0,246375,1,0,0:0:0:0:
320,0,246433,1,0,0:0:0:0:
448,0,246491,1,0,0:0:0:0:
192,0,246549,1,0,0:0:0:0:
320,0,246606,1,0,0:0:0:0:
64,0,246606,1,0,0:0:0:0:
448,0,246664,1,0,0:0:0:0:
192,0,246722,1,0,0:0:0:0:
64,0,246779,1,0,0:0:0:0:
448,0,246837,1,0,0:0:0:0:
320,0,246837,1,0,0:0:0:0:
192,0,246895,1,0,0:0:0:0:
64,0,246952,1,0,0:0:0:0:
320,0,247010,1,0,0:0:0:0:
448,0,247068,1,0,0:0:0:0:
64,0,247068,1,0,0:0:0:0:
192,0,247125,1,0,0:0:0:0:
320,0,247183,1,0,0:0:0:0:
192,0,247241,1,0,0:0:0:0:
448,0,247299,1,0,0:0:0:0:
64,0,247299,1,0,0:0:0:0:
320,0,247356,1,0,0:0:0:0:
192,0,247414,1,0,0:0:0:0:
64,0,247414,1,0,0:0:0:0:
320,0,247472,1,0,0:0:0:0:
448,0,247529,1,0,0:0:0:0:
192,0,247529,1,0,0:0:0:0:
64,0,247529,1,0,0:0:0:0:
320,0,247587,1,0,0:0:0:0:
192,0,247645,1,0,0:0:0:0:
64,0,247702,1,0,0:0:0:0:
448,0,247760,1,0,0:0:0:0:
320,0,247760,1,0,0:0:0:0:
192,0,247818,1,0,0:0:0:0:
448,0,247875,1,0,0:0:0:0:
64,0,247933,1,0,0:0:0:0:
320,0,247991,1,0,0:0:0:0:
192,0,247991,1,0,0:0:0:0:
64,0,248049,1,0,0:0:0:0:
448,0,248106,1,0,0:0:0:0:
192,0,248164,1,0,0:0:0:0:
320,0,248222,1,0,0:0:0:0:
64,0,248222,1,0,0:0:0:0:
448,0,248279,1,0,0:0:0:0:
192,0,248337,1,0,0:0:0:0:
320,0,248395,1,0,0:0:0:0:
448,0,248452,1,0,0:0:0:0:
64,0,248452,1,0,0:0:0:0:
320,0,248510,1,0,0:0:0:0:
192,0,248568,1,0,0:0:0:0:
64,0,248625,1,0,0:0:0:0:
448,0,248683,1,0,0:0:0:0:
320,0,248683,1,0,0:0:0:0:
64,0,248741,1,0,0:0:0:0:
192,0,248799,1,0,0:0:0:0:
320,0,248856,1,0,0:0:0:0:
448,0,248914,1,0,0:0:0:0:
64,0,248914,1,0,0:0:0:0:
192,0,248972,1,0,0:0:0:0:
320,0,249029,1,0,0:0:0:0:
192,0,249087,1,0,0:0:0:0:
320,0,249145,1,0,0:0:0:0:
64,0,249145,1,0,0:0:0:0:
448,0,249202,1,0,0:0:0:0:
192,0,249260,1,0,0:0:0:0:
64,0,249260,1,0,0:0:0:0:
320,0,249318,1,0,0:0:0:0:
192,0,249375,1,0,0:0:0:0:
64,0,249375,1,0,0:0:0:0:
448,0,249433,1,0,0:0:0:0:
320,0,249491,1,0,0:0:0:0:
192,0,249549,1,0,0:0:0:0:
448,0,249606,1,0,0:0:0:0:
64,0,249606,1,0,0:0:0:0:
320,0,249664,1,0,0:0:0:0:
192,0,249722,1,0,0:0:0:0:
448,0,249779,1,0,0:0:0:0:
192,0,249837,1,0,0:0:0:0:
64,0,249837,1,0,0:0:0:0:
320,0,249895,1,0,0:0:0:0:
448,0,249952,1,0,0:0:0:0:
192,0,250010,1,0,0:0:0:0:
448,0,250068,1,0,0:0:0:0:
64,0,250068,1,0,0:0:0:0:
320,0,250125,1,0,0:0:0:0:
192,0,250183,1,0,0:0:0:0:
320,0,250241,1,0,0:0:0:0:
448,0,250299,1,0,0:0:0:0:
64,0,250299,1,0,0:0:0:0:
192,0,250356,1,0,0:0:0:0:
448,0,250414,1,0,0:0:0:0:
320,0,250414,1,0,0:0:0:0:
192,0,250472,1,0,0:0:0:0:
448,0,250529,1,0,0:0:0:0:
320,0,250529,1,0,0:0:0:0:
192,0,250587,1,0,0:0:0:0:
448,0,250645,1,0,0:0:0:0:
320,0,250645,1,0,0:0:0:0:
192,0,250702,1,0,0:0:0:0:
448,0,250760,1,0,0:0:0:0:
64,0,250760,1,0,0:0:0:0:
320,0,250818,1,0,0:0:0:0:
192,0,250875,1,0,0:0:0:0:
64,0,250875,1,0,0:0:0:0:
320,0,250933,1,0,0:0:0:0:
192,0,250991,1,0,0:0:0:0:
64,0,250991,1,0,0:0:0:0:
320,0,251049,1,0,0:0:0:0:
192,0,251106,1,0,0:0:0:0:
64,0,251106,1,0,0:0:0:0:
320,0,251164,1,0,0:0:0:0:
448,0,251222,1,0,0:0:0:0:
192,0,251222,1,0,0:0:0:0:
64,0,251222,1,0,0:0:0:0:
320,0,251279,1,0,0:0:0:0:
192,0,251337,1,0,0:0:0:0:
64,0,251395,1,0,0:0:0:0:
448,0,251452,1,0,0:0:0:0:
320,0,251452,1,0,0:0:0:0:
192,0,251510,1,0,0:0:0:0:
448,0,251568,1,0,0:0:0:0:
64,0,251568,1,0,0:0:0:0:
320,0,251625,1,0,0:0:0:0:
192,0,251683,1,0,0:0:0:0:
320,0,251741,1,0,0:0:0:0:
448,0,251799,1,0,0:0:0:0:
64,0,251799,1,0,0:0:0:0:
192,0,251856,1,0,0:0:0:0:
448,0,251914,1,0,0:0:0:0:
320,0,251914,1,0,0:0:0:0:
64,0,251972,1,0,0:0:0:0:
192,0,252029,1,0,0:0:0:0:
320,0,252087,1,0,0:0:0:0:
192,0,252145,1,0,0:0:0:0:
64,0,252145,1,0,0:0:0:0:
448,0,252202,1,0,0:0:0:0:
320,0,252260,1,0,0:0:0:0:
64,0,252260,1,0,0:0:0:0:
192,0,252318,1,0,0:0:0:0:
320,0,252375,1,0,0:0:0:0:
448,0,252433,1,0,0:0:0:0:
192,0,252491,1,0,0:0:0:0:
64,0,252491,1,0,0:0:0:0:
320,0,252549,1,0,0:0:0:0:
448,0,252606,1,0,0:0:0:0:
64,0,252606,1,0,0:0:0:0:
192,0,252664,1,0,0:0:0:0:
448,0,252722,1,0,0:0:0:0:
64,0,252722,1,0,0:0:0:0:
320,0,252779,1,0,0:0:0:0:
192,0,252837,1,0,0:0:0:0:
64,0,252837,1,0,0:0:0:0:
448,0,252895,1,0,0:0:0:0:
320,0,252952,1,0,0:0:0:0:
192,0,253010,1,0,0:0:0:0:
448,0,253068,1,0,0:0:0:0:
64,0,253068,1,0,0:0:0:0:
320,0,253125,1,0,0:0:0:0:
192,0,253183,1,0,0:0:0:0:
448,0,253241,1,0,0:0:0:0:
320,0,253299,1,0,0:0:0:0:
64,0,253299,1,0,0:0:0:0:
192,0,253356,1,0,0:0:0:0:
448,0,253414,1,0,0:0:0:0:
320,0,253414,1,0,0:0:0:0:
64,0,253472,1,0,0:0:0:0:
192,0,253529,1,0,0:0:0:0:
320,0,253587,1,0,0:0:0:0:
448,0,253645,1,0,0:0:0:0:
64,0,253645,1,0,0:0:0:0:
320,0,253702,1,0,0:0:0:0:
192,0,253760,1,0,0:0:0:0:
64,0,253760,1,0,0:0:0:0:
448,0,253818,1,0,0:0:0:0:
320,0,253875,1,0,0:0:0:0:
192,0,253933,1,0,0:0:0:0:
320,0,253991,1,0,0:0:0:0:
64,0,253991,1,0,0:0:0:0:
448,0,254049,1,0,0:0:0:0:
192,0,254106,1,0,0:0:0:0:
64,0,254106,1,0,0:0:0:0:
448,0,254164,1,0,0:0:0:0:
320,0,254222,1,0,0:0:0:0:
192,0,254279,1,0,0:0:0:0:
448,0,254337,1,0,0:0:0:0:
64,0,254337,1,0,0:0:0:0:
320,0,254395,1,0,0:0:0:0:
192,0,254452,1,0,0:0:0:0:
64,0,254452,1,0,0:0:0:0:
448,0,254510,1,0,0:0:0:0:
192,0,254568,1,0,0:0:0:0:
320,0,254625,1,0,0:0:0:0:
448,0,254683,1,0,0:0:0:0:
64,0,254683,1,0,0:0:0:0:
192,0,254741,1,0,0:0:0:0:
448,0,254799,1,0,0:0:0:0:
320,0,254799,1,0,0:0:0:0:
192,0,254856,1,0,0:0:0:0:
448,0,254914,1,0,0:0:0:0:
320,0,254914,1,0,0:0:0:0:
64,0,254914,1,0,0:0:0:0:
192,0,254972,1,0,0:0:0:0:
320,0,255029,1,0,0:0:0:0:
64,0,255087,1,0,0:0:0:0:
448,0,255145,1,0,0:0:0:0:
192,0,255145,1,0,0:0:0:0:
320,0,255202,1,0,0:0:0:0:
192,0,255260,1,0,0:0:0:0:
64,0,255260,1,0,0:0:0:0:
448,0,255318,1,0,0:0:0:0:
320,0,255375,1,0,0:0:0:0:
192,0,255433,1,0,0:0:0:0:
448,0,255491,1,0,0:0:0:0:
64,0,255491,1,0,0:0:0:0:
192,0,255549,1,0,0:0:0:0:
448,0,255606,1,0,0:0:0:0:
320,0,255606,1,0,0:0:0:0:
64,0,255664,1,0,0:0:0:0:
192,0,255722,1,0,0:0:0:0:
320,0,255779,1,0,0:0:0:0:
192,0,255837,1,0,0:0:0:0:
64,0,255837,1,0,0:0:0:0:
320,0,255895,1,0,0:0:0:0:
448,0,255952,1,0,0:0:0:0:
64,0,255952,1,0,0:0:0:0:
192,0,256010,1,0,0:0:0:0:
320,0,256068,1,0,0:0:0:0:
448,0,256125,1,0,0:0:0:0:
192,0,256183,1,0,0:0:0:0:
64,0,256183,1,0,0:0:0:0:
448,0,256241,1,0,0:0:0:0:
320,0,256299,1,0,0:0:0:0:
192,0,256299,1,0,0:0:0:0:
64,0,256356,1,0,0:0:0:0:
448,0,256414,1,0,0:0:0:0:
320,0,256472,1,0,0:0:0:0:
192,0,256529,1,0,0:0:0:0:
64,0,256529,1,0,0:0:0:0:
320,0,256587,1,0,0:0:0:0:
192,0,256645,1,0,0:0:0:0:
64,0,256645,1,0,0:0:0:0:
320,0,256702,1,0,0:0:0:0:
448,0,256760,1,0,0:0:0:0:
64,0,256760,1,0,0:0:0:0:
192,0,256818,1,0,0:0:0:0:
320,0,256875,1,0,0:0:0:0:
192,0,256933,1,0,0:0:0:0:
320,0,256991,1,0,0:0:0:0:
64,0,256991,1,0,0:0:0:0:
448,0,257049,1,0,0:0:0:0:
192,0,257106,1,0,0:0:0:0:
64,0,257106,1,0,0:0:0:0:
448,0,257164,1,0,0:0:0:0:
320,0,257222,1,0,0:0:0:0:
192,0,257279,1,0,0:0:0:0:
448,0,257337,1,0,0:0:0:0:
64,0,257337,1,0,0:0:0:0:
320,0,257395,1,0,0:0:0:0:
192,0,257452,1,0,0:0:0:0:
64,0,257452,1,0,0:0:0:0:
320,0,257510,1,0,0:0:0:0:
448,0,257568,1,0,0:0:0:0:
64,0,257625,1,0,0:0:0:0:
320,0,257683,1,0,0:0:0:0:
192,0,257683,1,0,0:0:0:0:
448,0,257741,1,0,0:0:0:0:
64,0,257799,1,0,0:0:0:0:
192,0,257856,1,0,0:0:0:0:
448,0,257914,1,0,0:0:0:0:
320,0,257914,1,0,0:0:0:0:
192,0,257972,1,0,0:0:0:0:
448,0,258029,1,0,0:0:0:0:
320,0,258029,1,0,0:0:0:0:
64,0,258087,1,0,0:0:0:0:
448,0,258145,1,0,0:0:0:0:
192,0,258145,1,0,0:0:0:0:
320,0,258202,1,0,0:0:0:0:
192,0,258260,1,0,0:0:0:0:
64,0,258318,1,0,0:0:0:0:
448,0,258375,1,0,0:0:0:0:
320,0,258375,1,0,0:0:0:0:
192,0,258433,1,0,0:0:0:0:
64,0,258491,1,0,0:0:0:0:
448,0,258549,1,0,0:0:0:0:
192,0,258606,1,0,0:0:0:0:
64,0,258606,1,0,0:0:0:0:
320,0,258664,1,0,0:0:0:0:
192,0,258722,1,0,0:0:0:0:
320,0,258779,1,0,0:0:0:0:
448,0,258837,1,0,0:0:0:0:
64,0,258837,1,0,0:0:0:0:
192,0,258895,1,0,0:0:0:0:
448,0,258952,1,0,0:0:0:0:
320,0,258952,1,0,0:0:0:0:
192,0,259010,1,0,0:0:0:0:
64,0,259068,1,0,0:0:0:0:
320,0,259125,1,0,0:0:0:0:
448,0,259183,1,0,0:0:0:0:
192,0,259183,1,0,0:0:0:0:
64,0,259241,1,0,0:0:0:0:
448,0,259299,1,0,0:0:0:0:
320,0,259299,1,0,0:0:0:0:
192,0,259356,1,0,0:0:0:0:
64,0,259414,1,0,0:0:0:0:
448,0,259472,1,0,0:0:0:0:
320,0,259529,1,0,0:0:0:0:
192,0,259529,1,0,0:0:0:0:
448,0,259587,1,0,0:0:0:0:
192,0,259645,1,0,0:0:0:0:
64,0,259645,1,0,0:0:0:0:
320,0,259702,1,0,0:0:0:0:
448,0,259760,1,0,0:0:0:0:
64,0,259760,1,0,0:0:0:0:
320,0,259818,1,0,0:0:0:0:
192,0,259875,1,0,0:0:0:0:
64,0,259933,1,0,0:0:0:0:
448,0,259991,1,0,0:0:0:0:
320,0,259991,1,0,0:0:0:0:
64,0,260049,1,0,0:0:0:0:
448,0,260106,1,0,0:0:0:0:
320,0,260106,1,0,0:0:0:0:
192,0,260164,1,0,0:0:0:0:
320,0,260222,1,0,0:0:0:0:
448,0,260279,1,0,0:0:0:0:
192,0,260337,1,0,0:0:0:0:
64,0,260337,1,0,0:0:0:0:
448,0,260395,1,0,0:0:0:0:
320,0,260452,1,0,0:0:0:0:
192,0,260452,1,0,0:0:0:0:
64,0,260452,1,0,0:0:0:0:
448,0,260510,1,0,0:0:0:0:
320,0,260568,1,0,0:0:0:0:
192,0,260625,1,0,0:0:0:0:
448,0,260683,1,0,0:0:0:0:
64,0,260683,1,0,0:0:0:0:
320,0,260741,1,0,0:0:0:0:
192,0,260799,1,0,0:0:0:0:
64,0,260799,1,0,0:0:0:0:
320,0,260856,1,0,0:0:0:0:
192,0,260914,1,0,0:0:0:0:
448,0,260972,1,0,0:0:0:0:
320,0,261029,1,0,0:0:0:0:
64,0,261029,1,0,0:0:0:0:
192,0,261087,1,0,0:0:0:0:
448,0,261145,1,0,0:0:0:0:
320,0,261145,1,0,0:0:0:0:
64,0,261202,1,0,0:0:0:0:
192,0,261260,1,0,0:0:0:0:
320,0,261318,1,0,0:0:0:0:
448,0,261375,1,0,0:0:0:0:
64,0,261375,1,0,0:0:0:0:
192,0,261433,1,0,0:0:0:0:
448,0,261491,1,0,0:0:0:0:
320,0,261491,1,0,0:0:0:0:
192,0,261549,1,0,0:0:0:0:
64,0,261606,1,0,0:0:0:0:
320,0,261664,1,0,0:0:0:0:
192,0,261722,1,0,0:0:0:0:
64,0,261722,1,0,0:0:0:0:
320,0,261779,1,0,0:0:0:0:
448,0,261837,1,0,0:0:0:0:
64,0,261837,1,0,0:0:0:0:
192,0,261895,1,0,0:0:0:0:
320,0,261952,1,0,0:0:0:0:
64,0,262010,1,0,0:0:0:0:
448,0,262068,1,0,0:0:0:0:
320,0,262068,1,0,0:0:0:0:
192,0,262125,1,0,0:0:0:0:
448,0,262183,1,0,0:0:0:0:
64,0,262183,1,0,0:0:0:0:
320,0,262241,1,0,0:0:0:0:
448,0,262299,1,0,0:0:0:0:
192,0,262299,1,0,0:0:0:0:
64,0,262299,1,0,0:0:0:0:
320,0,262356,1,0,0:0:0:0:
192,0,262414,1,0,0:0:0:0:
64,0,262472,1,0,0:0:0:0:
448,0,262529,1,0,0:0:0:0:
320,0,262529,1,0,0:0:0:0:
192,0,262587,1,0,0:0:0:0:
448,0,262645,1,0,0:0:0:0:
320,0,262645,1,0,0:0:0:0:
64,0,262702,1,0,0:0:0:0:
192,0,262760,1,0,0:0:0:0:
320,0,262818,1,0,0:0:0:0:
448,0,262875,1,0,0:0:0:0:
64,0,262875,1,0,0:0:0:0:
320,0,262933,1,0,0:0:0:0:
192,0,262991,1,0,0:0:0:0:
64,0,262991,1,0,0:0:0:0:
448,0,263049,1,0,0:0:0:0:
320,0,263106,1,0,0:0:0:0:
192,0,263164,1,0,0:0:0:0:
448,0,263222,1,0,0:0:0:0:
320,0,263222,1,0,0:0:0:0:
192,0,263279,1,0,0:0:0:0:
64,0,263279,1,0,0:0:0:0:
448,0,263337,1,0,0:0:0:0:
320,0,263337,1,0,0:0:0:0:
64,0,263395,1,0,0:0:0:0:
192,0,263452,1,0,0:0:0:0:
320,0,263510,1,0,0:0:0:0:
448,0,263568,1,0,0:0:0:0:
64,0,263568,1,0,0:0:0:0:
192,0,263625,1,0,0:0:0:0:
448,0,263683,1,0,0:0:0:0:
320,0,263683,1,0,0:0:0:0:
192,0,263741,1,0,0:0:0:0:
448,0,263799,1,0,0:0:0:0:
320,0,263799,1,0,0:0:0:0:
64,0,263856,1,0,0:0:0:0:
320,0,263914,1,0,0:0:0:0:
192,0,263914,1,0,0:0:0:0:
448,0,263972,1,0,0:0:0:0:
64,0,264029,1,0,0:0:0:0:
448,0,264087,1,0,0:0:0:0:
320,0,264145,1,0,0:0:0:0:
192,0,264145,1,0,0:0:0:0:
64,0,264145,1,0,0:0:0:0:
448,0,264202,1,0,0:0:0:0:
192,0,264260,1,0,0:0:0:0:
320,0,264318,1,0,0:0:0:0:
448,0,264375,1,0,0:0:0:0:
64,0,264375,1,0,0:0:0:0:
320,0,264433,1,0,0:0:0:0:
192,0,264491,1,0,0:0:0:0:
64,0,264491,1,0,0:0:0:0:
448,0,264549,1,0,0:0:0:0:
320,0,264606,1,0,0:0:0:0:
64,0,264664,1,0,0:0:0:0:
448,0,264722,1,0,0:0:0:0:
192,0,264722,1,0,0:0:0:0:
320,0,264779,1,0,0:0:0:0:
192,0,264837,1,0,0:0:0:0:
64,0,264837,1,0,0:0:0:0:
448,0,264895,1,0,0:0:0:0:
64,0,264952,1,0,0:0:0:0:
192,0,265010,1,0,0:0:0:0:
448,0,265068,1,0,0:0:0:0:
320,0,265068,1,0,0:0:0:0:
192,0,265125,1,0,0:0:0:0:
448,0,265183,1,0,0:0:0:0:
320,0,265183,1,0,0:0:0:0:
192,0,265241,1,0,0:0:0:0:
448,0,265299,1,0,0:0:0:0:
64,0,265299,1,0,0:0:0:0:
320,0,265356,1,0,0:0:0:0:
192,0,265414,1,0,0:0:0:0:
64,0,265414,1,0,0:0:0:0:
448,0,265472,1,0,0:0:0:0:
320,0,265472,1,0,0:0:0:0:
192,0,265529,1,0,0:0:0:0:
64,0,265529,1,0,0:0:0:0:
448,0,265587,1,0,0:0:0:0:
320,0,265587,1,0,0:0:0:0:
192,0,265645,1,0,0:0:0:0:
64,0,265645,1,0,0:0:0:0:
448,0,265702,1,0,0:0:0:0:
320,0,265702,1,0,0:0:0:0:
192,0,265760,1,0,0:0:0:0:
64,0,265760,1,0,0:0:0:0:
448,0,265818,1,0,0:0:0:0:
192,0,265875,1,0,0:0:0:0:
64,0,265875,1,0,0:0:0:0:
448,0,265933,1,0,0:0:0:0:
320,0,265991,1,0,0:0:0:0:
192,0,265991,1,0,0:0:0:0:
64,0,265991,1,0,0:0:0:0:
64,0,266222,1,0,0:0:0:0:
448,0,266452,1,0,0:0:0:0:
320,0,266452,1,0,0:0:0:0:
448,0,266683,1,0,0:0:0:0:
320,0,266914,1,0,0:0:0:0:
192,0,266914,1,0,0:0:0:0:
448,0,267145,1,0,0:0:0:0:
320,0,267145,1,0,0:0:0:0:
192,0,267375,1,0,0:0:0:0:
64,0,267375,1,0,0:0:0:0:
320,0,267606,1,0,0:0:0:0:
64,0,267606,1,0,0:0:0:0:
320,0,267722,1,0,0:0:0:0:
64,0,267722,1,0,0:0:0:0:
448,0,267837,1,0,0:0:0:0:
192,0,267837,1,0,0:0:0:0:
192,0,268068,1,0,0:0:0:0:
448,0,268299,1,0,0:0:0:0:
320,0,268299,1,0,0:0:0:0:
320,0,268529,1,0,0:0:0:0:
192,0,268529,1,0,0:0:0:0:
448,0,268645,1,0,0:0:0:0:
320,0,268645,1,0,0:0:0:0:
192,0,268760,1,0,0:0:0:0:
64,0,268760,1,0,0:0:0:0:
64,0,268991,1,0,0:0:0:0:
448,0,269222,1,0,0:0:0:0:
192,0,269222,1,0,0:0:0:0:
192,0,269337,1,0,0:0:0:0:
320,0,269452,1,0,0:0:0:0:
64,0,269452,1,0,0:0:0:0:
320,0,269568,1,0,0:0:0:0:
192,0,269683,1,0,0:0:0:0:
64,0,269683,1,0,0:0:0:0:
192,0,269914,1,0,0:0:0:0:
448,0,270145,1,0,0:0:0:0:
320,0,270145,1,0,0:0:0:0:
448,0,270260,1,0,0:0:0:0:
64,0,270260,1,0,0:0:0:0:
320,0,270375,1,0,0:0:0:0:
192,0,270375,1,0,0:0:0:0:
192,0,270491,1,0,0:0:0:0:
64,0,270491,1,0,0:0:0:0:
448,0,270606,1,0,0:0:0:0:
320,0,270606,1,0,0:0:0:0:
448,0,270837,1,0,0:0:0:0:
192,0,271068,1,0,0:0:0:0:
64,0,271068,1,0,0:0:0:0:
64,0,271183,1,0,0:0:0:0:
320,0,271299,1,0,0:0:0:0:
64,0,271299,1,0,0:0:0:0:
64,0,271414,1,0,0:0:0:0:
320,0,271529,1,0,0:0:0:0:
192,0,271529,1,0,0:0:0:0:
192,0,271760,1,0,0:0:0:0:
448,0,271991,1,0,0:0:0:0:
64,0,271991,1,0,0:0:0:0:
448,0,272106,1,0,0:0:0:0:
320,0,272106,1,0,0:0:0:0:
448,0,272222,1,0,0:0:0:0:
320,0,272222,1,0,0:0:0:0:
448,0,272337,1,0,0:0:0:0:
320,0,272337,1,0,0:0:0:0:
192,0,272452,1,0,0:0:0:0:
64,0,272452,1,0,0:0:0:0:
64,0,272683,1,0,0:0:0:0:
448,0,272914,1,0,0:0:0:0:
192,0,272914,1,0,0:0:0:0:
448,0,273145,1,0,0:0:0:0:
320,0,273145,1,0,0:0:0:0:
192,0,273375,1,0,0:0:0:0:
64,0,273375,1,0,0:0:0:0:
64,0,273606,1,0,0:0:0:0:
64,0,273837,1,0,0:0:0:0:
448,0,274068,1,0,0:0:0:0:
64,0,274068,1,0,0:0:0:0:
320,0,274183,1,0,0:0:0:0:
192,0,274183,1,0,0:0:0:0:
448,0,274299,1,0,0:0:0:0:
64,0,274299,1,0,0:0:0:0:
320,0,274529,1,0,0:0:0:0:
64,0,274529,1,0,0:0:0:0:
320,0,274645,1,0,0:0:0:0:
192,0,274645,1,0,0:0:0:0:
64,0,274760,1,0,0:0:0:0:
192,0,274991,1,0,0:0:0:0:
64,0,274991,1,0,0:0:0:0:
320,0,275106,1,0,0:0:0:0:
448,0,275222,1,0,0:0:0:0:
192,0,275337,1,0,0:0:0:0:
64,0,275337,1,0,0:0:0:0:
448,0,275452,1,0,0:0:0:0:
448,0,275683,1,0,0:0:0:0:
64,0,275683,1,0,0:0:0:0:
448,0,275914,1,0,0:0:0:0:
192,0,275914,1,0,0:0:0:0:
448,0,276145,1,0,0:0:0:0:
64,0,276145,1,0,0:0:0:0:
320,0,276260,1,0,0:0:0:0:
448,0,276375,1,0,0:0:0:0:
192,0,276375,1,0,0:0:0:0:
320,0,276491,1,0,0:0:0:0:
64,0,276491,1,0,0:0:0:0:
192,0,276606,1,0,0:0:0:0:
320,0,276722,1,0,0:0:0:0:
64,0,276722,1,0,0:0:0:0:
448,0,276837,1,0,0:0:0:0:
192,0,276837,1,0,0:0:0:0:
192,0,277068,1,0,0:0:0:0:
64,0,277068,1,0,0:0:0:0:
448,0,277183,1,0,0:0:0:0:
320,0,277183,1,0,0:0:0:0:
320,0,277299,1,0,0:0:0:0:
192,0,277299,1,0,0:0:0:0:
192,0,277414,1,0,0:0:0:0:
64,0,277414,1,0,0:0:0:0:
448,0,277529,1,0,0:0:0:0:
320,0,277529,1,0,0:0:0:0:
320,0,277645,1,0,0:0:0:0:
192,0,277645,1,0,0:0:0:0:
448,0,277760,1,0,0:0:0:0:
64,0,277760,1,0,0:0:0:0:
320,0,277818,1,0,0:0:0:0:
192,0,277818,1,0,0:0:0:0:
448,0,277875,1,0,0:0:0:0:
64,0,277875,1,0,0:0:0:0:
320,0,277933,1,0,0:0:0:0:
192,0,277933,1,0,0:0:0:0:
448,0,277991,1,0,0:0:0:0:
64,0,277991,1,0,0:0:0:0:
192,0,278106,1,0,0:0:0:0:
64,0,278106,1,0,0:0:0:0:
448,0,278164,1,0,0:0:0:0:
320,0,278164,1,0,0:0:0:0:
192,0,278222,1,0,0:0:0:0:
64,0,278222,1,0,0:0:0:0:
448,0,278337,1,0,0:0:0:0:
320,0,278337,1,0,0:0:0:0:
192,0,278395,1,0,0:0:0:0:
64,0,278395,1,0,0:0:0:0:
448,0,278452,1,0,0:0:0:0:
320,0,278452,1,0,0:0:0:0:
192,0,278568,1,0,0:0:0:0:
64,0,278568,1,0,0:0:0:0:
448,0,278683,1,0,0:0:0:0:
64,0,278683,1,0,0:0:0:0:
320,0,278799,1,0,0:0:0:0:
192,0,278799,1,0,0:0:0:0:
320,0,278914,128,0,279145:0:0:0:0:
448,0,278914,128,0,279375:0:0:0:0:
64,0,278914,128,0,279375:0:0:0:0:
192,0,278914,128,0,279145:0:0:0:0:
