osu file format v14

[General]
AudioFilename: imagematerial.mp3
AudioLeadIn: 0
PreviewTime: 165589
Countdown: 0
SampleSet: Soft
StackLeniency: 0.7
Mode: 0
LetterboxInBreaks: 0
EpilepsyWarning: 1
WidescreenStoryboard: 1

[Editor]
Bookmarks: 56435,71204,88743,103512,120127,134897,149666,181051,197666,310280,356434,371204,384127
DistanceSpacing: 0.3
BeatDivisor: 4
GridSize: 4
TimelineZoom: 5.700003

[Metadata]
Title:IMAGE -MATERIAL-
TitleUnicode:IMAGE -MATERIAL-
Artist:Tatsh
ArtistUnicode:Tatsh
Creator:Enon
Version:Revolution
Source:
Tags:(新曲) (Shinkyoku) REFLEC BEAT limelight 福山沙織 fukuyama saori Dailycare
BeatmapID:875945
BeatmapSetID:402837

[Difficulty]
HPDrainRate:6
CircleSize:4.2
OverallDifficulty:9
ApproachRate:9.8
SliderMultiplier:1.87
SliderTickRate:1

[Events]
//Background and Video events
0,0,"BG.jpg",0,0
//Break Periods
2,49251,55956
//Storyboard Layer 0 (Background)
//Storyboard Layer 1 (Fail)
//Storyboard Layer 2 (Pass)
//Storyboard Layer 3 (Foreground)
//Storyboard Sound Samples

[TimingPoints]
6590,461.538461538462,4,2,2,15,1,0
6590,-200,4,2,2,15,0,0
8320,-200,4,2,2,5,0,0
8436,-200,4,2,2,15,0,0
10166,-200,4,2,2,5,0,0
10282,-200,4,2,2,15,0,0
12013,-200,4,2,2,5,0,0
12128,-200,4,2,2,15,0,0
13859,-200,4,2,2,5,0,0
13974,-200,4,2,2,15,0,0
15705,-200,4,2,2,5,0,0
15820,-200,4,2,2,15,0,0
17551,-200,4,2,2,5,0,0
17666,-200,4,2,2,15,0,0
49051,230.769230769231,4,2,1,15,1,0
56435,-100,4,2,1,60,0,0
62666,-200,4,2,1,60,0,0
63820,-100,4,2,1,60,0,0
69358,-100,4,2,1,55,0,0
69589,-100,4,2,1,50,0,0
69820,-100,4,2,1,45,0,0
70051,-100,4,2,1,40,0,0
70281,-100,4,2,1,30,0,0
70512,-100,4,2,1,40,0,0
70743,-100,4,2,1,50,0,0
70974,-100,4,2,1,60,0,0
71204,-100,4,2,1,70,0,0
74839,-100,4,2,1,5,0,0
74897,-100,4,2,1,70,0,0
78301,-100,4,2,1,5,0,0
78358,-100,4,2,1,70,0,0
78531,-100,4,2,1,5,0,0
78589,-100,4,2,1,70,0,0
82224,-100,4,2,1,5,0,0
82281,-100,4,2,1,70,0,0
85685,-100,4,2,1,5,0,0
85743,-100,4,2,1,70,0,0
88743,-100,4,2,1,85,0,1
90070,-100,4,2,1,5,0,1
90127,-100,4,2,1,85,0,1
93762,-100,4,2,1,5,0,1
93820,-100,4,2,1,85,0,1
95377,-100,4,2,1,5,0,1
95435,-100,4,2,1,85,0,1
103512,-100,4,2,1,60,0,0
106916,-100,4,2,1,5,0,0
106974,-100,4,2,1,60,0,0
110608,-100,4,2,1,5,0,0
110666,-100,4,2,1,60,0,0
114301,-100,4,2,1,5,0,0
114358,-100,4,2,1,60,0,0
114820,-100,4,2,3,60,0,0
114834,-100,4,2,1,60,0,0
116666,-100,4,2,3,60,0,0
116680,-100,4,2,1,60,0,0
117358,-100,4,2,1,55,0,0
117589,-100,4,2,1,50,0,0
117820,-100,4,2,1,45,0,0
118051,-100,4,2,1,40,0,0
118281,-100,4,2,1,30,0,0
118743,-100,4,2,1,40,0,0
119204,-100,4,2,1,50,0,0
119666,-100,4,2,1,60,0,0
120127,-100,4,2,1,70,0,0
126762,-100,4,2,1,5,0,0
126820,-100,4,2,1,70,0,0
143377,-100,4,2,1,5,0,0
143435,-111.111111111111,4,2,1,70,0,0
143608,-111.111111111111,4,2,1,5,0,0
143666,-125,4,2,1,70,0,0
143839,-125,4,2,1,5,0,0
143897,-142.857142857143,4,2,1,70,0,0
144070,-142.857142857143,4,2,1,5,0,0
144127,-100,4,2,1,70,0,0
149666,-200,4,2,1,40,0,0
160743,-100,4,2,1,55,0,0
166281,-100,4,2,1,85,0,1
167608,-100,4,2,1,5,0,1
167666,-100,4,2,1,85,0,1
171301,-100,4,2,1,5,0,1
171358,-100,4,2,1,85,0,1
172916,-100,4,2,1,5,0,1
172974,-100,4,2,1,85,0,1
181051,-100,4,2,1,60,0,0
182377,-100,4,2,1,5,0,0
182435,-100,4,2,1,60,0,0
192358,-100,4,2,3,60,0,0
192373,-100,4,2,1,60,0,0
194204,-100,4,2,3,60,0,0
194219,-100,4,2,1,60,0,0
194897,-100,4,2,1,55,0,0
195127,-100,4,2,1,50,0,0
195358,-100,4,2,1,45,0,0
195589,-100,4,2,1,40,0,0
195820,-100,4,2,1,30,0,0
196281,-100,4,2,1,40,0,0
196743,-100,4,2,1,50,0,0
197204,-100,4,2,1,60,0,0
197666,-100,4,2,1,85,0,1
219070,-100,4,2,1,5,0,1
219127,-142.857142857143,4,2,1,85,0,1
219301,-142.857142857143,4,2,1,5,0,1
219358,-111.111111111111,4,2,1,85,0,1
219531,-111.111111111111,4,2,1,5,0,1
219589,-166.666666666667,4,2,1,85,0,1
219762,-166.666666666667,4,2,1,5,0,1
219820,-100,4,2,1,85,0,1
227204,461.538461538462,4,2,2,25,1,0
227204,-200,4,2,2,25,0,0
251550,697.674418604651,4,2,2,25,1,0
251550,-133.333333333333,4,2,2,25,0,0
252702,714.285714285714,4,2,2,20,1,0
252702,-133.333333333333,4,2,2,20,0,0
253506,800,4,2,2,18,1,0
254095,1132.07547169811,4,2,2,15,1,0
254095,-133.333333333333,4,2,2,15,0,0
255580,1200,4,2,2,10,1,0
256480,1267.10000000001,4,2,2,8,1,0
256480,-133.333333333333,4,2,2,8,0,0
258892,2131.45714285714,4,2,2,6,1,0
258892,-133.333333333333,4,2,2,6,0,0
263197,230.769230769231,4,2,1,65,1,0
277966,-100,4,2,1,70,0,0
285062,-100,4,2,1,5,0,0
285120,-100,4,2,1,70,0,0
285293,-100,4,2,1,5,0,0
285350,-100,4,2,1,70,0,0
292447,-100,4,2,1,5,0,0
292504,-100,4,2,1,70,0,0
295504,-100,4,2,1,85,0,1
296831,-100,4,2,1,5,0,1
296889,-100,4,2,1,85,0,1
300523,-100,4,2,1,5,0,1
300581,-100,4,2,1,85,0,1
308889,-100,4,2,1,85,0,0
310273,-100,4,2,1,85,0,1
315062,-100,4,2,1,5,0,1
315120,-100,4,2,1,85,0,1
329831,-100,4,2,1,5,0,1
329889,-100,4,2,1,85,0,1
330754,-100,4,2,1,5,0,1
330812,-100,4,2,1,85,0,1
331677,-100,4,2,1,5,0,1
331735,-100,4,2,1,85,0,1
333523,-100,4,2,1,5,0,1
333581,-100,4,2,1,85,0,1
336293,-100,4,2,1,5,0,1
336350,-100,4,2,1,85,0,1
346447,-100,4,2,1,5,0,1
346504,-142.857142857143,4,2,1,85,0,1
346677,-142.857142857143,4,2,1,5,0,1
346735,-111.111111111111,4,2,1,85,0,1
346908,-111.111111111111,4,2,1,5,0,1
346966,-166.666666666667,4,2,1,85,0,1
347197,-100,4,2,1,85,0,1
356427,-100,4,2,1,60,0,0

[Colours]
Combo1 : 235,221,186
Combo2 : 165,202,233
Combo3 : 114,145,218
Combo4 : 58,148,190

[HitObjects]
88,104,6590,6,0,B|176:156|256:108|256:108|336:60|423:112,1,350.625,6|0,0:0|0:0,0:0:0:0:
396,213,8436,2,0,P|277:247|376:172,1,350.625,6|0,0:0|0:0,0:0:0:0:
472,220,10282,2,0,P|456:288|220:300,1,350.625,6|0,0:0|0:0,0:0:0:0:
277,200,12128,2,0,P|398:225|276:244,1,350.625,6|0,0:0|0:0,0:0:0:0:
224,141,13974,6,0,P|379:90|473:224,1,350.625,6|0,0:0|0:0,0:0:0:0:
496,301,15820,2,0,B|304:277|329:378|139:354,1,350.625,6|0,0:0|0:0,0:0:0:0:
76,352,17666,2,0,B|128:271|43:128|43:128|96:217|173:187,1,374,6|2,0:0|0:0,0:0:0:0:
256,192,19628,12,0,21128,0:0:0:0:
213,117,21359,6,0,L|119:122,1,93.5,6|0,0:0|0:0,0:0:0:0:
300,161,22282,2,0,L|393:155,1,93.5,2|0,0:0|0:0,0:0:0:0:
233,38,23205,2,0,L|139:43,1,93.5,6|0,0:0|0:0,0:0:0:0:
280,240,24128,2,0,L|373:234,1,93.5,2|0,0:0|0:0,0:0:0:0:
509,22,25051,6,0,B|342:1|390:161|198:113,1,327.25,6|0,0:0|0:0,0:0:0:0:
139,43,26897,2,0,P|181:132|110:300,1,280.5,2|0,0:0|0:0,0:0:0:0:
46,366,28743,6,0,L|139:371,1,93.5,6|0,0:0|0:0,0:0:0:0:
280,175,29666,2,0,L|186:169,1,93.5,2|0,0:0|0:0,0:0:0:0:
26,287,30589,2,0,L|119:292,1,93.5,6|0,0:0|0:0,0:0:0:0:
300,254,31513,2,0,L|206:248,1,93.5,2|0,0:0|0:0,0:0:0:0:
0,57,32436,6,0,B|189:33|134:214|352:176,1,374,6|2,0:0|0:0,0:0:0:0:
334,178,35205,2,0,L|315:351,1,163.625,2|0,0:0|0:0,0:0:0:0:
396,313,36128,6,0,P|430:308|456:284,1,70.125,6|0,0:0|0:0,0:0:0:0:
508,233,36590,6,0,B|205:287|288:12|1:48,1,561,2|0,0:0|0:0,0:0:0:0:
10,47,39820,6,0,L|120:37,1,93.5,6|0,0:0|0:0,0:0:0:0:
233,130,40743,2,0,L|123:140,1,93.5,2|0,0:0|0:0,0:0:0:0:
268,229,41666,2,0,L|473:210,1,187,2|2,0:0|0:0,0:0:0:0:
271,366,43051,2,0,P|254:329|255:303,1,46.75
268,229,43513,5,6,0:0:0:0:
256,192,43628,12,0,49051,0:0:0:0:
45,136,56435,6,0,B|140:151|119:74|222:88,1,187,6|8,0:0|0:0,0:0:0:0:
214,252,56781,1,0,0:0:0:0:
214,252,56897,2,0,P|209:223|187:144,1,93.5,2|0,0:0|0:0,0:0:0:0:
336,48,57127,2,0,P|323:93|314:138,1,93.5,8|0,0:0|0:0,0:0:0:0:
319,308,57358,6,0,P|379:321|411:306,1,93.5,2|0,0:0|0:0,0:0:0:0:
214,252,57589,2,0,P|154:239|122:254,1,93.5,8|0,0:0|0:0,0:0:0:0:
58,340,57820,1,2,0:0:0:0:
165,370,57935,1,0,0:0:0:0:
263,315,58051,1,8,0:0:0:0:
370,345,58166,1,8,0:0:0:0:
370,345,58224,1,0,0:0:0:0:
370,345,58281,6,0,P|361:263|435:186,1,187,2|8,0:0|0:0,0:0:0:0:
507,110,58627,1,0,0:0:0:0:
507,110,58685,1,0,0:0:0:0:
507,110,58743,2,0,L|491:3,1,93.5,2|0,0:0|0:0,0:0:0:0:
412,96,58974,2,0,L|428:203,1,93.5,8|2,0:0|0:0,0:0:0:0:
370,344,59204,6,0,P|331:353|275:333,1,93.5,2|0,0:0|0:0,0:0:0:0:
273,211,59435,2,0,P|293:253|331:280,1,93.5,8|0,0:0|0:0,0:0:0:0:
349,206,59666,2,0,P|341:160|357:117,1,93.5,2|0,0:0|0:0,0:0:0:0:
482,107,59897,2,0,P|440:127|414:165,1,93.5,8|0,0:0|0:0,0:0:0:0:
144,273,60127,6,0,L|331:280,1,187,2|8,0:0|0:0,0:0:0:0:
349,206,60474,2,0,L|162:199,1,187,0|2,0:0|0:0,0:0:0:0:
85,115,60820,2,0,L|179:119,1,93.5,8|2,0:0|0:0,0:0:0:0:
126,347,61051,6,0,P|88:326|66:277,1,93.5,2|0,0:0|0:0,0:0:0:0:
162,199,61281,2,0,P|200:220|222:269,1,93.5,8|0,0:0|0:0,0:0:0:0:
203,375,61512,2,0,L|306:368,1,93.5,2|2,0:0|0:0,0:0:0:0:
443,285,61743,2,0,L|349:291,1,93.5,8|0,0:0|0:0,0:0:0:0:
329,279,61916,1,0,0:0:0:0:
309,266,61974,6,0,L|289:66,1,187,2|8,0:0|0:0,0:0:0:0:
203,118,62320,2,0,L|223:318,1,187,0|2,0:0|0:0,0:0:0:0:
133,342,62666,2,0,B|132:316|132:316|128:316|128:316|130:295|130:295|126:296|126:296|129:275|129:275|125:275|125:275|127:254|127:254|123:255|123:255|125:234|125:234|121:234|121:234|123:213|123:213|119:214|119:214|121:193|121:193|118:193|118:193|118:172,1,187,8|8,0:0|0:0,0:0:0:0:
285,26,63358,5,2,0:0:0:0:
352,117,63474,1,8,0:0:0:0:
265,189,63589,1,10,0:0:0:0:
332,280,63705,1,8,0:0:0:0:
474,81,63820,5,2,0:0:0:0:
456,83,63877,1,2,0:0:0:0:
437,85,63935,1,2,0:0:0:0:
419,88,63993,1,2,0:0:0:0:
400,90,64051,2,0,L|288:73,1,93.5,8|0,0:0|0:0,0:0:0:0:
217,50,64281,5,2,0:0:0:0:
219,68,64338,1,2,0:0:0:0:
221,87,64396,1,2,0:0:0:0:
224,105,64454,1,2,0:0:0:0:
226,124,64512,2,0,L|209:236,1,93.5,8|0,0:0|0:0,0:0:0:0:
186,307,64743,5,2,0:0:0:0:
204,305,64800,1,2,0:0:0:0:
223,303,64858,1,2,0:0:0:0:
241,300,64916,1,2,0:0:0:0:
260,298,64974,2,0,L|372:315,1,93.5,8|0,0:0|0:0,0:0:0:0:
443,338,65205,5,2,0:0:0:0:
441,320,65262,1,2,0:0:0:0:
439,301,65320,1,2,0:0:0:0:
436,283,65378,1,2,0:0:0:0:
434,264,65436,2,0,L|451:152,1,93.5,8|0,0:0|0:0,0:0:0:0:
474,81,65666,5,2,0:0:0:0:
456,83,65723,1,2,0:0:0:0:
437,85,65781,1,2,0:0:0:0:
419,88,65839,1,2,0:0:0:0:
400,90,65897,2,0,L|288:73,1,93.5,8|0,0:0|0:0,0:0:0:0:
226,124,66127,5,2,0:0:0:0:
208,126,66184,1,2,0:0:0:0:
189,128,66242,1,2,0:0:0:0:
171,131,66300,1,2,0:0:0:0:
152,133,66358,2,0,L|40:116,1,93.5,8|0,0:0|0:0,0:0:0:0:
14,291,66589,6,0,P|0:241|8:176,1,93.5,2|2,0:0|0:0,0:0:0:0:
136,292,66820,2,0,P|150:342|142:407,1,93.5,8|2,0:0|0:0,0:0:0:0:
80,232,67051,2,0,P|154:263|265:207,1,187,2|8,0:0|0:0,0:0:0:0:
315,159,67397,1,0,0:0:0:0:
491,182,67512,6,0,B|480:253|480:253|484:286|484:286|472:373,1,187,6|8,0:1|0:0,0:0:0:0:
410,124,67858,2,0,B|399:195|399:195|403:228|403:228|391:315,1,187,2|8,0:1|0:0,0:0:0:0:
329,66,68204,2,0,L|313:166,1,93.5,10|0,1:2|0:0,0:0:0:0:
181,294,68435,6,0,P|226:315|288:293,1,93.5,2|2,0:0|0:0,0:0:0:0:
440,252,68666,2,0,P|395:231|333:253,1,93.5,8|2,0:0|0:0,0:0:0:0:
128,371,68897,5,10,0:0:0:0:
181,294,69012,1,8,0:0:0:0:
117,225,69127,1,10,0:0:0:0:
170,148,69242,1,8,0:0:0:0:
52,88,69358,6,0,L|43:181,1,93.5,2|2,0:0|0:0,0:0:0:0:
181,294,69589,2,0,L|191:202,1,93.5,8|2,0:0|0:0,0:0:0:0:
39,101,69820,6,0,L|30:193,1,93.5,2|2,0:0|0:0,0:0:0:0:
168,307,70051,2,0,L|177:214,1,93.5,8|2,0:0|0:0,0:0:0:0:
198,30,70281,5,8,0:0:0:0:
220,46,70339,1,0,0:0:0:0:
244,58,70397,1,8,0:0:0:0:
269,65,70455,1,0,0:0:0:0:
296,68,70512,1,2,0:0:0:0:
322,66,70570,1,2,0:0:0:0:
348,60,70627,1,2,0:0:0:0:
373,49,70685,1,2,0:0:0:0:
396,36,70742,5,10,0:0:0:0:
441,30,70800,1,2,0:0:0:0:
483,49,70858,1,10,0:0:0:0:
510,87,70916,1,2,0:0:0:0:
512,133,70974,1,10,0:0:0:0:
492,175,71031,1,2,0:0:0:0:
453,199,71089,1,10,0:0:0:0:
407,200,71146,1,2,0:0:0:0:
364,184,71204,6,0,P|321:209|338:359,1,187,6|8,0:0|0:0,0:0:0:0:
419,372,71551,2,0,P|462:347|445:197,1,187,2|2,0:0|0:0,0:0:0:0:
332,104,71897,2,0,L|441:100,1,93.5,8|0,0:0|0:0,0:0:0:0:
248,179,72127,5,2,0:0:0:0:
248,179,72243,2,0,L|54:186,1,187,2|2,0:0|0:0,0:0:0:0:
144,259,72589,2,0,L|240:255,1,93.5,2|0,0:0|0:0,0:0:0:0:
164,104,72820,2,0,L|68:108,1,93.5,8|0,0:0|0:0,0:0:0:0:
111,338,73051,6,0,P|200:325|223:228,1,187,2|8,0:0|0:0,0:0:0:0:
192,136,73397,2,0,L|-1:143,1,187,2|2,0:0|0:0,0:0:0:0:
78,57,73743,2,0,L|174:53,1,93.5,8|0,0:0|0:0,0:0:0:0:
365,83,73974,5,2,0:0:0:0:
365,83,74089,2,0,B|294:83|288:84|255:135|251:135|191:135,1,187,2|2,0:0|0:0,0:0:0:0:
45,195,74435,2,0,P|87:216|103:264,1,93.5,2|0,0:0|0:0,0:0:0:0:
16,332,74666,2,0,B|63:323|63:323|109:331|109:331|160:322,1,140.25,8|0,0:0|0:0,0:0:0:0:
240,352,74897,6,0,P|224:290|298:187,1,187,2|8,0:0|0:0,0:0:0:0:
395,224,75243,2,0,P|411:286|337:389,1,187,2|2,0:0|0:0,0:0:0:0:
249,166,75589,2,0,L|239:73,1,93.5,8|0,0:0|0:0,0:0:0:0:
198,230,75820,5,2,0:0:0:0:
198,230,75935,2,0,B|249:267|296:244|318:210|318:210|294:242|318:278,1,187,2|2,0:0|0:0,0:0:0:0:
340,364,76281,2,0,L|433:357,1,93.5,2|0,0:0|0:0,0:0:0:0:
236,324,76512,2,0,L|120:332,1,93.5,8|0,0:0|0:0,0:0:0:0:
13,228,76743,6,0,B|96:223|96:223|131:234|131:234|198:229,1,187,2|8,0:0|0:0,0:0:0:0:
324,152,77089,2,0,B|257:157|257:157|222:146|222:146|139:151,1,187,2|2,0:0|0:0,0:0:0:0:
294,235,77435,2,0,L|388:228,1,93.5,8|0,0:0|0:0,0:0:0:0:
452,108,77666,5,2,0:0:0:0:
452,108,77781,1,8,0:0:0:0:
492,272,77897,1,10,0:0:0:0:
492,272,78012,1,8,0:0:0:0:
376,88,78127,2,0,P|404:44|488:40,1,140.25,8|0,0:0|0:0,0:0:0:0:
452,108,78358,2,0,L|301:120,1,140.25,2|0,0:0|0:0,0:0:0:0:
216,60,78589,6,0,P|232:132|144:216,1,187,6|8,0:0|0:0,0:0:0:0:
56,176,78935,2,0,P|40:104|128:20,1,187,2|2,0:0|0:0,0:0:0:0:
216,60,79281,2,0,L|223:153,1,93.5,8|0,0:0|0:0,0:0:0:0:
333,284,79512,5,2,0:0:0:0:
333,284,79627,2,0,L|317:82,1,187,2|2,0:0|0:0,0:0:0:0:
157,170,79974,2,0,P|175:203|256:211,1,93.5,2|0,0:0|0:0,0:0:0:0:
400,264,80204,2,0,P|382:231|301:223,1,93.5,8|0,0:0|0:0,0:0:0:0:
255,374,80435,6,0,L|447:359,1,187,2|8,0:0|0:0,0:0:0:0:
512,272,80781,2,0,L|320:287,1,187,2|2,0:0|0:0,0:0:0:0:
244,210,81127,2,0,L|337:203,1,93.5,8|0,0:0|0:0,0:0:0:0:
464,92,81358,5,2,0:0:0:0:
464,92,81474,2,0,P|484:152|420:272,1,187,2|2,0:0|0:0,0:0:0:0:
321,123,81820,2,0,L|310:23,1,93.5,2|0,0:0|0:0,0:0:0:0:
201,117,82051,2,0,L|215:256,1,140.25,8|0,0:0|0:0,0:0:0:0:
225,332,82281,6,0,P|153:348|53:272,1,187,2|8,0:0|0:0,0:0:0:0:
90,181,82627,2,0,P|162:165|262:241,1,187,2|2,0:0|0:0,0:0:0:0:
315,317,82974,2,0,L|441:307,1,93.5,8|0,0:0|0:0,0:0:0:0:
500,169,83204,5,2,0:0:0:0:
500,169,83320,2,0,L|306:184,1,187,2|2,0:0|0:0,0:0:0:0:
156,120,83666,2,0,P|140:68|152:24,1,93.5,2|0,0:0|0:0,0:0:0:0:
260,20,83897,2,0,P|276:72|264:116,1,93.5,8|0,0:0|0:0,0:0:0:0:
196,260,84127,6,0,L|10:240,1,187,2|8,0:0|0:0,0:0:0:0:
80,328,84474,2,0,L|265:347,1,187,2|2,0:0|0:0,0:0:0:0:
372,382,84820,2,0,P|386:339|425:314,1,93.5,8|0,0:0|0:0,0:0:0:0:
506,236,85051,2,0,P|461:246|420:225,1,93.5,2|0,0:0|0:0,0:0:0:0:
313,195,85281,2,0,P|344:228|346:274,1,93.5,8|0,0:0|0:0,0:0:0:0:
163,144,85512,6,0,L|14:135,1,140.25,2|0,0:0|0:0,0:0:0:0:
44,187,85743,2,0,L|171:194,1,93.5,8|0,0:0|0:0,0:0:0:0:
245,159,85974,2,0,P|232:96|199:67,1,93.5,2|0,0:0|0:0,0:0:0:0:
214,244,86204,2,0,L|404:225,1,187,8|2,0:0|0:0,0:0:0:0:
497,283,86551,1,0,0:0:0:0:
497,283,86666,2,0,P|436:302|409:354,1,93.5,8|0,0:0|0:0,0:0:0:0:
318,374,86897,6,0,L|328:163,1,187,2|8,0:0|0:0,0:0:0:0:
238,257,87243,1,0,0:0:0:0:
238,257,87358,2,0,L|248:46,1,187,2|8,0:0|0:0,0:0:0:0:
158,140,87704,1,2,0:0:0:0:
158,140,87820,6,0,L|163:34,1,93.5,2|0,0:0|0:0,0:0:0:0:
75,118,88051,2,0,L|70:223,1,93.5,8|0,0:0|0:0,0:0:0:0:
113,345,88281,5,0,0:0:0:0:
130,335,88339,1,0,0:0:0:0:
150,333,88397,1,0,0:0:0:0:
169,339,88454,1,0,0:0:0:0:
188,347,88512,5,10,0:0:0:0:
230,365,88570,1,2,0:0:0:0:
276,366,88628,1,10,0:0:0:0:
320,349,88686,1,2,0:0:0:0:
353,317,88743,6,0,L|362:113,1,187,6|8,0:0|0:0,0:0:0:0:
265,71,89089,1,0,0:0:0:0:
265,71,89204,2,0,P|216:122|257:235,1,187,2|8,0:0|0:0,0:0:0:0:
356,237,89551,1,0,0:0:0:0:
356,237,89666,6,0,L|472:227,1,93.5,2|0,0:0|0:0,0:0:0:0:
373,145,89897,2,0,L|222:158,1,140.25,8|0,0:0|0:0,0:0:0:0:
189,190,90127,2,0,L|282:181,1,93.5,2|0,0:0|0:0,0:0:0:0:
147,85,90358,2,0,L|24:95,1,93.5,8|0,0:0|0:0,0:0:0:0:
129,242,90589,6,0,P|186:269|266:193,1,187,2|8,0:0|0:0,0:0:0:0:
116,165,90935,2,0,P|64:200|89:308,1,187,2|2,0:0|0:0,0:0:0:0:
189,190,91281,2,0,P|190:140|162:101,1,93.5,8|0,0:0|0:0,0:0:0:0:
81,31,91512,2,0,L|174:23,1,93.5,2|0,0:0|0:0,0:0:0:0:
350,92,91743,2,0,L|257:100,1,93.5,8|0,0:0|0:0,0:0:0:0:
95,198,91974,2,0,L|188:190,1,93.5,2|0,0:0|0:0,0:0:0:0:
377,205,92204,1,2,0:0:0:0:
365,240,92262,1,2,0:0:0:0:
355,276,92320,1,2,0:0:0:0:
345,311,92377,1,2,0:0:0:0:
334,347,92435,6,0,P|264:294|292:211,1,187,2|8,0:0|0:0,0:0:0:0:
392,153,92781,1,0,0:0:0:0:
392,153,92897,2,0,P|420:70|350:17,1,187,2|8,0:0|0:0,0:0:0:0:
256,79,93243,1,0,0:0:0:0:
256,79,93358,6,0,L|263:195,1,93.5,2|0,0:0|0:0,0:0:0:0:
152,304,93589,2,0,L|142:141,1,140.25,8|0,0:0|0:0,0:0:0:0:
154,109,93820,2,0,P|122:142|78:155,1,93.5,2|0,0:0|0:0,0:0:0:0:
0,62,94051,2,0,P|31:28|75:15,1,93.5,8|0,0:0|0:0,0:0:0:0:
256,79,94281,6,0,L|267:265,1,187,2|8,0:0|0:0,0:0:0:0:
198,354,94627,1,0,0:0:0:0:
198,354,94743,2,0,P|286:378|361:327,1,187,2|8,0:0|0:0,0:0:0:0:
407,224,95089,1,0,0:0:0:0:
407,224,95204,6,0,L|247:211,1,140.25,2|0,0:0|0:0,0:0:0:0:
218,184,95435,2,0,L|330:193,1,93.5,8|0,0:0|0:0,0:0:0:0:
401,124,95666,2,0,P|410:77|383:30,1,93.5,2|0,0:0|0:0,0:0:0:0:
300,104,95897,2,0,P|291:149|311:191,1,93.5,8|0,0:0|0:0,0:0:0:0:
420,317,96127,6,0,P|334:293|273:358,1,187,2|8,0:0|0:0,0:0:0:0:
159,359,96474,1,0,0:0:0:0:
159,359,96589,2,0,P|73:382|12:317,1,187,2|8,0:0|0:0,0:0:0:0:
78,186,96935,1,0,0:0:0:0:
174,245,97051,6,0,L|195:51,1,187,2|8,0:0|0:0,0:0:0:0:
300,104,97397,1,0,0:0:0:0:
300,104,97512,2,0,B|309:153|309:153|287:195,1,93.5,2|0,0:0|0:0,0:0:0:0:
185,332,97743,2,0,B|164:293|164:293|173:244,1,93.5,8|0,0:0|0:0,0:0:0:0:
450,270,97974,6,0,L|259:281,1,187,2|8,0:0|0:0,0:0:0:0:
218,184,98320,1,0,0:0:0:0:
218,184,98435,2,0,L|409:173,1,187,2|8,0:0|0:0,0:0:0:0:
509,216,98781,1,0,0:0:0:0:
509,216,98897,6,0,B|477:120|541:136|509:24,1,187,2|8,0:0|0:0,0:0:0:0:
402,4,99243,1,0,0:0:0:0:
207,91,99358,2,0,L|217:183,1,93.5,2|0,0:0|0:0,0:0:0:0:
364,222,99589,2,0,L|353:129,1,93.5,8|0,0:0|0:0,0:0:0:0:
300,359,99820,5,2,0:0:0:0:
391,372,99935,1,0,0:0:0:0:
432,287,100051,1,8,0:0:0:0:
364,222,100166,1,0,0:0:0:0:
282,268,100281,1,2,0:0:0:0:
200,314,100397,1,0,0:0:0:0:
132,249,100512,1,8,0:0:0:0:
173,164,100628,1,0,0:0:0:0:
264,177,100743,6,0,L|248:73,1,93.5,2|0,0:0|0:0,0:0:0:0:
158,71,100974,2,0,L|173:164,1,93.5,8|0,0:0|0:0,0:0:0:0:
146,341,101204,2,0,L|130:237,1,93.5,2|0,0:0|0:0,0:0:0:0:
40,235,101435,2,0,L|54:327,1,93.5,8|0,0:0|0:0,0:0:0:0:
146,341,101666,6,0,P|214:349|234:329,1,93.5,2|0,0:0|0:0,0:0:0:0:
321,224,101897,2,0,P|253:216|233:236,1,93.5,8|0,0:0|0:0,0:0:0:0:
325,317,102127,1,2,0:0:0:0:
353,129,102243,1,2,0:0:0:0:
345,116,102300,1,2,0:0:0:0:
351,104,102358,1,2,0:0:0:0:
340,93,102416,1,2,0:0:0:0:
342,79,102474,1,2,0:0:0:0:
333,68,102531,1,2,0:0:0:0:
322,58,102589,5,10,0:0:0:0:
360,78,102646,1,2,0:0:0:0:
404,81,102704,1,2,0:0:0:0:
446,65,102762,1,2,0:0:0:0:
477,34,102819,1,2,0:0:0:0:
232,124,102935,2,0,L|173:109,1,46.75,2|0,0:0|0:0,0:0:0:0:
256,114,103051,5,2,0:0:0:0:
249,146,103108,1,2,0:0:0:0:
271,173,103166,1,10,0:0:0:0:
255,200,103224,1,2,0:0:0:0:
271,229,103281,1,2,0:0:0:0:
294,258,103339,1,2,0:0:0:0:
277,283,103397,1,2,0:0:0:0:
291,312,103454,1,2,0:0:0:0:
285,344,103512,6,0,P|370:322|476:316,1,187,6|8,0:0|0:0,0:0:0:0:
495,206,103858,1,0,0:0:0:0:
495,206,103974,2,0,P|456:129|349:137,1,187,2|8,0:0|0:0,0:0:0:0:
272,191,104320,1,0,0:0:0:0:
272,191,104435,6,0,L|280:61,1,93.5,2|0,0:0|0:0,0:0:0:0:
362,23,104666,2,0,P|287:75|188:64,1,187,8|2,0:0|0:0,0:0:0:0:
108,121,105012,1,0,0:0:0:0:
97,10,105127,1,8,0:0:0:0:
195,67,105243,1,8,0:0:0:0:
195,67,105301,1,8,0:0:0:0:
195,67,105358,6,0,P|211:139|111:224,1,187,2|8,0:0|0:0,0:0:0:0:
33,192,105704,1,0,0:0:0:0:
33,192,105820,2,0,L|41:292,1,93.5,2|0,0:0|0:0,0:0:0:0:
149,312,106051,2,0,L|141:218,1,93.5,8|0,0:0|0:0,0:0:0:0:
239,165,106281,6,0,P|272:198|279:244,1,93.5,2|0,0:0|0:0,0:0:0:0:
255,354,106512,2,0,L|351:344,1,93.5,8|0,0:0|0:0,0:0:0:0:
460,337,106743,2,0,P|399:276|386:191,1,140.25,2|0,0:0|0:0,0:0:0:0:
385,226,106974,2,0,L|481:216,1,93.5,8|0,0:0|0:0,0:0:0:0:
391,72,107204,6,0,L|204:91,1,187,2|8,0:0|0:0,0:0:0:0:
126,7,107551,1,0,0:0:0:0:
126,7,107666,2,0,P|95:51|127:179,1,187,2|8,0:0|0:0,0:0:0:0:
233,165,108012,1,0,0:0:0:0:
233,165,108127,6,0,L|219:270,1,93.5,2|0,0:0|0:0,0:0:0:0:
145,342,108358,2,0,P|217:288|336:317,1,187,8|2,0:0|0:0,0:0:0:0:
414,258,108704,1,0,0:0:0:0:
394,369,108820,1,8,0:0:0:0:
309,298,108935,1,0,0:0:0:0:
309,298,108993,1,0,0:0:0:0:
309,298,109051,6,0,L|301:103,1,187,2|8,0:0|0:0,0:0:0:0:
396,51,109397,1,0,0:0:0:0:
396,51,109512,2,0,P|427:108|408:160,1,93.5,2|0,0:0|0:0,0:0:0:0:
385,240,109743,2,0,L|491:230,1,93.5,8|0,0:0|0:0,0:0:0:0:
445,339,109974,6,0,L|339:349,1,93.5,2|0,0:0|0:0,0:0:0:0:
264,278,110204,2,0,P|250:233|260:188,1,93.5,8|0,0:0|0:0,0:0:0:0:
150,164,110435,2,0,P|130:227|164:322,1,140.25,2|0,0:0|0:0,0:0:0:0:
147,298,110666,2,0,P|101:287|57:301,1,93.5,8|0,0:0|0:0,0:0:0:0:
214,357,110897,6,0,L|400:339,1,187,2|8,0:0|0:0,0:0:0:0:
451,239,111243,1,0,0:0:0:0:
451,239,111358,2,0,L|264:256,1,187,2|8,0:0|0:0,0:0:0:0:
314,155,111704,1,0,0:0:0:0:
314,155,111820,6,0,L|407:146,1,93.5,2|0,0:0|0:0,0:0:0:0:
486,65,112051,2,0,P|443:147|450:238,1,187,8|2,0:0|0:0,0:0:0:0:
499,340,112397,1,0,0:0:0:0:
390,312,112512,1,8,0:0:0:0:
288,358,112627,1,0,0:0:0:0:
288,358,112685,1,0,0:0:0:0:
288,358,112743,6,0,L|100:344,1,187,2|8,0:0|0:0,0:0:0:0:
30,256,113089,1,0,0:0:0:0:
30,256,113204,2,0,L|218:270,1,187,2|8,0:0|0:0,0:0:0:0:
308,202,113551,1,0,0:0:0:0:
308,202,113666,6,0,P|322:134|256:43,1,187,2|8,0:0|0:0,0:0:0:0:
211,146,114012,1,0,0:0:0:0:
211,146,114127,2,0,L|221:312,1,140.25,2|0,0:0|0:0,0:0:0:0:
219,285,114358,2,0,P|262:271|306:285,1,93.5,8|0,0:0|0:0,0:0:0:0:
166,367,114589,6,0,B|94:317|105:208|187:178|256:192|256:192|325:205|407:176|418:67|346:17,1,561,2|8,0:0|0:0,0:0:0:0:
292,98,115512,1,2,0:0:0:0:
346,367,116435,6,0,B|418:317|407:208|325:178|256:192|256:192|187:205|105:176|94:67|166:17,1,561,2|8,0:0|0:0,0:0:0:0:
219,98,117358,1,2,0:0:0:0:
292,285,117589,1,8,0:0:0:0:
438,147,117820,1,2,0:0:0:0:
219,98,118051,2,0,L|88:91,1,93.5,8|0,0:0|0:0,0:0:0:0:
10,235,118281,6,0,P|-9:192|1:144,1,93.5,2|2,0:0|0:0,0:0:0:0:
154,279,118512,2,0,P|173:322|163:369,1,93.5,8|0,0:0|0:0,0:0:0:0:
3,339,118743,1,8,0:0:0:0:
219,215,118858,2,0,P|224:170|244:-10,1,187,8|2,0:0|0:0,0:0:0:0:
114,85,119204,5,2,0:0:0:0:
145,112,119262,1,2,0:0:0:0:
151,155,119319,1,2,0:0:0:0:
134,195,119377,1,2,0:0:0:0:
102,223,119434,1,2,0:0:0:0:
84,265,119493,1,2,0:0:0:0:
80,305,119551,1,2,0:0:0:0:
101,342,119608,1,2,0:0:0:0:
135,372,119666,5,2,0:0:0:0:
190,375,119723,1,2,0:0:0:0:
230,335,119781,1,2,0:0:0:0:
280,309,119839,1,2,0:0:0:0:
336,310,119897,1,2,0:0:0:0:
377,346,119954,1,2,0:0:0:0:
425,374,120012,1,2,0:0:0:0:
475,348,120070,1,2,0:0:0:0:
495,297,120127,6,0,P|500:240|514:98,1,187,6|8,0:0|0:0,0:0:0:0:
351,20,120474,2,0,P|345:76|332:219,1,187,2|2,0:0|0:0,0:0:0:0:
415,362,120820,2,0,B|458:378|458:378|508:361,1,93.5,8|0,0:0|0:0,0:0:0:0:
407,268,121051,5,2,0:0:0:0:
332,321,121166,2,0,L|145:308,1,187,2|2,0:0|0:0,0:0:0:0:
213,192,121512,2,0,P|219:146|197:105,1,93.5,2|0,0:0|0:0,0:0:0:0:
47,283,121743,2,0,P|41:329|63:370,1,93.5,8|0,0:0|0:0,0:0:0:0:
213,192,121974,6,0,L|27:180,1,187,2|8,0:0|0:0,0:0:0:0:
146,308,122320,2,0,L|332:321,1,187,2|2,0:0|0:0,0:0:0:0:
226,107,122666,2,0,P|203:147|214:191,1,93.5,8|0,0:0|0:0,0:0:0:0:
83,365,122897,5,2,0:0:0:0:
31,289,123012,2,0,P|24:211|14:102,1,187,2|2,0:0|0:0,0:0:0:0:
214,192,123358,2,0,P|174:214|128:208,1,93.5,2|0,0:0|0:0,0:0:0:0:
303,114,123589,2,0,P|342:91|388:97,1,93.5,8|0,0:0|0:0,0:0:0:0:
498,293,123820,6,0,L|306:281,1,187,2|8,0:0|0:0,0:0:0:0:
214,192,124166,2,0,L|406:204,1,187,2|2,0:0|0:0,0:0:0:0:
278,344,124512,2,0,P|245:309|242:263,1,93.5,8|0,0:0|0:0,0:0:0:0:
408,48,124743,5,2,0:0:0:0:
327,94,124858,2,0,L|311:281,1,187,2|2,0:0|0:0,0:0:0:0:
214,192,125204,2,0,P|154:196|114:171,1,93.5,2|0,0:0|0:0,0:0:0:0:
60,84,125435,2,0,P|120:80|160:105,1,93.5,8|0,0:0|0:0,0:0:0:0:
110,374,125666,5,10,0:0:0:0:
10,209,125781,1,8,0:0:0:0:
184,284,125897,1,8,0:0:0:0:
0,326,126012,1,8,0:0:0:0:
125,181,126127,2,0,B|202:169|224:229|319:212,1,187,2|0,1:0|0:0,0:0:0:0:
398,154,126474,1,0,0:0:0:0:
398,154,126589,6,0,P|346:110|352:43,1,140.25,2|0,0:0|0:0,0:0:0:0:
413,83,126820,2,0,B|419:162|419:162|406:195|406:195|413:267,1,187,2|2,1:0|0:0,0:0:0:0:
367,346,127166,1,0,0:0:0:0:
275,323,127281,1,8,0:0:0:0:
195,372,127397,1,0,0:0:0:0:
195,372,127454,1,0,0:0:0:0:
195,372,127512,6,0,P|190:282|262:228,1,187,6|8,0:0|0:0,0:0:0:0:
330,85,127858,2,0,P|334:174|262:228,1,187,2|2,0:0|0:0,0:0:0:0:
157,129,128204,2,0,L|251:135,1,93.5,8|0,0:0|0:0,0:0:0:0:
456,206,128435,5,2,0:0:0:0:
394,273,128551,2,0,L|188:261,1,187,2|2,0:0|0:0,0:0:0:0:
298,358,128897,2,0,P|341:372|387:364,1,93.5,2|0,0:0|0:0,0:0:0:0:
303,177,129127,2,0,P|259:162|213:170,1,93.5,8|0,0:0|0:0,0:0:0:0:
20,270,129358,6,0,L|206:262,1,187,2|8,0:0|0:0,0:0:0:0:
303,177,129704,2,0,L|117:185,1,187,2|2,0:0|0:0,0:0:0:0:
22,90,130051,2,0,P|82:85|120:118,1,93.5,8|0,0:0|0:0,0:0:0:0:
206,261,130281,5,2,0:0:0:0:
128,351,130397,2,0,P|86:271|116:185,1,187,2|2,0:0|0:0,0:0:0:0:
206,261,130743,2,0,L|225:365,1,93.5,2|0,0:0|0:0,0:0:0:0:
320,268,130974,2,0,L|300:163,1,93.5,8|0,0:0|0:0,0:0:0:0:
236,21,131204,6,0,P|189:99|223:182,1,187,2|8,0:0|0:0,0:0:0:0:
368,330,131551,2,0,P|414:252|380:169,1,187,2|2,0:0|0:0,0:0:0:0:
285,84,131897,2,8,L|302:175,1,93.5,8|0,0:0|0:0,0:0:0:0:
256,337,132127,5,2,0:0:0:0:
167,301,132243,2,0,P|234:242|320:268,1,187,2|2,0:0|0:0,0:0:0:0:
104,372,132589,2,0,P|57:369|10:367,1,93.5,2|0,0:0|0:0,0:0:0:0:
155,245,132820,2,0,P|201:242|248:240,1,93.5,8|0,0:0|0:0,0:0:0:0:
376,268,133051,5,2,0:0:0:0:
363,249,133108,1,2,0:0:0:0:
356,228,133166,1,2,0:0:0:0:
355,206,133224,1,2,0:0:0:0:
360,184,133281,1,10,0:0:0:0:
372,165,133339,1,2,0:0:0:0:
388,150,133397,1,10,0:0:0:0:
408,140,133454,1,2,0:0:0:0:
431,136,133512,1,2,1:0:0:0:
433,216,133743,1,8,0:0:0:0:
433,216,133858,1,8,0:0:0:0:
500,268,133973,5,2,0:0:0:0:
495,296,134031,1,2,0:0:0:0:
490,324,134088,1,2,0:0:0:0:
485,352,134146,1,2,0:0:0:0:
480,380,134204,2,0,B|334:389|359:290|190:308,1,280.5,2|0,1:0|0:0,0:0:0:0:
213,83,134666,2,0,P|238:121|235:167,1,93.5,8|0,0:0|0:0,0:0:0:0:
109,244,134897,6,0,L|-10:240,1,93.5,4|0,0:0|0:0,0:0:0:0:
236,167,135127,2,0,L|329:170,1,93.5,8|0,0:0|0:0,0:0:0:0:
208,383,135358,2,0,L|21:376,1,187,2|8,0:0|0:0,0:0:0:0:
297,282,135704,2,0,L|203:278,1,93.5,0|2,0:0|0:0,0:0:0:0:
147,80,135935,6,0,L|240:83,1,93.5,0|8,0:0|0:0,0:0:0:0:
397,51,136166,2,0,L|347:130,1,93.5,0|2,0:0|0:0,0:0:0:0:
297,282,136397,2,0,L|253:199,1,93.5,0|8,0:0|0:0,0:0:0:0:
397,51,136627,1,0,0:0:0:0:
502,166,136743,6,0,L|409:169,1,93.5,2|0,0:0|0:0,0:0:0:0:
297,282,136974,2,0,L|390:285,1,93.5,8|0,0:0|0:0,0:0:0:0:
296,151,137204,6,0,L|203:154,1,93.5,2|0,0:0|0:0,0:0:0:0:
89,242,137435,2,0,L|182:245,1,93.5,8|0,0:0|0:0,0:0:0:0:
220,337,137666,6,0,L|-2:329,1,187,2|8,0:0|0:0,0:0:0:0:
202,154,138012,2,0,L|424:161,1,187,2|2,0:0|0:0,0:0:0:0:
338,61,138358,2,0,L|244:57,1,93.5,8|0,0:0|0:0,0:0:0:0:
431,315,138589,6,0,B|460:189|460:189|452:223|480:258,1,187,2|8,0:0|0:0,0:0:0:0:
507,343,138935,1,0,0:0:0:0:
507,343,139051,2,0,B|416:313|411:386|300:358,1,187,2|8,0:0|0:0,0:0:0:0:
177,244,139397,1,0,0:0:0:0:
177,244,139512,6,0,B|268:214|273:287|384:259,1,187,2|8,0:0|0:0,0:0:0:0:
424,173,139858,1,0,0:0:0:0:
339,99,139974,2,0,L|328:-1,1,93.5,2|2,0:0|0:0,0:0:0:0:
177,244,140204,2,0,L|167:151,1,93.5,8|0,0:0|0:0,0:0:0:0:
248,95,140435,6,0,L|257:187,1,93.5,2|0,0:0|0:0,0:0:0:0:
96,300,140666,2,0,L|86:207,1,93.5,8|0,0:0|0:0,0:0:0:0:
167,151,140897,6,0,L|177:244,1,93.5,2|0,0:0|0:0,0:0:0:0:
355,315,141127,2,0,L|346:222,1,93.5,8|0,0:0|0:0,0:0:0:0:
263,380,141358,6,0,P|317:344|444:352,1,187,2|8,0:0|0:0,0:0:0:0:
177,244,141704,1,0,0:0:0:0:
177,244,141820,2,0,P|123:280|-4:272,1,187,2|8,0:0|0:0,0:0:0:0:
0,182,142166,1,0,0:0:0:0:
176,58,142281,6,0,L|167:151,1,93.5,2|0,0:0|0:0,0:0:0:0:
345,221,142512,2,0,L|355:129,1,93.5,8|0,0:0|0:0,0:0:0:0:
257,188,142743,6,0,L|248:281,1,93.5,2|0,0:0|0:0,0:0:0:0:
426,351,142974,2,0,L|435:258,1,93.5,8|0,0:0|0:0,0:0:0:0:
203,348,143204,6,0,P|239:361|326:297,1,140.25,2|0,0:0|0:0,0:0:0:0:
435,258,143435,6,0,P|398:267|316:196,1,126.224996147919,8|0,0:0|0:0,0:0:0:0:
257,188,143666,6,0,P|292:194|361:121,1,112.2,2|0,0:0|0:0,0:0:0:0:
419,136,143897,6,0,P|388:138|333:70,1,98.1749970039369,8|0,0:0|0:0,0:0:0:0:
257,188,144127,6,0,L|275:1,1,187,2|8,0:0|0:0,0:0:0:0:
435,258,144474,1,0,0:0:0:0:
435,258,144589,2,0,L|453:71,1,187,2|8,0:0|0:0,0:0:0:0:
149,337,144935,1,0,0:0:0:0:
149,337,145051,6,0,L|159:232,1,93.5,2|0,0:0|0:0,0:0:0:0:
353,153,145281,2,0,L|342:257,1,93.5,8|0,0:0|0:0,0:0:0:0:
169,318,145512,6,0,L|181:199,1,93.5,2|0,0:0|0:0,0:0:0:0:
332,171,145742,2,0,L|319:300,1,93.5,8|0,0:0|0:0,0:0:0:0:
95,131,145974,6,0,L|104:28,1,93.5,2|0,0:0|0:0,0:0:0:0:
247,76,146204,2,0,L|237:169,1,93.5,8|0,0:0|0:0,0:0:0:0:
166,150,146435,2,0,L|176:57,1,93.5,2|0,0:0|0:0,0:0:0:0:
318,95,146666,2,0,L|308:188,1,93.5,8|0,0:0|0:0,0:0:0:0:
475,319,146897,6,0,L|465:216,1,93.5,2|0,0:0|0:0,0:0:0:0:
322,263,147127,2,0,L|332:357,1,93.5,8|0,0:0|0:0,0:0:0:0:
403,338,147358,2,0,L|394:245,1,93.5,2|0,0:0|0:0,0:0:0:0:
252,283,147589,2,0,L|261:376,1,93.5,8|0,0:0|0:0,0:0:0:0:
38,368,147820,6,0,L|140:358,1,93.5,2|0,0:0|0:0,0:0:0:0:
93,215,148050,2,0,L|-1:224,1,93.5,8|0,0:0|0:0,0:0:0:0:
247,203,148281,1,2,0:0:0:0:
186,101,148397,1,8,0:0:0:0:
365,200,148512,1,8,0:0:0:0:
189,304,148627,1,8,0:0:0:0:
237,20,148743,5,2,0:0:0:0:
95,132,148858,1,2,0:0:0:0:
95,132,148916,1,2,0:0:0:0:
95,132,148974,1,10,0:0:0:0:
276,126,149089,1,0,0:0:0:0:
125,24,149204,5,2,0:0:0:0:
189,196,149320,1,8,0:0:0:0:
361,132,149435,1,8,0:0:0:0:
425,304,149551,1,8,0:0:0:0:
330,357,149666,6,0,P|240:297|79:327,1,280.5,6|0,0:0|0:0,0:0:0:0:
237,168,150589,2,0,P|327:108|488:138,1,280.5,2|0,0:0|0:0,0:0:0:0:
401,288,151512,2,0,L|122:257,1,280.5,2|0,0:0|0:0,0:0:0:0:
44,309,152320,1,8,0:0:0:0:
44,309,152377,1,8,0:0:0:0:
44,309,152435,5,10,0:0:0:0:
44,197,152551,1,2,0:0:0:0:
151,162,152666,1,8,0:0:0:0:
216,253,152781,1,2,0:0:0:0:
281,344,152897,1,2,0:0:0:0:
388,309,153012,1,2,0:0:0:0:
388,197,153128,1,8,0:0:0:0:
281,162,153243,1,2,0:0:0:0:
216,253,153358,6,0,L|503:229,1,280.5,6|0,0:0|0:0,0:0:0:0:
296,131,154281,2,0,L|9:155,1,280.5,2|0,0:0|0:0,0:0:0:0:
148,338,155204,2,0,L|428:315,1,280.5,2|0,0:0|0:0,0:0:0:0:
492,225,156127,5,10,0:0:0:0:
492,225,156185,1,8,0:0:0:0:
492,225,156243,1,8,0:0:0:0:
320,168,156358,1,8,0:0:0:0:
427,315,156474,1,8,0:0:0:0:
427,315,156531,1,8,0:0:0:0:
427,315,156589,1,10,0:0:0:0:
427,133,156704,1,8,0:0:0:0:
320,280,156820,1,10,0:0:0:0:
492,225,156935,1,8,0:0:0:0:
320,280,157051,6,0,B|194:258|174:358|44:320,1,280.5,6|0,0:0|0:0,0:0:0:0:
0,138,157974,2,0,P|88:81|186:211,1,280.5,2|0,0:0|0:0,0:0:0:0:
281,344,158897,2,0,L|312:65,1,280.5,2|0,0:0|0:0,0:0:0:0:
419,30,159704,1,8,0:0:0:0:
419,30,159762,1,8,0:0:0:0:
419,30,159820,5,10,0:0:0:0:
484,121,159935,1,8,0:0:0:0:
419,212,160051,1,8,0:0:0:0:
312,177,160166,1,8,0:0:0:0:
312,65,160281,1,10,0:0:0:0:
205,30,160397,1,8,0:0:0:0:
140,121,160513,1,8,0:0:0:0:
206,210,160627,1,8,0:0:0:0:
312,65,160743,6,0,L|418:48,1,93.5,6|0,0:0|0:0,0:0:0:0:
484,121,160974,2,0,L|378:138,1,93.5,8|0,0:0|0:0,0:0:0:0:
206,210,161204,6,0,L|312:193,1,93.5,2|0,0:0|0:0,0:0:0:0:
378,266,161435,2,0,L|272:283,1,93.5,8|0,0:0|0:0,0:0:0:0:
44,197,161666,6,0,L|33:289,1,93.5,2|0,0:0|0:0,0:0:0:0:
116,362,161897,2,0,L|126:269,1,93.5,8|0,0:0|0:0,0:0:0:0:
216,117,162127,6,0,L|205:209,1,93.5,2|0,0:0|0:0,0:0:0:0:
288,282,162358,2,0,L|298:189,1,93.5,8|0,0:0|0:0,0:0:0:0:
388,124,162589,6,0,P|436:122|482:167,1,93.5,2|0,0:0|0:0,0:0:0:0:
494,219,162820,2,0,P|446:221|400:176,1,93.5,8|0,0:0|0:0,0:0:0:0:
496,64,163051,2,0,P|498:110|472:148,1,93.5,2|0,0:0|0:0,0:0:0:0:
386,278,163281,2,0,P|383:232|410:194,1,93.5,8|0,0:0|0:0,0:0:0:0:
511,346,163512,6,0,L|397:359,1,93.5,2|0,0:0|0:0,0:0:0:0:
195,271,163743,2,0,L|287:281,1,93.5,8|0,0:0|0:0,0:0:0:0:
410,194,163974,6,0,L|296:207,1,93.5,2|0,0:0|0:0,0:0:0:0:
94,119,164205,2,0,L|186:129,1,93.5,8|0,0:0|0:0,0:0:0:0:
440,44,164435,6,0,P|407:76|401:122,1,93.5,2|0,0:0|0:0,0:0:0:0:
458,266,164666,2,0,P|445:221|409:193,1,93.5,8|0,0:0|0:0,0:0:0:0:
255,171,164897,2,0,P|299:182|342:164,1,93.5,2|0,0:0|0:0,0:0:0:0:
508,108,165127,1,8,0:0:0:0:
494,219,165243,1,8,0:0:0:0:
494,219,165301,1,8,0:0:0:0:
494,219,165358,6,0,L|482:321,1,93.5,2|0,0:0|0:0,0:0:0:0:
341,164,165589,1,10,0:0:0:0:
341,164,165704,1,2,0:0:0:0:
306,264,165820,5,10,0:0:0:0:
271,234,165877,1,10,0:0:0:0:
225,232,165935,1,2,0:0:0:0:
188,258,165993,1,2,0:0:0:0:
176,303,166050,1,10,0:0:0:0:
164,348,166108,1,10,0:0:0:0:
127,374,166166,1,10,0:0:0:0:
81,372,166224,1,10,0:0:0:0:
46,343,166281,6,0,P|47:239|141:235,1,187,6|8,0:0|0:0,0:0:0:0:
225,232,166627,1,0,0:0:0:0:
225,232,166743,2,0,L|257:25,1,187,2|8,0:0|0:0,0:0:0:0:
150,1,167089,1,0,0:0:0:0:
150,1,167204,6,0,P|137:59|160:95,1,93.5,2|0,0:0|0:0,0:0:0:0:
235,165,167435,2,0,L|379:150,1,140.25,8|0,0:0|0:0,0:0:0:0:
426,172,167666,2,0,L|311:183,1,93.5,2|0,0:0|0:0,0:0:0:0:
223,301,167897,2,0,L|337:289,1,93.5,8|0,0:0|0:0,0:0:0:0:
476,116,168127,6,0,P|416:98|365:216,1,187,2|8,0:0|0:0,0:0:0:0:
425,314,168474,2,0,P|470:271|393:167,1,187,2|2,0:0|0:0,0:0:0:0:
280,170,168820,2,0,P|286:218|342:259,1,93.5,8|0,0:0|0:0,0:0:0:0:
352,356,169051,6,0,L|239:341,1,93.5,2|0,0:0|0:0,0:0:0:0:
122,225,169281,2,0,L|215:238,1,93.5,8|0,0:0|0:0,0:0:0:0:
425,171,169512,2,0,L|332:158,1,93.5,2|0,0:0|0:0,0:0:0:0:
200,91,169743,1,10,0:0:0:0:
203,126,169800,1,2,0:0:0:0:
206,163,169858,1,2,0:0:0:0:
211,201,169916,1,2,0:0:0:0:
215,238,169974,6,0,P|173:305|43:277,1,187,2|8,0:0|0:0,0:0:0:0:
29,212,170320,1,0,0:0:0:0:
29,212,170435,2,0,L|57:7,1,187,2|8,0:0|0:0,0:0:0:0:
127,111,170781,1,0,0:0:0:0:
127,111,170897,6,0,P|172:147|220:138,1,93.5,2|0,0:0|0:0,0:0:0:0:
389,111,171127,2,0,P|315:119|279:171,1,140.25,8|0,0:0|0:0,0:0:0:0:
264,184,171358,2,0,P|268:220|279:296,1,93.5,2|0,0:0|0:0,0:0:0:0:
470,358,171589,2,0,P|465:321|455:246,1,93.5,8|0,0:0|0:0,0:0:0:0:
508,108,171820,6,0,B|432:101|432:101|411:107|411:107|316:99,1,187,2|8,0:0|0:0,0:0:0:0:
214,201,172166,1,0,0:0:0:0:
214,201,172281,2,0,B|289:207|289:207|310:201|310:201|405:209,1,187,2|8,0:0|0:0,0:0:0:0:
223,301,172628,1,0,0:0:0:0:
223,301,172743,2,0,L|83:288,1,140.25,2|0,0:0|0:0,0:0:0:0:
59,302,172974,2,0,L|152:310,1,93.5,8|0,0:0|0:0,0:0:0:0:
329,295,173204,2,0,P|332:355|307:389,1,93.5,2|0,0:0|0:0,0:0:0:0:
264,186,173435,2,0,P|261:126|286:92,1,93.5,8|0,0:0|0:0,0:0:0:0:
170,178,173666,6,0,B|75:177|99:249|4:249,1,187,2|8,0:0|0:0,0:0:0:0:
203,99,174012,1,0,0:0:0:0:
203,99,174127,2,0,B|297:99|273:27|368:27,1,187,2|8,0:0|0:0,0:0:0:0:
484,72,174474,1,0,0:0:0:0:
484,72,174589,6,0,P|475:133|458:257,1,187,2|8,0:0|0:0,0:0:0:0:
361,315,174935,1,0,0:0:0:0:
361,315,175051,2,0,P|355:274|348:222,1,93.5,2|0,0:0|0:0,0:0:0:0:
249,292,175281,2,0,P|254:332|262:385,1,93.5,8|0,0:0|0:0,0:0:0:0:
398,152,175512,6,0,P|312:207|229:175,1,187,2|8,0:0|0:0,0:0:0:0:
164,280,175858,1,0,0:0:0:0:
164,280,175974,2,0,P|90:226|3:249,1,187,2|8,0:0|0:0,0:0:0:0:
237,182,176320,1,0,0:0:0:0:
237,182,176435,6,0,B|229:94|283:97|266:-7,1,187,2|8,0:0|0:0,0:0:0:0:
151,40,176781,1,0,0:0:0:0:
0,156,176897,2,0,L|93:149,1,93.5,2|0,0:0|0:0,0:0:0:0:
164,280,177127,2,0,L|62:286,1,93.5,8|0,0:0|0:0,0:0:0:0:
208,145,177358,5,6,0:0:0:0:
242,59,177474,1,0,0:0:0:0:
334,63,177589,1,8,0:0:0:0:
358,154,177704,1,0,0:0:0:0:
281,204,177820,1,2,0:0:0:0:
208,145,177935,1,0,0:0:0:0:
129,196,178051,1,8,0:0:0:0:
153,286,178166,1,0,0:0:0:0:
246,290,178281,6,0,L|235:384,1,93.5,2|0,0:0|0:0,0:0:0:0:
142,378,178512,2,0,L|153:286,1,93.5,8|0,0:0|0:0,0:0:0:0:
139,103,178743,2,0,L|128:197,1,93.5,2|0,0:0|0:0,0:0:0:0:
35,191,178974,2,0,L|45:98,1,93.5,8|0,0:0|0:0,0:0:0:0:
139,103,179204,6,0,P|186:128|228:120,1,93.5,2|0,0:0|0:0,0:0:0:0:
362,179,179435,2,0,P|316:174|277:198,1,93.5,8|0,0:0|0:0,0:0:0:0:
392,365,179666,5,2,0:0:0:0:
464,306,179781,1,8,0:0:0:0:
464,306,179839,1,8,0:0:0:0:
464,306,179897,1,8,0:0:0:0:
378,270,180012,1,8,0:0:0:0:
450,211,180127,5,2,0:0:0:0:
362,179,180243,1,8,0:0:0:0:
362,179,180301,1,8,0:0:0:0:
362,179,180358,2,0,L|257:164,1,93.5,8|0,0:0|0:0,0:0:0:0:
160,37,180589,5,2,0:0:0:0:
105,123,180704,1,8,0:0:0:0:
269,165,180820,1,8,0:0:0:0:
259,62,180935,1,8,0:0:0:0:
172,203,181051,6,0,P|205:334|201:384,1,187,6|8,0:0|0:0,0:0:0:0:
121,328,181397,1,0,0:0:0:0:
37,358,181512,2,0,P|4:227|8:177,1,187,2|8,0:0|0:0,0:0:0:0:
58,98,181858,1,0,0:0:0:0:
58,98,181974,6,0,P|104:96|150:106,1,93.5,2|0,0:0|0:0,0:0:0:0:
381,158,182204,2,0,P|334:191|224:165,1,140.25,8|0,0:0|0:0,0:0:0:0:
214,161,182435,2,0,L|223:260,1,93.5,2|0,0:0|0:0,0:0:0:0:
184,337,182666,1,8,0:0:0:0:
278,329,182781,6,0,B|383:304|353:370|477:341,1,187,2|2,0:0|0:0,0:0:0:0:
505,267,183127,2,0,P|488:184|474:75,1,187,8|2,0:0|0:0,0:0:0:0:
403,21,183474,2,0,P|382:61|397:133,1,93.5,0|8,0:0|0:0,0:0:0:0:
331,198,183704,1,0,0:0:0:0:
287,106,183820,6,0,P|225:59|118:89,1,187,2|8,0:0|0:0,0:0:0:0:
90,168,184166,1,0,0:0:0:0:
29,98,184281,2,0,P|36:44|36:0,1,93.5,2|0,0:0|0:0,0:0:0:0:
183,152,184512,2,0,P|176:206|176:250,1,93.5,8|0,0:0|0:0,0:0:0:0:
134,324,184743,6,0,P|183:295|325:315,1,187,2|8,0:0|0:0,0:0:0:0:
370,231,185089,1,0,0:0:0:0:
357,132,185204,2,0,P|308:161|166:141,1,187,2|8,0:0|0:0,0:0:0:0:
102,104,185551,1,0,0:0:0:0:
102,104,185666,6,0,L|89:-11,1,93.5,2|0,0:0|0:0,0:0:0:0:
103,202,185897,2,0,P|73:251|84:354,1,140.25,8|0,0:0|0:0,0:0:0:0:
101,371,186127,2,0,L|213:361,1,93.5,2|0,0:0|0:0,0:0:0:0:
281,384,186358,1,8,0:0:0:0:
254,295,186474,6,0,P|248:229|231:92,1,187,2|2,0:0|0:0,0:0:0:0:
274,29,186820,2,0,P|327:8|437:76,1,187,8|2,0:0|0:0,0:0:0:0:
509,130,187166,1,0,0:0:0:0:
422,165,187281,2,0,P|381:187|321:225,1,93.5,8|0,0:0|0:0,0:0:0:0:
268,273,187512,6,0,P|209:225|94:253,1,187,2|8,0:0|0:0,0:0:0:0:
25,205,187858,1,0,0:0:0:0:
36,296,187974,2,0,L|43:393,1,93.5,2|0,0:0|0:0,0:0:0:0:
95,151,188204,2,0,L|88:54,1,93.5,8|0,0:0|0:0,0:0:0:0:
164,6,188435,6,0,P|233:5|369:38,1,187,2|8,0:0|0:0,0:0:0:0:
438,57,188781,1,0,0:0:0:0:
367,123,188897,2,0,P|298:124|162:91,1,187,2|8,0:0|0:0,0:0:0:0:
95,151,189243,1,0,0:0:0:0:
95,151,189358,6,0,L|106:252,1,93.5,2|0,0:0|0:0,0:0:0:0:
54,321,189589,2,0,P|109:298|219:381,1,187,8|2,0:0|0:0,0:0:0:0:
285,305,189935,1,0,0:0:0:0:
370,338,190051,2,0,P|419:338|462:310,1,93.5,8|0,0:0|0:0,0:0:0:0:
497,235,190281,6,0,P|485:171|468:44,1,187,2|8,0:0|0:0,0:0:0:0:
387,10,190627,1,0,0:0:0:0:
387,10,190743,2,0,L|377:109,1,93.5,2|0,0:0|0:0,0:0:0:0:
294,258,190974,2,0,L|304:159,1,93.5,8|0,0:0|0:0,0:0:0:0:
291,73,191204,6,0,P|239:22|128:42,1,187,2|8,0:0|0:0,0:0:0:0:
110,126,191551,1,0,0:0:0:0:
161,202,191666,2,0,P|209:193|250:142,1,93.5,2|0,0:0|0:0,0:0:0:0:
133,37,191897,2,0,P|83:37|30:77,1,93.5,8|0,0:0|0:0,0:0:0:0:
13,160,192127,6,0,B|45:242|165:276|256:192|256:192|347:108|467:142|499:224,1,561,2|8,0:0|0:0,0:0:0:0:
373,263,193051,1,2,0:0:0:0:
13,224,193974,6,0,B|45:142|165:108|256:192|256:192|347:276|467:242|499:160,1,561,2|8,0:0|0:0,0:0:0:0:
373,121,194898,1,2,0:0:0:0:
139,263,195127,1,8,0:0:0:0:
343,342,195358,1,2,0:0:0:0:
373,121,195589,2,8,L|359:5,1,93.5
232,190,195820,6,0,P|228:235|251:275,1,93.5,2|10,0:0|0:0,0:0:0:0:
447,186,196051,2,0,P|470:147|461:88,1,93.5,10|10,0:0|0:0,0:0:0:0:
327,213,196281,1,10,0:0:0:0:
512,262,196397,5,10,0:0:0:0:
496,271,196454,1,2,0:0:0:0:
483,284,196512,1,10,0:0:0:0:
472,299,196570,1,10,0:0:0:0:
463,316,196627,1,10,0:0:0:0:
456,335,196685,1,10,0:0:0:0:
452,358,196743,5,10,0:0:0:0:
426,322,196801,1,10,0:0:0:0:
390,303,196858,1,10,0:0:0:0:
347,295,196916,1,10,0:0:0:0:
303,298,196974,1,10,0:0:0:0:
269,319,197031,1,10,0:0:0:0:
240,350,197089,1,10,0:0:0:0:
199,361,197147,1,10,0:0:0:0:
151,345,197204,5,10,0:0:0:0:
112,305,197262,1,10,0:0:0:0:
104,251,197320,1,10,0:0:0:0:
127,202,197377,1,10,0:0:0:0:
172,171,197435,1,10,0:0:0:0:
226,173,197493,1,10,0:0:0:0:
267,207,197551,1,10,0:0:0:0:
319,215,197608,1,10,0:0:0:0:
364,185,197666,6,0,P|371:142|384:-12,1,187,6|8,0:0|0:0,0:0:0:0:
293,44,198012,1,0,0:0:0:0:
464,131,198127,2,0,P|457:174|444:328,1,187,2|8,0:0|0:0,0:0:0:0:
364,185,198473,1,0,0:0:0:0:
249,278,198589,6,0,P|198:265|118:255,1,93.5,2|0,0:0|0:0,0:0:0:0:
30,99,198820,1,8,0:0:0:0:
30,99,199051,2,0,P|76:91|121:79,1,93.5,2|0,0:0|0:0,0:0:0:0:
199,27,199281,1,8,0:0:0:0:
113,175,199396,1,0,0:0:0:0:
355,186,199512,6,0,P|284:122|191:131,1,187,2|8,0:0|0:0,0:0:0:0:
113,175,199858,1,0,0:0:0:0:
180,321,199974,2,0,P|188:279|192:191,1,93.5,2|0,0:0|0:0,0:0:0:0:
16,163,200204,2,0,P|8:205|4:293,1,93.5,8|0,0:0|0:0,0:0:0:0:
86,315,200435,5,2,0:0:0:0:
192,228,200551,1,0,0:0:0:0:
71,107,200666,2,0,B|57:79|57:79|74:12,1,93.5,8|0,0:0|0:0,0:0:0:0:
268,190,200897,2,0,B|282:218|282:218|265:285,1,93.5,2|0,0:0|0:0,0:0:0:0:
86,200,201127,2,0,L|187:185,1,93.5,8|0,0:0|0:0,0:0:0:0:
512,85,201358,6,0,P|428:94|348:27,1,187,2|8,0:0|0:0,0:0:0:0:
247,2,201704,1,0,0:0:0:0:
190,93,201820,2,0,P|185:138|171:219,1,93.5,2|0,0:0|0:0,0:0:0:0:
357,153,202051,2,0,P|364:198|384:277,1,93.5,8|0,0:0|0:0,0:0:0:0:
427,341,202281,5,2,0:0:0:0:
449,182,202397,1,0,0:0:0:0:
287,258,202512,2,0,L|190:278,1,93.5,8|0,0:0|0:0,0:0:0:0:
10,123,202743,2,0,B|78:138|78:138|103:170|103:170|182:186,1,187,2|8,0:0|0:0,0:0:0:0:
249,122,203089,1,0,0:0:0:0:
173,0,203204,6,0,P|165:46|162:92,1,93.5,2|0,0:0|0:0,0:0:0:0:
327,194,203435,2,0,P|334:147|337:101,1,93.5,8|0,0:0|0:0,0:0:0:0:
78,274,203666,2,0,P|159:213|264:257,1,187,2|8,0:0|0:0,0:0:0:0:
297,307,204012,1,0,0:0:0:0:
379,366,204127,6,0,P|387:315|390:269,1,93.5,2|0,0:0|0:0,0:0:0:0:
327,194,204358,1,8,0:0:0:0:
357,100,204474,1,0,0:0:0:0:
512,159,204589,6,0,L|420:176,1,93.5,2|0,0:0|0:0,0:0:0:0:
268,121,204820,1,8,0:0:0:0:
385,12,204935,1,0,0:0:0:0:
357,100,205051,6,0,L|160:75,1,187,2|8,0:0|0:0,0:0:0:0:
1,107,205397,1,0,0:0:0:0:
78,143,205512,2,0,B|94:114|94:114|74:32,1,93.5,2|0,0:0|0:0,0:0:0:0:
1,291,205743,2,0,B|-15:320|-15:320|5:402,1,93.5,8|0,0:0|0:0,0:0:0:0:
130,229,205974,6,0,L|7:215,1,93.5,2|0,0:0|0:0,0:0:0:0:
183,327,206204,1,8,0:0:0:0:
234,177,206320,1,0,0:0:0:0:
286,277,206435,2,0,P|374:289|468:223,1,187,2|8,0:0|0:0,0:0:0:0:
425,123,206781,1,0,0:0:0:0:
322,180,206897,6,0,P|224:170|135:140,1,187,2|8,0:0|0:0,0:0:0:0:
140,142,207358,2,0,P|150:195|154:258,1,93.5,2|0,0:0|0:0,0:0:0:0:
323,370,207589,2,0,P|313:317|309:254,1,93.5,8|0,0:0|0:0,0:0:0:0:
62,268,207820,6,0,P|127:324|222:300,1,187,2|8,0:0|0:0,0:0:0:0:
243,204,208166,1,0,0:0:0:0:
309,277,208281,2,0,P|365:282|426:290,1,93.5,2|0,0:0|0:0,0:0:0:0:
461,105,208512,2,0,P|404:99|344:92,1,93.5,8|0,0:0|0:0,0:0:0:0:
481,338,208743,6,0,P|492:262|383:195,2,187,2|8|2,0:0|0:0|0:0,0:0:0:0:
323,370,209320,1,0,0:0:0:0:
309,277,209435,6,0,L|289:153,1,93.5,8|0,0:0|0:0,0:0:0:0:
145,71,209666,2,0,L|262:115,1,93.5,2|0,0:0|0:0,0:0:0:0:
401,28,209897,2,0,L|303:107,1,93.5,8|0,0:0|0:0,0:0:0:0:
206,195,210127,5,2,0:0:0:0:
263,16,210243,1,0,0:0:0:0:
380,159,210358,1,8,0:0:0:0:
380,159,210589,6,0,P|333:151|288:141,1,93.5,2|0,0:0|0:0,0:0:0:0:
197,96,210820,1,8,0:0:0:0:
116,158,210935,1,0,0:0:0:0:
12,43,211051,6,0,P|58:50|103:60,1,93.5,2|0,0:0|0:0,0:0:0:0:
206,195,211281,1,8,0:0:0:0:
278,43,211397,1,0,0:0:0:0:
448,187,211512,6,0,P|357:198|287:140,1,187,2|8,0:0|0:0,0:0:0:0:
197,96,211858,1,0,0:0:0:0:
206,195,211974,5,10,0:0:0:0:
353,85,212089,1,0,0:0:0:0:
234,360,212204,1,8,0:0:0:0:
116,158,212320,1,8,0:0:0:0:
320,269,212435,6,0,P|392:256|515:238,1,187,6|8,0:0|0:0,0:0:0:0:
456,334,212781,1,0,0:0:0:0:
354,166,212897,2,0,P|282:179|159:197,1,187,2|8,0:0|0:0,0:0:0:0:
65,238,213243,1,0,0:0:0:0:
129,370,213358,6,0,P|139:303|154:247,1,93.5,2|0,0:0|0:0,0:0:0:0:
81,67,213589,1,8,0:0:0:0:
81,67,213820,2,0,P|90:112|96:159,1,93.5,2|0,0:0|0:0,0:0:0:0:
60,324,214051,1,8,0:0:0:0:
224,263,214166,1,0,0:0:0:0:
65,238,214281,6,0,L|-38:229,1,93.5,2|0,0:0|0:0,0:0:0:0:
130,367,214512,1,8,0:0:0:0:
304,314,214628,1,0,0:0:0:0:
224,263,214743,2,0,B|206:293|206:293|221:349,1,93.5,2|0,0:0|0:0,0:0:0:0:
366,147,214974,2,0,B|384:117|384:117|368:60,1,93.5,8|0,0:0|0:0,0:0:0:0:
204,176,215204,5,2,0:0:0:0:
361,243,215320,1,0,0:0:0:0:
294,103,215435,2,0,L|287:201,1,93.5,8|0,0:0|0:0,0:0:0:0:
50,91,215666,2,0,P|102:47|225:55,1,187,2|8,0:0|0:0,0:0:0:0:
432,36,216012,5,8,0:0:0:0:
432,36,216070,1,8,0:0:0:0:
432,36,216127,2,0,P|383:29|310:9,1,93.5,2|0,0:0|0:0,0:0:0:0:
393,222,216358,2,0,P|426:189|462:159,1,93.5,8|0,0:0|0:0,0:0:0:0:
295,134,216589,2,0,P|218:137|115:203,1,187,2|8,0:0|0:0,0:0:0:0:
48,248,216935,1,0,0:0:0:0:
18,62,217051,6,0,L|41:158,1,93.5,2|0,0:0|0:0,0:0:0:0:
131,296,217281,2,0,B|143:228|143:228|125:193|125:193|141:100,1,187,8|2,0:0|0:0,0:0:0:0:
279,110,217627,2,0,L|216:186,1,93.5,0|8,0:0|0:0,0:0:0:0:
131,296,217858,1,0,0:0:0:0:
194,368,217974,6,0,P|223:323|219:266,1,93.5,2|0,0:0|0:0,0:0:0:0:
48,248,218204,2,0,P|35:292|46:337,1,93.5,8|0,0:0|0:0,0:0:0:0:
274,225,218435,6,0,L|299:115,1,93.5,2|0,0:0|0:0,0:0:0:0:
2,80,218666,2,0,L|22:171,1,93.5,8|0,0:0|0:0,0:0:0:0:
254,53,218897,6,0,P|224:17|104:42,1,140.25,2|0,0:0|0:0,0:0:0:0:
195,199,219127,6,0,P|238:181|266:111,1,98.1749970039369,8|0,0:0|0:0,0:0:0:0:
82,73,219358,6,0,P|76:119|145:189,1,126.224996147919,2|0,2:0|2:0,2:0:0:0:
171,134,219589,6,0,L|182:63,1,56.0999982879639,8|0,0:0|0:0,0:0:0:0:
327,237,219820,6,0,P|229:220|153:292,1,187,2|8,0:0|0:0,0:0:0:0:
0,315,220166,1,0,0:0:0:0:
71,260,220281,2,0,B|87:291|87:291|74:358,1,93.5,2|0,0:0|0:0,0:0:0:0:
96,99,220512,2,0,B|80:68|80:68|93:1,1,93.5,8|0,0:0|0:0,0:0:0:0:
121,182,220743,6,0,L|9:170,1,93.5,2|0,0:0|0:0,0:0:0:0:
161,53,220974,1,8,0:0:0:0:
242,151,221089,1,0,0:0:0:0:
281,9,221204,2,0,P|379:-2|471:71,1,187,2|8,0:0|0:0,0:0:0:0:
389,306,221551,5,8,0:0:0:0:
389,306,221608,1,8,0:0:0:0:
389,306,221666,2,0,P|370:262|376:195,1,93.5,2|0,0:0|0:0,0:0:0:0:
427,130,221897,2,0,L|234:151,1,187,8|2,0:0|0:0,0:0:0:0:
120,283,222243,1,0,0:0:0:0:
210,299,222358,6,0,P|200:259|163:181,1,93.5,8|0,0:0|0:0,0:0:0:0:
267,2,222589,2,0,P|237:30|188:101,1,93.5,2|0,0:0|0:0,0:0:0:0:
0,103,222820,2,0,P|39:114|125:121,1,93.5,8|0,0:0|0:0,0:0:0:0:
301,317,223051,6,0,P|261:305|175:298,1,93.5,2|0,0:0|0:0,0:0:0:0:
122,344,223281,1,8,0:0:0:0:
180,210,223397,1,0,0:0:0:0:
323,244,223512,6,0,P|384:252|484:175,1,187,2|8,0:0|0:0,0:0:0:0:
425,99,223858,2,0,P|364:91|264:168,1,187,2|2,0:0|0:0,0:0:0:0:
180,210,224204,2,0,L|68:197,1,93.5,8|0,0:0|0:0,0:0:0:0:
5,166,224435,5,2,0:0:0:0:
64,286,224551,1,0,0:0:0:0:
154,124,224666,2,0,B|171:92|171:92|154:13,1,93.5,8|0,0:0|0:0,0:0:0:0:
84,78,224897,5,2,0:0:0:0:
241,118,225012,1,0,0:0:0:0:
84,78,225127,2,0,L|-13:89,1,93.5,8|0,0:0|0:0,0:0:0:0:
149,260,225358,6,0,B|251:234|212:312|352:265,1,187,2|8,0:0|0:0,0:0:0:0:
448,184,225704,2,0,B|324:153|324:153|310:177|284:198,1,187,2|2,0:0|0:0,0:0:0:0:
406,360,226051,2,0,P|412:311|418:257,1,93.5,8|0,0:0|0:0,0:0:0:0:
380,80,226281,1,2,0:0:0:0:
380,80,226512,5,8,0:0:0:0:
502,257,226627,1,2,0:0:0:0:
480,115,226743,5,2,0:0:0:0:
396,231,226858,1,8,0:0:0:0:
485,129,226974,5,8,0:0:0:0:
393,213,227089,1,8,0:0:0:0:
439,171,227204,6,0,L|296:157,1,140.25,2|2,0:0|0:0,0:0:0:0:
299,157,228588,6,0,P|275:197|283:252,1,93.5,2|0,0:0|0:0,0:0:0:0:
422,93,229280,2,0,P|428:47|407:6,1,93.5,2|0,0:0|0:0,0:0:0:0:
324,0,229973,1,2,0:0:0:0:
238,105,230204,5,0,0:0:0:0:
172,136,230434,1,0,0:0:0:0:
180,63,230665,1,0,0:0:0:0:
250,215,230896,6,0,L|231:364,1,140.25,2|2,0:0|0:0,0:0:0:0:
232,354,232280,6,0,L|125:371,1,93.5
289,280,232973,2,0,L|396:297,1,93.5,2|0,0:0|0:0,0:0:0:0:
212,226,233665,1,2,0:0:0:0:
356,119,233896,5,0,0:0:0:0:
304,62,234127,1,0,0:0:0:0:
231,74,234357,1,0,0:0:0:0:
73,213,234588,6,0,L|216:227,1,140.25,2|2,0:0|0:0,0:0:0:0:
213,227,235973,6,0,P|237:187|229:132,1,93.5,2|0,0:0|0:0,0:0:0:0:
90,291,236665,2,0,P|83:336|107:379,1,93.5,2|0,0:0|0:0,0:0:0:0:
209,330,237357,6,0,L|147:318,1,46.75,2|0,0:0|0:0,0:0:0:0:
122,166,237819,1,0,0:0:0:0:
303,228,238050,1,0,0:0:0:0:
198,241,238280,6,0,P|161:169|186:107,1,140.25,2|0,0:0|0:0,0:0:0:0:
340,37,239204,5,0,0:0:0:0:
402,74,239434,1,0,0:0:0:0:
470,63,239665,1,2,0:0:0:0:
427,182,239896,5,0,0:0:0:0:
497,206,240127,1,0,0:0:0:0:
362,265,240357,5,2,0:0:0:0:
417,309,240588,1,0,0:0:0:0:
429,379,240819,1,0,0:0:0:0:
256,224,241050,5,2,0:0:0:0:
219,285,241280,1,0,0:0:0:0:
184,198,241511,1,0,0:0:0:0:
162,327,241742,1,0,0:0:0:0:
110,203,241973,6,0,P|64:196|16:229,1,93.5,2|2,0:0|0:0,0:0:0:0:
140,135,242665,2,0,P|148:95|140:71,1,46.75,2|0,0:0|0:0,0:0:0:0:
96,37,243127,1,2,0:0:0:0:
75,103,243357,1,0,0:0:0:0:
215,150,243588,5,2,0:0:0:0:
322,47,243819,1,0,0:0:0:0:
396,39,244050,2,0,L|448:32,1,46.75,2|0,0:0|0:0,0:0:0:0:
497,144,244511,2,0,L|395:133,1,93.5,2|0,0:0|0:0,0:0:0:0:
335,257,245204,1,0,0:0:0:0:
363,327,245434,6,0,P|405:282|382:203,1,140.25,2|0,0:0|0:0,0:0:0:0:
265,264,246357,1,2,0:0:0:0:
210,314,246588,1,0,0:0:0:0:
140,294,246819,2,0,P|132:264|133:230,1,46.75,2|0,0:0|0:0,0:0:0:0:
91,67,247280,5,2,0:0:0:0:
166,57,247511,2,0,P|163:80|157:102,1,46.75,2|0,0:0|0:0,0:0:0:0:
132,178,247973,2,0,L|194:170,2,46.75
309,221,248665,1,2,0:0:0:0:
379,95,248896,1,0,0:0:0:0:
238,21,249127,6,0,P|228:61|228:79,1,46.75,2|0,0:0|0:0,0:0:0:0:
212,135,249588,1,0,0:0:0:0:
225,207,249819,1,2,0:0:0:0:
356,282,250050,6,0,P|366:242|366:224,1,46.75
382,168,250511,1,0,0:0:0:0:
464,93,250742,6,0,B|441:76|441:76|363:99,1,93.5,2|0,0:0|0:0,0:0:0:0:
310,194,251550,2,0,L|228:184,1,70.1250026750566
210,103,252247,1,0,0:0:0:0:
210,103,252702,6,0,L|141:111,1,70.1250026750566,2|0,0:0|0:0,0:0:0:0:
117,195,253506,1,2,0:0:0:0:
117,195,254095,6,0,L|36:184,1,70.1250026750566,2|2,0:0|0:0,0:0:0:0:
19,113,255580,1,2,0:0:0:0:
71,53,256480,6,0,P|126:48|182:100,1,122.718754681349,2|0,0:0|0:0,0:0:0:0:
211,259,257747,6,0,P|179:213|190:158,1,105.187504012585,2|0,0:0|0:0,0:0:0:0:
474,66,258892,6,0,P|433:121|242:116,1,271.734385365844,2|0,0:0|0:0,0:0:0:0:
210,216,263197,6,0,P|298:232|385:279,1,187,6|8,0:0|0:0,0:0:0:0:
456,330,263543,1,0,0:0:0:0:
465,242,263658,2,0,P|478:185|512:56,1,187,2|8,0:0|0:0,0:0:0:0:
425,84,264004,1,0,0:0:0:0:
368,19,264120,6,0,P|319:14|246:5,1,93.5,2|0,0:0|0:0,0:0:0:0:
280,139,264350,2,0,P|326:143|372:149,1,93.5,8|0,0:0|0:0,0:0:0:0:
197,57,264581,5,2,0:0:0:0:
121,35,264697,1,2,0:0:0:0:
50,67,264812,1,8,0:0:0:0:
21,139,264927,1,2,0:0:0:0:
37,213,265043,6,0,P|129:220|234:235,1,187,2|8,0:0|0:0,0:0:0:0:
314,216,265389,1,0,0:0:0:0:
283,308,265504,2,0,P|223:365|112:339,1,187,2|8,0:0|0:0,0:0:0:0:
57,295,265850,1,0,0:0:0:0:
142,255,265966,6,0,P|154:195|160:137,1,93.5,2|0,0:0|0:0,0:0:0:0:
52,120,266197,2,0,P|40:180|34:238,1,93.5,8|0,0:0|0:0,0:0:0:0:
217,109,266427,5,2,0:0:0:0:
297,102,266543,1,2,0:0:0:0:
368,138,266658,1,8,0:0:0:0:
406,207,266773,1,2,0:0:0:0:
404,283,266889,6,0,P|417:225|461:68,1,187,2|8,0:0|0:0,0:0:0:0:
503,22,267235,1,0,0:0:0:0:
411,13,267350,2,0,P|364:19|310:27,1,93.5,2|0,0:0|0:0,0:0:0:0:
237,75,267581,1,8,0:0:0:0:
169,6,267697,1,0,0:0:0:0:
148,102,267812,6,0,P|154:148|162:203,1,93.5,2|0,0:0|0:0,0:0:0:0:
333,216,268043,2,0,P|326:169|319:115,1,93.5,8|0,0:0|0:0,0:0:0:0:
63,146,268273,5,2,0:0:0:0:
11,206,268389,1,2,0:0:0:0:
2,283,268504,1,8,0:0:0:0:
36,352,268620,1,2,0:0:0:0:
107,381,268735,6,0,P|191:364|304:347,1,187,2|8,0:0|0:0,0:0:0:0:
370,299,269081,1,0,0:0:0:0:
333,216,269197,2,0,P|339:159|351:93,1,93.5,2|0,0:0|0:0,0:0:0:0:
288,44,269427,1,8,0:0:0:0:
368,2,269543,1,0,0:0:0:0:
512,90,269658,6,0,L|420:77,1,93.5,2|0,0:0|0:0,0:0:0:0:
173,113,269889,2,0,L|265:126,1,93.5,8|0,0:0|0:0,0:0:0:0:
381,222,270120,5,2,0:0:0:0:
306,244,270235,1,2,0:0:0:0:
232,267,270350,1,8,0:0:0:0:
158,289,270466,1,10,0:0:0:0:
154,280,270523,1,8,0:0:0:0:
150,272,270581,6,0,P|152:245|165:215,1,46.75,2|0,0:0|0:0,0:0:0:0:
136,76,270697,2,0,P|159:91|178:117,1,46.75,2|0,0:0|0:0,0:0:0:0:
318,154,270812,2,0,P|294:166|262:170,1,46.75,8|0,0:0|0:0,0:0:0:0:
103,158,270927,6,0,L|25:170,2,46.75,2|0|2,0:0|0:0|0:0,0:0:0:0:
407,33,271158,2,0,L|360:25,1,46.75,2|0,0:0|0:0,0:0:0:0:
216,97,271273,5,10,0:0:0:0:
221,91,271331,1,2,0:0:0:0:
227,87,271389,1,2,0:0:0:0:
235,86,271447,1,2,0:0:0:0:
243,87,271504,2,0,P|274:131|263:194,1,93.5,2|0,0:0|0:0,0:0:0:0:
389,311,271735,5,10,0:0:0:0:
367,268,271793,1,2,0:0:0:0:
377,221,271850,1,2,0:0:0:0:
417,190,271908,1,2,0:0:0:0:
466,194,271966,2,0,P|494:212|507:243,3,46.75,2|0|0|0,0:0|0:0|0:0|0:0,0:0:0:0:
439,260,272197,6,0,P|427:214|418:131,1,93.5,8|2,0:0|0:0,0:0:0:0:
436,94,272370,1,2,0:0:0:0:
441,88,272427,5,2,0:0:0:0:
391,121,272485,1,0,0:0:0:0:
334,118,272543,1,2,0:0:0:0:
285,90,272600,1,0,0:0:0:0:
262,39,272658,1,8,0:0:0:0:
219,3,272716,1,0,0:0:0:0:
163,0,272773,2,0,L|110:14,1,46.75,2|0,0:0|0:0,0:0:0:0:
13,60,272889,5,10,0:0:0:0:
49,87,272947,1,8,0:0:0:0:
61,128,273004,1,8,0:0:0:0:
53,174,273062,1,8,0:0:0:0:
26,207,273120,1,8,0:0:0:0:
13,249,273177,1,0,0:0:0:0:
21,291,273235,2,0,L|33:337,1,46.75,2|0,0:0|0:0,0:0:0:0:
126,380,273350,5,2,0:0:0:0:
162,383,273408,1,2,0:0:0:0:
194,367,273466,1,2,0:0:0:0:
213,339,273523,1,2,0:0:0:0:
242,320,273581,1,10,0:0:0:0:
277,322,273639,1,2,0:0:0:0:
307,345,273697,1,2,0:0:0:0:
343,352,273754,1,2,0:0:0:0:
375,334,273812,6,0,P|383:286|383:218,1,93.5,10|2,0:0|0:0,0:0:0:0:
380,221,273985,1,2,0:0:0:0:
370,203,274043,2,0,L|477:218,1,93.5,2|2,0:0|0:0,0:0:0:0:
263,211,274273,6,0,L|156:196,1,93.5,2|0,0:0|0:0,0:0:0:0:
103,234,274447,1,0,0:0:0:0:
103,234,274504,2,0,B|92:199|92:199|114:119,1,93.5,8|0,0:0|0:0,0:0:0:0:
315,46,274735,2,0,B|326:81|326:81|304:161,1,93.5,2|0,0:0|0:0,0:0:0:0:
248,83,274908,1,0,0:0:0:0:
248,83,274966,2,0,L|141:68,1,93.5,8|0,0:0|0:0,0:0:0:0:
18,156,275197,5,2,0:0:0:0:
115,326,275312,1,0,0:0:0:0:
115,326,275370,1,0,0:0:0:0:
115,326,275427,2,0,P|111:281|101:226,1,93.5,8|0,0:0|0:0,0:0:0:0:
218,50,275658,2,0,P|222:95|232:150,1,93.5,2|0,0:0|0:0,0:0:0:0:
307,291,275889,2,0,L|411:280,1,93.5,8|0,0:0|0:0,0:0:0:0:
471,313,276062,1,0,0:0:0:0:
471,313,276120,6,0,B|478:289|478:289|474:256,7,46.75,2|0|0|0|8|0|0|0,0:0|0:0|0:0|0:0|0:0|0:0|0:0|0:0,0:0:0:0:
372,161,276581,2,0,B|365:185|365:185|369:218,7,46.75,2|0|0|0|8|0|0|0,0:0|0:0|0:0|0:0|0:0|0:0|0:0|0:0,0:0:0:0:
446,195,277043,5,10,0:0:0:0:
234,69,277158,1,8,0:0:0:0:
307,291,277273,1,8,0:0:0:0:
495,131,277389,1,8,0:0:0:0:
327,42,277504,5,2,0:0:0:0:
321,85,277562,1,0,0:0:0:0:
303,124,277620,1,8,0:0:0:0:
271,153,277677,1,8,0:0:0:0:
231,167,277735,1,8,0:0:0:0:
188,170,277793,1,8,0:0:0:0:
147,161,277850,1,8,0:0:0:0:
108,142,277908,1,8,0:0:0:0:
80,111,277966,6,0,P|26:157|22:280,1,187,6|8,0:0|0:0,0:0:0:0:
84,330,278312,2,0,B|188:306|163:368|273:346,1,187,2|2,0:0|0:0,0:0:0:0:
351,312,278658,2,0,P|405:318|475:352,1,93.5,8|0,0:0|0:0,0:0:0:0:
277,257,278889,1,2,0:0:0:0:
277,257,279004,2,0,P|257:178|251:64,1,187,2|2,0:0|0:0,0:0:0:0:
321,3,279350,2,0,P|345:47|344:104,1,93.5,2|0,0:0|0:0,0:0:0:0:
178,142,279581,2,0,P|154:98|155:41,1,93.5,8|0,0:0|0:0,0:0:0:0:
250,72,279812,6,0,P|354:88|472:115,1,187,2|8,0:0|0:0,0:0:0:0:
452,198,280158,2,0,P|348:182|230:155,1,187,2|2,0:0|0:0,0:0:0:0:
208,235,280504,2,0,P|217:284|225:329,1,93.5,8|0,0:0|0:0,0:0:0:0:
125,215,280735,1,2,0:0:0:0:
125,215,280850,2,0,P|72:224|-13:122,1,187,2|2,0:0|0:0,0:0:0:0:
62,10,281197,2,0,P|69:52|67:110,1,93.5,2|0,0:0|0:0,0:0:0:0:
189,148,281427,2,0,P|187:101|194:55,1,93.5,8|0,0:0|0:0,0:0:0:0:
205,40,281600,1,0,0:0:0:0:
218,29,281658,6,0,P|303:43|413:60,1,187,2|8,0:0|0:0,0:0:0:0:
489,32,282004,2,0,P|524:69|499:203,1,187,2|2,0:0|0:0,0:0:0:0:
424,242,282350,2,0,P|416:191|412:130,1,93.5,8|0,0:0|0:0,0:0:0:0:
491,313,282581,1,2,0:0:0:0:
491,313,282697,2,0,P|427:279|296:283,1,187,2|2,0:0|0:0,0:0:0:0:
239,360,283043,2,0,P|230:291|217:234,1,93.5,2|0,0:0|0:0,0:0:0:0:
266,106,283273,2,0,P|275:175|288:232,1,93.5,8|0,0:0|0:0,0:0:0:0:
148,315,283504,6,0,P|91:273|-20:294,1,187,2|8,0:0|0:0,0:0:0:0:
162,217,283850,2,0,P|218:204|365:170,1,187,2|2,0:0|0:0,0:0:0:0:
95,87,284197,2,0,L|85:183,1,93.5,8|0,0:0|0:0,0:0:0:0:
61,358,284427,5,2,0:0:0:0:
61,358,284543,1,8,0:0:0:0:
227,288,284658,1,8,0:0:0:0:
227,288,284773,1,2,0:0:0:0:
159,375,284889,2,0,L|137:213,1,140.25,2|0,0:0|0:0,0:0:0:0:
216,73,285120,2,0,B|200:187|200:187|183:168|163:153,1,140.25,8|0,0:0|0:0,0:0:0:0:
121,113,285350,6,0,L|327:79,1,187,6|8,0:0|0:0,0:0:0:0:
377,144,285697,2,0,P|433:102|408:-9,1,187,2|2,0:0|0:0,0:0:0:0:
299,161,286043,2,0,L|285:253,1,93.5,8|0,0:0|0:0,0:0:0:0:
248,96,286273,1,2,0:0:0:0:
248,96,286389,2,0,P|202:52|83:71,1,187,2|2,0:0|0:0,0:0:0:0:
0,199,286735,2,0,P|51:195|108:172,1,93.5,2|0,0:0|0:0,0:0:0:0:
285,253,286966,2,8,P|239:229|196:185,1,93.5
160,122,287197,6,0,L|126:341,1,187,2|8,0:0|0:0,0:0:0:0:
196,371,287543,2,0,P|276:320|373:351,1,187,2|2,0:0|0:0,0:0:0:0:
430,284,287889,2,0,P|479:295|538:303,1,93.5,8|0,0:0|0:0,0:0:0:0:
349,246,288120,1,2,0:0:0:0:
349,246,288235,2,0,P|336:185|319:51,1,187,2|2,0:0|0:0,0:0:0:0:
382,5,288581,2,0,L|491:21,1,93.5,2|0,0:0|0:0,0:0:0:0:
245,108,288812,2,0,L|136:92,1,93.5,8|0,0:0|0:0,0:0:0:0:
139,86,288985,1,0,0:0:0:0:
124,78,289043,6,0,P|142:128|46:249,1,187,2|8,0:0|0:0,0:0:0:0:
29,315,289389,2,0,P|114:328|249:358,1,187,2|2,0:0|0:0,0:0:0:0:
301,334,289735,2,0,P|292:280|283:203,1,93.5,8|0,0:0|0:0,0:0:0:0:
195,82,289966,1,2,0:0:0:0:
195,82,290081,2,0,B|163:199|163:199|209:254,1,187,2|2,0:0|0:0,0:0:0:0:
365,164,290427,2,0,L|258:148,1,93.5,2|0,0:0|0:0,0:0:0:0:
375,307,290658,2,0,L|482:323,1,93.5,8|0,0:0|0:0,0:0:0:0:
505,239,290889,6,0,P|519:179|483:55,1,187,2|8,0:0|0:0,0:0:0:0:
408,9,291235,2,0,P|334:30|193:48,1,187,2|2,0:0|0:0,0:0:0:0:
155,110,291581,2,0,P|118:102|55:94,1,93.5,8|0,0:0|0:0,0:0:0:0:
245,138,291812,2,0,P|285:200|249:315,1,187,2|8,0:0|0:0,0:0:0:0:
186,368,292158,1,0,0:0:0:0:
0,252,292273,6,0,L|147:236,1,140.25,2|0,0:0|0:0,0:0:0:0:
179,271,292504,2,0,L|82:282,1,93.5,8|0,0:0|0:0,0:0:0:0:
43,150,292735,2,0,L|139:138,1,93.5,2|0,0:0|0:0,0:0:0:0:
378,221,292966,2,0,P|309:240|212:164,1,187,8|2,0:0|0:0,0:0:0:0:
132,54,293312,1,0,0:0:0:0:
227,0,293427,2,0,L|205:119,1,93.5,8|0,0:0|0:0,0:0:0:0:
147,222,293658,5,2,0:0:0:0:
132,54,293773,1,0,0:0:0:0:
285,131,293889,2,0,P|331:141|388:146,1,93.5,8|0,0:0|0:0,0:0:0:0:
450,101,294120,5,2,0:0:0:0:
363,231,294235,1,2,0:0:0:0:
334,58,294350,1,8,0:0:0:0:
441,199,294466,1,2,0:0:0:0:
303,296,294581,6,0,L|254:308,3,46.75,2|2|2|0,0:0|0:0|0:0|0:0,0:0:0:0:
204,367,294812,2,0,L|158:355,3,46.75,8|2|8|2,0:0|0:0|0:0|0:0,0:0:0:0:
80,363,295043,1,2,0:0:0:0:
45,330,295100,1,2,0:0:0:0:
26,288,295158,1,10,0:0:0:0:
18,242,295216,1,2,0:0:0:0:
22,195,295273,1,2,0:0:0:0:
39,149,295331,1,2,0:0:0:0:
71,111,295389,1,2,0:0:0:0:
116,93,295447,1,2,0:0:0:0:
168,92,295504,6,0,L|391:131,1,187,6|8,0:0|0:0,0:0:0:0:
444,197,295850,1,0,0:0:0:0:
338,248,295966,2,0,L|115:209,1,187,2|8,0:0|0:0,0:0:0:0:
54,275,296312,1,0,0:0:0:0:
152,341,296427,2,0,L|268:360,1,93.5,2|0,0:0|0:0,0:0:0:0:
499,283,296658,2,0,P|473:256|339:249,1,140.25,8|0,0:0|0:0,0:0:0:0:
338,248,296889,2,0,L|324:124,1,93.5,2|0,0:0|0:0,0:0:0:0:
420,129,297120,1,8,0:0:0:0:
397,335,297235,1,0,0:0:0:0:
240,266,297350,6,0,B|197:242|197:242|56:271,1,187,2|8,0:0|0:0,0:0:0:0:
143,23,297697,2,0,B|186:47|186:47|327:18,1,187,2|2,0:0|0:0,0:0:0:0:
150,163,298043,2,0,L|50:147,1,93.5,8|0,0:0|0:0,0:0:0:0:
264,129,298273,2,0,B|334:122|334:122|371:146|371:146|460:136,1,187,2|8,0:0|0:0,0:0:0:0:
306,208,298620,2,0,L|270:313,1,93.5,0|2,0:0|0:0,0:0:0:0:
443,137,298850,5,10,0:0:0:0:
321,20,298966,1,8,0:0:0:0:
390,236,299081,1,10,0:0:0:0:
465,59,299197,6,0,B|352:46|412:116|277:97,1,187,2|8,0:0|0:0,0:0:0:0:
75,82,299543,1,0,0:0:0:0:
75,82,299658,2,0,P|122:26|258:65,1,187,2|8,0:0|0:0,0:0:0:0:
214,214,300004,1,0,0:0:0:0:
214,214,300120,2,0,L|194:102,1,93.5,2|0,0:0|0:0,0:0:0:0:
325,194,300350,2,0,L|303:362,1,140.25,8|0,0:0|0:0,0:0:0:0:
332,378,300581,2,0,L|222:364,1,93.5,2|0,0:0|0:0,0:0:0:0:
391,266,300812,2,0,L|501:280,1,93.5,8|0,0:0|0:0,0:0:0:0:
237,290,301043,6,0,L|42:262,1,187,2|8,0:0|0:0,0:0:0:0:
0,154,301389,1,0,0:0:0:0:
53,47,301504,2,0,L|248:75,1,187,2|8,0:0|0:0,0:0:0:0:
290,183,301850,1,0,0:0:0:0:
237,290,301966,2,0,L|138:275,1,93.5,2|0,0:0|0:0,0:0:0:0:
348,127,302197,2,0,L|447:112,1,93.5,8|0,0:0|0:0,0:0:0:0:
482,321,302427,2,0,P|448:268|318:266,1,187,2|8,0:0|0:0,0:0:0:0:
212,183,302773,1,0,0:0:0:0:
296,62,302889,6,0,P|307:111|306:171,1,93.5,2|0,0:0|0:0,0:0:0:0:
144,275,303120,2,0,P|133:226|134:166,1,93.5,8|0,0:0|0:0,0:0:0:0:
289,328,303350,2,0,B|183:302|233:387|95:356,1,187,2|8,0:0|0:0,0:0:0:0:
42,263,303697,1,0,0:0:0:0:
132,182,303812,6,0,P|180:125|149:5,1,187,2|8,0:0|0:0,0:0:0:0:
68,39,304158,1,0,0:0:0:0:
68,39,304273,2,0,P|55:75|49:136,1,93.5,2|0,0:0|0:0,0:0:0:0:
269,175,304504,2,0,P|282:139|288:78,1,93.5,8|0,0:0|0:0,0:0:0:0:
163,20,304735,6,0,P|173:115|183:232,1,187,2|8,0:0|0:0,0:0:0:0:
146,296,305081,2,0,P|197:258|325:295,1,187,2|2,0:0|0:0,0:0:0:0:
378,353,305427,1,8,0:0:0:0:
470,323,305543,1,0,0:0:0:0:
403,252,305658,6,0,P|411:158|421:65,1,187,2|8,0:0|0:0,0:0:0:0:
353,1,306004,1,0,0:0:0:0:
248,105,306120,2,0,P|304:107|352:65,1,93.5,2|0,0:0|0:0,0:0:0:0:
178,48,306350,2,0,P|136:26|91:31,1,93.5,8|0,0:0|0:0,0:0:0:0:
67,171,306581,6,0,P|56:224|49:280,1,93.5,2|0,0:0|0:0,0:0:0:0:
101,341,306812,1,8,0:0:0:0:
196,332,306927,1,0,0:0:0:0:
148,251,307043,2,0,P|207:210|328:230,1,187,2|8,0:0|0:0,0:0:0:0:
395,165,307389,1,0,0:0:0:0:
327,32,307504,6,0,P|315:80|308:129,1,93.5,2|0,0:0|0:0,0:0:0:0:
379,356,307735,2,0,P|391:308|398:259,1,93.5,8|0,0:0|0:0,0:0:0:0:
511,90,307966,6,0,L|483:-25,1,93.5,2|0,0:0|0:0,0:0:0:0:
473,292,308197,2,0,L|495:382,1,93.5,8|0,0:0|0:0,0:0:0:0:
512,192,308427,5,2,0:0:0:0:
418,163,308543,1,0,0:0:0:0:
375,249,308658,1,8,0:0:0:0:
379,256,308889,5,2,0:0:0:0:
281,219,309004,1,10,0:0:0:0:
275,203,309062,1,2,0:0:0:0:
271,188,309120,1,10,0:0:0:0:
268,171,309177,1,10,0:0:0:0:
265,156,309235,1,10,0:0:0:0:
264,140,309293,1,10,0:0:0:0:
263,124,309350,5,2,0:0:0:0:
233,165,309408,1,2,0:0:0:0:
189,185,309466,1,2,0:0:0:0:
142,183,309523,1,2,0:0:0:0:
105,155,309581,1,10,0:0:0:0:
86,111,309639,1,2,0:0:0:0:
90,63,309697,1,10,0:0:0:0:
122,27,309754,1,2,0:0:0:0:
169,16,309812,6,0,L|237:24,1,46.75,10|2,0:0|0:0,0:0:0:0:
263,124,309927,2,0,L|331:116,1,46.75,10|2,0:0|0:0,0:0:0:0:
361,42,310043,2,0,L|429:50,1,46.75,10|2,0:0|0:0,0:0:0:0:
495,106,310158,1,10,0:0:0:0:
495,106,310216,1,10,0:0:0:0:
495,106,310273,6,0,L|480:318,1,187,6|8,0:0|0:0,0:0:0:0:
428,371,310620,1,0,0:0:0:0:
316,222,310735,2,0,L|329:35,1,187,2|8,0:0|0:0,0:0:0:0:
242,71,311081,1,0,0:0:0:0:
316,222,311197,6,0,P|382:211|413:234,1,93.5,2|0,0:0|0:0,0:0:0:0:
481,292,311427,1,8,0:0:0:0:
481,292,311658,2,0,L|487:198,1,93.5,2|0,0:0|0:0,0:0:0:0:
495,106,311889,1,8,0:0:0:0:
316,222,312004,1,0,0:0:0:0:
428,371,312120,6,0,B|342:392|328:324|229:344,1,187,2|8,0:0|0:0,0:0:0:0:
157,369,312466,1,0,0:0:0:0:
61,235,312581,2,0,P|56:281|74:324,1,93.5,2|0,0:0|0:0,0:0:0:0:
214,214,312812,2,0,P|219:168|201:125,1,93.5,8|0,0:0|0:0,0:0:0:0:
90,63,313043,5,2,0:0:0:0:
146,259,313158,1,0,0:0:0:0:
288,113,313273,2,0,B|307:4,1,93.5,8|0,0:0|0:0,0:0:0:0:
129,166,313504,2,0,B|146:259,1,93.5,2|0,0:0|0:0,0:0:0:0:
178,48,313735,2,0,P|136:67|89:62,1,93.5,8|0,0:0|0:0,0:0:0:0:
357,237,313966,6,0,P|422:175|519:198,1,187,2|8,0:0|0:0,0:0:0:0:
490,283,314312,1,0,0:0:0:0:
465,372,314427,2,0,L|357:354,1,93.5,2|0,0:0|0:0,0:0:0:0:
264,221,314658,2,0,L|372:239,1,93.5,8|0,0:0|0:0,0:0:0:0:
201,356,314889,6,0,P|118:355|52:286,1,140.25,2|0,0:0|0:0,0:0:0:0:
32,263,315120,2,0,L|25:168,1,93.5,8|0,0:0|0:0,0:0:0:0:
258,36,315350,2,0,B|266:125|200:130|215:226,1,187,2|8,0:0|0:0,0:0:0:0:
262,294,315697,1,0,0:0:0:0:
353,237,315812,6,0,B|377:197|377:197|370:141,1,93.5,2|0,0:0|0:0,0:0:0:0:
262,294,316043,2,0,B|238:334|238:334|245:390,1,93.5,8|0,0:0|0:0,0:0:0:0:
372,356,316273,2,0,B|468:339,1,93.5,2|0,0:0|0:0,0:0:0:0:
213,213,316504,2,0,B|117:230,1,93.5,8|0,0:0|0:0,0:0:0:0:
36,14,316735,6,0,P|100:46|93:164,1,187,2|8,0:0|0:0,0:0:0:0:
37,357,317081,1,0,0:0:0:0:
37,357,317197,2,0,P|32:285|138:232,1,187,2|8,0:0|0:0,0:0:0:0:
334,185,317543,1,8,0:0:0:0:
334,185,317600,1,8,0:0:0:0:
334,185,317658,6,0,P|274:224|175:159,1,187,6|8,0:0|0:0,0:0:0:0:
207,84,318004,1,0,0:0:0:0:
387,119,318120,2,0,P|373:181|403:221,1,93.5,2|0,0:0|0:0,0:0:0:0:
491,311,318350,2,0,P|505:249|475:209,1,93.5,8|0,0:0|0:0,0:0:0:0:
222,356,318581,6,0,B|309:359|309:359|334:351|334:351|422:354,1,187,2|8,0:0|0:0,0:0:0:0:
491,311,318927,1,0,0:0:0:0:
304,229,319043,2,0,B|216:232|216:232|191:224|191:224|103:227,1,187,2|8,0:0|0:0,0:0:0:0:
35,184,319389,1,0,0:0:0:0:
197,0,319504,6,0,P|257:80|212:171,1,187,2|8,0:0|0:0,0:0:0:0:
231,155,319966,2,0,P|281:145|329:141,1,93.5,2|0,0:0|0:0,0:0:0:0:
501,305,320197,2,0,P|451:294|403:290,1,93.5,8|0,0:0|0:0,0:0:0:0:
152,382,320427,6,0,P|92:302|137:211,1,187,2|8,0:0|0:0,0:0:0:0:
143,136,320773,1,0,0:0:0:0:
221,242,320889,2,0,P|211:287|207:334,1,93.5,2|0,0:0|0:0,0:0:0:0:
63,159,321120,2,0,P|58:112|49:66,1,93.5,8|0,0:0|0:0,0:0:0:0:
340,49,321350,6,0,P|317:135|231:155,2,187,2|8|2,0:0|0:0|0:0,0:0:0:0:
173,47,321927,1,0,0:0:0:0:
143,136,322043,2,0,L|154:246,1,93.5,8|0,0:0|0:0,0:0:0:0:
400,384,322273,6,0,L|411:274,1,93.5,2|0,0:0|0:0,0:0:0:0:
257,173,322504,2,0,L|332:227,1,93.5,8|0,0:0|0:0,0:0:0:0:
512,154,322735,2,0,L|426:192,1,93.5,2|0,0:0|0:0,0:0:0:0:
256,352,322966,1,8,0:0:0:0:
170,310,323081,1,0,0:0:0:0:
100,373,323197,6,0,L|2:368,1,93.5,2|0,0:0|0:0,0:0:0:0:
152,229,323427,2,0,L|250:224,1,93.5,8|0,0:0|0:0,0:0:0:0:
93,294,323658,2,0,L|-5:289,1,93.5,2|0,0:0|0:0,0:0:0:0:
145,150,323888,2,0,L|243:145,1,93.5,8|0,0:0|0:0,0:0:0:0:
82,221,324120,5,2,0:0:0:0:
69,207,324177,1,2,0:0:0:0:
60,191,324235,1,2,0:0:0:0:
54,173,324293,1,2,0:0:0:0:
52,154,324350,1,10,0:0:0:0:
54,136,324408,1,2,0:0:0:0:
60,118,324466,1,10,0:0:0:0:
70,102,324523,1,10,0:0:0:0:
82,88,324581,5,2,0:0:0:0:
136,92,324638,1,2,0:0:0:0:
176,130,324696,1,10,0:0:0:0:
185,185,324754,1,2,0:0:0:0:
157,233,324811,1,10,0:0:0:0:
129,280,324870,1,10,0:0:0:0:
137,335,324927,1,10,0:0:0:0:
177,373,324985,1,10,0:0:0:0:
232,378,325043,6,0,B|320:375|320:375|344:382|344:382|418:380,1,187,6|8,0:0|0:0,0:0:0:0:
485,314,325389,1,0,0:0:0:0:
267,218,325504,2,0,B|179:215|179:215|155:222|155:222|81:220,1,187,2|8,0:0|0:0,0:0:0:0:
14,154,325850,1,0,0:0:0:0:
323,267,325966,6,0,P|341:225|331:180,1,93.5,2|0,0:0|0:0,0:0:0:0:
250,19,326197,1,8,0:0:0:0:
250,19,326427,2,0,L|240:115,1,93.5,2|0,0:0|0:0,0:0:0:0:
426,191,326658,2,0,L|435:94,1,93.5,8|0,0:0|0:0,0:0:0:0:
82,221,326889,6,0,B|159:244|180:198|267:218,1,187,2|8,0:0|0:0,0:0:0:0:
511,288,327235,1,0,0:0:0:0:
449,357,327350,2,0,B|341:346,1,93.5,2|0,0:0|0:0,0:0:0:0:
332,181,327581,2,0,B|440:192,1,93.5,8|0,0:0|0:0,0:0:0:0:
505,141,327812,5,2,0:0:0:0:
304,46,327927,1,0,0:0:0:0:
323,268,328043,2,0,P|341:229|327:170,1,93.5,8|0,0:0|0:0,0:0:0:0:
155,62,328273,2,0,P|137:101|151:160,1,93.5,2|0,0:0|0:0,0:0:0:0:
248,372,328504,2,0,B|140:383,1,93.5,8|0,0:0|0:0,0:0:0:0:
242,206,328735,6,0,B|297:201|297:201|302:204|302:204|305:200|305:200|433:189,1,187,2|8,0:0|0:0,0:0:0:0:
503,242,329081,1,0,0:0:0:0:
442,9,329197,2,0,B|423:49|423:49|434:97,1,93.5,2|0,0:0|0:0,0:0:0:0:
323,268,329427,2,0,B|341:227|341:227|330:179,1,93.5,8|0,0:0|0:0,0:0:0:0:
155,62,329658,6,0,L|171:222,1,140.25,2|0,0:0|0:0,0:0:0:0:
168,201,329889,2,0,P|123:169|75:182,1,93.5,8|0,0:0|0:0,0:0:0:0:
229,277,330120,2,0,L|322:267,1,93.5,2|0,0:0|0:0,0:0:0:0:
137,335,330350,2,0,L|43:325,1,93.5,8|0,0:0|0:0,0:0:0:0:
309,359,330581,6,0,P|346:302|414:298,1,140.25,2|0,0:0|0:0,0:0:0:0:
415,299,330812,2,0,P|405:251|426:205,1,93.5,8|0,0:0|0:0,0:0:0:0:
512,47,331043,2,0,L|502:140,1,93.5,2|0,0:0|0:0,0:0:0:0:
330,179,331273,2,0,L|339:85,1,93.5,8|0,0:0|0:0,0:0:0:0:
512,320,331504,6,0,B|450:318|452:378|380:370,1,140.25,2|0,0:0|0:0,0:0:0:0:
385,370,331735,2,0,L|291:360,1,93.5,8|0,0:0|0:0,0:0:0:0:
62,381,331966,1,2,0:0:0:0:
161,306,332081,1,8,0:0:0:0:
162,259,332138,1,8,0:0:0:0:
140,219,332196,1,8,0:0:0:0:
101,194,332254,1,8,0:0:0:0:
73,155,332312,1,8,0:0:0:0:
73,108,332370,1,8,0:0:0:0:
96,68,332427,6,0,P|152:99|289:37,1,187,6|8,0:0|0:0,0:0:0:0:
337,9,332773,1,0,0:0:0:0:
421,210,332889,2,0,B|435:170|435:170|418:119,1,93.5,2|0,0:0|0:0,0:0:0:0:
215,213,333120,2,0,B|201:253|201:253|217:303,1,93.5,8|0,0:0|0:0,0:0:0:0:
344,145,333350,6,0,B|340:81|340:81|344:76|344:76|340:73|340:73|335:-14,1,140.25,2|0,0:0|0:0,0:0:0:0:
337,9,333581,2,0,L|446:24,1,93.5,8|0,0:0|0:0,0:0:0:0:
498,196,333812,2,0,P|456:182|421:210,1,93.5,2|0,0:0|0:0,0:0:0:0:
292,360,334043,2,0,P|256:387|214:373,1,93.5,8|0,0:0|0:0,0:0:0:0:
32,201,334273,6,0,B|119:177|135:235|215:212,1,187,2|8,0:0|0:0,0:0:0:0:
214,212,334735,2,0,P|208:181|198:97,1,93.5,2|0,0:0|0:0,0:0:0:0:
306,267,334966,2,0,P|300:297|290:381,1,93.5,8|0,0:0|0:0,0:0:0:0:
72,357,335197,6,0,P|98:307|224:307,1,187,2|8,0:0|0:0,0:0:0:0:
291,359,335543,1,0,0:0:0:0:
498,196,335658,2,0,B|426:187|426:187|392:199|392:199|301:187,1,187,2|8,0:0|0:0,0:0:0:0:
221,176,336004,1,0,0:0:0:0:
10,86,336120,6,0,P|80:77|154:44,1,140.25,2|0,0:0|0:0,0:0:0:0:
143,50,336350,2,0,P|111:107|120:155,1,93.5,8|0,0:0|0:0,0:0:0:0:
277,245,336581,2,0,P|244:188|198:171,1,93.5,2|0,0:0|0:0,0:0:0:0:
41,262,336812,2,0,P|106:262|143:230,1,93.5,8|0,0:0|0:0,0:0:0:0:
223,176,337043,5,2,0:0:0:0:
221,157,337100,1,2,0:0:0:0:
219,138,337158,1,10,0:0:0:0:
217,120,337216,1,2,0:0:0:0:
215,101,337273,1,2,0:0:0:0:
213,82,337331,1,2,0:0:0:0:
211,64,337389,1,2,0:0:0:0:
209,45,337446,1,2,0:0:0:0:
208,27,337504,5,2,0:0:0:0:
258,48,337561,1,2,0:0:0:0:
283,97,337619,1,2,0:0:0:0:
270,151,337677,1,2,0:0:0:0:
227,184,337734,1,10,0:0:0:0:
183,217,337793,1,10,0:0:0:0:
170,270,337851,1,10,0:0:0:0:
195,319,337909,1,10,0:0:0:0:
246,340,337966,6,0,B|313:336|313:336|346:346|346:346|438:337,1,187,6|8,0:0|0:0,0:0:0:0:
501,276,338312,1,0,0:0:0:0:
266,215,338427,2,0,B|198:211|198:211|165:221|165:221|73:212,1,187,2|8,0:0|0:0,0:0:0:0:
11,151,338773,1,0,0:0:0:0:
252,34,338889,6,0,B|233:78|233:78|248:121,1,93.5,2|0,0:0|0:0,0:0:0:0:
425,190,339120,2,0,B|444:146|444:146|428:102,1,93.5,8|0,0:0|0:0,0:0:0:0:
336,155,339350,5,10,0:0:0:0:
336,173,339407,1,8,0:0:0:0:
337,192,339465,1,8,0:0:0:0:
338,211,339523,1,8,0:0:0:0:
338,229,339580,1,8,0:0:0:0:
339,248,339638,1,8,0:0:0:0:
340,267,339696,1,8,0:0:0:0:
340,285,339753,1,8,0:0:0:0:
340,303,339812,6,0,P|426:327|487:262,1,187,6|8,0:0|0:0,0:0:0:0:
425,190,340158,1,0,0:0:0:0:
246,340,340273,2,0,P|249:296|209:250,1,93.5,2|0,0:0|0:0,0:0:0:0:
56,129,340504,2,0,P|53:173|93:219,1,93.5,8|0,0:0|0:0,0:0:0:0:
306,198,340735,6,0,B|310:146|310:146|315:138|315:138|311:130|311:130|323:-1,1,187,2|8,0:0|0:0,0:0:0:0:
237,53,341081,1,0,0:0:0:0:
340,267,341197,2,0,P|368:263|441:256,1,93.5,2|0,0:0|0:0,0:0:0:0:
246,340,341427,2,0,P|217:336|145:329,1,93.5,8|0,0:0|0:0,0:0:0:0:
13,157,341658,6,0,B|101:149|101:221|190:213,1,187,2|8,0:0|0:0,0:0:0:0:
241,137,342004,1,0,0:0:0:0:
42,237,342120,2,0,P|35:289|60:336,1,93.5,2|0,0:0|0:0,0:0:0:0:
162,129,342350,2,0,P|169:77|144:30,1,93.5,8|0,0:0|0:0,0:0:0:0:
153,329,342581,6,0,B|223:321|223:321|269:337|269:337|336:331,1,187,2|8,0:0|0:0,0:0:0:0:
417,379,342927,1,0,0:0:0:0:
306,198,343043,2,0,B|298:113|370:113|362:25,1,187,2|8,0:0|0:0,0:0:0:0:
489,112,343389,1,8,0:0:0:0:
489,112,343447,1,8,0:0:0:0:
489,112,343504,6,0,P|504:193|417:256,1,187,2|8,0:0|0:0,0:0:0:0:
248,341,343850,2,0,P|232:259|319:196,1,187,2|2,0:0|0:0,0:0:0:0:
508,361,344197,2,0,L|416:378,1,93.5,8|0,0:0|0:0,0:0:0:0:
401,373,344370,1,0,0:0:0:0:
386,367,344427,6,0,L|192:354,1,187,2|8,0:0|0:0,0:0:0:0:
107,375,344773,1,0,0:0:0:0:
122,199,344889,2,0,P|144:240|139:286,1,93.5,2|0,0:0|0:0,0:0:0:0:
13,157,345120,2,0,P|7:111|29:70,1,93.5,8|0,0:0|0:0,0:0:0:0:
200,35,345350,6,0,L|302:46,1,93.5,2|0,0:0|0:0,0:0:0:0:
396,207,345581,2,0,L|303:196,1,93.5,8|0,0:0|0:0,0:0:0:0:
384,23,345812,2,0,L|373:115,1,93.5,2|0,0:0|0:0,0:0:0:0:
212,219,346043,2,0,L|223:117,1,93.5,8|0,0:0|0:0,0:0:0:0:
512,279,346273,6,0,P|483:282|372:294,1,140.25,2|0,0:0|0:0,0:0:0:0:
349,363,346504,6,0,P|328:360|251:351,1,98.1749970039369,8|0,0:0|0:0,0:0:0:0:
212,293,346735,6,0,P|188:295|74:307,1,126.224996147919,2|0,0:0|0:0,0:0:0:0:
27,257,346966,6,0,P|14:222|23:192,1,56.0999982879639,8|0,0:0|0:0,0:0:0:0:
133,13,347197,6,0,L|122:205,1,187,6|8,0:0|0:0,0:0:0:0:
251,351,347543,1,0,0:0:0:0:
311,280,347658,2,0,P|331:238|316:186,1,93.5,2|0,0:0|0:0,0:0:0:0:
232,39,347889,2,0,P|212:80|221:125,1,93.5,8|0,0:0|0:0,0:0:0:0:
466,107,348120,6,0,P|403:112|340:117,1,93.5,2|0,0:0|0:0,0:0:0:0:
228,202,348350,2,0,P|290:196|353:191,1,93.5,8|0,0:0|0:0,0:0:0:0:
489,256,348581,2,0,P|426:261|363:266,1,93.5,2|0,0:0|0:0,0:0:0:0:
251,351,348811,2,0,P|313:345|376:340,1,93.5,8|0,0:0|0:0,0:0:0:0:
360,351,348985,1,0,0:0:0:0:
375,359,349043,6,0,P|426:304|407:190,1,187,2|8,0:0|0:0,0:0:0:0:
372,115,349389,1,0,0:0:0:0:
496,18,349504,2,0,L|488:111,1,93.5,2|0,0:0|0:0,0:0:0:0:
328,286,349735,2,0,L|320:192,1,93.5,8|0,0:0|0:0,0:0:0:0:
125,50,349966,6,0,P|170:97|307:65,1,187,2|8,0:0|0:0,0:0:0:0:
356,28,350312,1,0,0:0:0:0:
227,184,350427,2,0,B|262:280|198:280|230:384,1,187,2|8,0:0|0:0,0:0:0:0:
134,342,350773,1,0,0:0:0:0:
10,277,350889,6,0,P|7:223|-1:72,1,187,2|8,0:0|0:0,0:0:0:0:
51,13,351235,1,0,0:0:0:0:
215,180,351350,2,0,P|218:234|226:385,1,187,2|8,0:0|0:0,0:0:0:0:
502,277,351812,6,0,P|505:223|513:72,1,187,2|8,0:0|0:0,0:0:0:0:
461,13,352158,1,0,0:0:0:0:
372,115,352273,2,0,P|356:141|366:217,1,93.5,2|0,0:0|0:0,0:0:0:0:
440,349,352504,2,0,P|425:322|353:292,1,93.5,8|0,0:0|0:0,0:0:0:0:
99,278,352735,6,0,L|285:258,1,187,2|8,0:0|0:0,0:0:0:0:
371,292,353081,1,0,0:0:0:0:
450,211,353197,2,0,L|357:201,1,93.5,2|0,0:0|0:0,0:0:0:0:
191,152,353427,2,0,L|283:142,1,93.5,8|0,0:0|0:0,0:0:0:0:
393,31,353658,6,0,B|365:69|365:69|372:116,1,93.5,2|0,0:0|0:0,0:0:0:0:
489,256,353889,2,0,B|517:218|517:218|509:170,1,93.5,8|0,0:0|0:0,0:0:0:0:
357,201,354120,2,0,P|366:239|372:311,1,93.5,2|0,0:0|0:0,0:0:0:0:
498,96,354350,2,0,P|502:49|512:3,1,93.5,8|0,0:0|0:0,0:0:0:0:
512,333,354581,6,0,B|427:318|423:388|325:362,1,187,2|8,0:0|0:0,0:0:0:0:
284,258,354927,1,0,0:0:0:0:
228,334,355043,2,0,B|32:324,1,187,2|8,0:0|0:0,0:0:0:0:
5,239,355389,1,0,0:0:0:0:
199,79,355504,5,10,0:0:0:0:
110,108,355620,1,8,0:0:0:0:
208,112,355735,5,8,0:0:0:0:
124,116,355851,1,8,0:0:0:0:
211,141,355966,5,10,0:0:0:0:
139,124,356082,1,8,0:0:0:0:
210,164,356197,5,8,0:0:0:0:
153,133,356313,1,8,0:0:0:0:
90,211,356427,6,0,L|292:193,1,187,6|8,0:0|0:0,0:0:0:0:
329,116,356773,1,0,0:0:0:0:
450,258,356889,2,0,L|356:266,1,93.5,2|0,0:0|0:0,0:0:0:0:
414,101,357120,2,0,L|507:92,1,93.5,8|0,0:0|0:0,0:0:0:0:
304,355,357350,6,0,P|252:281|275:194,1,187,2|8,0:0|0:0,0:0:0:0:
329,116,357697,1,0,0:0:0:0:
110,47,357812,5,2,0:0:0:0:
147,134,357927,1,8,0:0:0:0:
93,210,358043,1,10,0:0:0:0:
130,297,358158,1,8,0:0:0:0:
304,355,358273,6,0,L|102:337,1,187,2|8,0:0|0:0,0:0:0:0:
30,374,358620,1,0,0:0:0:0:
0,202,358735,2,0,L|93:210,1,93.5,2|0,0:0|0:0,0:0:0:0:
218,58,358966,2,0,L|124:49,1,93.5,8|0,0:0|0:0,0:0:0:0:
265,250,359197,6,0,B|350:227|364:281|472:252,2,187,2|8|2,0:0|0:0|0:0,0:0:0:0:
202,180,359773,1,0,0:0:0:0:
280,128,359889,1,8,0:0:0:0:
218,58,360004,1,0,0:0:0:0:
407,0,360120,6,0,L|387:186,1,187,2|8,0:0|0:0,0:0:0:0:
449,257,360466,1,0,0:0:0:0:
304,355,360581,2,0,P|310:296|359:272,1,93.5,2|0,0:0|0:0,0:0:0:0:
479,178,360812,2,0,P|473:237|423:260,1,93.5,8|0,0:0|0:0,0:0:0:0:
280,128,361043,6,0,L|274:28,1,93.5,2|0,0:0|0:0,0:0:0:0:
193,261,361273,2,0,L|198:354,1,93.5,8|0,0:0|0:0,0:0:0:0:
36,373,361504,5,8,0:0:0:0:
74,286,361620,1,2,0:0:0:0:
8,219,361735,1,2,0:0:0:0:
46,134,361851,1,8,0:0:0:0:
193,261,361966,6,0,P|274:272|338:188,1,187,2|8,0:0|0:0,0:0:0:0:
280,128,362312,1,0,0:0:0:0:
136,99,362427,2,0,P|123:154|141:192,1,93.5,2|0,0:0|0:0,0:0:0:0:
304,355,362658,2,0,P|317:300|298:261,1,93.5,8|0,0:0|0:0,0:0:0:0:
291,256,362831,1,0,0:0:0:0:
278,244,362889,6,0,L|485:247,1,187,2|8,0:0|0:0,0:0:0:0:
202,180,363235,2,0,L|-5:177,1,187,2|2,0:0|0:0,0:0:0:0:
280,128,363581,2,0,L|383:126,1,93.5,8|0,0:0|0:0,0:0:0:0:
202,180,363812,6,0,B|158:268|240:272|190:359,2,187,2|8|2,0:0|0:0|0:0,0:0:0:0:
280,128,364389,1,0,0:0:0:0:
136,99,364504,2,0,P|123:44|141:5,1,93.5,8|0,0:0|0:0,0:0:0:0:
278,244,364735,6,0,P|291:299|272:337,1,93.5,2|0,0:0|0:0,0:0:0:0:
36,304,364966,2,0,B|50:297|50:297|51:307|51:307|59:297|59:297|60:306|60:306|68:296|68:296|69:305|69:305|77:295|77:295|78:305|78:305|85:294|85:294|86:304|86:304|94:294|94:294|95:303|95:303|103:293|103:293|104:302|104:302|112:292|112:292|113:302|113:302|121:291|121:291|121:301|121:301|129:290|129:290|130:300|130:300|138:290|138:290|139:299|139:299|147:289|147:289|148:299|148:299|156:288|156:288|156:298|156:298|164:287|164:287|165:297|165:297|173:287|173:287|174:296|174:296|182:286|182:286|183:295|183:295|198:289,1,374,8|0,0:0|0:0,0:0:0:0:
277,331,365543,1,0,0:0:0:0:
437,330,365658,6,0,P|467:262|450:218,1,93.5,2|0,0:0|0:0,0:0:0:0:
307,44,365889,2,0,P|277:112|294:156,1,93.5,8|0,0:0|0:0,0:0:0:0:
374,266,366120,1,2,0:0:0:0:
500,153,366235,2,0,L|516:35,2,93.5,0|8|0,0:0|0:0|0:0,0:0:0:0:
374,266,366581,6,0,L|386:358,1,93.5,2|0,0:0|0:0,0:0:0:0:
414,164,366812,2,0,P|322:168|265:263,1,187,8|2,0:0|0:0,0:0:0:0:
188,359,367158,1,0,0:0:0:0:
117,297,367273,2,0,P|115:271|108:189,1,93.5,8|0,0:0|0:0,0:0:0:0:
15,83,367504,6,0,B|192:130|204:-6|413:48,1,374,2|2,0:0|0:0,0:0:0:0:
468,13,368081,1,0,0:0:0:0:
445,104,368197,2,0,P|448:150|452:197,1,93.5,8|0,0:0|0:0,0:0:0:0:
356,295,368427,6,0,P|443:278|500:348,1,187,2|8,0:0|0:0,0:0:0:0:
284,353,368773,2,0,P|196:368|140:298,1,187,2|2,0:0|0:0,0:0:0:0:
99,213,369120,2,0,P|145:216|192:220,1,93.5,8|0,0:0|0:0,0:0:0:0:
378,41,369350,6,0,B|291:17|285:85|196:62,1,187,2|8,0:0|0:0,0:0:0:0:
111,24,369697,1,0,0:0:0:0:
17,161,369812,2,0,P|11:115|32:74,1,93.5,2|0,0:0|0:0,0:0:0:0:
152,211,370043,2,0,P|158:257|138:299,1,93.5,8|0,0:0|0:0,0:0:0:0:
5,384,370273,5,2,0:0:0:0:
58,268,370389,1,2,0:0:0:0:
130,372,370504,1,8,0:0:0:0:
183,256,370620,1,8,0:0:0:0:
187,237,370677,1,8,0:0:0:0:
191,219,370735,1,10,0:0:0:0:
196,201,370793,1,8,0:0:0:0:
200,183,370850,1,8,0:0:0:0:
205,165,370908,1,8,0:0:0:0:
209,146,370966,1,10,0:0:0:0:
111,24,371081,1,2,0:0:0:0:
197,62,371197,6,0,L|387:49,1,187,6|8,0:0|0:0,0:0:0:0:
315,322,371658,2,0,L|125:335,1,187,2|8,0:0|0:0,0:0:0:0:
457,193,372120,2,0,L|444:379,1,187,2|8,0:0|0:0,0:0:0:0:
55,191,372581,2,0,L|63:67,1,93.5,2|0,0:0|0:0,0:0:0:0:
68,4,372812,1,8,0:0:0:0:
152,46,372927,1,0,0:0:0:0:
186,263,373043,6,0,L|-4:276,1,187,6|8,0:0|0:0,0:0:0:0:
326,121,373504,2,0,L|516:108,1,187,2|8,0:0|0:0,0:0:0:0:
491,199,373850,1,0,0:0:0:0:
468,288,373966,2,0,L|282:301,1,187,2|8,0:0|0:0,0:0:0:0:
203,5,374427,2,0,L|328:-3,1,93.5,2|0,0:0|0:0,0:0:0:0:
389,13,374658,1,8,0:0:0:0:
329,84,374773,1,8,0:0:0:0:
327,102,374830,1,8,0:0:0:0:
326,121,374889,6,0,L|516:108,1,187,6|8,0:0|0:0,0:0:0:0:
227,377,375350,1,2,0:0:0:0:
138,348,375466,1,8,0:0:0:0:
138,254,375581,1,8,0:0:0:0:
227,225,375697,1,2,0:0:0:0:
282,301,375812,2,0,L|468:288,1,187,2|8,0:0|0:0,0:0:0:0:
230,83,376273,2,0,L|44:96,1,187,2|8,0:0|0:0,0:0:0:0:
11,185,376620,1,0,0:0:0:0:
303,212,376735,6,0,L|316:26,1,187,6|8,0:0|0:0,0:0:0:0:
43,96,377197,1,2,0:0:0:0:
72,7,377313,1,8,0:0:0:0:
166,7,377428,1,8,0:0:0:0:
195,96,377544,1,8,0:0:0:0:
119,151,377658,2,0,L|132:337,1,187,2|8,0:0|0:0,0:0:0:0:
439,382,378120,2,0,L|426:196,1,187,2|8,0:0|0:0,0:0:0:0:
348,10,378581,6,0,B|414:65|393:172|309:195|241:175|241:175|174:156|90:178|69:285|132:337,1,561,6|8,0:0|0:0,0:0:0:0:
444,354,379504,2,0,P|501:284|473:199,1,187,2|8,0:0|0:0,0:0:0:0:
348,10,379850,2,0,P|291:80|319:165,1,187,2|2,0:0|0:0,0:0:0:0:
408,139,380197,2,0,L|419:46,1,93.5,8|0,0:0|0:0,0:0:0:0:
396,231,380427,5,2,0:0:0:0:
396,231,380543,2,0,P|322:217|256:317,1,187,2|2,0:0|0:0,0:0:0:0:
324,358,380889,2,0,L|417:347,1,93.5,2|0,0:0|0:0,0:0:0:0:
255,294,381120,2,0,L|162:283,1,93.5,8|0,0:0|0:0,0:0:0:0:
32,66,381350,5,2,0:0:0:0:
32,66,381466,2,0,P|106:52|172:152,1,187,2|2,0:0|0:0,0:0:0:0:
104,193,381812,2,0,L|11:182,1,93.5,2|0,0:0|0:0,0:0:0:0:
173,129,382043,2,0,L|266:118,1,93.5,8|0,0:0|0:0,0:0:0:0:
490,320,382273,6,2,L|408:303,3,46.75,2|2|10|2,0:0|0:0|0:0|0:0,0:0:0:0:
427,332,382504,2,2,L|345:315,3,46.75,2|2|10|2,0:0|0:0|0:0|0:0,0:0:0:0:
349,341,382735,5,10,0:0:0:0:
364,312,382792,1,2,0:0:0:0:
365,280,382850,1,10,0:0:0:0:
351,251,382908,1,2,0:0:0:0:
325,232,382966,1,10,0:0:0:0:
293,227,383023,1,2,0:0:0:0:
267,208,383080,1,10,0:0:0:0:
253,179,383138,1,2,0:0:0:0:
254,147,383197,5,10,0:0:0:0:
290,174,383254,1,2,0:0:0:0:
303,218,383312,1,10,0:0:0:0:
288,262,383370,1,2,0:0:0:0:
250,287,383427,1,10,0:0:0:0:
204,280,383484,1,2,0:0:0:0:
171,248,383542,1,10,0:0:0:0:
163,203,383600,1,2,0:0:0:0:
182,161,383657,5,10,0:0:0:0:
184,102,383715,1,2,0:0:0:0:
144,58,383773,1,10,0:0:0:0:
82,54,383831,1,2,0:0:0:0:
35,93,383889,1,10,0:0:0:0:
30,153,383947,1,2,0:0:0:0:
58,205,384004,1,10,0:0:0:0:
57,266,384062,1,2,0:0:0:0:
18,313,384120,5,14,0:0:0:0:
