osu file format v14

[General]
AudioFilename: track.mp3
AudioLeadIn: 0
PreviewTime: 78874
Countdown: 0
SampleSet: Normal
StackLeniency: 0.7
Mode: 2
LetterboxInBreaks: 0
WidescreenStoryboard: 1

[Editor]
DistanceSpacing: 1.7
BeatDivisor: 4
GridSize: 16
TimelineZoom: 2.7

[Metadata]
Title:IMAGE -MATERIAL-
TitleUnicode:IMAGE -MATERIAL-
Artist:Tatsh
ArtistUnicode:Tatsh
Creator:Ascendance
Version:Medium
Source:REFLEC BEAT limelight
Tags:EdamaMe411 Razor Sharp Lost Labyr Shyguy JUDYDANNY DakeDekaane Nwolf
BeatmapID:829953
BeatmapSetID:377574

[Difficulty]
HPDrainRate:6
CircleSize:4
OverallDifficulty:8
ApproachRate:8
SliderMultiplier:1.2
SliderTickRate:2

[Events]
//Background and Video events
0,0,"bg.jpg",0,0
//Break Periods
2,22767,29201
//Storyboard Layer 0 (Background)
//Storyboard Layer 1 (Fail)
//Storyboard Layer 2 (Pass)
//Storyboard Layer 3 (Foreground)
//Storyboard Sound Samples

[TimingPoints]
2260,461.538461538462,4,2,1,50,1,0
22567,230.769230769231,4,2,1,40,1,0
29951,-100,4,1,1,70,0,0
48643,-125,4,1,1,70,0,0
49105,-100,4,1,1,70,0,0
52336,-125,4,1,1,70,0,0
52797,-100,4,1,1,70,0,0
62259,-133.333333333333,4,1,1,70,0,0
78874,-100,4,1,1,90,0,1
92490,-100,4,1,1,80,0,1
93643,-100,4,1,1,90,0,1
110259,-100,4,1,1,90,0,0
110490,-100,4,1,1,80,0,0
110720,-100,4,1,1,70,0,0
110951,-100,4,1,1,60,0,0
111182,-100,4,1,1,50,0,0
111413,-100,4,1,1,40,0,0
112105,-100,4,1,1,30,0,0
113028,-100,4,1,1,15,0,0

[Colours]
Combo1 : 244,151,11
Combo2 : 11,244,11
Combo3 : 11,244,244
Combo4 : 244,11,11

[HitObjects]
96,64,2260,6,0,P|64:128|80:176,1,120
176,128,3183,2,0,L|304:128,1,120
432,48,4106,5,0,0:0:0:0:
496,96,4567,1,0,0:0:0:0:
432,144,5029,1,0,0:0:0:0:
368,192,5490,1,0,0:0:0:0:
80,48,5952,6,0,P|48:112|160:224,1,240
304,128,7336,2,0,L|176:160,2,120
448,48,8721,6,0,P|480:112|448:176,1,120
192,192,9644,2,0,B|272:224|272:224|160:224|160:224|304:160|304:160|160:160,2,480
384,224,13798,6,0,B|480:192|480:192|496:160,2,120
144,80,15183,2,0,P|96:144|272:256,1,360
256,192,17029,12,0,22567,0:0:0:0:
80,64,29951,6,0,L|208:96,1,120
336,176,30413,2,0,L|416:160,2,60
176,224,30874,2,0,L|48:256,1,120
240,304,31336,2,0,L|304:320,2,60
400,224,31797,6,0,L|272:192,1,120
352,112,32143,2,0,L|224:112,1,120
144,192,32490,2,0,L|208:192,1,60
432,224,32720,2,0,L|304:224,1,120
144,288,33182,2,0,L|64:304,2,60
256,256,33643,6,0,L|384:256,1,120
304,176,33990,2,0,L|448:176,1,120
352,96,34336,2,0,L|272:96,1,60
400,32,34567,2,0,P|272:96|304:144,1,240
416,176,35259,1,0,0:0:0:0:
256,208,35490,6,0,L|176:208,1,60
144,272,35720,2,0,L|208:272,1,60
320,272,35951,2,0,L|384:272,1,60
432,192,36182,2,0,L|352:192,1,60
128,80,36413,5,0,0:0:0:0:
96,112,36470,1,0,0:0:0:0:
80,144,36528,1,0,0:0:0:0:
80,176,36586,1,0,0:0:0:0:
80,208,36643,1,0,0:0:0:0:
96,240,36701,1,0,0:0:0:0:
112,272,36759,1,0,0:0:0:0:
144,288,36817,1,0,0:0:0:0:
176,304,36874,6,0,L|240:304,1,60
384,224,37105,2,0,L|304:224,1,60
32,240,37336,6,0,P|96:208|144:208,1,120
240,272,37682,2,0,P|288:288|368:272,1,120
256,160,38028,2,0,P|192:160|144:192,1,120
256,240,38374,2,0,L|320:240,1,60
384,160,38605,2,0,L|304:160,1,60
160,48,38836,1,0,0:0:0:0:
96,96,38951,1,0,0:0:0:0:
160,144,39067,1,0,0:0:0:0:
352,144,39182,6,0,L|480:144,1,120
416,224,39528,2,0,L|288:224,1,120
80,128,39874,2,0,L|208:128,1,120
288,208,40220,2,0,L|144:208,1,120
32,272,40567,1,0,0:0:0:0:
112,320,40682,1,0,0:0:0:0:
208,320,40797,1,0,0:0:0:0:
288,272,40913,1,0,0:0:0:0:
496,176,41028,6,0,L|352:176,1,120
240,112,41374,2,0,L|112:112,1,120
224,208,41720,2,0,L|368:208,1,120
464,128,42067,2,0,L|336:128,1,120
128,64,42413,1,0,0:0:0:0:
64,128,42528,1,0,0:0:0:0:
96,208,42643,1,0,0:0:0:0:
176,256,42759,1,0,0:0:0:0:
368,192,42874,6,0,L|224:192,1,120
320,256,43220,2,0,L|192:256,1,120
432,336,43567,2,0,P|448:288|416:208,1,120
288,144,43913,6,0,L|208:144,1,60
64,96,44259,2,0,L|208:96,2,120
192,144,44951,2,0,P|272:176|416:96,1,240
320,64,45643,6,0,L|256:80,1,60
144,96,45874,2,0,L|64:128,1,60
224,160,46105,2,0,L|288:192,1,60
176,272,46336,2,0,L|230:246,1,60
464,80,46567,5,0,0:0:0:0:
432,96,46624,1,0,0:0:0:0:
400,128,46682,1,0,0:0:0:0:
384,160,46740,1,0,0:0:0:0:
384,192,46797,1,0,0:0:0:0:
400,224,46855,1,0,0:0:0:0:
416,256,46913,1,0,0:0:0:0:
448,288,46970,1,0,0:0:0:0:
416,288,47028,5,0,0:0:0:0:
384,256,47085,1,0,0:0:0:0:
352,240,47143,1,0,0:0:0:0:
320,224,47201,1,0,0:0:0:0:
288,224,47258,1,0,0:0:0:0:
256,240,47316,1,0,0:0:0:0:
224,272,47374,1,0,0:0:0:0:
208,304,47431,1,0,0:0:0:0:
0,256,47490,6,0,L|128:256,1,120
256,176,47951,2,0,L|336:176,2,60
80,112,48413,2,0,L|208:112,1,120
288,80,48874,2,0,L|352:80,2,48
160,160,49336,6,0,L|288:160,2,120
256,224,50028,1,0,0:0:0:0:
384,272,50259,2,0,L|320:272,1,60
208,304,50490,2,0,L|144:304,1,60
208,224,50720,2,0,L|272:224,1,60
368,160,50951,2,0,L|308:160,1,60
48,96,51182,6,0,L|176:96,1,120
288,112,51643,2,0,L|352:112,2,60
144,208,52105,2,0,L|272:208,1,120
432,208,52567,1,0,0:0:0:0:
384,256,52682,1,0,0:0:0:0:
320,288,52797,1,0,0:0:0:0:
256,272,52913,1,0,0:0:0:0:
0,176,53028,6,0,L|240:144,1,240
368,160,53720,2,0,L|240:144,1,120
80,208,54182,1,0,0:0:0:0:
272,224,54413,1,0,0:0:0:0:
336,256,54528,1,0,0:0:0:0:
272,288,54643,1,0,0:0:0:0:
208,320,54759,1,0,0:0:0:0:
32,240,54874,6,0,L|176:224,1,120
304,160,55336,2,0,L|368:176,2,60
384,240,55797,2,0,L|512:240,1,120
368,320,56259,2,0,L|304:336,2,60
288,208,56720,6,0,L|144:240,1,120
192,128,57182,1,0,0:0:0:0:
272,80,57297,1,0,0:0:0:0:
352,128,57413,1,0,0:0:0:0:
320,224,57528,1,0,0:0:0:0:
240,224,57643,5,0,0:0:0:0:
320,304,57759,1,0,0:0:0:0:
416,320,57874,1,0,0:0:0:0:
480,240,57990,1,0,0:0:0:0:
352,192,58105,6,0,L|272:192,1,60
304,128,58336,2,0,L|368:128,1,60
480,112,58567,6,0,P|464:176|304:224,1,240
160,144,59259,2,0,L|224:144,1,60
336,128,59490,2,0,P|336:192|192:304,1,240
160,192,60182,2,0,L|224:192,1,60
336,256,60413,6,0,L|272:256,1,60
240,192,60643,2,0,L|320:192,1,60
496,192,60874,1,0,0:0:0:0:
480,224,60932,1,0,0:0:0:0:
448,240,60990,1,0,0:0:0:0:
416,240,61047,1,0,0:0:0:0:
384,224,61105,1,0,0:0:0:0:
368,192,61163,1,0,0:0:0:0:
368,160,61220,1,0,0:0:0:0:
336,144,61278,1,0,0:0:0:0:
320,192,61336,5,0,0:0:0:0:
304,224,61394,1,0,0:0:0:0:
272,240,61452,1,0,0:0:0:0:
240,240,61509,1,0,0:0:0:0:
208,224,61567,1,0,0:0:0:0:
192,192,61625,1,0,0:0:0:0:
192,160,61682,1,0,0:0:0:0:
160,144,61740,1,0,0:0:0:0:
144,192,61797,5,0,0:0:0:0:
128,224,61855,1,0,0:0:0:0:
96,240,61913,1,0,0:0:0:0:
64,240,61970,1,0,0:0:0:0:
32,224,62028,1,0,0:0:0:0:
16,192,62086,1,0,0:0:0:0:
16,160,62143,1,0,0:0:0:0:
48,128,62201,1,0,0:0:0:0:
256,64,62259,6,0,L|352:64,1,90.0000034332277
448,144,62720,2,0,L|512:144,2,45.0000017166138
368,144,63067,1,0,0:0:0:0:
192,144,63182,2,0,P|160:192|352:304,1,360.000013732911
256,240,64336,2,0,L|160:240,2,90.0000034332277
368,144,65028,5,0,0:0:0:0:
288,208,65143,1,0,0:0:0:0:
192,224,65259,1,0,0:0:0:0:
96,176,65374,1,0,0:0:0:0:
224,96,65490,5,0,0:0:0:0:
304,160,65605,1,0,0:0:0:0:
224,208,65720,1,0,0:0:0:0:
144,256,65836,1,0,0:0:0:0:
16,176,65951,6,0,L|112:176,1,90.0000034332277
208,112,66413,2,0,L|272:112,1,45.0000017166138
288,176,66643,2,0,L|240:176,1,45.0000017166138
128,176,66874,2,0,P|112:224|336:304,1,360.000013732911
176,240,68028,2,0,L|80:240,2,90.0000034332277
416,128,68720,5,0,0:0:0:0:
352,192,68836,1,0,0:0:0:0:
272,224,68951,1,0,0:0:0:0:
176,208,69067,1,0,0:0:0:0:
304,128,69182,5,0,0:0:0:0:
384,192,69297,1,0,0:0:0:0:
304,240,69413,1,0,0:0:0:0:
224,288,69528,1,0,0:0:0:0:
80,224,69643,6,0,L|176:224,1,90.0000034332277
288,160,70105,2,0,L|352:160,1,45.0000017166138
398,221,70336,2,0,L|353:221,1,45.0000017166138
224,160,70567,2,0,P|192:208|384:272,1,360.000013732911
272,208,71720,6,0,L|176:208,1,90.0000034332277
80,160,72182,1,0,0:0:0:0:
240,64,72413,5,0,0:0:0:0:
288,96,72528,1,0,0:0:0:0:
320,144,72643,1,0,0:0:0:0:
304,192,72759,1,0,0:0:0:0:
256,224,72874,1,0,0:0:0:0:
224,256,72990,1,0,0:0:0:0:
240,304,73105,1,0,0:0:0:0:
288,336,73220,1,0,0:0:0:0:
368,352,73336,6,0,P|448:304|352:192,1,270.000010299683
272,256,74259,2,0,L|208:256,1,45.0000017166138
176,192,74490,2,0,L|240:192,1,45.0000017166138
336,112,74720,2,0,L|384:112,1,45.0000017166138
432,32,74951,2,0,L|384:32,1,45.0000017166138
128,48,75182,6,0,P|48:80|144:192,1,270.000010299683
240,128,76105,2,0,L|336:128,1,90.0000034332277
384,192,76567,2,0,L|288:192,1,90.0000034332277
64,192,77028,5,0,0:0:0:0:
96,224,77086,1,0,0:0:0:0:
128,240,77143,1,0,0:0:0:0:
160,240,77201,1,0,0:0:0:0:
192,224,77259,1,0,0:0:0:0:
224,208,77317,1,0,0:0:0:0:
240,176,77374,1,0,0:0:0:0:
256,144,77432,1,0,0:0:0:0:
192,144,77490,5,0,0:0:0:0:
160,128,77547,1,0,0:0:0:0:
128,96,77605,1,0,0:0:0:0:
144,64,77663,1,0,0:0:0:0:
176,32,77720,1,0,0:0:0:0:
208,32,77778,1,0,0:0:0:0:
240,48,77836,1,0,0:0:0:0:
272,64,77893,1,0,0:0:0:0:
336,64,77951,5,0,0:0:0:0:
304,96,78009,1,0,0:0:0:0:
272,128,78066,1,0,0:0:0:0:
240,160,78124,1,0,0:0:0:0:
208,192,78182,1,0,0:0:0:0:
240,208,78240,1,0,0:0:0:0:
272,224,78297,1,0,0:0:0:0:
304,240,78355,1,0,0:0:0:0:
256,256,78413,5,0,0:0:0:0:
208,256,78470,1,0,0:0:0:0:
176,272,78528,1,0,0:0:0:0:
144,288,78586,1,0,0:0:0:0:
176,320,78643,1,0,0:0:0:0:
208,336,78701,1,0,0:0:0:0:
240,352,78759,1,0,0:0:0:0:
272,336,78817,1,0,0:0:0:0:
480,304,78874,6,0,L|352:256,1,120
224,192,79336,2,0,L|144:208,3,60
32,256,79797,2,0,L|160:256,1,120
288,272,80259,2,0,L|352:304,3,60
432,256,80720,6,0,L|304:256,1,120
176,208,81182,2,0,L|240:208,1,60
336,160,81413,2,0,L|400:160,1,60
256,96,81643,2,0,L|192:96,1,60
112,160,81874,2,0,L|48:160,1,60
160,256,82105,2,0,L|224:256,1,60
336,160,82336,2,0,L|256:160,1,60
48,160,82567,6,0,L|176:160,1,120
288,96,83028,2,0,L|352:96,3,60
416,144,83490,6,0,L|288:144,1,120
112,240,83951,2,0,L|192:240,3,60
64,272,84413,6,0,L|208:272,1,120
384,160,84874,2,0,L|320:160,1,60
368,224,85105,2,0,L|432:224,1,60
384,288,85336,2,0,L|320:288,1,60
256,240,85567,2,0,L|336:240,1,60
400,192,85797,5,0,0:0:0:0:
352,176,85855,1,0,0:0:0:0:
304,176,85913,1,0,0:0:0:0:
256,192,85970,1,0,0:0:0:0:
208,224,86028,1,0,0:0:0:0:
160,240,86086,1,0,0:0:0:0:
112,224,86143,1,0,0:0:0:0:
64,192,86201,1,0,0:0:0:0:
96,160,86259,6,0,L|240:160,1,120
368,128,86720,2,0,L|432:128,3,60
480,176,87182,6,0,L|352:176,1,120
192,224,87643,2,0,L|112:224,3,60
80,272,88105,6,0,L|208:272,1,120
320,160,88567,2,0,L|384:160,1,60
448,240,88797,2,0,L|512:240,1,60
464,176,89028,2,0,L|384:176,1,60
288,208,89259,2,0,L|224:208,1,60
272,144,89490,2,0,L|352:144,1,60
416,240,89720,2,0,L|352:240,1,60
80,112,89951,2,0,P|32:144|192:272,1,360
384,80,90874,5,0,0:0:0:0:
432,96,90932,1,0,0:0:0:0:
464,144,90990,1,0,0:0:0:0:
448,192,91047,1,0,0:0:0:0:
416,240,91105,1,0,0:0:0:0:
368,240,91163,1,0,0:0:0:0:
320,224,91220,1,0,0:0:0:0:
272,192,91278,1,0,0:0:0:0:
224,176,91336,1,0,0:0:0:0:
176,192,91393,1,0,0:0:0:0:
128,224,91451,1,0,0:0:0:0:
96,272,91509,1,0,0:0:0:0:
128,304,91567,1,0,0:0:0:0:
176,304,91624,1,0,0:0:0:0:
224,288,91682,1,0,0:0:0:0:
256,256,91740,1,0,0:0:0:0:
