osu file format v14

[General]
AudioFilename: track.mp3
AudioLeadIn: 0
PreviewTime: 78874
Countdown: 0
SampleSet: Soft
StackLeniency: 0.7
Mode: 2
LetterboxInBreaks: 0
WidescreenStoryboard: 0

[Editor]
DistanceSpacing: 1
BeatDivisor: 4
GridSize: 4
TimelineZoom: 1

[Metadata]
Title:IMAGE -MATERIAL-
TitleUnicode:IMAGE -MATERIAL-
Artist:Tatsh
ArtistUnicode:Tatsh
Creator:Ascendance
Version:Basic
Source:REFLEC BEAT limelight
Tags:EdamaMe411 Razor Sharp Lost Labyr Shyguy JUDYDANNY DakeDekaane Nwolf
BeatmapID:826372
BeatmapSetID:377574

[Difficulty]
HPDrainRate:6
CircleSize:3
OverallDifficulty:6
ApproachRate:6
SliderMultiplier:1
SliderTickRate:1

[Events]
//Background and Video events
0,0,"bg.jpg",0,0
//Break Periods
2,22767,28901
//Storyboard Layer 0 (Background)
//Storyboard Layer 1 (Fail)
//Storyboard Layer 2 (Pass)
//Storyboard Layer 3 (Foreground)
//Storyboard Sound Samples

[TimingPoints]
2260,461.538461538462,4,2,0,50,1,0
22567,230.769230769231,4,2,0,40,1,0
29951,-100,4,1,0,70,0,0
48643,-125,4,1,0,70,0,0
49105,-100,4,1,0,70,0,0
52336,-125,4,1,0,70,0,0
52797,-100,4,1,0,70,0,0
62259,-133.333333333333,4,1,0,70,0,0
78874,-100,4,1,0,90,0,1
92490,-100,4,1,0,80,0,1
93643,-100,4,1,0,90,0,1
110259,-100,4,1,0,90,0,0
110490,-100,4,1,0,80,0,0
110720,-100,4,1,0,70,0,0
110951,-100,4,1,0,60,0,0
111182,-100,4,1,0,50,0,0
111413,-100,4,1,0,40,0,0
112105,-100,4,1,0,30,0,0
113028,-100,4,1,0,15,0,0

[HitObjects]
64,96,2260,6,0,P|112:128|144:160,1,100
304,160,3183,2,0,P|368:144|400:128,1,100
256,64,4106,5,0,0:0:0:0:
160,112,4567,1,0,0:0:0:0:
368,128,5029,1,0,0:0:0:0:
448,192,5490,1,0,0:0:0:0:
256,224,5952,6,0,P|208:224|64:304,1,200
208,304,7336,2,0,L|304:352,2,100
32,256,8721,6,0,P|112:208|192:208,1,175
260,272,9644,2,0,P|180:288|84:224,1,200
240,164,11029,2,0,L|336:132,2,100
16,112,12413,2,0,P|16:192|32:208,1,100
160,240,13336,6,0,P|208:256|352:192,2,200
256,128,15644,2,0,L|352:96,2,100
256,192,17029,12,0,22567,0:0:0:0:
64,96,29951,6,0,P|128:128|256:96,1,200
344,152,30643,2,0,L|240:200,1,100
64,208,31105,1,0,0:0:0:0:
124,288,31336,2,0,L|236:288,1,100
448,288,31797,6,0,P|480:224|432:112,1,200
328,168,32490,2,0,L|216:168,1,100
0,256,32951,2,0,L|112:256,1,100
176,336,33413,1,0,0:0:0:0:
44,264,33643,6,0,P|16:216|96:100,1,200
188,188,34336,2,0,L|292:188,1,100
216,272,34797,1,0,0:0:0:0:
344,320,35028,6,0,L|448:272,1,100
512,208,35490,2,0,L|412:164,1,100
256,160,35951,2,0,L|156:164,1,100
40,84,36413,2,0,P|8:156|152:296,1,300
308,260,37336,6,0,P|372:256|456:196,1,150
248,144,38028,2,0,P|184:148|124:208,1,150
316,272,38720,2,0,L|416:280,1,100
320,192,39182,6,0,P|264:200|172:260,1,150
64,136,39874,2,0,P|148:136|204:88,1,150
328,184,40567,2,0,L|220:180,1,100
92,224,41028,6,0,L|228:308,1,150
376,240,41720,2,0,L|216:228,1,150
352,144,42413,2,0,L|456:120,1,100
284,48,42874,6,0,P|224:60|152:128,2,150
432,112,43797,2,0,L|328:116,1,100
412,224,44259,5,0,0:0:0:0:
336,280,44490,1,0,0:0:0:0:
188,256,44720,1,0,0:0:0:0:
272,212,44951,2,0,P|316:184|260:72,1,200
48,152,45643,6,0,L|148:196,1,100
280,116,46105,2,0,L|168:112,1,100
24,112,46567,2,0,L|24:136,14,25
72,68,47490,6,0,P|96:92|240:44,1,200
364,136,48182,2,0,L|256:136,1,100
368,232,48643,2,0,L|428:288,2,80
216,192,49336,6,0,L|68:240,1,150
232,284,50028,2,0,L|352:280,2,100
372,200,50720,2,0,L|480:200,1,100
288,80,51182,6,0,P|236:80|104:160,1,200
264,176,51874,2,0,L|364:172,1,100
204,264,52336,2,0,L|124:292,2,80
424,188,53028,6,0,P|360:164|228:176,1,200
68,264,53720,2,0,L|176:264,1,100
312,132,54182,1,0,0:0:0:0:
228,172,54413,1,0,0:0:0:0:
304,228,54643,1,0,0:0:0:0:
152,260,54874,6,0,P|88:264|4:304,1,150
208,188,55567,2,0,L|320:184,1,100
224,276,56028,2,0,L|120:276,1,100
32,208,56490,1,0,0:0:0:0:
184,120,56720,6,0,P|244:128|324:172,1,150
136,236,57413,2,0,L|32:232,1,100
96,304,57874,2,0,L|200:304,1,100
272,240,58336,1,0,0:0:0:0:
476,116,58567,6,0,P|408:96|276:132,1,200
16,172,59490,2,0,P|76:208|220:184,1,200
348,112,60413,6,0,L|236:112,1,100
136,212,60874,1,0,0:0:0:0:
280,288,61105,6,0,L|280:332,18,25
224,256,62259,6,0,P|176:236|76:260,1,150
208,156,63182,2,0,B|440:156|440:156|148:160,1,525.000020027161
96,240,65028,2,0,L|168:284,1,75.0000028610231
272,192,65490,2,0,L|188:192,1,75.0000028610231
280,96,65951,6,0,P|352:96|424:136,1,150.000005722046
304,156,66874,2,0,B|72:156|72:156|368:156,1,525.000020027161
428,248,68720,2,0,L|348:244,1,75.0000028610231
212,328,69182,2,0,L|288:328,1,75.0000028610231
192,236,69643,6,0,P|112:224|44:252,1,150.000005722046
208,156,70567,2,0,B|440:156|440:156|144:156,1,525.000020027161
44,216,72413,2,0,L|120:256,1,75.0000028610231
232,320,72874,2,0,L|144:320,1,75.0000028610231
236,236,73336,6,0,P|272:224|448:272,1,225.000008583069
300,292,74259,2,0,P|240:308|96:228,1,225.000008583069
216,168,75182,2,0,P|272:136|424:188,1,225.000008583069
260,174,76105,6,0,B|48:312|48:312|240:304|240:304|144:188|56:300|56:300|60:144,1,825.000031471254
224,144,78874,6,0,P|288:124|424:152,1,200
304,224,79567,2,0,L|188:220,2,100
420,320,80259,2,0,L|320:320,1,100
152,304,80720,6,0,B|100:296|24:284|24:284|92:248,1,200
192,224,81413,2,0,L|300:224,1,100
224,144,81874,1,0,0:0:0:0:
144,80,82105,1,0,0:0:0:0:
228,24,82336,1,0,0:0:0:0:
432,40,82567,6,0,P|372:44|264:132,1,200
440,180,83259,2,0,L|328:180,1,100
140,188,83720,1,0,0:0:0:0:
216,252,83951,1,0,0:0:0:0:
296,312,84182,1,0,0:0:0:0:
456,208,84413,6,0,P|396:192|336:200,1,100
200,244,84874,2,0,P|248:264|304:248,1,100
240,92,85336,1,0,0:0:0:0:
164,144,85567,1,0,0:0:0:0:
336,176,85797,1,0,0:0:0:0:
404,240,86028,1,0,0:0:0:0:
216,260,86259,6,0,P|168:244|16:264,1,200
128,320,86951,1,0,0:0:0:0:
232,256,87182,2,0,L|340:256,1,100
204,148,87643,2,0,L|104:148,1,100
208,48,88105,6,0,P|276:80|312:96,1,100
216,156,88567,1,0,0:0:0:0:
136,212,88797,1,0,0:0:0:0:
208,276,89028,1,0,0:0:0:0:
124,320,89259,1,0,0:0:0:0:
208,276,89490,1,0,0:0:0:0:
288,232,89720,1,0,0:0:0:0:
388,188,89951,6,0,B|328:120|328:120|280:160|204:100|204:100|376:100,1,400
276,176,91105,2,0,L|184:228,1,100
96,160,91567,1,0,0:0:0:0:
224,68,91797,6,0,P|312:84|332:100,1,100
200,152,92259,2,0,P|144:156|104:184,1,100
224,244,92720,2,0,P|256:260|324:256,1,100
472,256,93182,2,0,P|412:220|368:220,1,100
184,200,93643,6,0,P|96:200|76:216,1,100
160,292,94105,2,0,P|208:296|260:272,1,100
168,220,94567,1,0,0:0:0:0:
88,168,94797,1,0,0:0:0:0:
232,128,95028,1,0,0:0:0:0:
296,64,95259,1,0,0:0:0:0:
444,120,95490,6,0,L|332:120,1,100
208,216,95951,2,0,L|316:216,1,100
388,276,96413,1,0,0:0:0:0:
456,336,96643,1,0,0:0:0:0:
296,276,96874,1,0,0:0:0:0:
216,220,97105,1,0,0:0:0:0:
308,164,97336,6,0,P|360:164|416:140,2,100
192,120,98028,2,0,P|120:108|84:88,2,100
88,196,98720,2,0,L|-16:196,1,100
84,284,99182,6,0,L|200:288,1,100
288,276,99643,1,0,0:0:0:0:
208,204,99874,1,0,0:0:0:0:
384,76,100105,5,0,0:0:0:0:
464,136,100336,1,0,0:0:0:0:
468,236,100567,1,0,0:0:0:0:
388,284,100797,1,0,0:0:0:0:
280,212,101028,6,0,L|380:212,1,100
184,124,101490,2,0,L|72:124,1,100
176,212,101951,1,0,0:0:0:0:
240,276,102182,1,0,0:0:0:0:
80,284,102413,1,0,0:0:0:0:
4,328,102643,1,0,0:0:0:0:
160,332,102874,6,0,L|264:328,1,100
364,240,103336,2,0,L|260:224,1,100
112,196,103797,1,0,0:0:0:0:
44,144,104028,1,0,0:0:0:0:
40,60,104259,1,0,0:0:0:0:
112,16,104490,1,0,0:0:0:0:
232,72,104720,6,0,P|308:72|416:128,2,200
96,172,105874,2,0,L|196:172,2,100
232,312,106567,6,0,P|308:312|416:256,2,200
108,168,107720,2,0,L|8:168,2,100
224,88,108413,5,0,0:0:0:0:
312,132,108643,1,0,0:0:0:0:
244,188,108874,1,0,0:0:0:0:
172,240,109105,1,0,0:0:0:0:
308,280,109336,5,0,0:0:0:0:
352,256,109451,1,0,0:0:0:0:
396,236,109567,1,0,0:0:0:0:
356,204,109682,1,0,0:0:0:0:
312,184,109797,1,0,0:0:0:0:
264,168,109913,1,0,0:0:0:0:
304,140,110028,1,0,0:0:0:0:
348,112,110143,1,0,0:0:0:0:
392,92,110259,1,0,0:0:0:0:
256,192,110317,12,0,113028,0:0:0:0:
