osu file format v14

[General]
AudioFilename: 03 IMAGE -MATERIAL-2.mp3
AudioLeadIn: 0
PreviewTime: 165820
Countdown: 0
SampleSet: Soft
StackLeniency: 0.7
Mode: 0
LetterboxInBreaks: 0
WidescreenStoryboard: 0

[Editor]
Bookmarks: 589,103512,138589,149666,281976,295476,371197,384120,405979,408017,410969
DistanceSpacing: 1
BeatDivisor: 4
GridSize: 4
TimelineZoom: 2.2

[Metadata]
Title:IMAGE -MATERIAL-
TitleUnicode:IMAGE -MATERIAL-
Artist:Tatsh
ArtistUnicode:Tatsh
Creator:4lxd
Version:Realize
Source:
Tags:
BeatmapID:1408632
BeatmapSetID:665617

[Difficulty]
HPDrainRate:6
CircleSize:4
OverallDifficulty:7.5
ApproachRate:9.2
SliderMultiplier:1.9
SliderTickRate:1

[Events]
//Background and Video events
0,0,"image material.jpg",0,0
//Break Periods
2,49251,53327
2,149866,160173
2,384319,388179
//Storyboard Layer 0 (Background)
//Storyboard Layer 1 (Fail)
//Storyboard Layer 2 (Pass)
//Storyboard Layer 3 (Foreground)
//Storyboard Sound Samples

[TimingPoints]
6590,461.538461538462,4,2,0,50,1,0
6590,-133.333333333333,4,2,0,50,0,0
13051,-200,4,2,0,50,0,0
13974,-133.333333333333,4,2,0,50,0,0
20897,-133.333333333333,4,2,0,20,0,0
21359,-133.333333333333,4,2,1,40,0,0
21820,-133.333333333333,4,2,1,50,0,0
25051,-200,4,2,1,40,0,0
25166,-200,4,2,1,50,0,0
26897,-200,4,2,1,40,0,0
29205,-133.333333333333,4,2,1,50,0,0
32436,-133.333333333333,4,2,1,40,0,0
32551,-133.333333333333,4,2,1,50,0,0
36128,-133.333333333333,4,2,1,40,0,0
36590,-133.333333333333,4,2,1,50,0,0
39820,-133.333333333333,4,2,1,40,0,0
39936,-133.333333333333,4,2,1,50,0,0
41666,-303.030303030303,4,2,1,50,0,0
43513,-133.333333333333,4,2,1,40,0,0
43743,-133.333333333333,4,2,1,30,0,0
55974,-133.333333333333,4,2,1,5,0,0
56436,230.769230769231,4,1,1,75,1,1
60128,-100,4,1,1,75,0,1
66589,-133.333333333333,4,1,1,70,0,1
67512,-100,4,1,1,75,0,1
68897,-100,4,1,1,65,0,1
69359,-100,4,3,1,70,0,0
71205,-100,4,1,1,75,0,0
77666,-100,4,1,1,55,0,0
78589,-100,4,1,1,75,0,0
85512,-133.333333333333,4,1,1,60,0,0
86897,-100,4,1,1,60,0,0
87820,-100,4,1,1,70,0,0
88282,-100,4,1,1,75,0,0
88743,-100,4,1,1,80,0,1
88801,-100,4,1,1,75,0,0
101666,-100,4,3,1,70,0,0
103512,-100,4,1,1,75,0,0
110897,-100,4,1,1,75,0,0
114589,-133.333333333333,4,1,1,70,0,0
115512,-200,4,1,1,60,0,0
116436,-133.333333333333,4,1,1,75,0,0
117359,-200,4,1,1,55,0,0
118282,-100,4,1,1,50,0,0
118743,-100,4,1,1,60,0,0
119205,-100,4,1,1,70,0,0
119666,-100,4,1,1,80,0,0
120128,-100,4,1,1,75,0,0
125666,-100,4,1,2,50,0,0
126128,-100,4,1,1,75,0,0
133051,-100,4,1,1,65,0,0
133512,-100,4,1,1,70,0,0
133974,-100,4,1,1,75,0,0
134897,-200,4,1,1,60,0,0
142282,-133.333333333333,4,1,1,65,0,0
147820,-100,4,1,1,75,0,0
148743,-100,4,1,1,60,0,0
149205,-100,4,1,1,70,0,0
149666,-100,4,1,1,80,0,0
160743,-200,4,2,0,55,0,0
164436,-133.333333333333,4,2,0,60,0,0
165359,-100,4,2,1,60,0,0
165820,-100,4,1,1,70,0,0
166282,-100,4,1,1,75,0,1
166339,-100,4,1,1,75,0,0
179205,-100,4,3,1,70,0,0
181051,-100,4,1,1,75,0,0
192128,-133.333333333333,4,1,1,65,0,0
193051,-200,4,1,1,55,0,0
193974,-133.333333333333,4,1,1,75,0,0
194897,-133.333333333333,4,1,1,65,0,0
195820,-100,4,1,1,50,0,0
196282,-100,4,1,1,60,0,0
196743,-100,4,1,1,70,0,0
197205,-100,4,1,1,80,0,0
197666,-100,4,1,1,75,0,1
209666,-100,4,1,1,40,0,1
209897,-100,4,1,1,50,0,1
210128,-100,4,1,1,60,0,1
210359,-100,4,1,1,70,0,1
210589,-100,4,1,1,75,0,1
218897,-100,4,1,1,80,0,1
219128,-100,4,1,1,75,0,1
219359,-100,4,1,1,70,0,1
219589,-100,4,1,1,65,0,1
219820,-100,4,1,1,75,0,1
226512,-100,4,1,2,65,0,1
227205,461.538461538462,4,2,0,35,1,0
245435,461.538461538462,4,2,0,35,1,0
251550,697.674418604651,4,2,0,25,1,0
252703,714.285714285714,4,2,0,20,1,0
253506,800,4,2,0,20,1,0
254095,1132.07547169811,4,2,0,15,1,0
255580,1200,4,2,0,12,1,0
256480,1267.10000000001,4,2,0,10,1,0
258892,2131.45714285714,4,2,0,10,1,0
263197,230.769230769231,4,1,1,75,1,0
270581,-100,4,1,1,75,0,1
277966,-100,4,1,1,75,0,0
284427,-100,4,1,1,60,0,0
285350,-100,4,1,1,75,0,0
292273,-133.333333333333,4,1,1,65,0,0
292966,-133.333333333333,4,1,1,70,0,0
293658,-100,4,1,1,75,0,0
295504,-100,4,1,1,75,0,1
295562,-100,4,1,1,75,0,0
308427,-100,4,3,1,75,0,0
310273,-100,4,1,1,75,0,1
322273,-100,4,1,1,40,0,1
322504,-100,4,1,1,50,0,1
322735,-100,4,1,1,60,0,1
322966,-100,4,1,1,70,0,1
323197,-100,4,3,1,75,0,0
325043,-100,4,1,1,75,0,1
337043,-100,4,1,1,40,0,1
337273,-100,4,1,1,50,0,1
337504,-100,4,1,1,60,0,1
337735,-100,4,1,1,70,0,1
337966,-100,4,1,1,75,0,1
346273,-100,4,1,1,80,0,1
346504,-100,4,1,1,75,0,1
346735,-100,4,1,1,70,0,1
346966,-100,4,1,1,65,0,1
355504,-100,4,1,2,65,0,1
356427,-100,4,1,1,75,0,0
370273,-100,4,1,2,65,0,0
371197,-100,4,1,1,75,0,0
378581,-133.333333333333,4,2,0,75,0,0
382273,-100,4,1,0,75,0,0
383658,-80,4,1,0,65,0,0
388749,461.538461538462,3,2,2,30,1,0
388749,-133.333333333333,3,2,2,30,0,0
405364,615.384615384615,3,2,2,20,1,0
405364,-133.333333333333,4,2,2,20,0,0
405979,461.538461538462,3,2,2,25,1,0
406440,433.212996389892,3,2,2,30,1,0
406873,490.596892886345,3,2,2,30,1,0
406873,-166.666666666667,4,2,2,30,0,0
407363,654.307524536532,3,2,2,20,1,0
408017,738.007380073801,4,2,2,15,1,0
410969,461.538461538462,3,2,2,30,1,0

[Colours]
Combo1 : 255,128,64
Combo2 : 0,125,251
Combo3 : 10,173,133
Combo4 : 255,60,60

[HitObjects]
96,128,6590,6,0,P|256:8|416:128,1,427.500016307831,4|0,0:0|0:0,0:0:0:0:
416,256,8436,2,0,P|256:376|96:256,1,427.500016307831,4|0,0:0|0:0,0:0:0:0:
35,176,10282,6,0,B|99:144|115:96|115:96|147:64|147:64|195:128|211:80|256:101|256:101|307:80|323:128|371:64|371:64|403:96|403:96|419:144|483:176,1,570,4|0,0:0|0:0,0:0:0:0:
256,278,13051,6,0,L|256:180,1,95
96,257,13974,6,0,P|256:375|416:256,1,427.500016307831,4|0,0:0|0:0,0:0:0:0:
415,126,15820,2,0,P|255:8|96:128,1,427.500016307831,4|0,0:0|0:0,0:0:0:0:
35,208,17666,6,0,B|99:240|115:288|115:288|147:320|147:320|195:256|211:304|256:283|256:283|307:304|323:256|371:320|371:320|403:288|403:288|419:240|483:208,1,570,4|0,0:0|0:0,0:0:0:0:
256,192,19628,12,0,20897,0:0:0:0:
260,170,21359,5,14,0:0:0:0:
324,296,21820,1,2,0:0:0:0:
420,192,22282,1,2,0:0:0:0:
356,66,22743,1,2,0:0:0:0:
260,170,23205,6,0,P|192:186|120:130,1,142.500005435944,6|2,0:0|0:0,0:0:0:0:
205,104,24128,2,0,L|180:245,1,142.500005435944,2|2,0:0|0:0,0:0:0:0:
264,264,25051,6,0,P|135:318|101:210,1,285,14|0,0:0|0:0,0:0:0:0:
77,65,26897,2,0,B|176:128|240:8|360:80,1,285,2|0,0:0|0:0,0:0:0:0:
389,94,28513,1,0,0:0:0:0:
389,94,28743,5,14,0:0:0:0:
465,263,29205,1,2,0:0:0:0:
278,225,29666,2,0,P|212:180|196:112,1,142.500005435944,2|2,0:0|0:0,0:0:0:0:
56,120,30590,5,6,0:0:0:0:
38,233,31051,1,2,0:0:0:0:
129,300,31513,1,2,0:0:0:0:
235,259,31974,1,2,0:0:0:0:
209,147,32436,6,0,B|144:160|96:224|100:288|144:372|220:368|220:368|288:336|328:336,1,427.500016307831,14|0,0:0|0:0,0:0:0:0:
448,328,34282,1,0,0:0:0:0:
448,328,35205,1,2,0:0:0:0:
448,328,36128,5,14,0:0:0:0:
431,158,36590,2,0,B|348:125|348:125|308:176|224:192|148:160,1,285.000010871888,2|0,0:0|0:0,0:0:0:0:
55,151,37974,2,0,P|218:68|241:250,1,427.500016307831,0|0,0:0|0:0,0:0:0:0:
168,167,39820,6,0,P|132:236|144:300,1,142.500005435944,14|0,0:0|0:0,0:0:0:0:
369,297,40743,2,0,P|378:227|344:167,1,142.500005435944,2|0,0:0|0:0,0:0:0:0:
241,62,41666,6,0,L|241:262,1,188.099999425964,2|2,0:0|0:0,0:0:0:0:
241,250,43513,1,14,0:0:0:0:
256,192,43743,12,0,49051,0:0:0:0:
256,192,53897,12,0,55974,0:0:0:0:
70,35,56436,6,0,P|146:63|262:71,1,190,4|0,0:0|0:0,0:0:0:0:
340,31,56782,1,0,0:0:0:0:
436,28,56897,2,0,P|464:72|434:200,1,190,4|0,0:3|0:0,0:0:0:0:
339,197,57243,1,0,0:0:0:0:
251,160,57359,6,0,P|191:152|127:168,1,95
100,268,57589,2,0,P|160:276|224:260,1,95,0|0,0:0|0:0,0:0:0:0:
288,280,57820,1,4,0:3:0:0:
372,232,57936,1,0,0:0:0:0:
384,140,58051,1,0,0:0:0:0:
324,64,58166,1,0,0:0:0:0:
232,48,58282,6,0,P|104:56|56:128,1,190,0|0,0:0|0:0,0:0:0:0:
55,191,58628,1,0,0:0:0:0:
104,271,58743,2,0,P|160:295|193:288,1,95,4|0,0:3|0:0,0:0:0:0:
251,160,58974,1,0,0:0:0:0:
163,196,59089,1,0,0:0:0:0:
300,237,59205,6,0,L|404:237,1,95,0|0,0:0|0:0,0:0:0:0:
326,328,59436,2,0,L|212:328,1,95,0|0,0:0|0:0,0:0:0:0:
122,293,59666,1,4,0:3:0:0:
122,293,59782,2,0,P|89:224|142:120,1,190,0|0,0:0|0:0,0:0:0:0:
239,70,60128,6,0,P|352:110|360:176,1,190,4|0,0:0|0:0,0:0:0:0:
315,248,60474,1,0,0:0:0:0:
228,209,60589,2,0,P|129:180|23:232,1,190,4|0,0:3|0:0,0:0:0:0:
79,299,60936,1,0,0:0:0:0:
169,325,61051,2,0,L|284:325,1,95,0|0,0:0|0:0,0:0:0:0:
380,241,61282,2,0,L|285:241,1,95,0|0,0:0|0:0,0:0:0:0:
395,330,61512,2,0,P|456:291|468:239,1,95,4|0,0:3|0:0,0:0:0:0:
467,177,61743,1,0,0:0:0:0:
391,118,61859,1,0,0:0:0:0:
304,156,61974,6,0,B|236:148|220:80|220:80|148:88,1,190,0|0,0:0|0:0,0:0:0:0:
68,128,62320,2,0,P|36:188|88:304,1,190,0|0,0:0|0:0,0:0:0:0:
156,340,62666,2,0,L|292:376,1,95,0|0,0:0|0:0,0:0:0:0:
352,336,62897,1,0,0:0:0:0:
436,284,63012,2,0,P|444:244|444:184,2,95,0|0|0,0:0|0:0|0:0,0:0:0:0:
352,336,63359,1,4,0:3:0:0:
312,250,63474,2,0,P|304:210|304:150,2,95,0|0|0,0:0|0:0|0:0,0:0:0:0:
232,332,63820,6,0,L|180:336,3,47.5,4|0|0|0,0:0|0:0|0:0|0:0,0:0:0:0:
156,340,64051,2,0,P|80:284|64:160,1,190,0|4,0:0|0:3,0:0:0:0:
64,100,64397,1,0,0:0:0:0:
136,40,64512,2,0,P|156:108|152:136,1,95,0|0,0:0|0:0,0:0:0:0:
280,192,64743,6,0,P|252:124|368:76,1,190
416,108,65089,1,0,0:0:0:0:
454,190,65205,2,0,L|454:270,3,47.5,4|0|0|0,0:3|0:0|0:0|0:0,0:0:0:0:
452,268,65436,2,0,P|424:324|356:340,1,95,0|0,0:0|0:0,0:0:0:0:
264,356,65666,6,0,P|192:264|233:219,1,190,0|0,0:0|0:0,0:0:0:0:
308,180,66012,1,0,0:0:0:0:
400,204,66128,2,0,P|452:256|472:300,1,95,4|0,0:3|0:0,0:0:0:0:
372,344,66359,2,0,P|320:292|300:248,1,95,0|0,0:0|0:0,0:0:0:0:
247,171,66589,6,0,B|213:131|279:95|256:32,1,142.500005435944
160,184,66936,2,0,P|232:254|324:212,1,213.750008153916
352,124,67397,1,0,0:0:0:0:
188,64,67512,6,0,P|100:84|92:196,1,190,4|0,0:0|0:0,0:0:0:0:
33,256,67859,2,0,B|49:316|142:335|142:335|196:275,1,190
248,360,68205,2,0,P|351:352|378:341,1,95
423,303,68436,2,0,P|432:253|427:199,1,95
412,96,68666,1,0,0:0:0:0:
321,125,68782,1,0,0:0:0:0:
232,93,68897,2,0,L|153:121,3,47.5,4|0|0|0,0:3|0:0|0:0|0:0,0:0:0:0:
140,121,69128,2,0,L|107:192,3,47.5,0|0|0|0,0:0|0:0|0:0|0:0,0:0:0:0:
105,210,69359,6,0,L|78:308,1,95,4|0,0:0|0:0,0:0:0:0:
201,181,69589,2,0,L|174:279,1,95,8|0,0:0|0:0,0:0:0:0:
298,152,69820,2,0,L|271:250,1,95,4|0,0:0|0:0,0:0:0:0:
394,123,70051,2,0,L|367:221,1,95,8|0,0:0|0:0,0:0:0:0:
362,238,70224,1,0,0:0:0:0:
356,261,70282,6,0,L|333:318,3,47.5,4|0|0|0,0:0|0:0|0:0|0:0,0:0:0:0:
240,320,70512,2,0,L|263:263,3,47.5,8|0|0|0,0:0|0:0|0:0|0:0,0:0:0:0:
267,261,70743,1,4,0:0:0:0:
274,243,70801,1,0,0:0:0:0:
279,225,70859,1,0,0:0:0:0:
281,206,70916,1,0,0:0:0:0:
280,187,70974,2,0,P|264:104|240:64,1,95,8|0,0:0|0:0,0:0:0:0:
153,37,71205,6,0,P|48:88|28:153,1,190,4|0,0:0|0:0,0:0:0:0:
148,156,71551,2,0,P|224:224|308:200,1,190
244,128,71897,2,0,L|156:296,1,190
246,327,72243,2,0,P|316:271|440:268,1,190,0|0,0:0|0:0,0:0:0:0:
360,360,72589,1,4,0:3:0:0:
360,360,72705,1,0,0:0:0:0:
246,327,72820,1,0,0:0:0:0:
246,327,72936,1,0,0:0:0:0:
127,359,73051,6,0,P|84:278|107:188,1,190,0|0,0:0|0:0,0:0:0:0:
176,256,73397,2,0,P|108:284|16:216,1,190,0|0,0:0|0:0,0:0:0:0:
20,128,73743,2,0,B|44:84|76:68|76:68|116:80|116:80|184:80,1,190,0|0,0:0|0:0,0:0:0:0:
276,104,74089,2,0,P|393:133|429:233,1,190,0|0,0:0|0:0,0:0:0:0:
440,276,74436,1,4,0:3:0:0:
408,364,74551,1,0,0:0:0:0:
316,380,74666,2,0,L|210:381,1,95,0|0,0:0|0:0,0:0:0:0:
130,373,74897,6,0,P|91:293|126:179,1,190,4|0,0:0|0:0,0:0:0:0:
208,208,75243,2,0,B|320:244|272:184|408:212,1,190,0|0,0:0|0:0,0:0:0:0:
446,134,75589,2,0,P|485:214|430:292,1,190,0|0,0:0|0:0,0:0:0:0:
339,284,75936,2,0,P|300:204|355:126,1,190,0|0,0:0|0:0,0:0:0:0:
395,210,76282,1,4,0:3:0:0:
395,210,76397,1,0,0:0:0:0:
395,210,76512,2,0,L|263:210,1,95,0|0,0:0|0:0,0:0:0:0:
184,236,76743,6,0,P|98:195|88:92,1,190,4|0,0:0|0:0,0:0:0:0:
166,61,77089,2,0,B|225:96|302:24|364:72,1,190,0|0,0:0|0:0,0:0:0:0:
411,138,77436,2,0,L|448:261,1,95,0|0,0:0|0:0,0:0:0:0:
376,316,77666,1,0,0:0:0:0:
376,316,77782,1,0,0:0:0:0:
376,316,77897,2,0,P|294:277|287:186,1,190,0|4,0:0|0:3,0:0:0:0:
316,96,78243,2,0,P|273:94|221:114,2,95,0|0|0,0:0|0:0|0:0,0:0:0:0:
180,36,78589,6,0,B|144:52|129:95|137:130|137:130|58:154,1,190,4|0,0:0|0:0,0:0:0:0:
127,230,78936,2,0,B|188:224|188:224|248:200|248:200|311:190,1,190,0|0,0:0|0:0,0:0:0:0:
232,131,79282,2,0,P|220:222|288:284,1,190,0|0,0:0|0:0,0:0:0:0:
382,289,79628,1,0,0:0:0:0:
426,206,79743,2,0,L|288:71,1,190,0|4,0:0|0:3,0:0:0:0:
169,47,80089,1,0,0:0:0:0:
252,139,80205,1,0,0:0:0:0:
239,16,80320,1,0,0:0:0:0:
178,122,80436,6,0,P|156:192|244:240,1,190,0|0,0:0|0:0,0:0:0:0:
318,185,80782,2,0,P|344:273|289:368,1,190,0|0,0:0|0:0,0:0:0:0:
208,344,81128,2,0,P|116:289|28:303,1,190,0|0,0:0|0:0,0:0:0:0:
106,369,81474,1,0,0:0:0:0:
106,369,81589,2,0,L|156:179,1,190,0|4,0:0|0:3,0:0:0:0:
80,123,81936,1,0,0:0:0:0:
185,81,82051,2,0,P|258:67|307:99,1,95
388,161,82282,6,0,P|424:246|382:329,1,190,4|0,0:0|0:0,0:0:0:0:
319,244,82628,2,0,B|245:293|245:293|132:312,1,190,0|0,0:0|0:0,0:0:0:0:
54,278,82974,2,0,P|54:165|122:158,1,190,0|0,0:0|0:0,0:0:0:0:
188,212,83320,1,0,0:0:0:0:
243,143,83436,2,0,P|316:125|428:199,1,190,0|4,0:0|0:3,0:0:0:0:
464,260,83782,2,0,P|456:328|436:356,1,95,0|0,0:0|0:0,0:0:0:0:
356,308,84012,1,0,0:0:0:0:
356,308,84070,1,0,0:0:0:0:
356,308,84128,6,0,P|266:283|140:311,1,190,4|0,0:0|0:0,0:0:0:0:
76,312,84474,2,0,P|106:223|75:135,1,190,0|0,0:0|0:0,0:0:0:0:
100,48,84820,2,0,P|216:60|280:128,1,190,0|0,0:0|0:0,0:0:0:0:
326,184,85166,2,0,L|326:278,1,95,0|0,0:0|0:0,0:0:0:0:
251,338,85397,1,0,0:0:0:0:
152,300,85512,6,0,L|152:228,1,71.2500027179719,4|0,0:0|0:0,0:0:0:0:
64,136,85743,2,0,L|65:207,1,71.2500027179719,0|0,0:0|0:0,0:0:0:0:
234,207,85974,2,0,L|236:136,1,71.2500027179719,0|0,0:0|0:0,0:0:0:0:
360,84,86205,6,0,L|360:156,1,71.2500027179719,4|0,0:0|0:0,0:0:0:0:
448,248,86436,2,0,L|446:176,1,71.2500027179719,0|0,0:0|0:0,0:0:0:0:
277,176,86667,2,0,L|276:248,1,71.2500027179719,0|0,0:0|0:0,0:0:0:0:
240,344,86897,6,0,L|120:312,1,95,2|0,0:2|0:0,0:0:0:0:
16,268,87128,2,0,L|136:236,1,95,0|0,0:0|0:0,0:0:0:0:
240,180,87359,2,0,L|120:148,1,95,2|0,0:2|0:0,0:0:0:0:
16,104,87589,2,0,L|136:72,1,95,0|0,0:0|0:0,0:0:0:0:
255,74,87820,6,0,L|319:94,7,47.5,2|0|0|0|0|0|0|0,0:2|0:0|0:0|0:0|0:0|0:0|0:0|0:0,0:0:0:0:
232,100,88282,1,2,0:2:0:0:
210,125,88339,1,0,0:0:0:0:
188,150,88397,1,0,0:0:0:0:
167,176,88455,1,0,0:0:0:0:
145,201,88512,2,0,L|100:260,3,47.5,0|0|0|0,0:0|0:0|0:0|0:0,0:0:0:0:
93,281,88743,6,0,P|174:339|275:303,1,190,4|0,0:0|0:0,0:0:0:0:
332,260,89089,1,0,0:0:0:0:
340,164,89205,2,0,L|340:68,1,95,4|0,0:3|0:0,0:0:0:0:
253,218,89436,2,0,L|253:314,1,95,0|0,0:0|0:0,0:0:0:0:
167,176,89666,2,0,P|95:216|14:160,1,190,0|0,0:0|0:0,0:0:0:0:
52,72,90012,1,0,0:0:0:0:
140,32,90128,2,0,L|240:32,1,95,4|0,0:3|0:0,0:0:0:0:
288,112,90359,2,0,L|188:112,1,95,0|0,0:0|0:0,0:0:0:0:
80,160,90589,6,0,P|60:256|124:336,1,190,0|0,0:0|0:0,0:0:0:0:
207,335,90936,2,0,P|276:273|279:181,1,190,0|0,0:0|0:0,0:0:0:0:
322,96,91282,1,0,0:0:0:0:
392,160,91397,1,0,0:0:0:0:
473,229,91512,6,0,P|494:151|491:132,1,95,0|0,0:0|0:0,0:0:0:0:
373,233,91743,2,0,P|352:311|355:330,1,95,0|0,0:0|0:0,0:0:0:0:
256,316,91974,2,0,P|255:268|237:225,1,95,4|0,0:3|0:0,0:0:0:0:
118,131,92205,2,0,P|118:178|136:221,1,95,0|0,0:0|0:0,0:0:0:0:
143,239,92378,1,0,0:0:0:0:
150,256,92436,6,0,P|91:317|33:245,1,190,4|0,0:0|0:0,0:0:0:0:
27,160,92782,1,0,0:0:0:0:
68,74,92897,2,0,L|163:34,1,95,4|0,0:3|0:0,0:0:0:0:
206,114,93128,2,0,L|293:150,1,95,0|0,0:0|0:0,0:0:0:0:
384,116,93359,1,0,0:0:0:0:
384,116,93474,1,0,0:0:0:0:
372,208,93589,6,0,P|431:237|476:215,1,95,0|0,0:0|0:0,0:0:0:0:
303,239,93820,2,0,P|246:275|243:325,1,95,4|0,0:3|0:0,0:0:0:0:
310,164,94051,2,0,P|305:96|262:68,1,95
333,341,94282,6,0,P|152:356|64:272,1,285,4|0,0:0|0:0,0:0:0:0:
70,193,94743,2,0,P|135:112|300:160,1,285,4|0,0:0|0:0,0:0:0:0:
317,247,95205,2,0,L|333:342,1,95,4|0,0:0|0:0,0:0:0:0:
196,263,95436,2,0,L|180:168,1,95,0|0,0:0|0:0,0:0:0:0:
235,59,95666,2,0,P|304:51|351:70,1,95,4|0,0:0|0:0,0:0:0:0:
352,160,95897,2,0,P|283:168|236:149,1,95,0|0,0:0|0:0,0:0:0:0:
333,267,96128,6,0,P|386:261|455:125,1,190,4|0,0:0|0:0,0:0:0:0:
413,72,96474,1,0,0:0:0:0:
259,161,96589,2,0,L|354:161,1,95,4|0,0:3|0:0,0:0:0:0:
248,83,96820,2,0,P|181:143|216:225,2,190,0|0|0,0:0|0:0|0:0,0:0:0:0:
333,267,97512,6,0,L|366:357,1,95,4|0,0:3|0:0,0:0:0:0:
224,226,97743,2,0,L|191:315,1,95,0|0,0:0|0:0,0:0:0:0:
96,328,97974,6,0,P|52:288|84:156,1,190,4|0,0:0|0:0,0:0:0:0:
180,156,98320,1,0,0:0:0:0:
224,226,98436,2,0,P|180:240|132:224,1,95,0|0,0:0|0:0,0:0:0:0:
23,97,98666,2,0,P|67:83|115:99,1,95,0|0,0:0|0:0,0:0:0:0:
206,84,98897,2,0,P|261:105|364:41,1,190,0|0,0:0|0:0,0:0:0:0:
447,87,99243,1,0,0:0:0:0:
465,180,99359,2,0,L|498:317,1,95,0|0,0:0|0:0,0:0:0:0:
352,316,99589,2,0,L|319:179,1,95,0|0,0:0|0:0,0:0:0:0:
172,192,99820,6,0,P|104:168|16:272,1,190,4|0,0:0|0:0,0:0:0:0:
76,316,100166,1,0,0:0:0:0:
76,316,100282,2,0,B|176:352|176:280|288:320,1,190,4|0,0:0|0:0,0:0:0:0:
208,72,100743,2,0,P|116:44|36:140,1,190,4|0,0:0|0:0,0:0:0:0:
1,180,101089,1,0,0:0:0:0:
58,255,101205,2,0,P|96:195|16:87,1,190,4|0,0:0|0:0,0:0:0:0:
244,77,101666,5,4,0:0:0:0:
298,155,101782,2,0,P|362:169|398:163,1,95,0|8,0:0|0:0,0:0:0:0:
479,132,102012,1,4,0:0:0:0:
425,54,102128,2,0,P|361:40|325:46,1,95,4|0,0:0|0:0,0:0:0:0:
313,59,102301,1,0,0:0:0:0:
294,73,102359,2,0,P|246:76|201:62,1,95,8|0,0:0|0:0,0:0:0:0:
107,62,102589,6,0,L|86:126,3,47.5,4|0|0|0,0:0|0:0|0:0|0:0,0:0:0:0:
160,156,102820,2,0,L|181:220,3,47.5,8|0|0|0,0:0|0:0|0:0|0:0,0:0:0:0:
75,199,103051,2,0,L|54:263,3,47.5,4|0|0|0,0:0|0:0|0:0|0:0,0:0:0:0:
139,274,103282,1,8,0:0:0:0:
148,295,103339,1,0,0:0:0:0:
157,317,103397,1,0,0:0:0:0:
167,339,103455,1,0,0:0:0:0:
176,360,103512,6,0,B|248:324|290:393|368:352,1,190,4|0,0:3|0:0,0:0:0:0:
404,268,103859,1,0,0:0:0:0:
404,172,103974,2,0,B|332:208|290:139|212:180,1,190,4|0,0:3|0:0,0:0:0:0:
124,180,104320,1,0,0:0:0:0:
40,132,104436,2,0,L|96:56,1,95,0|0,0:0|0:0,0:0:0:0:
192,56,104666,2,0,P|280:92|360:52,1,190,0|4,0:0|0:3,0:0:0:0:
452,32,105012,1,0,0:0:0:0:
452,32,105128,1,0,0:0:0:0:
424,124,105243,6,0,P|344:188|336:292,1,190,0|0,0:0|0:0,0:0:0:0:
252,324,105589,2,0,P|240:212|304:112,1,190,0|4,0:0|0:3,0:0:0:0:
336,64,105936,2,0,P|269:122|144:80,1,190,0|0,0:0|0:0,0:0:0:0:
96,48,106282,1,0,0:0:0:0:
36,276,106512,6,0,P|52:352|76:368,1,95,0|0,0:0|0:0,0:0:0:0:
140,256,106743,2,0,P|142:209|115:171,1,95,4|0,0:3|0:0,0:0:0:0:
12,96,106974,2,0,P|10:142|37:180,1,95,0|0,0:0|0:0,0:0:0:0:
140,100,107205,6,0,P|236:80|348:112,1,190,4|0,0:0|0:0,0:0:0:0:
408,144,107551,1,0,0:0:0:0:
460,224,107666,2,0,P|424:312|312:360,2,190,4|0|0,0:3|0:0|0:0,0:0:0:0:
268,212,108359,2,0,L|232:100,1,95,0|0,0:0|0:0,0:0:0:0:
176,192,108589,2,0,L|212:304,1,95,4|0,0:3|0:0,0:0:0:0:
296,308,108820,1,0,0:0:0:0:
392,230,108936,6,0,L|332:46,1,190,0|0,0:0|0:0,0:0:0:0:
242,19,109282,2,0,P|128:14|63:71,1,190,0|4,0:0|0:3,0:0:0:0:
37,147,109628,2,0,L|37:343,1,190,0|0,0:0|0:0,0:0:0:0:
125,372,109974,1,0,0:0:0:0:
248,124,110205,6,0,L|171:196,1,95,0|0,0:0|0:0,0:0:0:0:
108,253,110436,2,0,L|204:296,1,95,4|0,0:3|0:0,0:0:0:0:
287,311,110666,2,0,L|265:205,1,95,0|0,0:0|0:0,0:0:0:0:
248,124,110897,6,0,P|202:68|79:45,1,190,4|0,0:0|0:0,0:0:0:0:
37,120,111243,1,0,0:0:0:0:
29,215,111359,2,0,P|56:303|136:351,2,190,4|0|0,0:3|0:0|0:0,0:0:0:0:
104,152,111936,1,0,0:0:0:0:
196,128,112051,2,0,P|244:144|308:116,1,95,0|0,0:0|0:0,0:0:0:0:
380,160,112282,2,0,L|470:258,1,95,4|0,0:3|0:0,0:0:0:0:
380,336,112512,2,0,L|315:266,1,95,0|0,0:0|0:0,0:0:0:0:
248,364,112743,6,0,P|155:356|76:305,1,190
50,213,113089,2,0,B|84:204|132:212|156:248|156:248|240:220,1,190
293,158,113436,1,0,0:0:0:0:
278,64,113551,1,0,0:0:0:0:
184,50,113666,2,0,P|114:97|27:39,2,190,0|0|4,0:0|0:0|0:3,0:0:0:0:
184,50,114359,1,0,0:0:0:0:
64,224,114589,6,0,B|144:320|192:240|256:240|256:240|320:240|368:320|448:224,1,427.500016307831,4|0,0:0|0:0,0:0:0:0:
348,116,115512,6,0,P|256:24|168:120,1,285,2|0,0:2|0:0,0:0:0:0:
104,232,116436,6,0,B|230:233|258:113|258:113|288:232|413:231,1,427.500016307831,4|0,0:0|0:0,0:0:0:0:
448,144,117359,6,0,P|504:252|460:312,1,190,2|4,0:2|0:3,0:0:0:0:
448,144,118051,1,0,0:0:0:0:
448,144,118282,6,0,L|400:192,3,47.5,0|0|0|0,0:0|0:0|0:0|0:0,0:0:0:0:
368,168,118512,2,0,L|320:216,3,47.5,0|0|0|0,0:0|0:0|0:0|0:0,0:0:0:0:
288,204,118743,2,0,L|254:170,3,47.5,0|0|0|0,0:0|0:0|0:0|0:0,0:0:0:0:
208,180,118973,2,0,L|174:146,3,47.5,0|0|0|0,0:0|0:0|0:0|0:0,0:0:0:0:
140,112,119205,5,0,0:0:0:0:
152,91,119262,1,0,0:0:0:0:
164,71,119320,1,0,0:0:0:0:
176,50,119378,1,0,0:0:0:0:
188,30,119436,2,0,L|254:30,3,47.5,0|0|0|0,0:0|0:0|0:0|0:0,0:0:0:0:
268,64,119666,5,0,0:0:0:0:
255,84,119723,1,0,0:0:0:0:
243,104,119781,1,0,0:0:0:0:
231,125,119839,1,0,0:0:0:0:
219,145,119897,2,0,L|153:145,3,47.5,0|0|0|0,0:0|0:0|0:0|0:0,0:0:0:0:
87,134,120128,6,0,P|104:240|188:308,1,190,4|0,0:0|0:0,0:0:0:0:
236,252,120474,2,0,P|368:204|412:216,1,190,0|0,0:0|0:0,0:0:0:0:
424,308,120820,2,0,P|292:356|248:344,1,190,0|0,0:0|0:0,0:0:0:0:
144,280,121166,2,0,B|104:188|172:100,1,190,0|0,0:0|0:0,0:0:0:0:
284,57,121512,2,0,L|404:41,1,95,4|0,0:3|0:0,0:0:0:0:
440,124,121743,2,0,L|345:136,1,95
252,152,121974,6,0,P|328:228|416:200,1,190
440,124,122320,2,0,P|364:48|276:76,1,190
196,68,122666,2,0,P|92:95|72:186,1,190
4,236,123012,2,0,B|74:250|74:250|132:234|132:234|203:253,1,190
276,292,123359,2,0,P|312:256|328:180,1,95,4|0,0:3|0:0,0:0:0:0:
302,124,123589,2,0,P|257:98|180:102,1,95,4|0,0:3|0:0,0:0:0:0:
100,100,123820,6,0,B|121:175|84:228|84:228|148:272,1,190,4|0,0:0|0:0,0:0:0:0:
224,240,124166,2,0,P|303:204|398:240,1,190,0|0,0:0|0:0,0:0:0:0:
311,322,124512,2,0,L|311:109,1,190,0|0,0:0|0:0,0:0:0:0:
248,58,124859,2,0,P|212:166|232:258,1,190,0|0,0:0|0:0,0:0:0:0:
127,320,125205,2,0,L|44:271,1,95,4|0,0:3|0:0,0:0:0:0:
118,148,125436,2,0,L|201:197,1,95,0|0,0:0|0:0,0:0:0:0:
128,240,125666,5,0,0:0:0:0:
128,240,125782,1,0,0:0:0:0:
128,240,125897,1,0,0:0:0:0:
128,240,126012,1,0,0:0:0:0:
128,240,126128,2,0,P|24:144|192:88,1,380,4|0,0:0|0:0,0:0:0:0:
384,240,126820,2,0,P|481:113|326:80,1,380,4|0,0:0|0:0,0:0:0:0:
211,320,127512,6,0,P|91:282|64:188,1,190,4|0,0:0|0:0,0:0:0:0:
69,134,127859,2,0,P|122:58|214:45,1,190,0|0,0:0|0:0,0:0:0:0:
273,118,128205,2,0,P|334:150|434:94,1,190,0|0,0:0|0:0,0:0:0:0:
345,56,128551,2,0,L|350:250,1,190,0|0,0:0|0:0,0:0:0:0:
296,324,128897,1,4,0:3:0:0:
204,350,129012,1,0,0:0:0:0:
115,317,129128,1,0,0:0:0:0:
62,238,129243,1,0,0:0:0:0:
65,143,129359,6,0,P|188:132|256:60,1,190,0|0,0:0|0:0,0:0:0:0:
264,183,129705,2,0,L|318:365,1,190,0|0,0:0|0:0,0:0:0:0:
216,324,130051,2,0,P|285:260|375:272,1,190,0|0,0:0|0:0,0:0:0:0:
484,212,130397,2,0,B|448:132|448:132|404:80|336:60,1,190,0|0,0:0|0:0,0:0:0:0:
249,30,130743,1,4,0:3:0:0:
211,148,130859,1,0,0:0:0:0:
326,190,130974,1,0,0:0:0:0:
326,190,131205,6,0,P|412:220|412:336,1,190,4|0,0:0|0:0,0:0:0:0:
316,360,131551,2,0,B|230:330|230:330|196:224,1,190,0|0,0:0|0:0,0:0:0:0:
188,140,131897,2,0,B|224:64|292:56|292:56|352:68,1,190,0|0,0:0|0:0,0:0:0:0:
430,99,132243,2,0,P|476:202|416:265,1,190,0|0,0:0|0:0,0:0:0:0:
341,268,132589,2,0,L|245:268,1,95,4|0,0:3|0:0,0:0:0:0:
313,175,132820,2,0,L|408:175,1,95
420,368,133051,6,0,L|356:368,3,47.5,4|0|0|0,0:0|0:0|0:0|0:0,0:0:0:0:
323,329,133282,2,0,L|259:329,3,47.5,0|0|0|0,0:0|0:0|0:0|0:0,0:0:0:0:
225,363,133512,1,4,0:3:0:0:
92,212,133974,5,4,0:0:0:0:
90,174,134031,1,0,0:0:0:0:
102,138,134089,1,0,0:0:0:0:
126,110,134147,1,0,0:0:0:0:
164,92,134205,2,0,B|296:40|296:40|320:32|440:0|448:128|400:192,1,380,0|0,0:0|0:0,0:0:0:0:
256,192,134897,6,0,L|214:215,1,47.5,0|0,0:0|0:0,0:0:0:0:
291,297,135128,1,0,0:0:0:0:
291,297,135359,6,0,L|332:273,1,47.5,4|0,0:3|0:0,0:0:0:0:
222,141,135589,1,0,0:0:0:0:
222,141,135820,6,0,L|180:164,1,47.5,0|0,0:0|0:0,0:0:0:0:
325,357,136051,1,0,0:0:0:0:
325,357,136282,6,0,L|366:333,1,47.5,4|0,0:3|0:0,0:0:0:0:
189,86,136512,1,0,0:0:0:0:
189,86,136743,6,0,L|144:101,1,47.5,0|0,0:0|0:0,0:0:0:0:
320,28,136974,2,0,L|365:13,1,47.5,0|0,0:0|0:0,0:0:0:0:
186,28,137205,2,0,L|141:13,1,47.5,4|0,0:3|0:0,0:0:0:0:
323,86,137436,2,0,L|368:101,1,47.5,0|0,0:0|0:0,0:0:0:0:
256,180,137666,6,0,P|190:204|163:200,1,95
68,133,138012,2,0,P|134:109|161:113,1,95
256,180,138359,1,0,0:0:0:0:
256,180,138589,6,0,L|297:203,1,47.5,0|0,0:0|0:0,0:0:0:0:
221,285,138820,1,0,0:0:0:0:
221,285,139051,6,0,L|179:261,1,47.5,4|0,0:3|0:0,0:0:0:0:
290,129,139282,1,0,0:0:0:0:
290,129,139512,6,0,L|331:152,1,47.5,0|0,0:0|0:0,0:0:0:0:
187,345,139743,1,0,0:0:0:0:
187,345,139974,6,0,L|145:321,1,47.5,4|0,0:3|0:0,0:0:0:0:
323,74,140205,1,0,0:0:0:0:
323,74,140436,6,0,L|368:89,1,47.5,0|0,0:0|0:0,0:0:0:0:
186,16,140666,2,0,L|141:1,1,47.5,0|0,0:0|0:0,0:0:0:0:
320,16,140897,2,0,L|365:1,1,47.5,4|0,0:3|0:0,0:0:0:0:
189,74,141128,2,0,L|144:89,1,47.5,0|0,0:0|0:0,0:0:0:0:
256,180,141359,6,0,P|322:204|349:200,1,95
435,90,141820,2,0,P|369:66|342:70,1,95
124,80,142282,6,0,L|64:148,1,71.2500027179719,0|0,0:0|0:0,0:0:0:0:
76,260,142512,2,0,L|136:192,1,71.2500027179719,0|0,0:0|0:0,0:0:0:0:
192,155,142743,2,0,P|256:179|328:147,1,142.500005435944,4|0,0:3|0:0,0:0:0:0:
413,126,143089,2,0,P|438:190|414:256,1,142.500005435944,0|0,0:0|0:0,0:0:0:0:
376,344,143436,2,0,L|272:344,1,71.2500027179719,0|0,0:0|0:0,0:0:0:0:
232,264,143666,2,0,L|336:264,1,71.2500027179719,4|0,0:3|0:0,0:0:0:0:
240,176,143897,2,0,L|136:176,1,71.2500027179719,0|0,0:0|0:0,0:0:0:0:
126,250,144128,6,0,L|126:338,1,71.2500027179719,0|0,0:0|0:0,0:0:0:0:
57,176,144359,2,0,L|57:88,1,71.2500027179719,0|0,0:0|0:0,0:0:0:0:
167,72,144589,2,0,P|233:47|300:69,1,142.500005435944,4|0,0:3|0:0,0:0:0:0:
357,143,144936,2,0,P|392:72|373:10,1,142.500005435944,0|0,0:0|0:0,0:0:0:0:
168,72,145282,2,0,L|168:176,1,71.2500027179719,0|0,0:0|0:0,0:0:0:0:
240,224,145512,2,0,L|240:120,1,71.2500027179719,4|0,0:3|0:0,0:0:0:0:
320,224,145743,2,0,L|320:328,1,71.2500027179719,0|0,0:0|0:0,0:0:0:0:
229,335,145974,6,0,P|141:312|117:252,1,142.500005435944,0|0,0:0|0:0,0:0:0:0:
120,184,146320,1,0,0:0:0:0:
120,96,146436,2,0,P|68:116|40:144,1,71.2500027179719,4|0,0:3|0:0,0:0:0:0:
120,272,146666,2,0,P|172:252|200:224,1,71.2500027179719,0|0,0:0|0:0,0:0:0:0:
254,162,146897,2,0,P|302:135|342:131,1,71.2500027179719,0|0,0:0|0:0,0:0:0:0:
410,192,147128,2,0,P|408:259|354:308,1,142.500005435944,0|4,0:0|0:3,0:0:0:0:
228,241,147474,1,0,0:0:0:0:
320,224,147589,1,0,0:0:0:0:
283,350,147705,1,0,0:0:0:0:
152,324,147820,6,0,L|87:254,1,95
76,160,148051,2,0,P|124:84|240:56,1,190,0|4,0:0|0:3,0:0:0:0:
339,61,148397,1,0,0:0:0:0:
444,128,148512,2,0,L|444:228,1,95,0|0,0:0|0:0,0:0:0:0:
376,332,148743,6,0,L|316:352,3,47.5
283,350,148974,2,0,L|223:350,3,47.5
188,348,149205,2,0,L|142:332,3,47.5,4|0|0|0,0:3|0:0|0:0|0:0,0:0:0:0:
112,316,149436,1,0,0:0:0:0:
90,291,149493,1,0,0:0:0:0:
75,261,149551,1,0,0:0:0:0:
68,229,149609,1,0,0:0:0:0:
69,195,149666,5,4,0:0:0:0:
104,52,160743,6,0,L|104:112,1,47.5,2|0,0:0|0:0,0:0:0:0:
192,140,160974,2,0,L|192:80,1,47.5,0|0,0:0|0:0,0:0:0:0:
276,48,161205,2,0,L|372:48,1,95,2|0,0:0|0:0,0:0:0:0:
416,132,161551,2,0,L|304:132,1,95,2|0,0:0|0:0,0:0:0:0:
252,200,161897,2,0,P|292:248|336:256,2,95,0|0|0,0:0|0:0|0:0,0:0:0:0:
256,56,162589,6,0,L|256:112,1,47.5,2|0,0:0|0:0,0:0:0:0:
164,132,162820,2,0,L|164:76,1,47.5,0|0,0:0|0:0,0:0:0:0:
356,88,163051,2,0,L|356:192,1,95,2|0,0:0|0:0,0:0:0:0:
356,280,163397,2,0,P|288:312|256:312,1,95,2|0,0:0|0:0,0:0:0:0:
172,316,163743,1,0,0:0:0:0:
28,244,163974,1,0,0:0:0:0:
60,84,164205,1,0,0:0:0:0:
240,40,164436,6,0,P|304:40|336:60,1,71.2500027179719,2|0,0:0|0:0,0:0:0:0:
384,100,164666,2,0,P|416:156|416:184,1,71.2500027179719,0|0,0:0|0:0,0:0:0:0:
324,172,164897,2,0,P|264:134|193:130,1,142.500005435944,2|0,0:0|0:0,0:0:0:0:
108,168,165243,2,0,L|108:212|108:208,2,35.625001358986,2|0|0,0:0|0:0|0:0,0:0:0:0:
108,292,165474,1,0,0:0:0:0:
20,224,165589,1,0,0:0:0:0:
24,112,165705,1,0,0:0:0:0:
108,52,165820,5,0,0:0:0:0:
139,42,165877,1,0,0:0:0:0:
172,39,165935,1,0,0:0:0:0:
206,42,165993,1,0,0:0:0:0:
238,51,166051,2,0,L|312:76,3,47.5,0|0|0|0,0:0|0:0|0:0|0:0,0:0:0:0:
328,80,166282,6,0,P|408:140|400:224,1,190,4|0,0:0|0:0,0:0:0:0:
340,296,166628,1,0,0:0:0:0:
252,336,166743,2,0,P|192:340|156:320,1,95,4|0,0:3|0:0,0:0:0:0:
32,232,166974,2,0,P|92:228|128:248,1,95,0|0,0:0|0:0,0:0:0:0:
68,306,167205,1,0,0:0:0:0:
68,306,167320,1,0,0:0:0:0:
90,152,167436,2,0,B|176:124|176:124|275:124,2,190,0|4|0,0:0|0:3|0:0,0:0:0:0:
246,23,168128,6,0,P|336:39|379:120,1,190,0|0,0:0|0:0,0:0:0:0:
380,216,168474,2,0,P|348:328|256:348,1,190,0|0,0:0|0:0,0:0:0:0:
200,308,168820,2,0,P|168:236|184:192,1,95,0|0,0:0|0:0,0:0:0:0:
232,152,169051,2,0,P|264:224|248:268,2,95,0|0|0,0:0|0:0|0:0,0:0:0:0:
140,132,169397,1,0,0:0:0:0:
48,152,169512,2,0,P|16:224|32:268,1,95,4|0,0:3|0:0,0:0:0:0:
60,324,169743,2,0,L|108:360,3,47.5
140,372,169974,6,0,L|360:344,1,190,4|0,0:0|0:0,0:0:0:0:
392,276,170320,1,0,0:0:0:0:
447,199,170436,2,0,P|476:237|483:283,1,95,4|0,0:3|0:0,0:0:0:0:
352,200,170666,2,0,P|316:132|328:80,1,95,0|0,0:0|0:0,0:0:0:0:
376,44,170897,2,0,P|320:80|196:36,1,190,0|0,0:0|0:0,0:0:0:0:
116,24,171243,1,0,0:0:0:0:
36,72,171359,2,0,P|4:180|60:268,1,190,4|0,0:3|0:0,0:0:0:0:
256,160,171820,6,0,P|168:128|76:184,1,190,4|0,0:0|0:0,0:0:0:0:
176,240,172166,1,0,0:0:0:0:
176,240,172282,2,0,L|176:40,1,190,4|0,0:0|0:0,0:0:0:0:
312,256,172743,2,0,L|384:168,1,95,4|0,0:0|0:0,0:0:0:0:
412,268,172974,2,0,L|340:356,1,95,0|0,0:0|0:0,0:0:0:0:
276,168,173205,2,0,L|348:80,1,95,4|0,0:0|0:0,0:0:0:0:
432,96,173436,1,0,0:0:0:0:
488,172,173551,1,0,0:0:0:0:
488,172,173609,1,0,0:0:0:0:
487,171,173666,6,0,P|481:264|409:321,1,190,4|0,0:0|0:0,0:0:0:0:
314,312,174012,1,0,0:0:0:0:
220,332,174128,2,0,P|146:266|140:174,1,190
170,89,174474,1,0,0:0:0:0:
257,60,174589,2,0,P|313:48|361:60,1,95,0|0,0:0|0:0,0:0:0:0:
441,80,174820,2,0,P|497:180|449:268,1,190,0|4,0:0|0:3,0:0:0:0:
413,316,175166,1,0,0:0:0:0:
321,296,175282,2,0,L|305:188,1,95,0|0,0:0|0:0,0:0:0:0:
206,187,175512,6,0,B|116:156|116:156|56:180|40:248,1,190
92,308,175859,2,0,B|182:339|182:339|242:315|258:247,1,190,0|0,0:0|0:0,0:0:0:0:
307,202,176205,1,0,0:0:0:0:
404,196,176320,1,0,0:0:0:0:
460,272,176436,2,0,L|492:376,1,95,0|0,0:0|0:0,0:0:0:0:
334,292,176666,2,0,L|302:188,1,95,0|0,0:0|0:0,0:0:0:0:
160,128,176897,1,4,0:3:0:0:
160,250,177012,1,0,0:0:0:0:
233,151,177127,1,0,0:0:0:0:
115,189,177243,1,0,0:0:0:0:
232,227,177359,6,0,B|328:236|328:236|376:144,1,190,4|0,0:0|0:0,0:0:0:0:
308,68,177705,1,0,0:0:0:0:
204,48,177820,2,0,P|84:76|72:144,2,190,4|0|4,0:0|0:0|0:0,0:0:0:0:
308,68,178397,1,0,0:0:0:0:
388,136,178512,1,0,0:0:0:0:
416,227,178628,1,0,0:0:0:0:
385,316,178743,2,0,L|345:344,7,47.5,4|0|0|0|0|0|0|0,0:0|0:0|0:0|0:0|0:0|0:0|0:0|0:0,0:0:0:0:
304,368,179205,6,0,P|248:324|216:316,1,95,0|8,0:0|0:0,0:0:0:0:
128,344,179436,1,0,0:0:0:0:
128,344,179551,1,0,0:0:0:0:
31,359,179666,2,0,P|60:271|148:248,1,190,4|8,0:0|0:0,0:0:0:0:
240,228,180012,1,0,0:0:0:0:
324,272,180128,2,0,L|400:340,2,95,4|0|8,0:0|0:0|0:0,0:0:0:0:
324,176,180474,1,0,0:0:0:0:
324,80,180589,2,0,L|248:12,2,95,4|0|8,0:0|0:0|0:0,0:0:0:0:
408,124,180936,1,0,0:0:0:0:
408,124,180993,1,0,0:0:0:0:
408,124,181051,6,0,P|444:188|412:296,1,190,4|0,0:0|0:0,0:0:0:0:
300,344,181397,1,0,0:0:0:0:
176,340,181512,2,0,P|92:312|56:220,1,190,4|0,0:3|0:0,0:0:0:0:
200,138,181859,1,0,0:0:0:0:
200,138,181974,2,0,L|168:228,1,95,0|0,0:0|0:0,0:0:0:0:
136,101,182205,2,0,P|217:66|273:134,1,190,0|4,0:0|0:3,0:0:0:0:
276,232,182551,1,0,0:0:0:0:
276,232,182666,1,0,0:0:0:0:
276,232,182782,6,0,P|348:312|428:312,1,190
496,252,183128,2,0,P|424:172|344:172,1,190
268,120,183474,2,0,B|196:184|196:184|72:200,1,190
76,288,183820,1,0,0:0:0:0:
313,349,184051,5,0,0:0:0:0:
313,101,184281,1,4,0:3:0:0:
99,225,184512,1,0,0:0:0:0:
313,349,184743,6,0,P|428:308|448:212,1,190,4|0,0:0|0:0,0:0:0:0:
428,160,185089,1,0,0:0:0:0:
380,76,185205,2,0,B|308:76|308:76|268:60|268:60|172:60,1,190,4|0,0:3|0:0,0:0:0:0:
108,104,185551,1,0,0:0:0:0:
56,184,185666,1,0,0:0:0:0:
264,232,185897,6,0,L|264:328,1,95,0|0,0:0|0:0,0:0:0:0:
160,272,186128,2,0,L|160:168,1,95,4|0,0:3|0:0,0:0:0:0:
224,104,186359,1,0,0:0:0:0:
318,112,186474,2,0,P|406:180|414:348,2,285,0|0|0,0:0|0:0|0:0,0:0:0:0:
224,104,187282,1,0,0:0:0:0:
136,144,187397,2,0,P|112:212|112:276,1,95,0|0,0:0|0:0,0:0:0:0:
260,351,187743,5,0,0:0:0:0:
260,104,187974,1,4,0:3:0:0:
46,227,188205,1,0,0:0:0:0:
260,104,188436,6,0,P|332:112|424:204,1,190,4|0,0:0|0:0,0:0:0:0:
420,284,188782,1,0,0:0:0:0:
348,344,188897,2,0,P|276:336|184:244,1,190,4|0,0:3|0:0,0:0:0:0:
148,176,189243,2,0,L|112:80,1,95,0|0,0:0|0:0,0:0:0:0:
337,63,189589,6,0,P|306:98|260:104,1,95,0|0,0:0|0:0,0:0:0:0:
232,263,189820,2,0,P|216:219|232:175,1,95,4|0,0:3|0:0,0:0:0:0:
110,72,190051,2,0,P|155:79|185:115,1,95,0|0,0:0|0:0,0:0:0:0:
260,104,190282,6,0,P|324:144|488:32,2,285,0|0|0,0:0|0:0|0:0,0:0:0:0:
172,68,191089,1,0,0:0:0:0:
84,104,191205,2,0,P|56:168|72:300,1,190,0|0,0:0|0:0,0:0:0:0:
270,226,191666,1,4,0:3:0:0:
172,68,191897,1,0,0:0:0:0:
172,316,192128,6,0,P|392:312|392:148,1,427.500016307831,4|0,0:0|0:0,0:0:0:0:
286,52,193051,6,0,P|186:132|272:227,1,285,2|0,0:2|0:0,0:0:0:0:
276,140,193974,6,0,P|348:269|189:199,1,427.500016307831,4|0,2:0|0:0,0:0:0:0:
270,226,194897,6,0,P|431:227|475:343,1,285.000010871888,2|4,0:2|0:3,0:0:0:0:
360,328,195589,2,0,L|272:328,1,71.2500027179719,0|0,0:0|0:0,0:0:0:0:
193,328,195820,5,0,0:0:0:0:
169,325,195877,1,0,0:0:0:0:
147,315,195935,1,0,0:0:0:0:
129,300,195993,1,0,0:0:0:0:
117,280,196051,2,0,L|92:232,3,47.5,0|0|0|0,0:0|0:0|0:0|0:0,0:0:0:0:
132,152,196282,2,0,L|154:193,3,47.5,4|0|0|0,0:3|0:3|0:3|0:3,0:0:0:0:
192,108,196512,2,0,L|169:66,3,47.5,0|0|0|0,0:0|0:0|0:0|0:0,0:0:0:0:
164,36,196743,5,0,0:0:0:0:
197,38,196800,1,0,0:0:0:0:
228,50,196858,1,0,0:0:0:0:
254,70,196916,1,0,0:0:0:0:
275,96,196974,2,0,L|308:164,3,47.5,0|0|0|0,0:0|0:0|0:0|0:0,0:0:0:0:
260,248,197205,2,0,L|227:180,3,47.5,4|0|0|0,0:3|0:0|0:0|0:0,0:0:0:0:
216,316,197436,2,0,L|236:358,3,47.5,0|0|0|0,0:0|0:0|0:0|0:0,0:0:0:0:
324,342,197666,6,0,P|400:280|393:168,1,190,4|0,0:0|0:0,0:0:0:0:
372,104,198012,1,0,0:0:0:0:
372,104,198128,2,0,P|269:118|170:97,1,190,4|0,0:3|0:0,0:0:0:0:
110,43,198474,1,0,0:0:0:0:
8,112,198589,2,0,L|8:216,1,95,0|0,0:0|0:0,0:0:0:0:
88,308,198820,2,0,L|88:196,1,95,0|0,0:0|0:0,0:0:0:0:
176,164,199051,1,4,0:3:0:0:
272,164,199166,1,0,0:0:0:0:
340,232,199282,2,0,L|340:360,1,95,0|0,0:0|0:0,0:0:0:0:
246,340,199512,6,0,P|220:240|116:224,1,190,4|0,0:0|0:0,0:0:0:0:
156,312,199859,1,0,0:0:0:0:
246,340,199974,2,0,L|368:340,1,95,4|0,0:3|0:0,0:0:0:0:
145,215,200205,2,0,L|25:215,1,95,0|0,0:0|0:0,0:0:0:0:
180,76,200436,2,0,P|276:43|364:66,1,190,0|0,0:0|0:0,0:0:0:0:
416,140,200782,1,0,0:0:0:0:
420,236,200897,2,0,L|420:344,1,95,4|0,0:3|0:0,0:0:0:0:
316,260,201128,2,0,L|316:128,1,95,0|0,0:0|0:0,0:0:0:0:
224,252,201359,6,0,P|180:296|68:260,2,190,4|0|4,0:0|0:0|0:3,0:0:0:0:
145,215,201936,1,0,0:0:0:0:
69,262,202051,2,0,L|69:358,1,95,0|0,0:0|0:0,0:0:0:0:
168,364,202282,2,0,P|296:360|372:316,1,190,0|0,0:0|0:0,0:0:0:0:
420,264,202628,1,0,0:0:0:0:
468,180,202743,2,0,P|440:112|304:112,1,190,4|0,0:3|0:0,0:0:0:0:
272,164,203089,1,0,0:0:0:0:
288,260,203205,6,0,L|312:360,1,95,4|0,0:0|0:0,0:0:0:0:
92,248,203436,2,0,L|72:136,1,95,0|0,0:0|0:0,0:0:0:0:
165,114,203666,2,0,L|200:304,1,190,4|0,0:3|0:0,0:0:0:0:
284,344,204012,1,0,0:0:0:0:
376,316,204128,2,0,P|384:228|312:156,1,190,0|0,0:0|0:0,0:0:0:0:
288,260,204474,1,0,0:0:0:0:
288,260,204589,2,0,B|384:228|384:228|420:164|428:128,1,190,4|0,0:3|0:0,0:0:0:0:
362,72,204936,1,0,0:0:0:0:
252,60,205051,6,0,P|192:108|72:88,1,190,4|0,0:0|0:0,0:0:0:0:
37,179,205397,1,0,0:0:0:0:
37,179,205512,2,0,P|57:341|73:357,1,190,4|0,0:3|0:0,0:0:0:0:
165,347,205859,1,0,0:0:0:0:
225,274,205974,2,0,P|340:240|416:278,1,190,0|0,0:0|0:0,0:0:0:0:
454,343,206320,1,0,0:0:0:0:
496,256,206436,2,0,L|496:156,1,95,4|0,0:3|0:0,0:0:0:0:
400,56,206666,2,0,L|400:156,1,95,0|0,0:0|0:0,0:0:0:0:
400,265,206897,6,0,B|344:344|344:344|240:344,1,190,4|0,0:0|0:0,0:0:0:0:
165,347,207243,1,0,0:0:0:0:
165,347,207359,2,0,B|65:347|65:347|9:231,1,190,4|0,0:3|0:0,0:0:0:0:
28,172,207705,1,0,0:0:0:0:
64,84,207820,2,0,B|160:84|128:176|248:176,1,190,0|0,0:0|0:0,0:0:0:0:
336,120,208166,1,0,0:0:0:0:
336,120,208282,2,0,P|248:192|268:268,1,190,4|0,0:3|0:0,0:0:0:0:
340,212,208628,1,0,0:0:0:0:
340,212,208743,6,0,P|420:80|248:88,1,380,4|4,0:0|0:3,0:0:0:0:
197,142,209320,1,0,0:0:0:0:
165,232,209436,2,0,P|185:316|205:336,1,95
284,352,209666,2,0,L|356:352,3,47.5
309,259,209897,2,0,L|371:295,3,47.5
377,190,210128,2,0,L|413:252,3,47.5
470,164,210359,2,0,L|470:236,3,47.5
432,304,210589,6,0,P|252:352|64:304,1,380,4|4,0:0|0:3,0:0:0:0:
80,176,211282,1,0,0:0:0:0:
80,176,211512,2,0,B|160:160|160:160|256:208|256:208|352:160|352:160|448:176,1,380,4|4,0:0|0:3,0:0:0:0:
256,128,212205,2,0,L|256:80,3,47.5,0|0|0|0,0:0|0:0|0:0|0:0,0:0:0:0:
259,32,212436,6,0,P|411:51|455:100,1,190,4|0,0:0|0:0,0:0:0:0:
482,152,212782,1,0,0:0:0:0:
471,246,212897,2,0,L|411:335,2,95,4|0|0,0:3|0:0|0:0,0:0:0:0:
381,212,213243,1,0,0:0:0:0:
286,222,213359,2,0,P|226:242|162:234,1,95,0|0,0:0|0:0,0:0:0:0:
103,350,213589,2,0,P|163:330|227:338,1,95,0|0,0:0|0:0,0:0:0:0:
289,329,213820,1,4,0:3:0:0:
384,326,213936,2,0,L|488:326,2,95,0|0|0,0:0|0:0|0:0,0:0:0:0:
288,328,214282,6,0,P|242:250|151:244,1,190,4|0,0:0|0:0,0:0:0:0:
40,308,214628,1,0,0:0:0:0:
40,308,214743,2,0,P|28:188|76:136,1,190,4|0,0:3|0:0,0:0:0:0:
148,88,215089,1,0,0:0:0:0:
148,88,215205,2,0,P|207:83|264:125,1,95,0|0,0:0|0:0,0:0:0:0:
276,184,215436,2,0,P|229:192|185:175,1,95,0|0,0:0|0:0,0:0:0:0:
100,212,215666,2,0,P|192:272|304:260,1,190,4|0,0:3|0:0,0:0:0:0:
360,232,216012,1,0,0:0:0:0:
360,232,216128,6,0,B|452:276|452:276|444:324|384:356,1,190,4|0,0:0|0:0,0:0:0:0:
308,352,216474,1,0,0:0:0:0:
211,356,216589,2,0,P|165:347|128:318,1,95,4|0,0:3|0:0,0:0:0:0:
72,239,216820,2,0,P|41:279|33:325,1,95
156,255,217051,2,0,P|122:172|32:164,1,190,0|0,0:0|0:0,0:0:0:0:
92,80,217397,1,0,0:0:0:0:
92,80,217512,2,0,L|220:80,1,95,4|0,0:3|0:0,0:0:0:0:
280,100,217743,1,0,0:0:0:0:
356,160,217859,1,0,0:0:0:0:
396,248,217974,6,0,L|396:344,1,95,4|0,0:0|0:0,0:0:0:0:
299,326,218205,2,0,P|173:329|109:272,1,190,0|4,0:0|0:3,0:0:0:0:
109,199,218551,1,0,0:0:0:0:
139,109,218666,1,0,0:0:0:0:
220,58,218782,1,0,0:0:0:0:
320,56,218897,6,0,P|344:128|316:216,1,142.5,0|0,0:0|2:0,0:0:0:0:
331,229,219128,2,0,P|261:216|195:239,1,142.5,0|0,0:0|2:0,0:0:0:0:
166,264,219359,2,0,P|142:197|155:128,1,142.5,4|0,0:3|2:0,0:0:0:0:
154,90,219589,2,0,P|223:102|289:79,1,142.5,0|0,0:0|2:0,0:0:0:0:
320,56,219820,6,0,P|420:88|487:189,1,190,4|0,0:0|0:0,0:0:0:0:
468,248,220166,1,0,0:0:0:0:
404,316,220282,2,0,L|320:364,1,95,4|0,0:3|0:0,0:0:0:0:
190,307,220512,2,0,L|274:259,1,95
341,194,220743,1,0,0:0:0:0:
275,124,220859,1,0,0:0:0:0:
180,125,220974,2,0,P|99:155|82:171,1,95,0|0,0:0|0:0,0:0:0:0:
44,77,221205,2,0,P|125:47|142:31,2,95,4|0|0,0:3|0:0|0:0,0:0:0:0:
23,170,221551,1,0,0:0:0:0:
23,170,221609,1,0,0:0:0:0:
23,170,221666,6,0,P|53:267|160:304,1,190,4|0,0:0|0:0,0:0:0:0:
214,265,222012,1,0,0:0:0:0:
307,246,222128,2,0,P|408:298|412:395,2,190,4|0|0,0:3|0:0|0:0,0:0:0:0:
214,265,222705,1,0,0:0:0:0:
149,195,222820,2,0,L|149:87,1,95,0|0,0:0|0:0,0:0:0:0:
238,65,223051,2,0,P|310:109|426:49,1,190,4|0,0:3|0:0,0:0:0:0:
480,144,223397,1,0,0:0:0:0:
480,144,223455,1,0,0:0:0:0:
480,144,223512,6,0,P|456:232|372:304,1,190,4|0,0:0|0:0,0:0:0:0:
312,236,223859,1,0,0:0:0:0:
312,236,223974,2,0,P|251:206|148:263,2,190,4|0|0,0:3|0:0|0:0,0:0:0:0:
240,304,224551,1,0,0:0:0:0:
240,304,224666,2,0,L|188:120,1,190,0|4,0:0|0:3,0:0:0:0:
240,40,225012,1,0,0:0:0:0:
336,44,225128,1,0,0:0:0:0:
416,92,225243,1,0,0:0:0:0:
460,176,225359,6,0,L|491:298,1,95,0|0,0:0|0:0,0:0:0:0:
418,347,225589,2,0,P|302:339|230:295,1,190,0|4,0:0|0:3,0:0:0:0:
158,250,225936,1,0,0:0:0:0:
64,263,226051,2,0,L|40:368,1,95,0|0,0:0|0:0,0:0:0:0:
158,250,226282,2,0,L|184:136,1,95,0|0,0:0|0:0,0:0:0:0:
216,40,226512,5,0,0:0:0:0:
296,136,226628,1,0,0:0:0:0:
416,92,226743,2,0,L|460:4,1,95
428,196,226974,2,0,L|384:284,1,95
280,328,227205,6,0,L|159:327,2,95,2|0|0,0:0|0:0|0:0,0:0:0:0:
373,290,227897,2,0,P|304:218|211:214,1,190,2|0,0:0|0:0,0:0:0:0:
115,219,228589,2,0,P|57:252|64:370,1,190,2|0,0:0|0:0,0:0:0:0:
128,308,229281,2,0,P|190:277|191:163,1,190,2|0,0:0|0:0,0:0:0:0:
180,72,229974,5,2,0:0:0:0:
272,92,230205,2,0,L|352:168,2,95,2|2|2,0:0|0:0|0:0,0:0:0:0:
180,72,230897,6,0,P|68:140|56:196,1,190,2|0,0:0|0:0,0:0:0:0:
72,284,231589,2,0,L|164:360,2,95,2|0|0,0:0|0:0|0:0,0:0:0:0:
148,228,232281,2,0,B|232:176|232:176|280:192|380:184,1,190,2|0,0:0|0:0,0:0:0:0:
416,204,232974,2,0,P|364:272|244:244,1,190,2|0,0:0|0:0,0:0:0:0:
232,176,233666,5,2,0:0:0:0:
272,88,233897,1,2,0:0:0:0:
364,68,234128,2,0,L|468:68,1,95,2|2,0:0|0:0,0:0:0:0:
484,160,234589,6,0,B|432:224|520:288|472:356,1,190,2|0,0:0|0:0,0:0:0:0:
384,344,235281,2,0,P|288:352|208:288,1,190,2|0,0:0|0:0,0:0:0:0:
168,216,235974,2,0,L|112:112,2,95,2|0|0,0:0|0:0|0:0,0:0:0:0:
88,272,236666,2,0,L|144:376,1,95,2|0,0:0|0:0,0:0:0:0:
224,336,237128,6,0,P|336:274|322:132,1,285,2|2,0:0|0:0,0:0:0:0:
231,213,238051,1,0,0:0:0:0:
233,91,238281,6,0,P|121:155|114:244,1,190,2|0,0:0|0:0,0:0:0:0:
114,297,238974,2,0,L|218:297,2,95,2|2|2,0:0|0:0|0:0,0:0:0:0:
40,236,239666,1,2,0:0:0:0:
40,140,239897,1,2,0:0:0:0:
92,60,240128,6,0,L|200:60,1,95,2|2,0:0|0:0,0:0:0:0:
288,144,240589,2,0,L|180:144,1,95,2|2,0:0|0:0,0:0:0:0:
95,159,241051,1,2,0:0:0:0:
40,236,241282,1,2,0:0:0:0:
118,291,241512,2,0,L|231:291,1,95,2|2,0:0|0:0,0:0:0:0:
308,288,241974,6,0,P|400:240|411:154,1,190,2|0,0:0|0:0,0:0:0:0:
312,184,242666,2,0,L|208:184,2,95,2|2|2,0:0|0:0|0:0,0:0:0:0:
360,100,243358,1,2,0:0:0:0:
360,100,243589,1,2,0:0:0:0:
276,60,243820,6,0,P|200:44|156:56,1,95,2|2,0:0|0:0,0:0:0:0:
92,68,244281,2,0,P|68:128|72:184,1,95,0|2,0:0|0:0,0:0:0:0:
68,252,244743,2,0,L|68:356,2,95,0|2|2,0:0|0:0|0:0,0:0:0:0:
144,196,245435,6,0,P|184:244|316:244,1,190,2|0,0:0|0:0,0:0:0:0:
372,188,246128,1,2,0:0:0:0:
372,188,246358,2,0,P|392:248|376:316,1,95,2|2,0:0|0:0,0:0:0:0:
308,328,246820,2,0,P|200:340|116:316,1,190,2|2,0:0|0:0,0:0:0:0:
48,260,247512,6,0,L|48:152,1,95,2|0,0:0|0:0,0:0:0:0:
108,88,247974,2,0,P|200:60|392:136,1,285,2|2,0:0|0:0,0:0:0:0:
442,183,248897,1,2,0:0:0:0:
436,277,249128,6,0,P|380:321|324:325,2,95,2|2|2,0:0|0:0|0:0,0:0:0:0:
352,228,249820,1,2,0:0:0:0:
352,228,250051,2,0,P|256:204|136:252,1,190,2|2,0:0|0:0,0:0:0:0:
116,304,250743,2,0,P|84:252|132:144,1,190,2|2,0:0|0:0,0:0:0:0:
216,100,251550,6,0,P|312:92|340:100,2,95,2|2|2,0:0|0:0|0:0,0:0:0:0:
136,192,252703,6,0,L|144:296,1,95,2|2,0:0|0:0,0:0:0:0:
236,340,253506,1,2,0:0:0:0:
335,296,254095,6,0,P|367:232|355:176,1,95,2|2,0:0|0:0,0:0:0:0:
288,72,255580,1,2,0:0:0:0:
256,192,256480,12,2,257747,0:0:0:0:
256,192,257905,12,2,258892,0:0:0:0:
256,192,259158,12,0,262755,0:0:0:0:
236,160,263197,6,0,P|124:72|64:96,1,190,4|0,0:0|0:0,0:0:0:0:
36,160,263543,1,0,0:0:0:0:
28,256,263658,2,0,L|28:364,1,95,4|0,0:3|0:0,0:0:0:0:
132,340,263889,2,0,P|204:320|244:328,1,95,0|0,0:0|0:0,0:0:0:0:
320,320,264120,1,0,0:0:0:0:
392,260,264235,1,0,0:0:0:0:
432,176,264350,2,0,L|432:72,1,95,0|0,0:0|0:0,0:0:0:0:
300,28,264581,2,0,L|300:148,1,95,4|0,0:3|0:0,0:0:0:0:
168,180,264812,2,0,L|168:76,1,95,0|0,0:0|0:0,0:0:0:0:
40,160,265043,6,0,P|62:257|139:305,1,190,0|0,0:0|0:0,0:0:0:0:
224,256,265389,1,0,0:0:0:0:
316,236,265504,2,0,P|368:224|424:240,1,95,4|0,0:3|0:0,0:0:0:0:
379,323,265735,2,0,P|327:335|271:319,1,95,0|0,0:0|0:0,0:0:0:0:
224,256,265966,2,0,P|208:184|220:136,1,95,0|0,0:0|0:0,0:0:0:0:
264,84,266197,1,0,0:0:0:0:
356,60,266312,1,0,0:0:0:0:
448,84,266427,2,0,L|492:168,1,95,4|0,0:3|0:0,0:0:0:0:
480,264,266658,2,0,L|436:348,1,95,0|0,0:0|0:0,0:0:0:0:
344,328,266889,6,0,P|268:296|160:340,1,190,4|0,0:0|0:0,0:0:0:0:
76,344,267235,1,0,0:0:0:0:
76,344,267350,2,0,P|48:272|64:120,1,190,4|0,0:3|0:0,0:0:0:0:
120,92,267697,1,0,0:0:0:0:
212,64,267812,2,0,P|272:60|320:80,1,95,0|0,0:0|0:0,0:0:0:0:
344,157,268043,2,0,P|284:161|236:141,1,95,0|0,0:0|0:0,0:0:0:0:
137,103,268273,1,4,0:3:0:0:
55,151,268389,1,0,0:0:0:0:
34,243,268504,2,0,B|71:277|71:277|129:298,1,95,0|0,0:0|0:0,0:0:0:0:
207,280,268735,6,0,P|303:232|375:276,1,190,0|0,0:0|0:0,0:0:0:0:
444,200,269081,1,0,0:0:0:0:
460,108,269197,2,0,L|460:8,1,95,4|0,0:3|0:0,0:0:0:0:
320,32,269427,2,0,L|320:132,1,95,0|0,0:0|0:0,0:0:0:0:
316,224,269658,1,0,0:0:0:0:
232,268,269773,1,0,0:0:0:0:
136,256,269889,2,0,L|64:188,1,95,0|0,0:0|0:0,0:0:0:0:
88,48,270120,2,0,L|160:116,1,95,4|0,0:3|0:0,0:0:0:0:
252,104,270350,1,0,0:0:0:0:
336,60,270466,1,0,0:0:0:0:
336,60,270523,1,0,0:0:0:0:
336,60,270581,6,0,P|428:84|464:208,1,190,4|0,0:0|0:0,0:0:0:0:
476,260,270927,1,0,0:0:0:0:
436,348,271043,2,0,P|399:319|380:272,1,95,4|0,0:3|0:0,0:0:0:0:
332,196,271273,1,0,0:0:0:0:
272,304,271389,1,0,0:0:0:0:
149,309,271504,6,0,L|112:280,3,47.5,0|0|0|0,0:0|0:0|0:0|0:0,0:0:0:0:
163,229,271735,2,0,L|200:260,3,47.5,0|0|0|0,0:0|0:0|0:0|0:0,0:0:0:0:
240,202,271966,2,0,L|204:172,3,47.5,4|0|0|0,0:3|0:0|0:0|0:0,0:0:0:0:
243,113,272197,2,0,L|280:144,3,47.5,0|0|0|0,0:0|0:0|0:0|0:0,0:0:0:0:
180,80,272427,6,0,P|68:132|48:212,1,190,0|0,0:0|0:0,0:0:0:0:
44,284,272773,1,0,0:0:0:0:
112,352,272889,2,0,L|220:352,1,95,4|0,0:3|0:0,0:0:0:0:
340,264,273120,2,0,L|232:264,1,95,0|0,0:0|0:0,0:0:0:0:
240,140,273350,6,0,L|240:72,3,47.5,0|0|0|0,0:0|0:0|0:0|0:0,0:0:0:0:
312,96,273581,2,0,L|312:164,3,47.5,0|0|0|0,0:0|0:0|0:0|0:0,0:0:0:0:
384,144,273812,2,0,L|384:76,3,47.5,4|0|0|0,0:3|0:0|0:0|0:0,0:0:0:0:
456,100,274043,2,0,L|456:147,3,47.5,0|0|0|0,0:0|0:0|0:0|0:0,0:0:0:0:
468,216,274273,6,0,P|448:312|352:348,1,190,0|0,0:0|0:0,0:0:0:0:
304,280,274620,2,0,P|240:252|124:292,1,190,0|0,0:0|0:0,0:0:0:0:
56,348,274966,1,0,0:0:0:0:
28,256,275081,1,0,0:0:0:0:
52,164,275197,2,0,L|116:84,1,95,0|0,0:0|0:0,0:0:0:0:
164,168,275427,2,0,L|104:242,1,95,0|0,0:0|0:0,0:0:0:0:
0,88,275658,2,0,L|64:8,1,95,4|0,0:3|0:0,0:0:0:0:
143,58,275889,1,0,0:0:0:0:
264,32,276004,1,0,0:0:0:0:
284,44,276062,1,0,0:0:0:0:
304,56,276120,6,0,P|356:112|348:252,1,190,4|0,0:0|0:0,0:0:0:0:
448,312,276466,1,0,0:0:0:0:
448,312,276581,2,0,P|372:348|240:308,1,190,4|0,0:3|0:0,0:0:0:0:
200,264,276927,1,0,0:0:0:0:
140,192,277043,2,0,L|140:72,1,95,4|0,0:0|0:0,0:0:0:0:
200,264,277273,2,0,L|200:360,1,95,0|0,0:0|0:0,0:0:0:0:
108,380,277504,1,4,0:3:0:0:
48,304,277620,1,0,0:0:0:0:
44,208,277735,1,0,0:0:0:0:
44,193,277792,1,0,0:0:0:0:
44,179,277850,1,0,0:0:0:0:
44,165,277908,1,0,0:0:0:0:
44,151,277966,6,0,P|72:84|224:84,1,190,4|0,0:0|0:0,0:0:0:0:
252,112,278312,2,0,L|384:248,1,190,0|0,0:0|0:0,0:0:0:0:
272,276,278658,2,0,L|140:140,1,190,0|0,0:0|0:0,0:0:0:0:
100,248,279004,2,0,P|132:344|240:368,1,190,0|0,0:0|0:0,0:0:0:0:
304,356,279350,1,4,0:3:0:0:
380,300,279466,1,0,0:0:0:0:
436,224,279581,2,0,L|436:88,1,95,0|0,0:0|0:0,0:0:0:0:
363,67,279812,6,0,P|270:64|185:106,1,190,0|0,0:0|0:0,0:0:0:0:
232,187,280158,2,0,P|137:188|91:111,1,190,0|0,0:0|0:0,0:0:0:0:
48,28,280504,2,0,L|48:224,1,190
104,296,280850,2,0,B|176:352|176:352|292:352,1,190,0|0,0:0|0:0,0:0:0:0:
384,340,281197,2,0,L|491:340,1,95,4|0,0:3|0:0,0:0:0:0:
493,247,281427,2,0,L|385:246,1,95,0|0,0:0|0:0,0:0:0:0:
332,192,281658,6,0,P|256:144|172:188,1,190,4|0,0:0|0:0,0:0:0:0:
92,224,282004,2,0,P|168:272|252:228,1,190,0|0,0:0|0:0,0:0:0:0:
332,192,282350,2,0,P|324:272|204:340,1,190,0|0,0:0|0:0,0:0:0:0:
104,340,282697,2,0,P|28:285|14:194,1,190,0|0,0:0|0:0,0:0:0:0:
68,112,283043,1,4,0:3:0:0:
173,50,283158,1,0,0:0:0:0:
123,163,283273,1,0,0:0:0:0:
98,43,283389,1,0,0:0:0:0:
189,125,283504,6,0,P|276:144|416:104,1,190,4|0,0:0|0:0,0:0:0:0:
432,52,283850,2,0,B|496:128|432:196|432:196|432:264,1,190,0|0,0:0|0:0,0:0:0:0:
374,302,284197,2,0,P|321:330|272:330,1,95,0|0,0:0|0:0,0:0:0:0:
189,257,284427,2,0,P|242:229|291:229,1,95,0|0,0:0|0:0,0:0:0:0:
124,342,284658,2,0,P|83:254|136:163,1,190,0|4,0:0|0:3,0:0:0:0:
196,118,285004,1,0,0:0:0:0:
196,118,285120,2,0,P|218:167|198:213,1,95,0|0,0:0|0:0,0:0:0:0:
312,240,285350,6,0,P|388:176|392:72,1,190,4|0,0:0|0:0,0:0:0:0:
312,44,285697,2,0,B|248:40|220:104|192:40|124:44,1,190
56,104,286043,2,0,P|24:180|64:320,1,190,0|0,0:0|0:0,0:0:0:0:
124,328,286389,2,0,P|248:348|332:292,1,190,0|0,0:0|0:0,0:0:0:0:
352,240,286735,1,4,0:3:0:0:
368,148,286850,1,0,0:0:0:0:
344,56,286966,2,0,L|248:16,1,95,0|0,0:0|0:0,0:0:0:0:
228,112,287197,6,0,L|415:190,1,190,0|0,0:0|0:0,0:0:0:0:
452,268,287543,2,0,P|392:336|296:332,1,190,0|0,0:0|0:0,0:0:0:0:
212,296,287889,2,0,L|25:218,1,190,0|0,0:0|0:0,0:0:0:0:
48,312,288235,2,0,P|117:254|102:165,1,190,0|0,0:0|0:0,0:0:0:0:
168,60,288581,1,4,0:3:0:0:
291,48,288697,1,0,0:0:0:0:
340,160,288812,1,0,0:0:0:0:
340,160,289043,6,0,B|340:256|340:256|340:328|408:348,1,190,4|0,0:0|0:0,0:0:0:0:
432,260,289389,2,0,B|432:164|432:164|432:92|364:72,1,190,0|0,0:0|0:0,0:0:0:0:
292,80,289735,2,0,B|228:128|260:200|260:200|220:264,1,190,0|0,0:0|0:0,0:0:0:0:
176,324,290081,2,0,P|130:369|82:287,1,190,0|0,0:0|0:0,0:0:0:0:
124,200,290427,2,0,P|144:144|132:84,1,95,4|0,0:3|0:0,0:0:0:0:
80,36,290658,2,0,P|60:92|72:152,1,95,4|0,0:3|0:0,0:0:0:0:
212,168,290889,6,0,P|312:216|396:168,1,190,4|0,0:0|0:0,0:0:0:0:
448,252,291235,2,0,P|472:176|392:96,1,190,0|0,0:0|0:0,0:0:0:0:
304,100,291581,2,0,L|300:328,1,190,0|0,0:0|0:0,0:0:0:0:
216,336,291927,1,0,0:0:0:0:
120,336,292043,2,0,L|120:228,1,95,0|0,0:0|0:0,0:0:0:0:
48,144,292273,6,0,L|48:215,1,71.2500027179719,4|0,0:0|0:0,0:0:0:0:
124,100,292504,2,0,L|124:171,1,71.2500027179719,0|0,0:0|0:0,0:0:0:0:
196,52,292735,2,0,L|196:123,1,71.2500027179719,0|0,0:0|0:0,0:0:0:0:
316,123,292966,6,0,L|316:52,1,71.2500027179719,4|0,0:0|0:0,0:0:0:0:
388,171,293197,2,0,L|388:100,1,71.2500027179719,0|0,0:0|0:0,0:0:0:0:
464,215,293428,2,0,L|464:144,1,71.2500027179719,0|0,0:0|0:0,0:0:0:0:
388,264,293658,6,0,L|312:328,1,95,2|0,2:0|0:0,0:0:0:0:
124,264,293889,2,0,L|200:328,1,95,0|0,0:0|0:0,0:0:0:0:
368,120,294120,2,0,L|320:212,1,95,2|0,0:2|0:0,0:0:0:0:
144,120,294350,2,0,L|192:212,1,95
256,72,294581,6,0,L|256:124,7,47.5,2|0|0|0|0|0|0|0,0:2|0:0|0:0|0:0|0:0|0:0|0:0|0:0,0:0:0:0:
256,144,295043,1,2,0:2:0:0:
256,167,295100,1,0,0:0:0:0:
256,191,295158,1,0,0:0:0:0:
256,215,295216,1,0,0:0:0:0:
256,239,295273,2,2,L|256:296,3,47.5,0|0|0|0,0:0|0:0|0:0|0:0,0:0:0:0:
256,312,295504,6,0,P|304:336|420:236,1,190,4|0,0:0|0:0,0:0:0:0:
436,184,295850,1,0,0:0:0:0:
424,88,295966,2,0,P|380:48|324:32,1,95,4|0,0:3|0:3,0:0:0:0:
256,70,296197,2,0,P|213:90|167:84,1,95,0|0,0:0|0:0,0:0:0:0:
108,8,296427,2,0,P|72:100|121:169,1,190,0|0,0:0|0:0,0:0:0:0:
212,200,296773,1,0,0:0:0:0:
212,200,296889,2,0,P|308:168|388:200,1,190,4|0,0:3|0:0,0:0:0:0:
392,296,297235,1,0,0:0:0:0:
392,296,297350,6,0,P|296:328|216:296,1,190,0|0,0:0|0:0,0:0:0:0:
144,252,297697,2,0,P|48:232|32:304,1,190,0|0,0:0|0:0,0:0:0:0:
116,344,298043,2,0,P|184:340|220:312,1,95,0|0,0:0|0:0,0:0:0:0:
256,248,298273,2,0,P|340:216|428:280,1,190,0|0,0:0|0:0,0:0:0:0:
492,332,298620,1,0,0:0:0:0:
492,332,298735,2,0,L|492:208,1,95,4|0,0:3|0:0,0:0:0:0:
440,128,298966,2,0,L|388:84,3,47.5
360,72,299197,6,0,P|280:104|176:52,1,190,4|0,0:0|0:0,0:0:0:0:
108,16,299543,2,0,L|108:136,1,95,0|4,0:0|0:3,0:0:0:0:
132,204,299773,1,0,0:0:0:0:
180,288,299889,2,0,P|260:340|288:344,1,95,0|0,0:0|0:0,0:0:0:0:
352,332,300120,2,0,P|424:308|456:204,1,190,0|0,0:0|0:0,0:0:0:0:
400,128,300466,1,0,0:0:0:0:
304,96,300581,2,0,B|256:144|160:64|112:112,1,190,4|0,0:3|0:0,0:0:0:0:
52,172,300927,1,0,0:0:0:0:
52,172,301043,6,0,P|60:248|128:192,1,190,4|0,0:0|0:0,0:0:0:0:
216,164,301389,1,0,0:0:0:0:
216,164,301504,2,0,P|288:248|252:348,1,190,4|0,0:0|0:0,0:0:0:0:
192,364,301850,1,0,0:0:0:0:
180,268,301966,2,0,B|284:248|284:248|376:292,1,190,4|0,0:0|0:0,0:0:0:0:
432,344,302312,1,0,0:0:0:0:
492,268,302427,2,0,L|512:164,1,95,4|0,0:0|0:0,0:0:0:0:
448,68,302658,2,0,L|430:161,1,95,0|0,0:0|0:0,0:0:0:0:
356,36,302889,6,0,P|208:60|168:108,1,190,4|0,0:0|0:0,0:0:0:0:
132,164,303235,1,0,0:0:0:0:
128,260,303350,2,0,L|128:356,1,95,4|0,0:3|0:0,0:0:0:0:
212,308,303581,2,0,L|212:204,1,95,0|0,0:0|0:0,0:0:0:0:
284,152,303812,2,0,P|384:200|392:284,1,190,0|0,0:0|0:0,0:0:0:0:
336,344,304158,1,0,0:0:0:0:
244,356,304273,2,0,P|185:356|128:336,1,95,4|0,0:3|0:0,0:0:0:0:
128,260,304504,2,0,P|186:260|244:280,1,95,0|0,0:0|0:0,0:0:0:0:
314,249,304735,6,0,B|406:232|406:232|473:157,1,190,0|0,0:0|0:0,0:0:0:0:
460,65,305081,1,0,0:0:0:0:
460,65,305197,2,0,B|367:81|367:81|300:157,1,190,4|0,0:3|0:0,0:0:0:0:
216,200,305543,1,0,0:0:0:0:
124,184,305658,2,0,P|40:220|60:320,1,190,0|0,0:0|0:0,0:0:0:0:
132,348,306004,1,0,0:0:0:0:
228,352,306120,2,0,P|308:336|336:296,1,95,4|0,0:3|0:0,0:0:0:0:
380,260,306350,2,0,P|460:276|488:316,1,95,0|0,0:0|0:0,0:0:0:0:
404,352,306581,6,0,P|296:308|300:212,1,190,4|0,0:0|0:0,0:0:0:0:
324,160,306927,1,0,0:0:0:0:
324,160,307043,2,0,P|412:192|380:260,1,190,4|0,0:0|0:0,0:0:0:0:
286,246,307389,1,0,0:0:0:0:
286,246,307504,2,0,B|224:192|160:272|105:229,1,190,4|0,0:0|0:0,0:0:0:0:
20,186,307850,1,0,0:0:0:0:
157,158,307966,2,0,P|193:242|138:314,1,190,4|0,0:0|0:0,0:0:0:0:
328,72,308427,5,4,0:0:0:0:
328,72,308543,2,0,P|404:100|424:132,1,95,0|0,0:0|0:0,0:0:0:0:
440,200,308773,1,0,0:0:0:0:
404,288,308889,1,0,0:0:0:0:
324,339,309004,1,0,0:0:0:0:
324,339,309062,1,0,0:0:0:0:
324,339,309120,2,0,P|271:352|223:345,1,95,0|0,0:0|0:0,0:0:0:0:
140,316,309350,6,0,L|104:272,3,47.5,4|0|0|0,0:0|0:0|0:0|0:0,0:0:0:0:
104,204,309581,2,0,L|140:160,3,47.5,8|0|0|0,0:0|0:0|0:0|0:0,0:0:0:0:
192,120,309812,1,4,0:0:0:0:
216,105,309869,1,0,0:0:0:0:
243,96,309927,1,0,0:0:0:0:
271,92,309985,1,0,0:0:0:0:
300,93,310043,2,0,L|372:120,3,47.5,8|0|0|0,0:0|0:0|0:0|0:0,0:0:0:0:
380,124,310273,6,0,P|428:212|388:300,1,190,4|0,0:0|0:0,0:0:0:0:
312,332,310620,1,0,0:0:0:0:
228,292,310735,2,0,L|184:188,1,95,4|0,0:3|0:0,0:0:0:0:
92,188,310966,2,0,L|136:292,1,95,0|0,0:0|0:0,0:0:0:0:
200,364,311197,2,0,P|272:372|284:244,1,190,0|0,0:0|0:0,0:0:0:0:
282,188,311543,1,0,0:0:0:0:
228,104,311658,2,0,P|144:84|40:128,1,190,4|0,0:3|0:0,0:0:0:0:
104,204,312004,1,0,0:0:0:0:
104,204,312120,6,0,P|188:224|292:180,1,190,4|0,0:0|0:0,0:0:0:0:
372,160,312466,1,0,0:0:0:0:
448,104,312581,2,0,L|448:4,1,95,4|0,0:3|0:0,0:0:0:0:
372,160,312812,2,0,L|372:260,1,95,0|0,0:0|0:0,0:0:0:0:
320,336,313043,2,0,P|236:372|148:328,1,190,0|0,0:0|0:0,0:0:0:0:
104,248,313389,1,0,0:0:0:0:
144,160,313504,2,0,L|252:104,1,95,4|0,0:3|0:0,0:0:0:0:
308,172,313735,2,0,L|200:228,1,95,0|0,0:0|0:0,0:0:0:0:
144,160,313966,6,0,P|40:176|8:248,2,190,4|0|4,0:0|0:0|0:3,0:0:0:0:
223,215,314543,2,0,L|307:323,1,95,0|0,0:0|0:0,0:0:0:0:
364,332,314773,1,0,0:0:0:0:
444,284,314889,2,0,P|476:216|448:100,1,190,0|0,0:0|0:0,0:0:0:0:
364,72,315235,1,0,0:0:0:0:
272,88,315350,2,0,P|200:144|188:172,1,95,4|0,0:3|0:0,0:0:0:0:
52,160,315581,2,0,P|124:104|136:76,1,95,0|0,0:0|0:0,0:0:0:0:
188,32,315812,6,0,B|228:20|228:20|312:20,1,95,4|0,0:0|0:0,0:0:0:0:
369,185,316043,2,0,B|329:197|329:197|245:197,1,95,0|0,0:0|0:0,0:0:0:0:
163,109,316273,2,0,B|359:109,1,190,4|0,0:3|0:0,0:0:0:0:
436,156,316620,1,0,0:0:0:0:
436,156,316735,2,0,P|396:232|436:364,1,190,0|0,0:0|0:0,0:0:0:0:
300,344,317081,1,0,0:0:0:0:
300,344,317197,2,0,B|240:320|172:340|172:340|92:296,1,190,4|0,0:3|0:0,0:0:0:0:
120,188,317543,1,0,0:0:0:0:
120,188,317600,1,0,0:0:0:0:
120,188,317658,6,0,B|172:159|172:159|240:179|300:155,1,190,4|0,0:0|0:0,0:0:0:0:
392,128,318004,1,0,0:0:0:0:
472,180,318120,2,0,P|442:268|368:325,1,190,4|0,0:3|0:0,0:0:0:0:
272,320,318466,1,0,0:0:0:0:
184,288,318581,2,0,P|136:284|80:300,1,95,0|0,0:0|0:0,0:0:0:0:
26,194,318812,2,0,P|74:198|130:182,1,95,0|0,0:0|0:0,0:0:0:0:
204,140,319043,1,4,0:3:0:0:
288,104,319158,1,0,0:0:0:0:
380,88,319273,2,0,P|464:112|496:152,1,95,0|0,0:0|0:0,0:0:0:0:
409,188,319504,6,0,P|396:272|280:320,1,190,4|0,0:0|0:0,0:0:0:0:
312,220,319850,1,0,0:0:0:0:
312,220,319966,2,0,L|312:96,1,95,4|0,0:3|0:0,0:0:0:0:
208,76,320197,2,0,L|208:200,1,95,0|0,0:0|0:0,0:0:0:0:
312,220,320427,2,0,P|368:280|496:240,1,190,0|0,0:0|0:0,0:0:0:0:
480,164,320773,1,0,0:0:0:0:
480,164,320889,2,0,P|424:112|296:144,1,190,4|0,0:3|0:0,0:0:0:0:
236,172,321235,1,0,0:0:0:0:
152,212,321350,6,0,P|76:200|84:76,1,190,4|0,0:0|0:0,0:0:0:0:
132,36,321697,1,0,0:0:0:0:
224,52,321812,2,0,B|280:96|376:24|436:68,1,190,4|0,0:3|0:0,0:0:0:0:
468,128,322158,1,0,0:0:0:0:
444,220,322273,6,0,L|424:296,3,47.5,0|0|0|0,0:0|0:0|0:0|0:0,0:0:0:0:
352,240,322504,2,0,L|332:316,3,47.5,0|0|0|0,0:0|0:0|0:0|0:0,0:0:0:0:
264,256,322735,2,0,L|244:332,3,47.5,4|0|0|0,0:3|0:0|0:0|0:0,0:0:0:0:
176,264,322966,2,0,L|156:340,3,47.5,0|0|0|0,0:0|0:0|0:0|0:0,0:0:0:0:
88,276,323197,6,0,L|32:172,1,95,4|0,0:0|0:0,0:0:0:0:
104,64,323427,2,0,L|160:168,1,95,8|0,0:0|0:0,0:0:0:0:
224,268,323658,2,0,P|304:323|330:325,1,95,4|8,0:0|0:0,0:0:0:0:
423,322,323889,1,0,0:0:0:0:
451,203,324004,1,0,0:0:0:0:
452,179,324062,1,0,0:0:0:0:
452,156,324120,6,0,P|424:92|396:64,1,95,4|0,0:0|0:0,0:0:0:0:
264,76,324350,2,0,P|235:113|219:158,1,95,8|0,0:0|0:0,0:0:0:0:
336,240,324581,1,4,0:0:0:0:
336,225,324638,1,0,0:0:0:0:
336,211,324696,1,0,0:0:0:0:
336,197,324754,1,0,0:0:0:0:
336,183,324812,2,0,L|336:56,1,95,8|0,0:0|0:0,0:0:0:0:
448,60,325043,6,0,P|496:168|456:256,1,190,4|0,0:0|0:0,0:0:0:0:
404,296,325389,1,0,0:0:0:0:
312,308,325504,2,0,P|232:296|200:264,1,95,4|0,0:3|0:0,0:0:0:0:
196,196,325735,2,0,P|276:208|308:240,1,95,0|0,0:0|0:0,0:0:0:0:
380,228,325966,2,0,P|404:160|308:116,1,190,0|0,0:0|0:0,0:0:0:0:
224,88,326312,1,0,0:0:0:0:
124,128,326427,2,0,L|16:128,1,95,4|0,0:3|0:0,0:0:0:0:
28,224,326658,2,0,L|136:224,1,95
224,256,326889,6,0,P|300:216|284:96,2,190,4|0|4,0:0|0:0|0:3,0:0:0:0:
221,160,327466,1,0,0:0:0:0:
295,101,327581,2,0,P|341:94|417:105,1,95
468,152,327812,1,0,0:0:0:0:
464,248,327927,2,0,L|464:368,2,95,0|0|0,0:0|0:0|0:0,0:0:0:0:
381,200,328273,2,0,P|306:251|219:223,1,190,4|0,0:3|0:0,0:0:0:0:
168,140,328620,1,0,0:0:0:0:
168,140,328735,6,0,P|122:210|164:304,1,190,4|0,0:0|0:0,0:0:0:0:
244,344,329081,1,0,0:0:0:0:
340,352,329197,2,0,L|448:352,1,95,4|0,0:3|0:0,0:0:0:0:
480,268,329427,2,0,L|368:268,1,95,0|0,0:0|0:0,0:0:0:0:
291,288,329658,2,0,P|198:283|150:196,1,190,0|0,0:0|0:0,0:0:0:0:
160,111,330004,1,0,0:0:0:0:
225,41,330120,2,0,P|299:58|325:164,1,190,4|0,0:3|0:0,0:0:0:0:
244,128,330466,1,0,0:0:0:0:
403,68,330581,6,0,L|447:180,1,95,4|0,0:0|0:0,0:0:0:0:
366,257,330812,2,0,L|322:145,1,95
411,320,331043,2,0,P|307:296|211:336,1,190,4|0,0:3|0:0,0:0:0:0:
136,308,331389,1,0,0:0:0:0:
136,308,331504,2,0,P|60:250|101:159,1,190,0|0,0:0|0:0,0:0:0:0:
148,64,331850,1,0,0:0:0:0:
148,64,331966,2,0,B|208:152,1,95,4|0,0:3|0:0,0:0:0:0:
268,224,332197,1,0,0:0:0:0:
282,205,332254,1,0,0:0:0:0:
296,186,332312,1,0,0:0:0:0:
310,167,332370,1,0,0:0:0:0:
325,148,332427,6,0,P|396:100|480:156,1,190,4|0,0:0|0:0,0:0:0:0:
496,236,332773,1,0,0:0:0:0:
444,316,332889,2,0,P|348:344|236:328,1,190,4|0,0:3|0:0,0:0:0:0:
180,284,333235,1,0,0:0:0:0:
120,212,333350,2,0,P|100:144|116:92,1,95,0|0,0:0|0:0,0:0:0:0:
200,44,333581,2,0,P|220:112|204:164,1,95,0|0,0:0|0:0,0:0:0:0:
268,224,333812,2,0,P|328:260|376:236,1,95,4|0,0:3|0:0,0:0:0:0:
424,196,334043,1,0,0:0:0:0:
440,104,334158,1,0,0:0:0:0:
380,32,334273,6,0,P|294:64|188:36,1,190,4|0,0:0|0:0,0:0:0:0:
128,104,334620,1,0,0:0:0:0:
128,104,334735,2,0,L|128:199,1,95,4|0,0:3|0:0,0:0:0:0:
240,248,334966,2,0,L|240:148,1,95
48,164,335197,2,0,P|59:253|144:284,1,190,0|0,0:0|0:0,0:0:0:0:
240,248,335543,1,0,0:0:0:0:
240,248,335658,2,0,P|297:165|271:85,1,190,4|0,0:3|0:0,0:0:0:0:
190,155,336004,1,0,0:0:0:0:
190,155,336120,6,0,P|175:331|329:304,1,380,4|4,0:0|0:3,0:0:0:0:
396,244,336697,1,0,0:0:0:0:
476,192,336812,2,0,L|476:296,1,95,0|0,0:0|0:0,0:0:0:0:
392,155,337043,6,0,L|392:108,3,47.5,0|0|0|0,0:0|0:0|0:0|0:0,0:0:0:0:
319,144,337273,2,0,L|336:100,3,47.5,0|0|0|0,0:0|0:0|0:0|0:0,0:0:0:0:
252,107,337504,2,0,L|284:72,3,47.5,4|0|0|0,0:3|0:0|0:0|0:0,0:0:0:0:
204,52,337734,2,0,L|246:29,3,47.5,0|0|0|0,0:0|0:0|0:0|0:0,0:0:0:0:
160,72,337966,6,0,P|88:160|116:256,1,190,4|0,0:0|0:0,0:0:0:0:
136,316,338312,1,0,0:0:0:0:
216,368,338427,2,0,P|264:372|324:340,1,95,4|0,0:3|0:0,0:0:0:0:
400,272,338658,2,0,P|352:268|292:300,1,95,0|0,0:0|0:0,0:0:0:0:
416,348,338889,2,0,P|476:264|432:200,1,190,0|0,0:0|0:0,0:0:0:0:
340,200,339235,1,0,0:0:0:0:
252,236,339350,2,0,P|197:253|136:244,1,95,4|0,0:3|0:0,0:0:0:0:
72,212,339581,2,0,P|65:175|72:136,3,47.5,0|0|0|0,0:0|0:0|0:0|0:0,0:0:0:0:
95,131,339812,6,0,P|175:99|271:131,1,190,4|0,0:0|0:0,0:0:0:0:
340,200,340158,1,0,0:0:0:0:
340,200,340273,2,0,P|372:120|356:76,1,95,4|0,0:3|0:0,0:0:0:0:
436,244,340504,2,0,P|404:324|420:368,1,95,0|0,0:0|0:0,0:0:0:0:
312,356,340735,2,0,P|216:336|120:364,1,190,0|0,0:0|0:0,0:0:0:0:
36,332,341081,1,0,0:0:0:0:
20,236,341197,2,0,P|33:161|71:120,1,95,4|0,0:3|0:0,0:0:0:0:
132,112,341427,2,0,P|118:186|80:227,1,95,0|0,0:0|0:0,0:0:0:0:
188,252,341658,6,0,B|288:272|288:272|408:248,1,190,4|0,0:0|0:0,0:0:0:0:
444,164,342004,1,0,0:0:0:0:
428,72,342120,2,0,B|328:52|328:52|208:76,1,190,4|0,0:3|0:0,0:0:0:0:
156,112,342466,1,0,0:0:0:0:
104,192,342581,2,0,P|88:264|100:304,1,95,0|0,0:0|0:0,0:0:0:0:
276,312,342812,2,0,P|292:240|280:200,1,95,0|0,0:0|0:0,0:0:0:0:
188,252,343043,2,0,L|168:352,1,95,4|0,0:3|0:0,0:0:0:0:
76,356,343273,1,0,0:0:0:0:
58,340,343330,1,0,0:0:0:0:
43,321,343388,1,0,0:0:0:0:
32,300,343446,1,0,0:0:0:0:
25,277,343504,6,0,P|48:152|112:96,1,190,4|0,0:0|0:0,0:0:0:0:
180,140,343850,1,0,0:0:0:0:
180,140,343966,2,0,P|268:176|372:120,1,190,4|0,0:3|0:0,0:0:0:0:
268,92,344312,1,0,0:0:0:0:
268,92,344427,2,0,L|268:324,1,190,0|0,0:0|0:0,0:0:0:0:
336,348,344773,1,0,0:0:0:0:
336,348,344889,2,0,P|396:332|430:291,1,95,4|0,0:3|0:0,0:0:0:0:
435,187,345120,2,0,P|375:203|341:244,1,95,0|0,0:0|0:0,0:0:0:0:
276,280,345350,5,4,0:0:0:0:
184,308,345466,1,0,0:0:0:0:
92,292,345581,2,0,P|48:248|80:116,1,190,0|4,0:0|0:3,0:0:0:0:
140,44,345927,1,0,0:0:0:0:
132,162,346042,1,0,0:0:0:0:
69,61,346157,1,0,0:0:0:0:
178,106,346273,6,0,P|247:137|310:107,1,142.5,0|0,0:0|2:0,0:0:0:0:
313,75,346504,2,0,L|365:232,1,142.5,0|0,0:0|2:0,0:0:0:0:
394,222,346735,2,0,P|324:243|303:317,1,142.5,0|0,0:0|2:0,0:0:0:0:
334,322,346966,2,0,L|190:344,1,142.5,0|0,0:0|2:0,0:0:0:0:
155,339,347197,6,0,P|104:304|128:168,1,190,4|0,0:0|0:0,0:0:0:0:
196,148,347543,1,0,0:0:0:0:
196,148,347658,2,0,B|229:148|274:181|274:181|316:212|372:212,1,190,4|0,0:3|0:0,0:0:0:0:
456,172,348004,1,0,0:0:0:0:
492,84,348120,2,0,L|432:4,1,95,0|0,0:0|0:0,0:0:0:0:
324,24,348350,2,0,L|384:104,1,95,0|0,0:0|0:0,0:0:0:0:
456,172,348581,1,4,0:3:0:0:
460,268,348697,1,0,0:0:0:0:
388,328,348812,1,0,0:0:0:0:
296,340,348927,1,0,0:0:0:0:
276,340,348984,1,0,0:0:0:0:
255,341,349043,6,0,P|163:312|98:195,1,190,4|0,0:0|0:0,0:0:0:0:
124,147,349389,1,0,0:0:0:0:
124,147,349504,2,0,P|25:198|21:267,1,190,4|0,0:3|0:0,0:0:0:0:
88,335,349850,1,0,0:0:0:0:
184,332,349966,2,0,L|280:124,1,190,0|0,0:0|0:0,0:0:0:0:
352,124,350312,1,0,0:0:0:0:
432,176,350426,1,4,0:3:0:0:
437,203,350484,1,0,0:0:0:0:
433,231,350542,1,0,0:0:0:0:
417,255,350599,1,0,0:0:0:0:
391,268,350658,2,0,L|343:274,3,47.5,0|0|0|0,0:0|0:0|0:0|0:0,0:0:0:0:
316,276,350889,6,0,B|280:276|280:276|164:244|164:244|130:244,1,190,4|0,0:0|0:0,0:0:0:0:
32,256,351235,1,0,0:0:0:0:
88,332,351350,2,0,B|121:332|121:332|237:364|237:364|273:364,2,190,4|0|0,0:3|0:0|0:0,0:0:0:0:
32,256,351927,1,0,0:0:0:0:
16,164,352043,1,0,0:0:0:0:
76,88,352158,1,0,0:0:0:0:
172,80,352273,2,0,L|284:80,1,95,4|0,0:3|0:0,0:0:0:0:
308,168,352504,2,0,L|213:168,1,95,0|0,0:0|0:0,0:0:0:0:
120,188,352735,6,0,P|156:244|280:236,2,190,0|0|4,0:0|0:0|0:3,0:0:0:0:
48,128,353312,1,0,0:0:0:0:
16,216,353427,2,0,L|16:328|16:324,1,95,0|0,0:0|0:0,0:0:0:0:
120,380,353658,2,0,L|120:268,1,95,0|0,0:0|0:0,0:0:0:0:
120,188,353889,2,0,P|128:128|160:92,1,95,0|0,0:0|0:0,0:0:0:0:
240,72,354120,1,4,0:3:0:0:
328,104,354235,1,0,0:0:0:0:
364,196,354350,2,0,L|364:296,1,95,0|0,0:0|0:0,0:0:0:0:
244,312,354581,6,0,L|244:188,1,95,0|0,0:0|0:0,0:0:0:0:
184,144,354812,2,0,P|60:192|60:272,1,190,0|4,0:0|0:3,0:0:0:0:
136,312,355158,1,0,0:0:0:0:
244,312,355273,2,0,L|364:312,1,95,0|0,0:0|0:0,0:0:0:0:
436,236,355504,5,0,0:0:0:0:
322,148,355620,1,0,0:0:0:0:
195,213,355735,2,0,L|71:213,1,95,0|0,0:0|0:0,0:0:0:0:
15,122,355966,5,0,0:0:0:0:
129,34,356082,1,0,0:0:0:0:
256,99,356197,2,0,L|380:99,1,95,0|0,0:0|0:0,0:0:0:0:
460,156,356427,6,0,P|356:216|380:296,1,190,4|0,0:0|0:0,0:0:0:0:
296,340,356773,1,0,0:0:0:0:
200,352,356889,2,0,P|92:336|60:236,1,190,4|0,0:3|0:0,0:0:0:0:
56,176,357235,1,0,0:0:0:0:
120,100,357350,2,0,L|208:40,1,95,0|0,0:0|0:0,0:0:0:0:
212,140,357581,2,0,L|124:200,1,95,0|0,0:0|0:0,0:0:0:0:
208,256,357812,1,4,0:3:0:0:
296,276,357927,1,4,0:3:0:0:
384,240,358043,2,0,L|496:192,1,95,4|0,0:3|0:0,0:0:0:0:
464,108,358273,6,0,P|412:56|280:32,1,190,4|0,0:0|0:0,0:0:0:0:
208,56,358620,1,0,0:0:0:0:
120,100,358735,2,0,L|120:208|120:208,1,95,4|0,0:3|0:0,0:0:0:0:
204,248,358966,2,0,L|204:120,1,95,0|0,0:0|0:0,0:0:0:0:
124,288,359197,2,0,P|204:336|284:288,1,190,0|0,0:0|0:0,0:0:0:0:
324,208,359543,1,0,0:0:0:0:
388,136,359658,2,0,P|452:148|488:172,1,95,4|0,0:3|0:0,0:0:0:0:
413,234,359889,2,0,P|349:222|313:198,1,95,0|0,0:0|0:0,0:0:0:0:
236,172,360120,6,0,P|112:176|72:232,1,190,4|0,0:0|0:0,0:0:0:0:
120,308,360466,1,0,0:0:0:0:
204,348,360581,2,0,L|308:348,1,95,4|0,0:3|0:0,0:0:0:0:
344,264,360812,2,0,L|224:264,1,95,0|0,0:0|0:0,0:0:0:0:
164,220,361043,1,0,0:0:0:0:
68,220,361158,2,0,L|68:328,2,95,0|0|0,0:0|0:0|0:0,0:0:0:0:
72,124,361504,2,0,P|156:64|232:124,1,190,4|0,0:3|0:0,0:0:0:0:
284,176,361850,1,0,0:0:0:0:
352,244,361966,6,0,P|440:268|502:198,1,190,4|0,0:0|0:0,0:0:0:0:
416,184,362312,1,0,0:0:0:0:
284,176,362427,2,0,P|260:264|344:344,1,190,4|0,0:3|0:0,0:0:0:0:
416,184,362773,1,0,0:0:0:0:
416,184,362889,2,0,P|352:64|216:64,2,285,0|0|0,0:0|0:0|0:0,0:0:0:0:
356,324,363812,6,0,B|276:312|240:328|240:328|173:299,1,190,4|0,0:0|0:0,0:0:0:0:
80,260,364158,1,0,0:0:0:0:
80,260,364273,2,0,P|131:208|243:228,1,190,4|0,0:3|0:0,0:0:0:0:
328,276,364620,1,0,0:0:0:0:
412,232,364735,2,0,L|464:132,1,95,0|0,0:0|0:0,0:0:0:0:
404,68,364966,2,0,P|136:56|48:112,1,380,0|0,0:0|0:0,0:0:0:0:
28,208,365543,1,0,0:0:0:0:
43,299,365658,6,0,P|129:333|211:290,2,190,4|0|4,0:0|0:0|0:3,0:0:0:0:
124,228,366235,1,0,0:0:0:0:
216,200,366350,2,0,P|280:232|296:272,1,95,0|0,0:0|0:0,0:0:0:0:
344,336,366581,2,0,P|382:362|428:357,1,95,0|0,0:0|0:0,0:0:0:0:
476,272,366812,2,0,P|372:120|312:268,1,380,0|0,0:0|0:0,0:0:0:0:
396,216,367389,1,0,0:0:0:0:
396,216,367504,6,0,P|400:112|348:48,1,190,4|0,0:0|0:0,0:0:0:0:
252,48,367850,1,0,0:0:0:0:
156,52,367966,2,0,P|44:112|36:192,1,190,4|0,0:3|0:0,0:0:0:0:
104,228,368312,1,0,0:0:0:0:
188,184,368427,2,0,P|288:164|392:316,2,285,0|0|0,0:0|0:0|0:0,0:0:0:0:
104,228,369235,1,0,0:0:0:0:
168,296,369350,6,0,B|272:276|272:276|320:184,1,190,4|0,0:0|0:0,0:0:0:0:
300,104,369697,1,0,0:0:0:0:
212,64,369812,2,0,L|88:64,1,95,4|0,0:3|0:0,0:0:0:0:
44,152,370043,2,0,L|168:152,1,95,0|0,0:0|0:0,0:0:0:0:
212,64,370273,5,0,0:0:0:0:
302,79,370388,1,0,0:0:0:0:
344,160,370503,1,0,0:0:0:0:
304,243,370619,1,0,0:0:0:0:
211,261,370735,1,0,0:0:0:0:
187,260,370792,1,0,0:0:0:0:
160,260,370850,2,0,L|112:260,5,47.5,0|0|0|0|0|0,0:0|0:0|0:0|0:0|0:0|0:0,0:0:0:0:
75,302,371197,6,0,P|147:349|259:345,1,190,4|0,0:0|0:0,0:0:0:0:
296,175,371658,2,0,P|224:128|112:132,1,190,4|0,0:0|0:0,0:0:0:0:
75,302,372120,1,0,0:0:0:0:
248,348,372350,1,0,0:0:0:0:
296,175,372581,1,0,0:0:0:0:
122,128,372811,1,0,0:0:0:0:
188,240,373043,6,0,P|271:259|375:217,1,190,4|0,0:0|0:0,0:0:0:0:
351,43,373504,2,0,P|267:23|163:65,1,190,4|0,0:0|0:0,0:0:0:0:
188,240,373966,1,0,0:0:0:0:
365,223,374196,1,0,0:0:0:0:
351,43,374427,1,0,0:0:0:0:
172,59,374657,1,0,0:0:0:0:
180,148,374773,1,0,0:0:0:0:
188,240,374889,6,0,B|283:269|283:269|336:344,1,190,4|0,0:0|0:0,0:0:0:0:
439,193,375350,2,0,B|344:164|344:164|291:89,1,190,4|0,0:0|0:0,0:0:0:0:
188,240,375812,1,0,0:0:0:0:
334,340,376042,1,0,0:0:0:0:
439,193,376273,1,0,0:0:0:0:
291,90,376503,1,0,0:0:0:0:
84,120,376735,6,0,B|89:219|89:219|36:294,1,190,4|0,0:0|0:0,0:0:0:0:
213,339,377196,2,0,B|207:239|207:239|260:164,1,190,4|0,0:0|0:0,0:0:0:0:
84,120,377658,1,0,0:0:0:0:
39,291,377888,1,0,0:0:0:0:
213,339,378119,1,0,0:0:0:0:
259,165,378349,1,0,0:0:0:0:
408,48,378581,6,0,P|460:168|360:296,2,285,2|0|0,0:0|0:0|0:0,0:0:0:0:
237,34,379850,2,0,P|116:58|76:132,1,213.750008153916,2|2,0:0|0:0,0:0:0:0:
64,244,380427,6,0,P|96:320|276:256,1,285.000010871888,2|0,0:0|0:0,0:0:0:0:
332,164,381120,1,0,0:0:0:0:
332,164,381350,2,0,L|116:164,2,213.750008153916,0|0|0,0:0|0:0|0:0,0:0:0:0:
412,208,382273,6,0,L|440:260,3,47.5,0|0|0|0,0:0|0:0|0:0|0:0,0:0:0:0:
392,328,382504,2,0,L|364:276,3,47.5,0|0|0|0,0:0|0:0|0:0|0:0,0:0:0:0:
261,325,382735,2,0,L|284:284,3,47.5,0|0|0|0,0:0|0:0|0:0|0:0,0:0:0:0:
240,209,382966,2,0,L|218:251,3,47.5,0|0|0|0,0:0|0:0|0:0|0:0,0:0:0:0:
148,320,383197,5,0,0:0:0:0:
141,307,383254,1,0,0:0:0:0:
135,294,383312,2,0,L|116:240,5,47.5,0|0|0|0|0|0,0:0|0:0|0:0|0:0|0:0|0:0,0:0:0:0:
112,204,383658,6,0,L|140:152,3,59.375,0|0|0|0,0:0|0:0|0:0|0:0,0:0:0:0:
156,124,383889,1,0,0:0:0:0:
168,97,383946,1,0,0:0:0:0:
181,70,384004,1,0,0:0:0:0:
194,43,384062,1,0,0:0:0:0:
207,17,384119,1,4,0:0:0:0:
56,100,388749,6,0,L|56:264,2,142.500005435944,2|0|0,0:0|0:0|0:0,0:0:0:0:
200,104,390133,2,0,P|223:169|285:200,2,142.500005435944,2|0|0,0:0|0:0|0:0,0:0:0:0:
340,16,391518,2,0,P|416:68|420:140,2,142.500005435944,2|0|0,0:0|0:0|0:0,0:0:0:0:
208,52,392902,5,2,0:0:0:0:
208,72,393364,1,2,0:0:0:0:
208,92,393825,1,2,0:0:0:0:
208,110,394287,6,0,B|208:161|208:161|223:197|223:197|223:260,1,142.500005435944,2|0,0:0|0:0,0:0:0:0:
372,348,395210,1,0,0:0:0:0:
372,348,395672,2,0,P|412:288|396:200,2,142.500005435944,2|0|0,0:0|0:0|0:0,0:0:0:0:
228,352,397056,6,0,P|148:312|128:264,1,142.500005435944,2|0,0:0|0:0,0:0:0:0:
92,96,397979,1,0,0:0:0:0:
92,96,398441,2,0,P|164:128|224:100,2,142.500005435944,2|2|2,0:0|0:0|0:0,0:0:0:0:
160,32,399825,6,0,L|204:168,1,142.500005435944,2|0,0:0|0:0,0:0:0:0:
348,180,400749,1,0,0:0:0:0:
488,204,401210,2,0,P|488:132|440:64,1,142.500005435944,2|0,0:0|0:0,0:0:0:0:
312,104,402133,1,0,0:0:0:0:
176,140,402595,6,0,P|132:188|120:284,1,142.500005435944,2|0,0:0|0:0,0:0:0:0:
238,335,403518,1,0,0:0:0:0:
339,236,403979,2,0,P|387:189|411:117,1,142.500005435944,2|2,0:0|0:0,0:0:0:0:
284,48,404902,1,2,0:0:0:0:
284,48,405364,6,0,P|182:63|129:111,1,142.500005435944,2|0,0:0|0:0,0:0:0:0:
180,260,406440,1,0,0:0:0:0:
180,260,406873,6,0,P|256:248|296:212,1,113.999996520996,2|0,0:0|0:0,0:0:0:0:
348,108,408017,1,0,0:0:0:0:
256,192,408201,12,4,410969,0:0:0:0:
