osu file format v14

[General]
AudioFilename: audio.mp3
AudioLeadIn: 0
PreviewTime: 92458
Countdown: 0
SampleSet: None
StackLeniency: 0.7
Mode: 3
LetterboxInBreaks: 0
SpecialStyle: 0
WidescreenStoryboard: 0

[Editor]
DistanceSpacing: 0.8
BeatDivisor: 4
GridSize: 16
TimelineZoom: 3.699999

[Metadata]
Title:IMAGE -MATERIAL
TitleUnicode:IMAGE -MATERIAL
Artist:Tatsh
ArtistUnicode:Tatsh
Creator:Jonjizz
Version:Stellium
Source:
Tags:
BeatmapID:4538030
BeatmapSetID:2153656

[Difficulty]
HPDrainRate:7.5
CircleSize:7
OverallDifficulty:8
ApproachRate:5
SliderMultiplier:1.4
SliderTickRate:1

[Events]
//Background and Video events
0,0,"anime-girl-hatsune-miku-hd-wallpaper-uhdpaper.com-1@0@j.jpg",0,0
//Break Periods
2,149653,156791
//Storyboard Layer 0 (Background)
//Storyboard Layer 1 (Fail)
//Storyboard Layer 2 (Pass)
//Storyboard Layer 3 (Foreground)
//Storyboard Layer 4 (Overlay)
//Storyboard Sound Samples

[TimingPoints]
6607,230.769230769231,4,1,0,100,1,0
28760,-100,4,1,0,100,0,1
40991,-100,4,1,0,100,0,0
43530,-100,4,1,0,100,0,1
59222,-100,4,1,0,100,0,0
92453,-100,4,1,0,100,0,1
121299,-100,4,1,0,100,0,0
172760,-100,4,1,0,100,0,1
188453,-100,4,1,0,100,0,0
190299,-100,4,1,0,100,0,1
204145,-100,4,1,0,100,0,0
205068,-100,4,1,0,100,0,1
265991,-100,4,1,0,100,0,0

[HitObjects]
329,192,1645,5,0,0:0:0:0:
182,192,1876,1,0,0:0:0:0:
402,192,2106,1,0,0:0:0:0:
329,192,4501,5,0,0:0:0:0:
402,192,4510,1,0,0:0:0:0:
109,192,4962,1,0,0:0:0:0:
182,192,4972,1,0,0:0:0:0:
329,192,5424,1,0,0:0:0:0:
402,192,5437,1,0,0:0:0:0:
256,192,5885,1,0,0:0:0:0:
182,192,5893,1,0,0:0:0:0:
329,192,6376,1,0,0:0:0:0:
256,192,6385,1,0,0:0:0:0:
36,192,6606,5,0,0:0:0:0:
109,192,6606,1,0,0:0:0:0:
182,192,6606,1,0,0:0:0:0:
329,192,6606,1,0,0:0:0:0:
475,192,6606,1,0,0:0:0:0:
402,192,6606,1,0,0:0:0:0:
256,192,6606,1,0,0:0:0:0:
36,192,8453,1,0,0:0:0:0:
109,192,8453,1,0,0:0:0:0:
256,192,8453,1,0,0:0:0:0:
329,192,8453,1,0,0:0:0:0:
475,192,8453,1,0,0:0:0:0:
402,192,8453,1,0,0:0:0:0:
182,192,8453,1,0,0:0:0:0:
36,192,10299,1,0,0:0:0:0:
109,192,10299,1,0,0:0:0:0:
182,192,10299,1,0,0:0:0:0:
256,192,10299,1,0,0:0:0:0:
329,192,10299,1,0,0:0:0:0:
402,192,10299,1,0,0:0:0:0:
475,192,10299,1,0,0:0:0:0:
36,192,12145,1,0,0:0:0:0:
109,192,12145,1,0,0:0:0:0:
256,192,12145,1,0,0:0:0:0:
182,192,12145,1,0,0:0:0:0:
329,192,12145,1,0,0:0:0:0:
329,192,13068,1,0,0:0:0:0:
402,192,13068,1,0,0:0:0:0:
475,192,13068,1,0,0:0:0:0:
256,192,13068,1,0,0:0:0:0:
256,192,13991,1,0,0:0:0:0:
182,192,13991,1,0,0:0:0:0:
109,192,13991,1,0,0:0:0:0:
329,192,13991,1,0,0:0:0:0:
402,192,13991,1,0,0:0:0:0:
475,192,13991,1,0,0:0:0:0:
36,192,13991,1,0,0:0:0:0:
109,192,15837,1,0,0:0:0:0:
36,192,15837,1,0,0:0:0:0:
182,192,15837,1,0,0:0:0:0:
402,192,15837,1,0,0:0:0:0:
475,192,15837,1,0,0:0:0:0:
329,192,15837,1,0,0:0:0:0:
256,192,15837,1,0,0:0:0:0:
256,192,16760,1,0,0:0:0:0:
402,192,16760,1,0,0:0:0:0:
329,192,16760,1,0,0:0:0:0:
256,192,17683,1,0,0:0:0:0:
182,192,17683,1,0,0:0:0:0:
36,192,17683,1,0,0:0:0:0:
109,192,17683,1,0,0:0:0:0:
329,192,17683,1,0,0:0:0:0:
402,192,17683,1,0,0:0:0:0:
475,192,17683,1,0,0:0:0:0:
329,192,19530,1,0,0:0:0:0:
256,192,19530,1,0,0:0:0:0:
182,192,19530,1,0,0:0:0:0:
36,192,21376,1,0,0:0:0:0:
109,192,21376,1,0,0:0:0:0:
182,192,21376,1,0,0:0:0:0:
329,192,21376,1,0,0:0:0:0:
256,192,21376,1,0,0:0:0:0:
402,192,21491,1,0,0:0:0:0:
256,192,21607,1,0,0:0:0:0:
182,192,21607,1,0,0:0:0:0:
36,192,21722,1,0,0:0:0:0:
256,192,21837,1,0,0:0:0:0:
329,192,21837,1,0,0:0:0:0:
402,192,21953,1,0,0:0:0:0:
182,192,22068,1,0,0:0:0:0:
109,192,22068,1,0,0:0:0:0:
36,192,22183,1,0,0:0:0:0:
256,192,22299,1,0,0:0:0:0:
329,192,22299,1,0,0:0:0:0:
475,192,22414,1,0,0:0:0:0:
36,192,22530,1,0,0:0:0:0:
182,192,22530,1,0,0:0:0:0:
256,192,22645,1,0,0:0:0:0:
329,192,22760,1,0,0:0:0:0:
475,192,22760,1,0,0:0:0:0:
402,192,22876,1,0,0:0:0:0:
256,192,22991,1,0,0:0:0:0:
109,192,22991,1,0,0:0:0:0:
402,192,23107,1,0,0:0:0:0:
329,192,23222,1,0,0:0:0:0:
475,192,23222,1,0,0:0:0:0:
182,192,23337,1,0,0:0:0:0:
36,192,23453,1,0,0:0:0:0:
109,192,23453,1,0,0:0:0:0:
256,192,23568,1,0,0:0:0:0:
329,192,23683,1,0,0:0:0:0:
475,192,23683,1,0,0:0:0:0:
256,192,23799,1,0,0:0:0:0:
109,192,23914,1,0,0:0:0:0:
36,192,23914,1,0,0:0:0:0:
256,192,24030,1,0,0:0:0:0:
402,192,24145,1,0,0:0:0:0:
475,192,24145,1,0,0:0:0:0:
256,192,24260,1,0,0:0:0:0:
182,192,24376,1,0,0:0:0:0:
36,192,24376,1,0,0:0:0:0:
109,192,24491,1,0,0:0:0:0:
256,192,24607,1,0,0:0:0:0:
402,192,24607,1,0,0:0:0:0:
329,192,24722,1,0,0:0:0:0:
256,192,24837,1,0,0:0:0:0:
182,192,24837,1,0,0:0:0:0:
36,192,24953,1,0,0:0:0:0:
256,192,25068,1,0,0:0:0:0:
329,192,25068,1,0,0:0:0:0:
402,192,25183,1,0,0:0:0:0:
182,192,25299,1,0,0:0:0:0:
109,192,25299,1,0,0:0:0:0:
36,192,25414,1,0,0:0:0:0:
256,192,25530,1,0,0:0:0:0:
329,192,25530,1,0,0:0:0:0:
475,192,25645,1,0,0:0:0:0:
36,192,25760,1,0,0:0:0:0:
182,192,25760,1,0,0:0:0:0:
256,192,25876,1,0,0:0:0:0:
329,192,25991,1,0,0:0:0:0:
475,192,25991,1,0,0:0:0:0:
402,192,26107,1,0,0:0:0:0:
256,192,26222,1,0,0:0:0:0:
109,192,26222,1,0,0:0:0:0:
402,192,26337,1,0,0:0:0:0:
329,192,26453,1,0,0:0:0:0:
475,192,26453,1,0,0:0:0:0:
182,192,26568,1,0,0:0:0:0:
36,192,26683,1,0,0:0:0:0:
109,192,26683,1,0,0:0:0:0:
256,192,26799,1,0,0:0:0:0:
329,192,26914,1,0,0:0:0:0:
475,192,26914,1,0,0:0:0:0:
256,192,27030,1,0,0:0:0:0:
109,192,27145,1,0,0:0:0:0:
36,192,27145,1,0,0:0:0:0:
256,192,27260,1,0,0:0:0:0:
402,192,27376,1,0,0:0:0:0:
475,192,27376,1,0,0:0:0:0:
256,192,27491,1,0,0:0:0:0:
182,192,27607,5,0,0:0:0:0:
36,192,27607,1,0,0:0:0:0:
109,192,27722,1,0,0:0:0:0:
256,192,27837,1,0,0:0:0:0:
402,192,27837,1,0,0:0:0:0:
182,192,27953,1,0,0:0:0:0:
36,192,28068,1,0,0:0:0:0:
256,192,28068,1,0,0:0:0:0:
182,192,28183,1,0,0:0:0:0:
329,192,28299,1,0,0:0:0:0:
475,192,28299,1,0,0:0:0:0:
475,192,28760,5,0,0:0:0:0:
109,192,28760,1,0,0:0:0:0:
36,192,28760,1,0,0:0:0:0:
402,192,28760,1,0,0:0:0:0:
329,192,28818,1,0,0:0:0:0:
182,192,28818,1,0,0:0:0:0:
256,192,28876,1,0,0:0:0:0:
402,192,28876,1,0,0:0:0:0:
475,192,28876,1,0,0:0:0:0:
109,192,28933,1,0,0:0:0:0:
36,192,28933,1,0,0:0:0:0:
182,192,28991,1,0,0:0:0:0:
475,192,28991,1,0,0:0:0:0:
402,192,28991,1,0,0:0:0:0:
256,192,28991,1,0,0:0:0:0:
109,192,29049,1,0,0:0:0:0:
36,192,29107,1,0,0:0:0:0:
182,192,29107,1,0,0:0:0:0:
329,192,29107,1,0,0:0:0:0:
256,192,29164,1,0,0:0:0:0:
402,192,29164,1,0,0:0:0:0:
329,192,29222,1,0,0:0:0:0:
475,192,29222,1,0,0:0:0:0:
182,192,29222,1,0,0:0:0:0:
109,192,29222,1,0,0:0:0:0:
36,192,29280,1,0,0:0:0:0:
256,192,29280,1,0,0:0:0:0:
329,192,29337,1,0,0:0:0:0:
475,192,29337,1,0,0:0:0:0:
182,192,29337,1,0,0:0:0:0:
109,192,29395,1,0,0:0:0:0:
36,192,29395,1,0,0:0:0:0:
256,192,29453,1,0,0:0:0:0:
329,192,29453,1,0,0:0:0:0:
402,192,29453,1,0,0:0:0:0:
475,192,29453,1,0,0:0:0:0:
182,192,29510,1,0,0:0:0:0:
36,192,29510,1,0,0:0:0:0:
109,192,29568,1,0,0:0:0:0:
256,192,29568,1,0,0:0:0:0:
402,192,29568,1,0,0:0:0:0:
329,192,29626,1,0,0:0:0:0:
475,192,29626,1,0,0:0:0:0:
256,192,29683,1,0,0:0:0:0:
182,192,29683,1,0,0:0:0:0:
109,192,29683,1,0,0:0:0:0:
36,192,29683,1,0,0:0:0:0:
329,192,29741,1,0,0:0:0:0:
475,192,29741,1,0,0:0:0:0:
256,192,29799,1,0,0:0:0:0:
109,192,29799,1,0,0:0:0:0:
402,192,29799,1,0,0:0:0:0:
182,192,29857,1,0,0:0:0:0:
36,192,29857,1,0,0:0:0:0:
109,192,29914,1,0,0:0:0:0:
256,192,29914,1,0,0:0:0:0:
402,192,29914,1,0,0:0:0:0:
329,192,29914,1,0,0:0:0:0:
475,192,29972,1,0,0:0:0:0:
182,192,29972,1,0,0:0:0:0:
109,192,30030,1,0,0:0:0:0:
36,192,30030,1,0,0:0:0:0:
256,192,30030,1,0,0:0:0:0:
329,192,30087,1,0,0:0:0:0:
475,192,30087,1,0,0:0:0:0:
402,192,30145,1,0,0:0:0:0:
256,192,30145,1,0,0:0:0:0:
182,192,30145,1,0,0:0:0:0:
109,192,30145,1,0,0:0:0:0:
36,192,30203,1,0,0:0:0:0:
329,192,30203,1,0,0:0:0:0:
256,192,30260,1,0,0:0:0:0:
109,192,30260,1,0,0:0:0:0:
475,192,30260,1,0,0:0:0:0:
182,192,30318,1,0,0:0:0:0:
36,192,30318,1,0,0:0:0:0:
256,192,30376,1,0,0:0:0:0:
329,192,30376,1,0,0:0:0:0:
475,192,30376,1,0,0:0:0:0:
402,192,30376,1,0,0:0:0:0:
182,192,30433,1,0,0:0:0:0:
36,192,30433,1,0,0:0:0:0:
109,192,30491,1,0,0:0:0:0:
329,192,30491,1,0,0:0:0:0:
475,192,30491,1,0,0:0:0:0:
256,192,30549,1,0,0:0:0:0:
402,192,30549,1,0,0:0:0:0:
329,192,30607,1,0,0:0:0:0:
182,192,30607,1,0,0:0:0:0:
109,192,30607,1,0,0:0:0:0:
36,192,30607,1,0,0:0:0:0:
256,192,30664,1,0,0:0:0:0:
475,192,30664,1,0,0:0:0:0:
182,192,30722,1,0,0:0:0:0:
36,192,30722,1,0,0:0:0:0:
402,192,30722,1,0,0:0:0:0:
256,192,30780,1,0,0:0:0:0:
109,192,30780,1,0,0:0:0:0:
36,192,30837,1,0,0:0:0:0:
329,192,30837,1,0,0:0:0:0:
475,192,30837,1,0,0:0:0:0:
402,192,30837,1,0,0:0:0:0:
256,192,30895,1,0,0:0:0:0:
109,192,30895,1,0,0:0:0:0:
182,192,30953,1,0,0:0:0:0:
329,192,30953,1,0,0:0:0:0:
402,192,30953,1,0,0:0:0:0:
475,192,31010,1,0,0:0:0:0:
256,192,31010,1,0,0:0:0:0:
109,192,31068,1,0,0:0:0:0:
36,192,31068,1,0,0:0:0:0:
182,192,31068,1,0,0:0:0:0:
402,192,31068,1,0,0:0:0:0:
256,192,31126,1,0,0:0:0:0:
475,192,31126,1,0,0:0:0:0:
329,192,31183,1,0,0:0:0:0:
109,192,31183,1,0,0:0:0:0:
36,192,31183,1,0,0:0:0:0:
182,192,31241,1,0,0:0:0:0:
402,192,31241,1,0,0:0:0:0:
256,192,31299,1,0,0:0:0:0:
329,192,31299,1,0,0:0:0:0:
475,192,31299,1,0,0:0:0:0:
109,192,31299,1,0,0:0:0:0:
182,192,31357,1,0,0:0:0:0:
36,192,31357,1,0,0:0:0:0:
109,192,31414,1,0,0:0:0:0:
329,192,31414,1,0,0:0:0:0:
402,192,31414,1,0,0:0:0:0:
475,192,31472,1,0,0:0:0:0:
256,192,31472,1,0,0:0:0:0:
182,192,31530,1,0,0:0:0:0:
109,192,31530,1,0,0:0:0:0:
36,192,31530,1,0,0:0:0:0:
329,192,31530,1,0,0:0:0:0:
402,192,31587,1,0,0:0:0:0:
475,192,31587,1,0,0:0:0:0:
36,192,31645,1,0,0:0:0:0:
329,192,31645,1,0,0:0:0:0:
182,192,31645,1,0,0:0:0:0:
256,192,31703,1,0,0:0:0:0:
109,192,31703,1,0,0:0:0:0:
36,192,31760,1,0,0:0:0:0:
182,192,31760,1,0,0:0:0:0:
329,192,31760,1,0,0:0:0:0:
402,192,31760,1,0,0:0:0:0:
475,192,31818,1,0,0:0:0:0:
256,192,31818,1,0,0:0:0:0:
182,192,31876,1,0,0:0:0:0:
109,192,31876,1,0,0:0:0:0:
402,192,31876,1,0,0:0:0:0:
329,192,31933,1,0,0:0:0:0:
36,192,31933,1,0,0:0:0:0:
109,192,31991,1,0,0:0:0:0:
182,192,31991,1,0,0:0:0:0:
256,192,31991,1,0,0:0:0:0:
475,192,31991,1,0,0:0:0:0:
402,192,32049,1,0,0:0:0:0:
329,192,32049,1,0,0:0:0:0:
182,192,32107,1,0,0:0:0:0:
36,192,32107,1,0,0:0:0:0:
256,192,32107,1,0,0:0:0:0:
109,192,32164,1,0,0:0:0:0:
329,192,32164,1,0,0:0:0:0:
182,192,32222,1,0,0:0:0:0:
36,192,32222,1,0,0:0:0:0:
256,192,32222,1,0,0:0:0:0:
402,192,32222,1,0,0:0:0:0:
475,192,32280,1,0,0:0:0:0:
329,192,32280,1,0,0:0:0:0:
182,192,32337,1,0,0:0:0:0:
109,192,32337,1,0,0:0:0:0:
402,192,32337,1,0,0:0:0:0:
256,192,32395,1,0,0:0:0:0:
36,192,32395,1,0,0:0:0:0:
329,192,32453,1,0,0:0:0:0:
475,192,32453,1,0,0:0:0:0:
402,192,32453,1,0,0:0:0:0:
182,192,32453,1,0,0:0:0:0:
36,192,32510,1,0,0:0:0:0:
256,192,32510,1,0,0:0:0:0:
109,192,32568,1,0,0:0:0:0:
329,192,32568,1,0,0:0:0:0:
475,192,32568,1,0,0:0:0:0:
402,192,32626,1,0,0:0:0:0:
256,192,32626,1,0,0:0:0:0:
182,192,32683,1,0,0:0:0:0:
109,192,32683,1,0,0:0:0:0:
36,192,32683,1,0,0:0:0:0:
329,192,32683,1,0,0:0:0:0:
475,192,32741,1,0,0:0:0:0:
256,192,32741,1,0,0:0:0:0:
182,192,32799,1,0,0:0:0:0:
36,192,32799,1,0,0:0:0:0:
329,192,32799,1,0,0:0:0:0:
109,192,32857,1,0,0:0:0:0:
256,192,32857,1,0,0:0:0:0:
36,192,32914,1,0,0:0:0:0:
182,192,32914,1,0,0:0:0:0:
329,192,32914,1,0,0:0:0:0:
402,192,32914,1,0,0:0:0:0:
475,192,32972,1,0,0:0:0:0:
256,192,32972,1,0,0:0:0:0:
109,192,33030,1,0,0:0:0:0:
329,192,33030,1,0,0:0:0:0:
36,192,33030,1,0,0:0:0:0:
182,192,33087,1,0,0:0:0:0:
402,192,33087,1,0,0:0:0:0:
256,192,33145,1,0,0:0:0:0:
36,192,33145,1,0,0:0:0:0:
109,192,33145,1,0,0:0:0:0:
329,192,33145,1,0,0:0:0:0:
402,192,33203,1,0,0:0:0:0:
475,192,33203,1,0,0:0:0:0:
256,192,33260,1,0,0:0:0:0:
109,192,33260,1,0,0:0:0:0:
329,192,33260,1,0,0:0:0:0:
182,192,33318,1,0,0:0:0:0:
36,192,33318,1,0,0:0:0:0:
329,192,33376,1,0,0:0:0:0:
402,192,33376,1,0,0:0:0:0:
475,192,33376,1,0,0:0:0:0:
256,192,33376,1,0,0:0:0:0:
109,192,33433,1,0,0:0:0:0:
36,192,33433,1,0,0:0:0:0:
182,192,33491,1,0,0:0:0:0:
402,192,33491,1,0,0:0:0:0:
329,192,33491,1,0,0:0:0:0:
475,192,33549,1,0,0:0:0:0:
256,192,33549,1,0,0:0:0:0:
182,192,33607,1,0,0:0:0:0:
109,192,33607,1,0,0:0:0:0:
36,192,33607,1,0,0:0:0:0:
329,192,33607,1,0,0:0:0:0:
402,192,33664,1,0,0:0:0:0:
475,192,33664,1,0,0:0:0:0:
256,192,33722,1,0,0:0:0:0:
36,192,33722,1,0,0:0:0:0:
109,192,33722,1,0,0:0:0:0:
182,192,33780,1,0,0:0:0:0:
329,192,33780,1,0,0:0:0:0:
109,192,33837,1,0,0:0:0:0:
36,192,33837,1,0,0:0:0:0:
402,192,33837,1,0,0:0:0:0:
475,192,33837,1,0,0:0:0:0:
256,192,33895,1,0,0:0:0:0:
329,192,33895,1,0,0:0:0:0:
402,192,33953,1,0,0:0:0:0:
475,192,33953,1,0,0:0:0:0:
182,192,33953,1,0,0:0:0:0:
36,192,34010,1,0,0:0:0:0:
256,192,34010,1,0,0:0:0:0:
182,192,34068,1,0,0:0:0:0:
109,192,34068,1,0,0:0:0:0:
329,192,34068,1,0,0:0:0:0:
402,192,34068,1,0,0:0:0:0:
36,192,34126,1,0,0:0:0:0:
256,192,34126,1,0,0:0:0:0:
109,192,34183,1,0,0:0:0:0:
402,192,34183,1,0,0:0:0:0:
475,192,34183,1,0,0:0:0:0:
182,192,34241,1,0,0:0:0:0:
36,192,34241,1,0,0:0:0:0:
256,192,34299,1,0,0:0:0:0:
329,192,34299,1,0,0:0:0:0:
475,192,34299,1,0,0:0:0:0:
402,192,34299,1,0,0:0:0:0:
182,192,34357,1,0,0:0:0:0:
36,192,34357,1,0,0:0:0:0:
109,192,34414,1,0,0:0:0:0:
329,192,34414,1,0,0:0:0:0:
475,192,34414,1,0,0:0:0:0:
402,192,34472,1,0,0:0:0:0:
256,192,34472,1,0,0:0:0:0:
182,192,34530,1,0,0:0:0:0:
36,192,34530,1,0,0:0:0:0:
109,192,34530,1,0,0:0:0:0:
329,192,34530,1,0,0:0:0:0:
256,192,34587,1,0,0:0:0:0:
475,192,34587,1,0,0:0:0:0:
329,192,34645,1,0,0:0:0:0:
109,192,34645,1,0,0:0:0:0:
36,192,34645,1,0,0:0:0:0:
182,192,34703,1,0,0:0:0:0:
402,192,34703,1,0,0:0:0:0:
256,192,34760,1,0,0:0:0:0:
329,192,34760,1,0,0:0:0:0:
475,192,34760,1,0,0:0:0:0:
109,192,34760,1,0,0:0:0:0:
36,192,34818,1,0,0:0:0:0:
182,192,34818,1,0,0:0:0:0:
256,192,34876,1,0,0:0:0:0:
402,192,34876,1,0,0:0:0:0:
475,192,34876,1,0,0:0:0:0:
182,192,34933,1,0,0:0:0:0:
109,192,34933,1,0,0:0:0:0:
36,192,34991,1,0,0:0:0:0:
256,192,34991,1,0,0:0:0:0:
329,192,34991,1,0,0:0:0:0:
475,192,34991,1,0,0:0:0:0:
402,192,35049,1,0,0:0:0:0:
182,192,35049,1,0,0:0:0:0:
109,192,35107,1,0,0:0:0:0:
36,192,35107,1,0,0:0:0:0:
256,192,35107,1,0,0:0:0:0:
329,192,35164,1,0,0:0:0:0:
475,192,35164,1,0,0:0:0:0:
182,192,35222,1,0,0:0:0:0:
109,192,35222,1,0,0:0:0:0:
402,192,35222,1,0,0:0:0:0:
36,192,35222,1,0,0:0:0:0:
256,192,35280,1,0,0:0:0:0:
475,192,35280,1,0,0:0:0:0:
36,192,35337,1,0,0:0:0:0:
329,192,35337,1,0,0:0:0:0:
402,192,35337,1,0,0:0:0:0:
109,192,35395,1,0,0:0:0:0:
182,192,35395,1,0,0:0:0:0:
256,192,35453,1,0,0:0:0:0:
329,192,35453,1,0,0:0:0:0:
475,192,35453,1,0,0:0:0:0:
402,192,35453,1,0,0:0:0:0:
36,192,35510,1,0,0:0:0:0:
182,192,35510,1,0,0:0:0:0:
109,192,35568,1,0,0:0:0:0:
329,192,35568,1,0,0:0:0:0:
475,192,35568,1,0,0:0:0:0:
402,192,35626,1,0,0:0:0:0:
256,192,35626,1,0,0:0:0:0:
182,192,35683,1,0,0:0:0:0:
109,192,35683,1,0,0:0:0:0:
329,192,35683,1,0,0:0:0:0:
475,192,35683,1,0,0:0:0:0:
36,192,35741,1,0,0:0:0:0:
256,192,35741,1,0,0:0:0:0:
329,192,35799,1,0,0:0:0:0:
182,192,35799,1,0,0:0:0:0:
475,192,35799,1,0,0:0:0:0:
109,192,35857,1,0,0:0:0:0:
36,192,35857,1,0,0:0:0:0:
182,192,35914,1,0,0:0:0:0:
329,192,35914,1,0,0:0:0:0:
402,192,35914,1,0,0:0:0:0:
475,192,35914,1,0,0:0:0:0:
256,192,35972,1,0,0:0:0:0:
109,192,35972,1,0,0:0:0:0:
36,192,36030,1,0,0:0:0:0:
182,192,36030,1,0,0:0:0:0:
475,192,36030,1,0,0:0:0:0:
402,192,36087,1,0,0:0:0:0:
329,192,36087,1,0,0:0:0:0:
256,192,36145,1,0,0:0:0:0:
182,192,36145,1,0,0:0:0:0:
109,192,36145,1,0,0:0:0:0:
36,192,36145,1,0,0:0:0:0:
475,192,36203,1,0,0:0:0:0:
329,192,36203,1,0,0:0:0:0:
402,192,36260,1,0,0:0:0:0:
182,192,36260,1,0,0:0:0:0:
36,192,36260,1,0,0:0:0:0:
109,192,36318,1,0,0:0:0:0:
256,192,36318,1,0,0:0:0:0:
182,192,36376,1,0,0:0:0:0:
329,192,36376,1,0,0:0:0:0:
402,192,36376,1,0,0:0:0:0:
475,192,36376,1,0,0:0:0:0:
36,192,36433,1,0,0:0:0:0:
109,192,36433,1,0,0:0:0:0:
182,192,36491,1,0,0:0:0:0:
329,192,36491,1,0,0:0:0:0:
475,192,36491,1,0,0:0:0:0:
256,192,36549,1,0,0:0:0:0:
109,192,36549,1,0,0:0:0:0:
36,192,36607,1,0,0:0:0:0:
182,192,36607,1,0,0:0:0:0:
329,192,36607,1,0,0:0:0:0:
402,192,36607,1,0,0:0:0:0:
475,192,36664,1,0,0:0:0:0:
109,192,36664,1,0,0:0:0:0:
256,192,36722,1,0,0:0:0:0:
329,192,36722,1,0,0:0:0:0:
182,192,36722,1,0,0:0:0:0:
36,192,36780,1,0,0:0:0:0:
109,192,36780,1,0,0:0:0:0:
256,192,36837,1,0,0:0:0:0:
402,192,36837,1,0,0:0:0:0:
475,192,36837,1,0,0:0:0:0:
182,192,36837,1,0,0:0:0:0:
36,192,36895,1,0,0:0:0:0:
329,192,36895,1,0,0:0:0:0:
182,192,36953,1,0,0:0:0:0:
109,192,36953,1,0,0:0:0:0:
256,192,36953,1,0,0:0:0:0:
329,192,37010,1,0,0:0:0:0:
475,192,37010,1,0,0:0:0:0:
36,192,37068,1,0,0:0:0:0:
256,192,37068,1,0,0:0:0:0:
182,192,37068,1,0,0:0:0:0:
109,192,37068,1,0,0:0:0:0:
402,192,37126,1,0,0:0:0:0:
475,192,37126,1,0,0:0:0:0:
329,192,37183,1,0,0:0:0:0:
109,192,37183,1,0,0:0:0:0:
36,192,37183,1,0,0:0:0:0:
182,192,37241,1,0,0:0:0:0:
402,192,37241,1,0,0:0:0:0:
329,192,37299,1,0,0:0:0:0:
256,192,37299,1,0,0:0:0:0:
109,192,37299,1,0,0:0:0:0:
36,192,37299,1,0,0:0:0:0:
475,192,37357,1,0,0:0:0:0:
402,192,37357,1,0,0:0:0:0:
182,192,37414,1,0,0:0:0:0:
36,192,37414,1,0,0:0:0:0:
256,192,37414,1,0,0:0:0:0:
329,192,37472,1,0,0:0:0:0:
109,192,37472,1,0,0:0:0:0:
402,192,37530,1,0,0:0:0:0:
475,192,37530,1,0,0:0:0:0:
256,192,37530,1,0,0:0:0:0:
182,192,37530,1,0,0:0:0:0:
36,192,37587,1,0,0:0:0:0:
109,192,37587,1,0,0:0:0:0:
182,192,37645,1,0,0:0:0:0:
329,192,37645,1,0,0:0:0:0:
402,192,37645,1,0,0:0:0:0:
256,192,37703,1,0,0:0:0:0:
109,192,37703,1,0,0:0:0:0:
36,192,37760,1,0,0:0:0:0:
182,192,37760,1,0,0:0:0:0:
402,192,37760,1,0,0:0:0:0:
329,192,37760,1,0,0:0:0:0:
475,192,37818,1,0,0:0:0:0:
256,192,37818,1,0,0:0:0:0:
182,192,37876,1,0,0:0:0:0:
329,192,37876,1,0,0:0:0:0:
402,192,37876,1,0,0:0:0:0:
109,192,37933,1,0,0:0:0:0:
36,192,37933,1,0,0:0:0:0:
329,192,37991,1,0,0:0:0:0:
475,192,37991,1,0,0:0:0:0:
182,192,37991,1,0,0:0:0:0:
256,192,37991,1,0,0:0:0:0:
36,192,38049,1,0,0:0:0:0:
402,192,38049,1,0,0:0:0:0:
182,192,38107,1,0,0:0:0:0:
109,192,38107,1,0,0:0:0:0:
329,192,38107,1,0,0:0:0:0:
256,192,38164,1,0,0:0:0:0:
402,192,38164,1,0,0:0:0:0:
182,192,38222,1,0,0:0:0:0:
36,192,38222,1,0,0:0:0:0:
109,192,38222,1,0,0:0:0:0:
329,192,38222,1,0,0:0:0:0:
402,192,38280,1,0,0:0:0:0:
475,192,38280,1,0,0:0:0:0:
256,192,38337,1,0,0:0:0:0:
109,192,38337,1,0,0:0:0:0:
36,192,38337,1,0,0:0:0:0:
182,192,38395,1,0,0:0:0:0:
329,192,38395,1,0,0:0:0:0:
402,192,38453,1,0,0:0:0:0:
475,192,38453,1,0,0:0:0:0:
256,192,38453,1,0,0:0:0:0:
109,192,38453,1,0,0:0:0:0:
36,192,38510,1,0,0:0:0:0:
182,192,38510,1,0,0:0:0:0:
256,192,38568,1,0,0:0:0:0:
475,192,38568,1,0,0:0:0:0:
329,192,38568,1,0,0:0:0:0:
402,192,38626,1,0,0:0:0:0:
109,192,38626,1,0,0:0:0:0:
182,192,38683,1,0,0:0:0:0:
36,192,38683,1,0,0:0:0:0:
256,192,38683,1,0,0:0:0:0:
329,192,38683,1,0,0:0:0:0:
475,192,38741,1,0,0:0:0:0:
402,192,38741,1,0,0:0:0:0:
109,192,38799,1,0,0:0:0:0:
329,192,38799,1,0,0:0:0:0:
36,192,38799,1,0,0:0:0:0:
182,192,38857,1,0,0:0:0:0:
402,192,38857,1,0,0:0:0:0:
256,192,38914,1,0,0:0:0:0:
109,192,38914,1,0,0:0:0:0:
36,192,38914,1,0,0:0:0:0:
329,192,38914,1,0,0:0:0:0:
402,192,38972,1,0,0:0:0:0:
475,192,38972,1,0,0:0:0:0:
329,192,39030,1,0,0:0:0:0:
182,192,39030,1,0,0:0:0:0:
36,192,39030,1,0,0:0:0:0:
109,192,39087,1,0,0:0:0:0:
256,192,39087,1,0,0:0:0:0:
182,192,39145,1,0,0:0:0:0:
402,192,39145,1,0,0:0:0:0:
475,192,39145,1,0,0:0:0:0:
329,192,39145,1,0,0:0:0:0:
36,192,39203,1,0,0:0:0:0:
109,192,39203,1,0,0:0:0:0:
182,192,39260,1,0,0:0:0:0:
402,192,39260,1,0,0:0:0:0:
256,192,39260,1,0,0:0:0:0:
329,192,39318,1,0,0:0:0:0:
475,192,39318,1,0,0:0:0:0:
182,192,39376,1,0,0:0:0:0:
109,192,39376,1,0,0:0:0:0:
36,192,39376,1,0,0:0:0:0:
256,192,39376,1,0,0:0:0:0:
329,192,39433,1,0,0:0:0:0:
402,192,39433,1,0,0:0:0:0:
475,192,39491,1,0,0:0:0:0:
182,192,39491,1,0,0:0:0:0:
36,192,39491,1,0,0:0:0:0:
109,192,39549,1,0,0:0:0:0:
256,192,39549,1,0,0:0:0:0:
329,192,39607,1,0,0:0:0:0:
475,192,39607,1,0,0:0:0:0:
402,192,39607,1,0,0:0:0:0:
182,192,39607,1,0,0:0:0:0:
109,192,39664,1,0,0:0:0:0:
36,192,39664,1,0,0:0:0:0:
256,192,39722,1,0,0:0:0:0:
329,192,39722,1,0,0:0:0:0:
475,192,39722,1,0,0:0:0:0:
182,192,39780,1,0,0:0:0:0:
402,192,39780,1,0,0:0:0:0:
109,192,39837,5,0,0:0:0:0:
36,192,39837,1,0,0:0:0:0:
256,192,39837,1,0,0:0:0:0:
329,192,39837,1,0,0:0:0:0:
402,192,39895,1,0,0:0:0:0:
475,192,39895,1,0,0:0:0:0:
109,192,39953,1,0,0:0:0:0:
36,192,39953,1,0,0:0:0:0:
256,192,39953,1,0,0:0:0:0:
182,192,40010,1,0,0:0:0:0:
329,192,40010,1,0,0:0:0:0:
256,192,40068,1,0,0:0:0:0:
402,192,40068,1,0,0:0:0:0:
475,192,40068,1,0,0:0:0:0:
109,192,40068,1,0,0:0:0:0:
36,192,40126,1,0,0:0:0:0:
182,192,40126,1,0,0:0:0:0:
256,192,40183,1,0,0:0:0:0:
329,192,40183,1,0,0:0:0:0:
475,192,40183,1,0,0:0:0:0:
402,192,40241,1,0,0:0:0:0:
109,192,40241,1,0,0:0:0:0:
36,192,40299,1,0,0:0:0:0:
182,192,40299,1,0,0:0:0:0:
256,192,40299,1,0,0:0:0:0:
329,192,40299,1,0,0:0:0:0:
402,192,40357,1,0,0:0:0:0:
475,192,40357,1,0,0:0:0:0:
182,192,40414,1,0,0:0:0:0:
36,192,40414,1,0,0:0:0:0:
109,192,40414,1,0,0:0:0:0:
256,192,40472,1,0,0:0:0:0:
329,192,40472,1,0,0:0:0:0:
402,192,40530,1,0,0:0:0:0:
475,192,40530,1,0,0:0:0:0:
182,192,40530,1,0,0:0:0:0:
109,192,40530,1,0,0:0:0:0:
36,192,40587,1,0,0:0:0:0:
256,192,40587,1,0,0:0:0:0:
109,192,40645,1,0,0:0:0:0:
329,192,40645,1,0,0:0:0:0:
475,192,40645,1,0,0:0:0:0:
402,192,40703,1,0,0:0:0:0:
182,192,40703,1,0,0:0:0:0:
256,192,40760,1,0,0:0:0:0:
329,192,40760,1,0,0:0:0:0:
109,192,40760,1,0,0:0:0:0:
36,192,40760,1,0,0:0:0:0:
402,192,40818,1,0,0:0:0:0:
475,192,40818,1,0,0:0:0:0:
182,192,40876,1,0,0:0:0:0:
36,192,40876,1,0,0:0:0:0:
256,192,40876,1,0,0:0:0:0:
109,192,40933,1,0,0:0:0:0:
475,192,40933,1,0,0:0:0:0:
329,192,40991,5,0,0:0:0:0:
402,192,40991,1,0,0:0:0:0:
256,192,40991,1,0,0:0:0:0:
182,192,40991,1,0,0:0:0:0:
182,192,41107,1,0,0:0:0:0:
109,192,41107,1,0,0:0:0:0:
36,192,41107,1,0,0:0:0:0:
329,192,41107,1,0,0:0:0:0:
182,192,41222,1,0,0:0:0:0:
402,192,41222,1,0,0:0:0:0:
475,192,41222,1,0,0:0:0:0:
256,192,41222,1,0,0:0:0:0:
109,192,41337,1,0,0:0:0:0:
36,192,41337,1,0,0:0:0:0:
256,192,41337,1,0,0:0:0:0:
329,192,41337,1,0,0:0:0:0:
182,192,41453,1,0,0:0:0:0:
329,192,41453,1,0,0:0:0:0:
256,192,41453,1,0,0:0:0:0:
402,192,41453,1,0,0:0:0:0:
109,192,41568,1,0,0:0:0:0:
36,192,41568,1,0,0:0:0:0:
329,192,41568,1,0,0:0:0:0:
402,192,41568,1,0,0:0:0:0:
256,192,41683,1,0,0:0:0:0:
182,192,41683,1,0,0:0:0:0:
475,192,41683,1,0,0:0:0:0:
109,192,41683,1,0,0:0:0:0:
256,192,41799,1,0,0:0:0:0:
36,192,41799,1,0,0:0:0:0:
109,192,41799,1,0,0:0:0:0:
329,192,41799,1,0,0:0:0:0:
402,192,41914,1,0,0:0:0:0:
475,192,41914,1,0,0:0:0:0:
109,192,41914,1,0,0:0:0:0:
182,192,41914,1,0,0:0:0:0:
256,192,42030,1,0,0:0:0:0:
329,192,42030,1,0,0:0:0:0:
402,192,42030,1,0,0:0:0:0:
36,192,42030,1,0,0:0:0:0:
329,192,42145,1,0,0:0:0:0:
475,192,42145,1,0,0:0:0:0:
256,192,42145,1,0,0:0:0:0:
182,192,42145,1,0,0:0:0:0:
402,192,42260,1,0,0:0:0:0:
329,192,42260,1,0,0:0:0:0:
109,192,42260,1,0,0:0:0:0:
36,192,42260,1,0,0:0:0:0:
256,192,42376,1,0,0:0:0:0:
182,192,42376,1,0,0:0:0:0:
475,192,42376,1,0,0:0:0:0:
402,192,42376,1,0,0:0:0:0:
36,192,42491,1,0,0:0:0:0:
109,192,42491,1,0,0:0:0:0:
182,192,42491,1,0,0:0:0:0:
329,192,42491,1,0,0:0:0:0:
256,192,42607,1,0,0:0:0:0:
402,192,42607,1,0,0:0:0:0:
475,192,42607,1,0,0:0:0:0:
109,192,42607,1,0,0:0:0:0:
109,192,42722,1,0,0:0:0:0:
36,192,42722,1,0,0:0:0:0:
182,192,42722,1,0,0:0:0:0:
475,192,42780,1,0,0:0:0:0:
329,192,42780,1,0,0:0:0:0:
402,192,42780,1,0,0:0:0:0:
256,192,42837,1,0,0:0:0:0:
182,192,42837,1,0,0:0:0:0:
109,192,42837,1,0,0:0:0:0:
329,192,42953,1,0,0:0:0:0:
402,192,42953,1,0,0:0:0:0:
475,192,42953,1,0,0:0:0:0:
256,192,43068,1,0,0:0:0:0:
182,192,43068,1,0,0:0:0:0:
109,192,43068,1,0,0:0:0:0:
36,192,43068,1,0,0:0:0:0:
182,192,43183,1,0,0:0:0:0:
402,192,43183,1,0,0:0:0:0:
475,192,43183,1,0,0:0:0:0:
182,192,43299,1,0,0:0:0:0:
36,192,43299,1,0,0:0:0:0:
256,192,43299,1,0,0:0:0:0:
329,192,43299,1,0,0:0:0:0:
402,192,43414,1,0,0:0:0:0:
475,192,43414,1,0,0:0:0:0:
182,192,43414,1,0,0:0:0:0:
109,192,43414,1,0,0:0:0:0:
36,192,43530,1,0,0:0:0:0:
475,192,43530,1,0,0:0:0:0:
182,192,43530,1,0,0:0:0:0:
329,192,43530,1,0,0:0:0:0:
109,192,43587,1,0,0:0:0:0:
256,192,43587,1,0,0:0:0:0:
182,192,43645,1,0,0:0:0:0:
329,192,43645,1,0,0:0:0:0:
256,192,43703,1,0,0:0:0:0:
402,192,43703,1,0,0:0:0:0:
329,192,43760,1,0,0:0:0:0:
182,192,43760,1,0,0:0:0:0:
109,192,43760,1,0,0:0:0:0:
36,192,43760,1,0,0:0:0:0:
475,192,43760,1,0,0:0:0:0:
256,192,43818,1,0,0:0:0:0:
402,192,43818,1,0,0:0:0:0:
182,192,43876,1,0,0:0:0:0:
329,192,43876,1,0,0:0:0:0:
109,192,43933,1,0,0:0:0:0:
256,192,43933,1,0,0:0:0:0:
182,192,43991,1,0,0:0:0:0:
36,192,43991,1,0,0:0:0:0:
402,192,43991,1,0,0:0:0:0:
329,192,43991,1,0,0:0:0:0:
256,192,44049,1,0,0:0:0:0:
475,192,44049,1,0,0:0:0:0:
182,192,44107,1,0,0:0:0:0:
36,192,44107,1,0,0:0:0:0:
329,192,44107,1,0,0:0:0:0:
109,192,44164,1,0,0:0:0:0:
256,192,44164,1,0,0:0:0:0:
329,192,44222,1,0,0:0:0:0:
402,192,44222,1,0,0:0:0:0:
475,192,44222,1,0,0:0:0:0:
182,192,44222,1,0,0:0:0:0:
109,192,44280,1,0,0:0:0:0:
256,192,44280,1,0,0:0:0:0:
182,192,44337,1,0,0:0:0:0:
402,192,44337,1,0,0:0:0:0:
329,192,44337,1,0,0:0:0:0:
36,192,44395,1,0,0:0:0:0:
109,192,44395,1,0,0:0:0:0:
182,192,44453,1,0,0:0:0:0:
256,192,44453,1,0,0:0:0:0:
329,192,44453,1,0,0:0:0:0:
475,192,44453,1,0,0:0:0:0:
109,192,44510,1,0,0:0:0:0:
402,192,44510,1,0,0:0:0:0:
182,192,44568,1,0,0:0:0:0:
36,192,44568,1,0,0:0:0:0:
329,192,44568,1,0,0:0:0:0:
109,192,44626,1,0,0:0:0:0:
256,192,44626,1,0,0:0:0:0:
182,192,44683,1,0,0:0:0:0:
329,192,44683,1,0,0:0:0:0:
402,192,44683,1,0,0:0:0:0:
475,192,44683,1,0,0:0:0:0:
36,192,44741,1,0,0:0:0:0:
109,192,44741,1,0,0:0:0:0:
182,192,44799,1,0,0:0:0:0:
475,192,44799,1,0,0:0:0:0:
402,192,44799,1,0,0:0:0:0:
256,192,44857,1,0,0:0:0:0:
109,192,44857,1,0,0:0:0:0:
329,192,44914,1,0,0:0:0:0:
402,192,44914,1,0,0:0:0:0:
475,192,44914,1,0,0:0:0:0:
36,192,44914,1,0,0:0:0:0:
182,192,44972,1,0,0:0:0:0:
256,192,44972,1,0,0:0:0:0:
475,192,45030,1,0,0:0:0:0:
36,192,45030,1,0,0:0:0:0:
109,192,45030,1,0,0:0:0:0:
402,192,45087,1,0,0:0:0:0:
329,192,45087,1,0,0:0:0:0:
36,192,45145,1,0,0:0:0:0:
256,192,45145,1,0,0:0:0:0:
109,192,45145,1,0,0:0:0:0:
182,192,45145,1,0,0:0:0:0:
402,192,45203,1,0,0:0:0:0:
475,192,45203,1,0,0:0:0:0:
109,192,45260,1,0,0:0:0:0:
36,192,45260,1,0,0:0:0:0:
329,192,45260,1,0,0:0:0:0:
256,192,45318,1,0,0:0:0:0:
402,192,45318,1,0,0:0:0:0:
329,192,45376,1,0,0:0:0:0:
182,192,45376,1,0,0:0:0:0:
475,192,45376,1,0,0:0:0:0:
109,192,45376,1,0,0:0:0:0:
402,192,45433,1,0,0:0:0:0:
256,192,45433,1,0,0:0:0:0:
329,192,45491,1,0,0:0:0:0:
182,192,45491,1,0,0:0:0:0:
109,192,45549,1,0,0:0:0:0:
256,192,45549,1,0,0:0:0:0:
182,192,45607,1,0,0:0:0:0:
329,192,45607,1,0,0:0:0:0:
402,192,45607,1,0,0:0:0:0:
36,192,45607,1,0,0:0:0:0:
256,192,45664,1,0,0:0:0:0:
109,192,45664,1,0,0:0:0:0:
182,192,45722,1,0,0:0:0:0:
329,192,45722,1,0,0:0:0:0:
256,192,45780,1,0,0:0:0:0:
402,192,45780,1,0,0:0:0:0:
329,192,45837,1,0,0:0:0:0:
109,192,45837,1,0,0:0:0:0:
36,192,45837,1,0,0:0:0:0:
182,192,45837,1,0,0:0:0:0:
402,192,45895,1,0,0:0:0:0:
475,192,45895,1,0,0:0:0:0:
329,192,45953,1,0,0:0:0:0:
36,192,45953,1,0,0:0:0:0:
182,192,45953,1,0,0:0:0:0:
109,192,46010,1,0,0:0:0:0:
256,192,46010,1,0,0:0:0:0:
182,192,46068,1,0,0:0:0:0:
475,192,46068,1,0,0:0:0:0:
329,192,46068,1,0,0:0:0:0:
402,192,46068,1,0,0:0:0:0:
36,192,46126,1,0,0:0:0:0:
256,192,46126,1,0,0:0:0:0:
109,192,46183,1,0,0:0:0:0:
329,192,46183,1,0,0:0:0:0:
475,192,46183,1,0,0:0:0:0:
402,192,46241,1,0,0:0:0:0:
182,192,46241,1,0,0:0:0:0:
256,192,46299,1,0,0:0:0:0:
329,192,46299,1,0,0:0:0:0:
475,192,46299,1,0,0:0:0:0:
36,192,46299,1,0,0:0:0:0:
109,192,46357,1,0,0:0:0:0:
182,192,46357,1,0,0:0:0:0:
256,192,46414,1,0,0:0:0:0:
36,192,46414,1,0,0:0:0:0:
402,192,46414,1,0,0:0:0:0:
329,192,46472,1,0,0:0:0:0:
182,192,46472,1,0,0:0:0:0:
402,192,46530,1,0,0:0:0:0:
475,192,46530,1,0,0:0:0:0:
256,192,46530,1,0,0:0:0:0:
109,192,46530,1,0,0:0:0:0:
36,192,46587,1,0,0:0:0:0:
182,192,46587,1,0,0:0:0:0:
256,192,46645,1,0,0:0:0:0:
329,192,46645,1,0,0:0:0:0:
475,192,46645,1,0,0:0:0:0:
109,192,46703,1,0,0:0:0:0:
36,192,46703,1,0,0:0:0:0:
182,192,46760,1,0,0:0:0:0:
402,192,46760,1,0,0:0:0:0:
329,192,46760,1,0,0:0:0:0:
475,192,46760,1,0,0:0:0:0:
256,192,46818,1,0,0:0:0:0:
109,192,46818,1,0,0:0:0:0:
36,192,46876,1,0,0:0:0:0:
182,192,46876,1,0,0:0:0:0:
329,192,46876,1,0,0:0:0:0:
402,192,46933,1,0,0:0:0:0:
256,192,46933,1,0,0:0:0:0:
329,192,46991,1,0,0:0:0:0:
475,192,46991,1,0,0:0:0:0:
36,192,46991,1,0,0:0:0:0:
109,192,46991,1,0,0:0:0:0:
182,192,47049,1,0,0:0:0:0:
256,192,47049,1,0,0:0:0:0:
109,192,47107,1,0,0:0:0:0:
402,192,47107,1,0,0:0:0:0:
475,192,47107,1,0,0:0:0:0:
329,192,47164,1,0,0:0:0:0:
256,192,47164,1,0,0:0:0:0:
402,192,47222,1,0,0:0:0:0:
475,192,47222,1,0,0:0:0:0:
36,192,47222,1,0,0:0:0:0:
182,192,47222,1,0,0:0:0:0:
256,192,47280,1,0,0:0:0:0:
109,192,47280,1,0,0:0:0:0:
329,192,47337,1,0,0:0:0:0:
182,192,47337,1,0,0:0:0:0:
256,192,47395,1,0,0:0:0:0:
402,192,47395,1,0,0:0:0:0:
329,192,47453,1,0,0:0:0:0:
36,192,47453,1,0,0:0:0:0:
109,192,47453,1,0,0:0:0:0:
475,192,47453,1,0,0:0:0:0:
256,192,47510,1,0,0:0:0:0:
402,192,47510,1,0,0:0:0:0:
329,192,47568,1,0,0:0:0:0:
182,192,47568,1,0,0:0:0:0:
109,192,47626,1,0,0:0:0:0:
256,192,47626,1,0,0:0:0:0:
36,192,47683,1,0,0:0:0:0:
182,192,47683,1,0,0:0:0:0:
329,192,47683,1,0,0:0:0:0:
402,192,47683,1,0,0:0:0:0:
256,192,47741,1,0,0:0:0:0:
475,192,47741,1,0,0:0:0:0:
329,192,47799,1,0,0:0:0:0:
182,192,47799,1,0,0:0:0:0:
109,192,47799,1,0,0:0:0:0:
36,192,47857,1,0,0:0:0:0:
256,192,47857,1,0,0:0:0:0:
329,192,47914,1,0,0:0:0:0:
402,192,47914,1,0,0:0:0:0:
475,192,47914,1,0,0:0:0:0:
182,192,47914,1,0,0:0:0:0:
36,192,47972,1,0,0:0:0:0:
109,192,47972,1,0,0:0:0:0:
182,192,48030,1,0,0:0:0:0:
256,192,48030,1,0,0:0:0:0:
475,192,48030,1,0,0:0:0:0:
329,192,48087,1,0,0:0:0:0:
36,192,48087,1,0,0:0:0:0:
109,192,48145,1,0,0:0:0:0:
182,192,48145,1,0,0:0:0:0:
402,192,48145,1,0,0:0:0:0:
475,192,48145,1,0,0:0:0:0:
256,192,48203,1,0,0:0:0:0:
36,192,48203,1,0,0:0:0:0:
109,192,48260,1,0,0:0:0:0:
329,192,48260,1,0,0:0:0:0:
475,192,48260,1,0,0:0:0:0:
402,192,48318,1,0,0:0:0:0:
182,192,48318,1,0,0:0:0:0:
36,192,48376,1,0,0:0:0:0:
109,192,48376,1,0,0:0:0:0:
256,192,48376,1,0,0:0:0:0:
329,192,48376,1,0,0:0:0:0:
402,192,48433,1,0,0:0:0:0:
475,192,48433,1,0,0:0:0:0:
182,192,48491,1,0,0:0:0:0:
36,192,48491,1,0,0:0:0:0:
256,192,48491,1,0,0:0:0:0:
329,192,48549,1,0,0:0:0:0:
109,192,48549,1,0,0:0:0:0:
182,192,48607,1,0,0:0:0:0:
256,192,48607,1,0,0:0:0:0:
475,192,48607,1,0,0:0:0:0:
402,192,48607,1,0,0:0:0:0:
36,192,48664,1,0,0:0:0:0:
109,192,48664,1,0,0:0:0:0:
182,192,48722,1,0,0:0:0:0:
329,192,48722,1,0,0:0:0:0:
475,192,48722,1,0,0:0:0:0:
402,192,48780,1,0,0:0:0:0:
256,192,48780,1,0,0:0:0:0:
182,192,48837,1,0,0:0:0:0:
109,192,48837,1,0,0:0:0:0:
36,192,48837,1,0,0:0:0:0:
329,192,48837,1,0,0:0:0:0:
256,192,48895,1,0,0:0:0:0:
475,192,48895,1,0,0:0:0:0:
36,192,48953,1,0,0:0:0:0:
329,192,48953,1,0,0:0:0:0:
402,192,48953,1,0,0:0:0:0:
109,192,49010,1,0,0:0:0:0:
256,192,49010,1,0,0:0:0:0:
36,192,49068,1,0,0:0:0:0:
475,192,49068,1,0,0:0:0:0:
182,192,49068,1,0,0:0:0:0:
329,192,49068,1,0,0:0:0:0:
109,192,49126,1,0,0:0:0:0:
256,192,49126,1,0,0:0:0:0:
182,192,49183,1,0,0:0:0:0:
329,192,49183,1,0,0:0:0:0:
256,192,49241,1,0,0:0:0:0:
402,192,49241,1,0,0:0:0:0:
329,192,49299,1,0,0:0:0:0:
182,192,49299,1,0,0:0:0:0:
109,192,49299,1,0,0:0:0:0:
36,192,49299,1,0,0:0:0:0:
475,192,49299,1,0,0:0:0:0:
256,192,49357,1,0,0:0:0:0:
402,192,49357,1,0,0:0:0:0:
182,192,49414,1,0,0:0:0:0:
329,192,49414,1,0,0:0:0:0:
109,192,49472,1,0,0:0:0:0:
256,192,49472,1,0,0:0:0:0:
182,192,49530,1,0,0:0:0:0:
36,192,49530,1,0,0:0:0:0:
402,192,49530,1,0,0:0:0:0:
329,192,49530,1,0,0:0:0:0:
256,192,49587,1,0,0:0:0:0:
475,192,49587,1,0,0:0:0:0:
182,192,49645,1,0,0:0:0:0:
36,192,49645,1,0,0:0:0:0:
329,192,49645,1,0,0:0:0:0:
109,192,49703,1,0,0:0:0:0:
256,192,49703,1,0,0:0:0:0:
329,192,49760,1,0,0:0:0:0:
402,192,49760,1,0,0:0:0:0:
475,192,49760,1,0,0:0:0:0:
182,192,49760,1,0,0:0:0:0:
109,192,49818,1,0,0:0:0:0:
256,192,49818,1,0,0:0:0:0:
182,192,49876,1,0,0:0:0:0:
402,192,49876,1,0,0:0:0:0:
329,192,49876,1,0,0:0:0:0:
36,192,49933,1,0,0:0:0:0:
109,192,49933,1,0,0:0:0:0:
182,192,49991,1,0,0:0:0:0:
256,192,49991,1,0,0:0:0:0:
329,192,49991,1,0,0:0:0:0:
475,192,49991,1,0,0:0:0:0:
109,192,50049,1,0,0:0:0:0:
402,192,50049,1,0,0:0:0:0:
182,192,50107,1,0,0:0:0:0:
329,192,50107,1,0,0:0:0:0:
256,192,50164,1,0,0:0:0:0:
36,192,50222,1,0,0:0:0:0:
329,192,50222,1,0,0:0:0:0:
402,192,50222,1,0,0:0:0:0:
475,192,50222,1,0,0:0:0:0:
109,192,50280,1,0,0:0:0:0:
256,192,50337,1,0,0:0:0:0:
182,192,50395,1,0,0:0:0:0:
109,192,50395,1,0,0:0:0:0:
329,192,50453,1,0,0:0:0:0:
402,192,50453,1,0,0:0:0:0:
475,192,50453,1,0,0:0:0:0:
36,192,50453,1,0,0:0:0:0:
182,192,50510,1,0,0:0:0:0:
256,192,50510,1,0,0:0:0:0:
475,192,50568,1,0,0:0:0:0:
36,192,50568,1,0,0:0:0:0:
109,192,50568,1,0,0:0:0:0:
402,192,50626,1,0,0:0:0:0:
329,192,50626,1,0,0:0:0:0:
36,192,50683,1,0,0:0:0:0:
256,192,50683,1,0,0:0:0:0:
109,192,50683,1,0,0:0:0:0:
182,192,50683,1,0,0:0:0:0:
402,192,50741,1,0,0:0:0:0:
475,192,50741,1,0,0:0:0:0:
109,192,50799,1,0,0:0:0:0:
36,192,50799,1,0,0:0:0:0:
329,192,50799,1,0,0:0:0:0:
256,192,50857,1,0,0:0:0:0:
402,192,50857,1,0,0:0:0:0:
329,192,50914,1,0,0:0:0:0:
182,192,50914,1,0,0:0:0:0:
475,192,50914,1,0,0:0:0:0:
109,192,50914,1,0,0:0:0:0:
402,192,50972,1,0,0:0:0:0:
256,192,50972,1,0,0:0:0:0:
329,192,51030,1,0,0:0:0:0:
182,192,51030,1,0,0:0:0:0:
109,192,51087,1,0,0:0:0:0:
256,192,51087,1,0,0:0:0:0:
182,192,51145,1,0,0:0:0:0:
329,192,51145,1,0,0:0:0:0:
402,192,51145,1,0,0:0:0:0:
36,192,51145,1,0,0:0:0:0:
256,192,51203,1,0,0:0:0:0:
109,192,51203,1,0,0:0:0:0:
182,192,51260,1,0,0:0:0:0:
329,192,51260,1,0,0:0:0:0:
256,192,51318,1,0,0:0:0:0:
402,192,51318,1,0,0:0:0:0:
329,192,51376,1,0,0:0:0:0:
109,192,51376,1,0,0:0:0:0:
36,192,51376,1,0,0:0:0:0:
182,192,51376,1,0,0:0:0:0:
402,192,51433,1,0,0:0:0:0:
475,192,51433,1,0,0:0:0:0:
329,192,51491,1,0,0:0:0:0:
36,192,51491,1,0,0:0:0:0:
182,192,51491,1,0,0:0:0:0:
109,192,51549,1,0,0:0:0:0:
256,192,51549,1,0,0:0:0:0:
182,192,51607,1,0,0:0:0:0:
475,192,51607,1,0,0:0:0:0:
329,192,51607,1,0,0:0:0:0:
402,192,51607,1,0,0:0:0:0:
36,192,51664,1,0,0:0:0:0:
256,192,51664,1,0,0:0:0:0:
109,192,51722,1,0,0:0:0:0:
329,192,51722,1,0,0:0:0:0:
475,192,51722,1,0,0:0:0:0:
402,192,51780,1,0,0:0:0:0:
182,192,51780,1,0,0:0:0:0:
256,192,51837,1,0,0:0:0:0:
329,192,51837,1,0,0:0:0:0:
475,192,51837,1,0,0:0:0:0:
36,192,51837,1,0,0:0:0:0:
109,192,51895,1,0,0:0:0:0:
182,192,51895,1,0,0:0:0:0:
256,192,51953,1,0,0:0:0:0:
36,192,51953,1,0,0:0:0:0:
402,192,51953,1,0,0:0:0:0:
329,192,52010,1,0,0:0:0:0:
182,192,52010,1,0,0:0:0:0:
402,192,52068,1,0,0:0:0:0:
475,192,52068,1,0,0:0:0:0:
256,192,52068,1,0,0:0:0:0:
109,192,52068,1,0,0:0:0:0:
36,192,52126,1,0,0:0:0:0:
182,192,52126,1,0,0:0:0:0:
256,192,52183,1,0,0:0:0:0:
329,192,52183,1,0,0:0:0:0:
475,192,52183,1,0,0:0:0:0:
109,192,52241,1,0,0:0:0:0:
36,192,52241,1,0,0:0:0:0:
329,192,52299,1,0,0:0:0:0:
402,192,52299,1,0,0:0:0:0:
256,192,52299,1,0,0:0:0:0:
182,192,52299,1,0,0:0:0:0:
36,192,52357,1,0,0:0:0:0:
109,192,52357,1,0,0:0:0:0:
475,192,52414,1,0,0:0:0:0:
329,192,52414,1,0,0:0:0:0:
256,192,52414,1,0,0:0:0:0:
109,192,52472,1,0,0:0:0:0:
182,192,52472,1,0,0:0:0:0:
256,192,52530,1,0,0:0:0:0:
475,192,52530,1,0,0:0:0:0:
36,192,52530,1,0,0:0:0:0:
402,192,52530,1,0,0:0:0:0:
182,192,52587,1,0,0:0:0:0:
329,192,52587,1,0,0:0:0:0:
109,192,52645,1,0,0:0:0:0:
402,192,52645,1,0,0:0:0:0:
475,192,52645,1,0,0:0:0:0:
329,192,52703,1,0,0:0:0:0:
256,192,52703,1,0,0:0:0:0:
402,192,52760,1,0,0:0:0:0:
475,192,52760,1,0,0:0:0:0:
36,192,52760,1,0,0:0:0:0:
182,192,52760,1,0,0:0:0:0:
256,192,52818,1,0,0:0:0:0:
109,192,52818,1,0,0:0:0:0:
329,192,52876,1,0,0:0:0:0:
182,192,52876,1,0,0:0:0:0:
256,192,52933,1,0,0:0:0:0:
402,192,52933,1,0,0:0:0:0:
329,192,52991,1,0,0:0:0:0:
36,192,52991,1,0,0:0:0:0:
109,192,52991,1,0,0:0:0:0:
475,192,52991,1,0,0:0:0:0:
256,192,53049,1,0,0:0:0:0:
402,192,53049,1,0,0:0:0:0:
329,192,53107,1,0,0:0:0:0:
182,192,53107,1,0,0:0:0:0:
109,192,53164,1,0,0:0:0:0:
256,192,53164,1,0,0:0:0:0:
36,192,53222,1,0,0:0:0:0:
182,192,53222,1,0,0:0:0:0:
329,192,53222,1,0,0:0:0:0:
402,192,53222,1,0,0:0:0:0:
475,192,53280,1,0,0:0:0:0:
256,192,53280,1,0,0:0:0:0:
182,192,53337,1,0,0:0:0:0:
109,192,53337,1,0,0:0:0:0:
402,192,53337,1,0,0:0:0:0:
256,192,53395,1,0,0:0:0:0:
36,192,53395,1,0,0:0:0:0:
329,192,53453,1,0,0:0:0:0:
402,192,53453,1,0,0:0:0:0:
475,192,53453,1,0,0:0:0:0:
182,192,53453,1,0,0:0:0:0:
109,192,53510,1,0,0:0:0:0:
36,192,53510,1,0,0:0:0:0:
182,192,53568,1,0,0:0:0:0:
475,192,53568,1,0,0:0:0:0:
329,192,53568,1,0,0:0:0:0:
109,192,53626,1,0,0:0:0:0:
256,192,53626,1,0,0:0:0:0:
36,192,53683,1,0,0:0:0:0:
182,192,53683,1,0,0:0:0:0:
329,192,53683,1,0,0:0:0:0:
402,192,53683,1,0,0:0:0:0:
475,192,53741,1,0,0:0:0:0:
256,192,53741,1,0,0:0:0:0:
109,192,53799,1,0,0:0:0:0:
329,192,53799,1,0,0:0:0:0:
402,192,53799,1,0,0:0:0:0:
182,192,53857,1,0,0:0:0:0:
36,192,53857,1,0,0:0:0:0:
256,192,53914,1,0,0:0:0:0:
329,192,53914,1,0,0:0:0:0:
402,192,53914,1,0,0:0:0:0:
475,192,53914,1,0,0:0:0:0:
109,192,53972,1,0,0:0:0:0:
182,192,53972,1,0,0:0:0:0:
36,192,54030,1,0,0:0:0:0:
329,192,54030,1,0,0:0:0:0:
475,192,54030,1,0,0:0:0:0:
256,192,54087,1,0,0:0:0:0:
182,192,54087,1,0,0:0:0:0:
109,192,54145,1,0,0:0:0:0:
36,192,54145,1,0,0:0:0:0:
402,192,54145,1,0,0:0:0:0:
475,192,54145,1,0,0:0:0:0:
256,192,54203,1,0,0:0:0:0:
329,192,54203,1,0,0:0:0:0:
182,192,54260,1,0,0:0:0:0:
475,192,54260,1,0,0:0:0:0:
402,192,54260,1,0,0:0:0:0:
329,192,54318,1,0,0:0:0:0:
109,192,54318,1,0,0:0:0:0:
256,192,54376,1,0,0:0:0:0:
402,192,54376,1,0,0:0:0:0:
36,192,54376,1,0,0:0:0:0:
182,192,54376,1,0,0:0:0:0:
329,192,54433,1,0,0:0:0:0:
475,192,54433,1,0,0:0:0:0:
182,192,54491,1,0,0:0:0:0:
109,192,54491,1,0,0:0:0:0:
36,192,54491,1,0,0:0:0:0:
256,192,54549,1,0,0:0:0:0:
402,192,54549,1,0,0:0:0:0:
36,192,54607,1,0,0:0:0:0:
475,192,54607,1,0,0:0:0:0:
182,192,54607,1,0,0:0:0:0:
329,192,54607,1,0,0:0:0:0:
109,192,54664,1,0,0:0:0:0:
256,192,54664,1,0,0:0:0:0:
182,192,54722,1,0,0:0:0:0:
329,192,54722,1,0,0:0:0:0:
256,192,54780,1,0,0:0:0:0:
402,192,54780,1,0,0:0:0:0:
329,192,54837,1,0,0:0:0:0:
182,192,54837,1,0,0:0:0:0:
109,192,54837,1,0,0:0:0:0:
36,192,54837,1,0,0:0:0:0:
475,192,54837,1,0,0:0:0:0:
256,192,54895,1,0,0:0:0:0:
402,192,54895,1,0,0:0:0:0:
182,192,54953,1,0,0:0:0:0:
329,192,54953,1,0,0:0:0:0:
109,192,55010,1,0,0:0:0:0:
256,192,55010,1,0,0:0:0:0:
182,192,55068,1,0,0:0:0:0:
36,192,55068,1,0,0:0:0:0:
402,192,55068,1,0,0:0:0:0:
329,192,55068,1,0,0:0:0:0:
256,192,55126,1,0,0:0:0:0:
475,192,55126,1,0,0:0:0:0:
182,192,55183,1,0,0:0:0:0:
36,192,55183,1,0,0:0:0:0:
329,192,55183,1,0,0:0:0:0:
109,192,55241,1,0,0:0:0:0:
256,192,55241,1,0,0:0:0:0:
329,192,55299,1,0,0:0:0:0:
402,192,55299,1,0,0:0:0:0:
475,192,55299,1,0,0:0:0:0:
182,192,55299,1,0,0:0:0:0:
109,192,55357,1,0,0:0:0:0:
256,192,55357,1,0,0:0:0:0:
182,192,55414,1,0,0:0:0:0:
402,192,55414,1,0,0:0:0:0:
329,192,55414,1,0,0:0:0:0:
36,192,55472,1,0,0:0:0:0:
109,192,55472,1,0,0:0:0:0:
182,192,55530,1,0,0:0:0:0:
256,192,55530,1,0,0:0:0:0:
329,192,55530,1,0,0:0:0:0:
475,192,55530,1,0,0:0:0:0:
109,192,55587,1,0,0:0:0:0:
402,192,55587,1,0,0:0:0:0:
182,192,55645,1,0,0:0:0:0:
329,192,55645,1,0,0:0:0:0:
475,192,55645,1,0,0:0:0:0:
109,192,55703,1,0,0:0:0:0:
36,192,55703,1,0,0:0:0:0:
256,192,55760,1,0,0:0:0:0:
182,192,55760,1,0,0:0:0:0:
402,192,55760,1,0,0:0:0:0:
475,192,55760,1,0,0:0:0:0:
109,192,55818,1,0,0:0:0:0:
36,192,55818,1,0,0:0:0:0:
182,192,55876,1,0,0:0:0:0:
402,192,55876,1,0,0:0:0:0:
329,192,55876,1,0,0:0:0:0:
256,192,55933,1,0,0:0:0:0:
109,192,55933,1,0,0:0:0:0:
329,192,55991,1,0,0:0:0:0:
402,192,55991,1,0,0:0:0:0:
475,192,55991,1,0,0:0:0:0:
36,192,55991,1,0,0:0:0:0:
182,192,56049,1,0,0:0:0:0:
256,192,56049,1,0,0:0:0:0:
475,192,56107,1,0,0:0:0:0:
36,192,56107,1,0,0:0:0:0:
109,192,56107,1,0,0:0:0:0:
402,192,56164,1,0,0:0:0:0:
329,192,56164,1,0,0:0:0:0:
36,192,56222,1,0,0:0:0:0:
256,192,56222,1,0,0:0:0:0:
109,192,56222,1,0,0:0:0:0:
182,192,56222,1,0,0:0:0:0:
402,192,56280,1,0,0:0:0:0:
475,192,56280,1,0,0:0:0:0:
109,192,56337,1,0,0:0:0:0:
36,192,56337,1,0,0:0:0:0:
329,192,56337,1,0,0:0:0:0:
256,192,56395,1,0,0:0:0:0:
402,192,56395,1,0,0:0:0:0:
329,192,56453,1,0,0:0:0:0:
182,192,56453,1,0,0:0:0:0:
475,192,56453,1,0,0:0:0:0:
109,192,56453,1,0,0:0:0:0:
402,192,56510,1,0,0:0:0:0:
256,192,56510,1,0,0:0:0:0:
329,192,56568,1,0,0:0:0:0:
182,192,56568,1,0,0:0:0:0:
109,192,56626,1,0,0:0:0:0:
256,192,56626,1,0,0:0:0:0:
182,192,56683,1,0,0:0:0:0:
329,192,56683,1,0,0:0:0:0:
402,192,56683,1,0,0:0:0:0:
36,192,56683,1,0,0:0:0:0:
256,192,56741,1,0,0:0:0:0:
109,192,56741,1,0,0:0:0:0:
182,192,56799,1,0,0:0:0:0:
329,192,56799,1,0,0:0:0:0:
256,192,56857,1,0,0:0:0:0:
402,192,56857,1,0,0:0:0:0:
329,192,56914,1,0,0:0:0:0:
109,192,56914,1,0,0:0:0:0:
36,192,56914,1,0,0:0:0:0:
182,192,56914,1,0,0:0:0:0:
402,192,56972,1,0,0:0:0:0:
475,192,56972,1,0,0:0:0:0:
329,192,57030,1,0,0:0:0:0:
36,192,57030,1,0,0:0:0:0:
182,192,57030,1,0,0:0:0:0:
109,192,57087,1,0,0:0:0:0:
256,192,57087,1,0,0:0:0:0:
182,192,57145,1,0,0:0:0:0:
475,192,57145,1,0,0:0:0:0:
329,192,57145,1,0,0:0:0:0:
402,192,57145,1,0,0:0:0:0:
36,192,57203,1,0,0:0:0:0:
256,192,57203,1,0,0:0:0:0:
109,192,57260,1,0,0:0:0:0:
329,192,57260,1,0,0:0:0:0:
475,192,57260,1,0,0:0:0:0:
402,192,57318,1,0,0:0:0:0:
182,192,57318,1,0,0:0:0:0:
256,192,57376,1,0,0:0:0:0:
109,192,57376,1,0,0:0:0:0:
36,192,57376,1,0,0:0:0:0:
329,192,57376,1,0,0:0:0:0:
402,192,57433,1,0,0:0:0:0:
475,192,57433,1,0,0:0:0:0:
256,192,57491,1,0,0:0:0:0:
109,192,57491,1,0,0:0:0:0:
36,192,57491,1,0,0:0:0:0:
182,192,57549,1,0,0:0:0:0:
329,192,57549,1,0,0:0:0:0:
402,192,57607,1,0,0:0:0:0:
475,192,57607,1,0,0:0:0:0:
109,192,57607,1,0,0:0:0:0:
36,192,57607,1,0,0:0:0:0:
256,192,57664,1,0,0:0:0:0:
182,192,57664,1,0,0:0:0:0:
109,192,57722,1,0,0:0:0:0:
329,192,57722,1,0,0:0:0:0:
36,192,57722,1,0,0:0:0:0:
256,192,57780,1,0,0:0:0:0:
402,192,57780,1,0,0:0:0:0:
475,192,57837,1,0,0:0:0:0:
329,192,57837,1,0,0:0:0:0:
182,192,57837,1,0,0:0:0:0:
109,192,57837,1,0,0:0:0:0:
36,192,57895,1,0,0:0:0:0:
256,192,57895,1,0,0:0:0:0:
329,192,57953,1,0,0:0:0:0:
475,192,57953,1,0,0:0:0:0:
109,192,58010,1,0,0:0:0:0:
36,192,58010,1,0,0:0:0:0:
182,192,58068,1,0,0:0:0:0:
329,192,58068,1,0,0:0:0:0:
402,192,58068,1,0,0:0:0:0:
475,192,58068,1,0,0:0:0:0:
256,192,58126,1,0,0:0:0:0:
109,192,58126,1,0,0:0:0:0:
402,192,58183,1,0,0:0:0:0:
329,192,58183,1,0,0:0:0:0:
36,192,58241,1,0,0:0:0:0:
109,192,58241,1,0,0:0:0:0:
256,192,58299,1,0,0:0:0:0:
329,192,58299,1,0,0:0:0:0:
402,192,58299,1,0,0:0:0:0:
475,192,58299,1,0,0:0:0:0:
182,192,58357,1,0,0:0:0:0:
109,192,58357,1,0,0:0:0:0:
329,192,58414,1,0,0:0:0:0:
256,192,58414,1,0,0:0:0:0:
475,192,58472,1,0,0:0:0:0:
402,192,58472,1,0,0:0:0:0:
182,192,58530,1,0,0:0:0:0:
109,192,58530,1,0,0:0:0:0:
36,192,58530,1,0,0:0:0:0:
329,192,58530,1,0,0:0:0:0:
402,192,58587,1,0,0:0:0:0:
475,192,58587,1,0,0:0:0:0:
109,192,58645,1,0,0:0:0:0:
256,192,58645,1,0,0:0:0:0:
182,192,58703,1,0,0:0:0:0:
329,192,58703,1,0,0:0:0:0:
109,192,58760,1,0,0:0:0:0:
36,192,58760,1,0,0:0:0:0:
402,192,58760,1,0,0:0:0:0:
475,192,58760,1,0,0:0:0:0:
256,192,58818,1,0,0:0:0:0:
329,192,58818,1,0,0:0:0:0:
182,192,58876,1,0,0:0:0:0:
36,192,58876,1,0,0:0:0:0:
109,192,58933,1,0,0:0:0:0:
256,192,58933,1,0,0:0:0:0:
329,192,58991,1,0,0:0:0:0:
402,192,58991,1,0,0:0:0:0:
475,192,58991,1,0,0:0:0:0:
36,192,58991,1,0,0:0:0:0:
182,192,59049,1,0,0:0:0:0:
256,192,59049,1,0,0:0:0:0:
109,192,59107,1,0,0:0:0:0:
36,192,59107,1,0,0:0:0:0:
256,192,59164,1,0,0:0:0:0:
329,192,59164,1,0,0:0:0:0:
36,192,59222,1,0,0:0:0:0:
109,192,59222,1,0,0:0:0:0:
402,192,59222,1,0,0:0:0:0:
475,192,59222,1,0,0:0:0:0:
109,192,59337,1,0,0:0:0:0:
182,192,59337,1,0,0:0:0:0:
256,192,59337,1,0,0:0:0:0:
329,192,59453,1,0,0:0:0:0:
402,192,59453,1,0,0:0:0:0:
475,192,59453,1,0,0:0:0:0:
36,192,59568,1,0,0:0:0:0:
182,192,59568,1,0,0:0:0:0:
109,192,59568,1,0,0:0:0:0:
475,192,59683,1,0,0:0:0:0:
402,192,59683,1,0,0:0:0:0:
329,192,59683,1,0,0:0:0:0:
329,192,59799,1,0,0:0:0:0:
256,192,59799,1,0,0:0:0:0:
182,192,59799,1,0,0:0:0:0:
36,192,59914,1,0,0:0:0:0:
182,192,59914,1,0,0:0:0:0:
109,192,59914,1,0,0:0:0:0:
329,192,60030,1,0,0:0:0:0:
402,192,60030,1,0,0:0:0:0:
475,192,60030,1,0,0:0:0:0:
109,192,60145,1,0,0:0:0:0:
36,192,60145,1,0,0:0:0:0:
182,192,60145,1,0,0:0:0:0:
256,192,60260,1,0,0:0:0:0:
329,192,60260,1,0,0:0:0:0:
402,192,60260,1,0,0:0:0:0:
182,192,60376,1,0,0:0:0:0:
109,192,60376,1,0,0:0:0:0:
36,192,60376,1,0,0:0:0:0:
182,192,60491,1,0,0:0:0:0:
256,192,60491,1,0,0:0:0:0:
329,192,60491,1,0,0:0:0:0:
256,192,60607,1,0,0:0:0:0:
329,192,60607,1,0,0:0:0:0:
402,192,60607,1,0,0:0:0:0:
109,192,60722,1,0,0:0:0:0:
36,192,60722,1,0,0:0:0:0:
182,192,60722,1,0,0:0:0:0:
182,192,60837,1,0,0:0:0:0:
256,192,60837,1,0,0:0:0:0:
109,192,60837,1,0,0:0:0:0:
329,192,60895,1,0,0:0:0:0:
402,192,60953,1,0,0:0:0:0:
475,192,61010,1,0,0:0:0:0:
182,192,61068,1,0,0:0:0:0:
256,192,61068,1,0,0:0:0:0:
329,192,61068,1,0,0:0:0:0:
109,192,61068,1,0,0:0:0:0:
36,192,61126,1,0,0:0:0:0:
402,192,61126,1,0,0:0:0:0:
329,192,61183,1,0,0:0:0:0:
182,192,61183,1,0,0:0:0:0:
109,192,61241,1,0,0:0:0:0:
256,192,61241,1,0,0:0:0:0:
36,192,61299,1,0,0:0:0:0:
182,192,61299,1,0,0:0:0:0:
329,192,61299,1,0,0:0:0:0:
402,192,61299,1,0,0:0:0:0:
475,192,61357,1,0,0:0:0:0:
256,192,61357,1,0,0:0:0:0:
182,192,61414,1,0,0:0:0:0:
402,192,61414,1,0,0:0:0:0:
109,192,61472,1,0,0:0:0:0:
329,192,61472,1,0,0:0:0:0:
256,192,61530,1,0,0:0:0:0:
402,192,61530,1,0,0:0:0:0:
475,192,61530,1,0,0:0:0:0:
182,192,61530,1,0,0:0:0:0:
36,192,61587,1,0,0:0:0:0:
329,192,61587,1,0,0:0:0:0:
109,192,61645,1,0,0:0:0:0:
256,192,61645,1,0,0:0:0:0:
182,192,61703,1,0,0:0:0:0:
36,192,61703,1,0,0:0:0:0:
256,192,61760,1,0,0:0:0:0:
329,192,61760,1,0,0:0:0:0:
402,192,61760,1,0,0:0:0:0:
475,192,61760,1,0,0:0:0:0:
109,192,61818,1,0,0:0:0:0:
182,192,61818,1,0,0:0:0:0:
256,192,61876,1,0,0:0:0:0:
402,192,61876,1,0,0:0:0:0:
475,192,61933,1,0,0:0:0:0:
329,192,61933,1,0,0:0:0:0:
256,192,61991,1,0,0:0:0:0:
182,192,61991,1,0,0:0:0:0:
109,192,61991,1,0,0:0:0:0:
36,192,61991,1,0,0:0:0:0:
329,192,62049,1,0,0:0:0:0:
402,192,62049,1,0,0:0:0:0:
182,192,62107,1,0,0:0:0:0:
36,192,62107,1,0,0:0:0:0:
109,192,62164,1,0,0:0:0:0:
256,192,62164,1,0,0:0:0:0:
329,192,62222,1,0,0:0:0:0:
402,192,62222,1,0,0:0:0:0:
475,192,62222,1,0,0:0:0:0:
182,192,62222,1,0,0:0:0:0:
36,192,62280,1,0,0:0:0:0:
256,192,62280,1,0,0:0:0:0:
329,192,62337,1,0,0:0:0:0:
182,192,62337,1,0,0:0:0:0:
402,192,62395,1,0,0:0:0:0:
475,192,62395,1,0,0:0:0:0:
182,192,62453,1,0,0:0:0:0:
109,192,62453,1,0,0:0:0:0:
36,192,62453,1,0,0:0:0:0:
256,192,62453,1,0,0:0:0:0:
329,192,62510,1,0,0:0:0:0:
475,192,62510,1,0,0:0:0:0:
256,192,62568,1,0,0:0:0:0:
109,192,62568,1,0,0:0:0:0:
36,192,62626,1,0,0:0:0:0:
182,192,62626,1,0,0:0:0:0:
256,192,62683,1,0,0:0:0:0:
329,192,62683,1,0,0:0:0:0:
402,192,62683,1,0,0:0:0:0:
475,192,62683,1,0,0:0:0:0:
109,192,62741,1,0,0:0:0:0:
182,192,62741,1,0,0:0:0:0:
256,192,62799,1,0,0:0:0:0:
402,192,62799,1,0,0:0:0:0:
36,192,62857,1,0,0:0:0:0:
182,192,62857,1,0,0:0:0:0:
329,192,62914,1,0,0:0:0:0:
402,192,62914,1,0,0:0:0:0:
475,192,62914,1,0,0:0:0:0:
109,192,62914,1,0,0:0:0:0:
256,192,62972,1,0,0:0:0:0:
36,192,62972,1,0,0:0:0:0:
182,192,63030,1,0,0:0:0:0:
329,192,63030,1,0,0:0:0:0:
402,192,63087,1,0,0:0:0:0:
475,192,63087,1,0,0:0:0:0:
256,192,63145,1,0,0:0:0:0:
36,192,63145,1,0,0:0:0:0:
109,192,63145,1,0,0:0:0:0:
182,192,63145,1,0,0:0:0:0:
329,192,63203,1,0,0:0:0:0:
475,192,63203,1,0,0:0:0:0:
182,192,63260,1,0,0:0:0:0:
36,192,63260,1,0,0:0:0:0:
109,192,63318,1,0,0:0:0:0:
256,192,63318,1,0,0:0:0:0:
182,192,63376,1,0,0:0:0:0:
329,192,63376,1,0,0:0:0:0:
402,192,63376,1,0,0:0:0:0:
475,192,63376,1,0,0:0:0:0:
36,192,63433,1,0,0:0:0:0:
256,192,63433,1,0,0:0:0:0:
182,192,63491,1,0,0:0:0:0:
329,192,63491,1,0,0:0:0:0:
402,192,63549,1,0,0:0:0:0:
475,192,63549,1,0,0:0:0:0:
182,192,63607,1,0,0:0:0:0:
36,192,63607,1,0,0:0:0:0:
256,192,63607,1,0,0:0:0:0:
329,192,63607,1,0,0:0:0:0:
109,192,63664,1,0,0:0:0:0:
402,192,63664,1,0,0:0:0:0:
329,192,63722,1,0,0:0:0:0:
182,192,63722,1,0,0:0:0:0:
109,192,63780,1,0,0:0:0:0:
36,192,63780,1,0,0:0:0:0:
256,192,63837,1,0,0:0:0:0:
329,192,63837,1,0,0:0:0:0:
475,192,63837,1,0,0:0:0:0:
182,192,63837,1,0,0:0:0:0:
109,192,63895,1,0,0:0:0:0:
402,192,63895,1,0,0:0:0:0:
182,192,63953,1,0,0:0:0:0:
36,192,63953,1,0,0:0:0:0:
256,192,64010,1,0,0:0:0:0:
329,192,64010,1,0,0:0:0:0:
402,192,64068,1,0,0:0:0:0:
475,192,64068,1,0,0:0:0:0:
36,192,64068,1,0,0:0:0:0:
109,192,64068,1,0,0:0:0:0:
182,192,64126,1,0,0:0:0:0:
329,192,64126,1,0,0:0:0:0:
256,192,64183,1,0,0:0:0:0:
402,192,64183,1,0,0:0:0:0:
182,192,64241,1,0,0:0:0:0:
36,192,64241,1,0,0:0:0:0:
109,192,64299,1,0,0:0:0:0:
256,192,64299,1,0,0:0:0:0:
329,192,64299,1,0,0:0:0:0:
402,192,64299,1,0,0:0:0:0:
475,192,64357,1,0,0:0:0:0:
182,192,64357,1,0,0:0:0:0:
256,192,64414,1,0,0:0:0:0:
402,192,64414,1,0,0:0:0:0:
329,192,64472,1,0,0:0:0:0:
475,192,64472,1,0,0:0:0:0:
182,192,64530,1,0,0:0:0:0:
109,192,64530,1,0,0:0:0:0:
36,192,64530,1,0,0:0:0:0:
256,192,64530,1,0,0:0:0:0:
402,192,64587,1,0,0:0:0:0:
475,192,64587,1,0,0:0:0:0:
109,192,64645,1,0,0:0:0:0:
36,192,64645,1,0,0:0:0:0:
182,192,64703,1,0,0:0:0:0:
256,192,64703,1,0,0:0:0:0:
109,192,64760,1,0,0:0:0:0:
36,192,64760,1,0,0:0:0:0:
329,192,64760,1,0,0:0:0:0:
402,192,64760,1,0,0:0:0:0:
475,192,64818,1,0,0:0:0:0:
182,192,64818,1,0,0:0:0:0:
329,192,64876,1,0,0:0:0:0:
109,192,64876,1,0,0:0:0:0:
36,192,64933,1,0,0:0:0:0:
256,192,64933,1,0,0:0:0:0:
329,192,64991,1,0,0:0:0:0:
402,192,64991,1,0,0:0:0:0:
475,192,64991,1,0,0:0:0:0:
182,192,64991,1,0,0:0:0:0:
109,192,65049,1,0,0:0:0:0:
36,192,65049,1,0,0:0:0:0:
475,192,65107,1,0,0:0:0:0:
329,192,65107,1,0,0:0:0:0:
256,192,65164,1,0,0:0:0:0:
402,192,65164,1,0,0:0:0:0:
329,192,65222,1,0,0:0:0:0:
475,192,65222,1,0,0:0:0:0:
182,192,65222,1,0,0:0:0:0:
109,192,65222,1,0,0:0:0:0:
36,192,65280,1,0,0:0:0:0:
256,192,65280,1,0,0:0:0:0:
329,192,65337,1,0,0:0:0:0:
402,192,65337,1,0,0:0:0:0:
182,192,65395,1,0,0:0:0:0:
109,192,65395,1,0,0:0:0:0:
256,192,65453,1,0,0:0:0:0:
329,192,65453,1,0,0:0:0:0:
402,192,65453,1,0,0:0:0:0:
475,192,65453,1,0,0:0:0:0:
109,192,65510,1,0,0:0:0:0:
36,192,65510,1,0,0:0:0:0:
182,192,65568,1,0,0:0:0:0:
256,192,65568,1,0,0:0:0:0:
329,192,65626,1,0,0:0:0:0:
475,192,65626,1,0,0:0:0:0:
402,192,65683,1,0,0:0:0:0:
256,192,65683,1,0,0:0:0:0:
109,192,65683,1,0,0:0:0:0:
36,192,65683,1,0,0:0:0:0:
182,192,65741,1,0,0:0:0:0:
329,192,65741,1,0,0:0:0:0:
256,192,65799,1,0,0:0:0:0:
109,192,65799,1,0,0:0:0:0:
36,192,65857,1,0,0:0:0:0:
182,192,65857,1,0,0:0:0:0:
402,192,65914,1,0,0:0:0:0:
475,192,65914,1,0,0:0:0:0:
256,192,65914,1,0,0:0:0:0:
329,192,65914,1,0,0:0:0:0:
36,192,65972,1,0,0:0:0:0:
182,192,65972,1,0,0:0:0:0:
256,192,66030,1,0,0:0:0:0:
109,192,66030,1,0,0:0:0:0:
329,192,66087,1,0,0:0:0:0:
182,192,66087,1,0,0:0:0:0:
36,192,66145,1,0,0:0:0:0:
256,192,66145,1,0,0:0:0:0:
475,192,66145,1,0,0:0:0:0:
402,192,66145,1,0,0:0:0:0:
329,192,66203,1,0,0:0:0:0:
182,192,66203,1,0,0:0:0:0:
36,192,66260,1,0,0:0:0:0:
109,192,66260,1,0,0:0:0:0:
182,192,66318,1,0,0:0:0:0:
256,192,66318,1,0,0:0:0:0:
329,192,66376,1,0,0:0:0:0:
475,192,66376,1,0,0:0:0:0:
36,192,66376,1,0,0:0:0:0:
402,192,66376,1,0,0:0:0:0:
182,192,66433,1,0,0:0:0:0:
109,192,66433,1,0,0:0:0:0:
256,192,66491,1,0,0:0:0:0:
329,192,66491,1,0,0:0:0:0:
36,192,66549,1,0,0:0:0:0:
182,192,66549,1,0,0:0:0:0:
256,192,66607,1,0,0:0:0:0:
329,192,66607,1,0,0:0:0:0:
402,192,66607,1,0,0:0:0:0:
475,192,66607,1,0,0:0:0:0:
182,192,66664,1,0,0:0:0:0:
109,192,66664,1,0,0:0:0:0:
256,192,66722,1,0,0:0:0:0:
402,192,66722,1,0,0:0:0:0:
329,192,66780,1,0,0:0:0:0:
475,192,66780,1,0,0:0:0:0:
256,192,66837,1,0,0:0:0:0:
182,192,66837,1,0,0:0:0:0:
109,192,66837,1,0,0:0:0:0:
36,192,66837,1,0,0:0:0:0:
329,192,66895,1,0,0:0:0:0:
475,192,66895,1,0,0:0:0:0:
36,192,66953,1,0,0:0:0:0:
182,192,66953,1,0,0:0:0:0:
109,192,67010,1,0,0:0:0:0:
256,192,67010,1,0,0:0:0:0:
329,192,67068,1,0,0:0:0:0:
182,192,67068,1,0,0:0:0:0:
402,192,67068,1,0,0:0:0:0:
475,192,67068,1,0,0:0:0:0:
36,192,67126,1,0,0:0:0:0:
109,192,67126,1,0,0:0:0:0:
329,192,67183,1,0,0:0:0:0:
256,192,67183,1,0,0:0:0:0:
182,192,67241,1,0,0:0:0:0:
109,192,67241,1,0,0:0:0:0:
329,192,67299,1,0,0:0:0:0:
402,192,67299,1,0,0:0:0:0:
475,192,67299,1,0,0:0:0:0:
36,192,67299,1,0,0:0:0:0:
256,192,67357,1,0,0:0:0:0:
109,192,67357,1,0,0:0:0:0:
182,192,67414,1,0,0:0:0:0:
329,192,67414,1,0,0:0:0:0:
36,192,67472,1,0,0:0:0:0:
109,192,67472,1,0,0:0:0:0:
182,192,67530,1,0,0:0:0:0:
329,192,67530,1,0,0:0:0:0:
402,192,67530,1,0,0:0:0:0:
475,192,67530,1,0,0:0:0:0:
256,192,67587,1,0,0:0:0:0:
36,192,67587,1,0,0:0:0:0:
109,192,67645,1,0,0:0:0:0:
182,192,67645,1,0,0:0:0:0:
256,192,67703,1,0,0:0:0:0:
329,192,67703,1,0,0:0:0:0:
402,192,67760,1,0,0:0:0:0:
475,192,67760,1,0,0:0:0:0:
36,192,67760,1,0,0:0:0:0:
109,192,67760,1,0,0:0:0:0:
182,192,67818,1,0,0:0:0:0:
329,192,67818,1,0,0:0:0:0:
256,192,67876,1,0,0:0:0:0:
36,192,67876,1,0,0:0:0:0:
109,192,67933,1,0,0:0:0:0:
182,192,67933,1,0,0:0:0:0:
256,192,67991,1,0,0:0:0:0:
329,192,67991,1,0,0:0:0:0:
402,192,67991,1,0,0:0:0:0:
475,192,67991,1,0,0:0:0:0:
36,192,68049,1,0,0:0:0:0:
182,192,68049,1,0,0:0:0:0:
256,192,68107,1,0,0:0:0:0:
402,192,68107,1,0,0:0:0:0:
329,192,68164,1,0,0:0:0:0:
475,192,68164,1,0,0:0:0:0:
256,192,68222,1,0,0:0:0:0:
109,192,68222,1,0,0:0:0:0:
36,192,68222,1,0,0:0:0:0:
182,192,68222,1,0,0:0:0:0:
329,192,68280,1,0,0:0:0:0:
402,192,68280,1,0,0:0:0:0:
36,192,68337,1,0,0:0:0:0:
109,192,68337,1,0,0:0:0:0:
402,192,68395,1,0,0:0:0:0:
475,192,68395,1,0,0:0:0:0:
256,192,68453,1,0,0:0:0:0:
109,192,68453,1,0,0:0:0:0:
36,192,68453,1,0,0:0:0:0:
182,192,68453,1,0,0:0:0:0:
329,192,68510,1,0,0:0:0:0:
475,192,68510,1,0,0:0:0:0:
402,192,68568,1,0,0:0:0:0:
109,192,68568,1,0,0:0:0:0:
256,192,68626,1,0,0:0:0:0:
182,192,68626,1,0,0:0:0:0:
329,192,68683,1,0,0:0:0:0:
402,192,68683,1,0,0:0:0:0:
475,192,68683,1,0,0:0:0:0:
36,192,68683,1,0,0:0:0:0:
182,192,68741,1,0,0:0:0:0:
109,192,68741,1,0,0:0:0:0:
256,192,68799,1,0,0:0:0:0:
402,192,68799,1,0,0:0:0:0:
329,192,68857,1,0,0:0:0:0:
475,192,68857,1,0,0:0:0:0:
256,192,68914,1,0,0:0:0:0:
182,192,68914,1,0,0:0:0:0:
109,192,68914,1,0,0:0:0:0:
36,192,68914,1,0,0:0:0:0:
329,192,68972,1,0,0:0:0:0:
402,192,68972,1,0,0:0:0:0:
182,192,69030,1,0,0:0:0:0:
36,192,69030,1,0,0:0:0:0:
256,192,69087,1,0,0:0:0:0:
329,192,69087,1,0,0:0:0:0:
402,192,69145,1,0,0:0:0:0:
475,192,69145,1,0,0:0:0:0:
109,192,69145,1,0,0:0:0:0:
36,192,69145,1,0,0:0:0:0:
182,192,69203,1,0,0:0:0:0:
329,192,69203,1,0,0:0:0:0:
36,192,69260,1,0,0:0:0:0:
256,192,69260,1,0,0:0:0:0:
329,192,69318,1,0,0:0:0:0:
402,192,69318,1,0,0:0:0:0:
475,192,69376,1,0,0:0:0:0:
182,192,69376,1,0,0:0:0:0:
256,192,69376,1,0,0:0:0:0:
36,192,69376,1,0,0:0:0:0:
109,192,69433,1,0,0:0:0:0:
329,192,69433,1,0,0:0:0:0:
256,192,69491,1,0,0:0:0:0:
182,192,69491,1,0,0:0:0:0:
329,192,69549,1,0,0:0:0:0:
402,192,69549,1,0,0:0:0:0:
475,192,69607,1,0,0:0:0:0:
182,192,69607,1,0,0:0:0:0:
109,192,69607,1,0,0:0:0:0:
36,192,69607,1,0,0:0:0:0:
256,192,69664,1,0,0:0:0:0:
329,192,69664,1,0,0:0:0:0:
182,192,69722,1,0,0:0:0:0:
36,192,69722,1,0,0:0:0:0:
109,192,69780,1,0,0:0:0:0:
256,192,69780,1,0,0:0:0:0:
329,192,69837,1,0,0:0:0:0:
402,192,69837,1,0,0:0:0:0:
475,192,69837,1,0,0:0:0:0:
36,192,69837,1,0,0:0:0:0:
182,192,69895,1,0,0:0:0:0:
256,192,69895,1,0,0:0:0:0:
329,192,69953,1,0,0:0:0:0:
475,192,69953,1,0,0:0:0:0:
402,192,70010,1,0,0:0:0:0:
36,192,70010,1,0,0:0:0:0:
182,192,70068,1,0,0:0:0:0:
256,192,70068,1,0,0:0:0:0:
329,192,70068,1,0,0:0:0:0:
109,192,70068,1,0,0:0:0:0:
36,192,70126,1,0,0:0:0:0:
402,192,70126,1,0,0:0:0:0:
329,192,70183,1,0,0:0:0:0:
182,192,70183,1,0,0:0:0:0:
109,192,70241,1,0,0:0:0:0:
256,192,70241,1,0,0:0:0:0:
36,192,70299,1,0,0:0:0:0:
182,192,70299,1,0,0:0:0:0:
329,192,70299,1,0,0:0:0:0:
402,192,70299,1,0,0:0:0:0:
475,192,70357,1,0,0:0:0:0:
256,192,70357,1,0,0:0:0:0:
182,192,70414,1,0,0:0:0:0:
402,192,70414,1,0,0:0:0:0:
109,192,70472,1,0,0:0:0:0:
329,192,70472,1,0,0:0:0:0:
256,192,70530,1,0,0:0:0:0:
402,192,70530,1,0,0:0:0:0:
475,192,70530,1,0,0:0:0:0:
182,192,70530,1,0,0:0:0:0:
36,192,70587,1,0,0:0:0:0:
109,192,70587,1,0,0:0:0:0:
182,192,70645,1,0,0:0:0:0:
402,192,70645,1,0,0:0:0:0:
329,192,70703,1,0,0:0:0:0:
256,192,70703,1,0,0:0:0:0:
402,192,70760,1,0,0:0:0:0:
36,192,70760,1,0,0:0:0:0:
109,192,70760,1,0,0:0:0:0:
475,192,70760,1,0,0:0:0:0:
256,192,70818,1,0,0:0:0:0:
182,192,70818,1,0,0:0:0:0:
329,192,70876,1,0,0:0:0:0:
402,192,70876,1,0,0:0:0:0:
475,192,70933,1,0,0:0:0:0:
36,192,70933,1,0,0:0:0:0:
256,192,70991,1,0,0:0:0:0:
182,192,70991,1,0,0:0:0:0:
329,192,70991,1,0,0:0:0:0:
109,192,70991,1,0,0:0:0:0:
475,192,71049,1,0,0:0:0:0:
402,192,71049,1,0,0:0:0:0:
182,192,71107,1,0,0:0:0:0:
36,192,71107,1,0,0:0:0:0:
109,192,71164,1,0,0:0:0:0:
256,192,71164,1,0,0:0:0:0:
329,192,71222,1,0,0:0:0:0:
402,192,71222,1,0,0:0:0:0:
475,192,71222,1,0,0:0:0:0:
182,192,71222,1,0,0:0:0:0:
36,192,71280,1,0,0:0:0:0:
256,192,71280,1,0,0:0:0:0:
329,192,71337,1,0,0:0:0:0:
182,192,71337,1,0,0:0:0:0:
402,192,71395,1,0,0:0:0:0:
475,192,71395,1,0,0:0:0:0:
182,192,71453,1,0,0:0:0:0:
109,192,71453,1,0,0:0:0:0:
36,192,71453,1,0,0:0:0:0:
256,192,71453,1,0,0:0:0:0:
329,192,71510,1,0,0:0:0:0:
475,192,71510,1,0,0:0:0:0:
256,192,71568,1,0,0:0:0:0:
109,192,71568,1,0,0:0:0:0:
36,192,71626,1,0,0:0:0:0:
182,192,71626,1,0,0:0:0:0:
256,192,71683,1,0,0:0:0:0:
329,192,71683,1,0,0:0:0:0:
402,192,71683,1,0,0:0:0:0:
475,192,71683,1,0,0:0:0:0:
109,192,71741,1,0,0:0:0:0:
182,192,71741,1,0,0:0:0:0:
256,192,71799,1,0,0:0:0:0:
402,192,71799,1,0,0:0:0:0:
36,192,71857,1,0,0:0:0:0:
182,192,71857,1,0,0:0:0:0:
329,192,71914,1,0,0:0:0:0:
402,192,71914,1,0,0:0:0:0:
475,192,71914,1,0,0:0:0:0:
109,192,71914,1,0,0:0:0:0:
256,192,71972,1,0,0:0:0:0:
36,192,71972,1,0,0:0:0:0:
182,192,72030,1,0,0:0:0:0:
329,192,72030,1,0,0:0:0:0:
402,192,72087,1,0,0:0:0:0:
475,192,72087,1,0,0:0:0:0:
256,192,72145,1,0,0:0:0:0:
36,192,72145,1,0,0:0:0:0:
109,192,72145,1,0,0:0:0:0:
182,192,72145,1,0,0:0:0:0:
329,192,72203,1,0,0:0:0:0:
475,192,72203,1,0,0:0:0:0:
256,192,72260,1,0,0:0:0:0:
36,192,72260,1,0,0:0:0:0:
109,192,72318,1,0,0:0:0:0:
182,192,72318,1,0,0:0:0:0:
256,192,72376,1,0,0:0:0:0:
329,192,72376,1,0,0:0:0:0:
402,192,72376,1,0,0:0:0:0:
475,192,72376,1,0,0:0:0:0:
109,192,72433,1,0,0:0:0:0:
36,192,72433,1,0,0:0:0:0:
256,192,72491,1,0,0:0:0:0:
329,192,72491,1,0,0:0:0:0:
402,192,72549,1,0,0:0:0:0:
475,192,72549,1,0,0:0:0:0:
182,192,72607,1,0,0:0:0:0:
36,192,72607,1,0,0:0:0:0:
256,192,72607,1,0,0:0:0:0:
329,192,72607,1,0,0:0:0:0:
109,192,72664,1,0,0:0:0:0:
402,192,72664,1,0,0:0:0:0:
329,192,72722,1,0,0:0:0:0:
182,192,72722,1,0,0:0:0:0:
109,192,72780,1,0,0:0:0:0:
36,192,72780,1,0,0:0:0:0:
256,192,72837,1,0,0:0:0:0:
329,192,72837,1,0,0:0:0:0:
475,192,72837,1,0,0:0:0:0:
182,192,72837,1,0,0:0:0:0:
109,192,72895,1,0,0:0:0:0:
402,192,72895,1,0,0:0:0:0:
182,192,72953,1,0,0:0:0:0:
36,192,72953,1,0,0:0:0:0:
256,192,73010,1,0,0:0:0:0:
329,192,73010,1,0,0:0:0:0:
402,192,73068,1,0,0:0:0:0:
475,192,73068,1,0,0:0:0:0:
36,192,73068,1,0,0:0:0:0:
109,192,73068,1,0,0:0:0:0:
182,192,73126,1,0,0:0:0:0:
329,192,73126,1,0,0:0:0:0:
256,192,73183,1,0,0:0:0:0:
402,192,73183,1,0,0:0:0:0:
182,192,73241,1,0,0:0:0:0:
36,192,73241,1,0,0:0:0:0:
109,192,73299,1,0,0:0:0:0:
256,192,73299,1,0,0:0:0:0:
329,192,73299,1,0,0:0:0:0:
402,192,73299,1,0,0:0:0:0:
475,192,73357,1,0,0:0:0:0:
182,192,73357,1,0,0:0:0:0:
256,192,73414,1,0,0:0:0:0:
402,192,73414,1,0,0:0:0:0:
329,192,73472,1,0,0:0:0:0:
475,192,73472,1,0,0:0:0:0:
182,192,73530,1,0,0:0:0:0:
109,192,73530,1,0,0:0:0:0:
36,192,73530,1,0,0:0:0:0:
256,192,73530,1,0,0:0:0:0:
402,192,73587,1,0,0:0:0:0:
475,192,73587,1,0,0:0:0:0:
109,192,73645,1,0,0:0:0:0:
36,192,73645,1,0,0:0:0:0:
182,192,73703,1,0,0:0:0:0:
256,192,73703,1,0,0:0:0:0:
109,192,73760,1,0,0:0:0:0:
36,192,73760,1,0,0:0:0:0:
329,192,73760,1,0,0:0:0:0:
402,192,73760,1,0,0:0:0:0:
475,192,73818,1,0,0:0:0:0:
182,192,73818,1,0,0:0:0:0:
329,192,73876,1,0,0:0:0:0:
109,192,73876,1,0,0:0:0:0:
36,192,73933,1,0,0:0:0:0:
256,192,73933,1,0,0:0:0:0:
329,192,73991,1,0,0:0:0:0:
402,192,73991,1,0,0:0:0:0:
475,192,73991,1,0,0:0:0:0:
182,192,73991,1,0,0:0:0:0:
109,192,74049,1,0,0:0:0:0:
36,192,74049,1,0,0:0:0:0:
475,192,74107,1,0,0:0:0:0:
329,192,74107,1,0,0:0:0:0:
256,192,74164,1,0,0:0:0:0:
402,192,74164,1,0,0:0:0:0:
329,192,74222,1,0,0:0:0:0:
475,192,74222,1,0,0:0:0:0:
182,192,74222,1,0,0:0:0:0:
109,192,74222,1,0,0:0:0:0:
36,192,74280,1,0,0:0:0:0:
256,192,74280,1,0,0:0:0:0:
329,192,74337,1,0,0:0:0:0:
402,192,74337,1,0,0:0:0:0:
182,192,74395,1,0,0:0:0:0:
109,192,74395,1,0,0:0:0:0:
256,192,74453,1,0,0:0:0:0:
329,192,74453,1,0,0:0:0:0:
402,192,74453,1,0,0:0:0:0:
475,192,74453,1,0,0:0:0:0:
36,192,74568,1,0,0:0:0:0:
109,192,74568,1,0,0:0:0:0:
182,192,74568,1,0,0:0:0:0:
329,192,74626,1,0,0:0:0:0:
402,192,74626,1,0,0:0:0:0:
475,192,74626,1,0,0:0:0:0:
36,192,74683,1,0,0:0:0:0:
109,192,74683,1,0,0:0:0:0:
329,192,74741,1,0,0:0:0:0:
256,192,74741,1,0,0:0:0:0:
402,192,74741,1,0,0:0:0:0:
182,192,74799,1,0,0:0:0:0:
109,192,74799,1,0,0:0:0:0:
256,192,74857,1,0,0:0:0:0:
329,192,74857,1,0,0:0:0:0:
402,192,74914,1,0,0:0:0:0:
475,192,74914,1,0,0:0:0:0:
182,192,75030,1,0,0:0:0:0:
109,192,75030,1,0,0:0:0:0:
36,192,75030,1,0,0:0:0:0:
256,192,75145,1,0,0:0:0:0:
329,192,75145,1,0,0:0:0:0:
402,192,75145,1,0,0:0:0:0:
475,192,75145,1,0,0:0:0:0:
256,192,75260,1,0,0:0:0:0:
182,192,75260,1,0,0:0:0:0:
109,192,75260,1,0,0:0:0:0:
36,192,75260,1,0,0:0:0:0:
36,192,75376,1,0,0:0:0:0:
256,192,75376,1,0,0:0:0:0:
329,192,75376,1,0,0:0:0:0:
402,192,75376,1,0,0:0:0:0:
182,192,75491,1,0,0:0:0:0:
109,192,75491,1,0,0:0:0:0:
36,192,75491,1,0,0:0:0:0:
329,192,75549,1,0,0:0:0:0:
475,192,75549,1,0,0:0:0:0:
402,192,75549,1,0,0:0:0:0:
36,192,75607,1,0,0:0:0:0:
109,192,75607,1,0,0:0:0:0:
182,192,75664,1,0,0:0:0:0:
256,192,75664,1,0,0:0:0:0:
329,192,75664,1,0,0:0:0:0:
402,192,75722,1,0,0:0:0:0:
475,192,75722,1,0,0:0:0:0:
36,192,75780,1,0,0:0:0:0:
182,192,75780,1,0,0:0:0:0:
109,192,75780,1,0,0:0:0:0:
256,192,75837,1,0,0:0:0:0:
329,192,75837,1,0,0:0:0:0:
402,192,75837,1,0,0:0:0:0:
36,192,76068,1,0,0:0:0:0:
109,192,76068,1,0,0:0:0:0:
256,192,76299,1,0,0:0:0:0:
329,192,76299,1,0,0:0:0:0:
402,192,76491,1,0,0:0:0:0:
475,192,76491,1,0,0:0:0:0:
109,192,76760,1,0,0:0:0:0:
182,192,76760,1,0,0:0:0:0:
329,192,76991,1,0,0:0:0:0:
402,192,76991,1,0,0:0:0:0:
109,192,77222,1,0,0:0:0:0:
182,192,77222,1,0,0:0:0:0:
329,192,77414,1,0,0:0:0:0:
256,192,77414,1,0,0:0:0:0:
402,192,77568,1,0,0:0:0:0:
475,192,77568,1,0,0:0:0:0:
109,192,77683,1,0,0:0:0:0:
36,192,77683,1,0,0:0:0:0:
256,192,77876,1,0,0:0:0:0:
329,192,77876,1,0,0:0:0:0:
182,192,78145,1,0,0:0:0:0:
109,192,78145,1,0,0:0:0:0:
402,192,78337,1,0,0:0:0:0:
475,192,78337,1,0,0:0:0:0:
256,192,78491,1,0,0:0:0:0:
182,192,78491,1,0,0:0:0:0:
109,192,78607,1,0,0:0:0:0:
36,192,78607,1,0,0:0:0:0:
182,192,78837,1,0,0:0:0:0:
109,192,78837,1,0,0:0:0:0:
256,192,79068,1,0,0:0:0:0:
329,192,79068,1,0,0:0:0:0:
402,192,79260,1,0,0:0:0:0:
475,192,79260,1,0,0:0:0:0:
109,192,79530,1,0,0:0:0:0:
182,192,79530,1,0,0:0:0:0:
329,192,79760,1,0,0:0:0:0:
402,192,79760,1,0,0:0:0:0:
109,192,79991,1,0,0:0:0:0:
182,192,79991,1,0,0:0:0:0:
329,192,80183,1,0,0:0:0:0:
256,192,80183,1,0,0:0:0:0:
402,192,80337,1,0,0:0:0:0:
475,192,80337,1,0,0:0:0:0:
109,192,80453,1,0,0:0:0:0:
36,192,80453,1,0,0:0:0:0:
256,192,80645,1,0,0:0:0:0:
329,192,80645,1,0,0:0:0:0:
182,192,80914,1,0,0:0:0:0:
109,192,80914,1,0,0:0:0:0:
402,192,81107,1,0,0:0:0:0:
475,192,81107,1,0,0:0:0:0:
256,192,81260,1,0,0:0:0:0:
182,192,81260,1,0,0:0:0:0:
109,192,81376,1,0,0:0:0:0:
36,192,81376,1,0,0:0:0:0:
329,192,81607,1,0,0:0:0:0:
402,192,81607,1,0,0:0:0:0:
182,192,81837,1,0,0:0:0:0:
256,192,81837,1,0,0:0:0:0:
36,192,82030,1,0,0:0:0:0:
109,192,82030,1,0,0:0:0:0:
182,192,82299,1,0,0:0:0:0:
109,192,82299,1,0,0:0:0:0:
402,192,82530,1,0,0:0:0:0:
329,192,82530,1,0,0:0:0:0:
182,192,82760,1,0,0:0:0:0:
109,192,82760,1,0,0:0:0:0:
256,192,82953,1,0,0:0:0:0:
329,192,82953,1,0,0:0:0:0:
475,192,83107,1,0,0:0:0:0:
402,192,83107,1,0,0:0:0:0:
36,192,83222,1,0,0:0:0:0:
109,192,83222,1,0,0:0:0:0:
329,192,83414,1,0,0:0:0:0:
256,192,83414,1,0,0:0:0:0:
109,192,83683,1,0,0:0:0:0:
182,192,83683,1,0,0:0:0:0:
475,192,83876,1,0,0:0:0:0:
402,192,83876,1,0,0:0:0:0:
182,192,84030,1,0,0:0:0:0:
256,192,84030,1,0,0:0:0:0:
36,192,84145,1,0,0:0:0:0:
109,192,84145,1,0,0:0:0:0:
402,192,84376,1,0,0:0:0:0:
475,192,84376,1,0,0:0:0:0:
256,192,84607,1,0,0:0:0:0:
329,192,84607,1,0,0:0:0:0:
402,192,84799,1,0,0:0:0:0:
475,192,84799,1,0,0:0:0:0:
109,192,85068,1,0,0:0:0:0:
182,192,85068,1,0,0:0:0:0:
329,192,85299,1,0,0:0:0:0:
402,192,85299,1,0,0:0:0:0:
109,192,85530,1,0,0:0:0:0:
36,192,85530,1,0,0:0:0:0:
329,192,85722,1,0,0:0:0:0:
256,192,85722,1,0,0:0:0:0:
402,192,85876,1,0,0:0:0:0:
475,192,85876,1,0,0:0:0:0:
109,192,85991,1,0,0:0:0:0:
36,192,85991,1,0,0:0:0:0:
256,192,86183,1,0,0:0:0:0:
329,192,86183,1,0,0:0:0:0:
182,192,86453,1,0,0:0:0:0:
109,192,86453,1,0,0:0:0:0:
402,192,86645,1,0,0:0:0:0:
475,192,86645,1,0,0:0:0:0:
256,192,86799,1,0,0:0:0:0:
182,192,86799,1,0,0:0:0:0:
109,192,86914,1,0,0:0:0:0:
36,192,86914,1,0,0:0:0:0:
475,192,87145,1,0,0:0:0:0:
402,192,87145,1,0,0:0:0:0:
256,192,87376,1,0,0:0:0:0:
329,192,87376,1,0,0:0:0:0:
402,192,87568,1,0,0:0:0:0:
475,192,87568,1,0,0:0:0:0:
109,192,87837,1,0,0:0:0:0:
182,192,87837,1,0,0:0:0:0:
329,192,88068,1,0,0:0:0:0:
402,192,88068,1,0,0:0:0:0:
109,192,88299,1,0,0:0:0:0:
182,192,88299,1,0,0:0:0:0:
329,192,88491,1,0,0:0:0:0:
256,192,88491,1,0,0:0:0:0:
402,192,88645,1,0,0:0:0:0:
475,192,88645,1,0,0:0:0:0:
109,192,88760,1,0,0:0:0:0:
36,192,88760,1,0,0:0:0:0:
256,192,88953,1,0,0:0:0:0:
329,192,88953,1,0,0:0:0:0:
182,192,89222,1,0,0:0:0:0:
109,192,89222,1,0,0:0:0:0:
402,192,89414,1,0,0:0:0:0:
475,192,89414,1,0,0:0:0:0:
256,192,89568,1,0,0:0:0:0:
182,192,89568,1,0,0:0:0:0:
109,192,89683,1,0,0:0:0:0:
36,192,89683,1,0,0:0:0:0:
329,192,89914,1,0,0:0:0:0:
402,192,89914,1,0,0:0:0:0:
182,192,90145,1,0,0:0:0:0:
256,192,90145,1,0,0:0:0:0:
36,192,90337,1,0,0:0:0:0:
109,192,90337,1,0,0:0:0:0:
182,192,90607,1,0,0:0:0:0:
109,192,90607,1,0,0:0:0:0:
36,192,90607,1,0,0:0:0:0:
256,192,90664,1,0,0:0:0:0:
329,192,90664,1,0,0:0:0:0:
36,192,90722,1,0,0:0:0:0:
109,192,90722,1,0,0:0:0:0:
182,192,90780,1,0,0:0:0:0:
256,192,90780,1,0,0:0:0:0:
329,192,90837,1,0,0:0:0:0:
402,192,90837,1,0,0:0:0:0:
475,192,90837,1,0,0:0:0:0:
36,192,90895,1,0,0:0:0:0:
109,192,90895,1,0,0:0:0:0:
182,192,90953,1,0,0:0:0:0:
256,192,90953,1,0,0:0:0:0:
329,192,91010,1,0,0:0:0:0:
402,192,91010,1,0,0:0:0:0:
256,192,91068,1,0,0:0:0:0:
475,192,91068,1,0,0:0:0:0:
182,192,91068,1,0,0:0:0:0:
109,192,91126,1,0,0:0:0:0:
36,192,91126,1,0,0:0:0:0:
329,192,91183,1,0,0:0:0:0:
402,192,91183,1,0,0:0:0:0:
182,192,91241,1,0,0:0:0:0:
256,192,91241,1,0,0:0:0:0:
36,192,91299,1,0,0:0:0:0:
109,192,91299,1,0,0:0:0:0:
475,192,91357,1,0,0:0:0:0:
402,192,91357,1,0,0:0:0:0:
329,192,91414,1,0,0:0:0:0:
256,192,91414,1,0,0:0:0:0:
109,192,91472,1,0,0:0:0:0:
182,192,91472,1,0,0:0:0:0:
256,192,91530,1,0,0:0:0:0:
329,192,91530,1,0,0:0:0:0:
475,192,91530,1,0,0:0:0:0:
36,192,91587,1,0,0:0:0:0:
109,192,91587,1,0,0:0:0:0:
182,192,91645,1,0,0:0:0:0:
256,192,91645,1,0,0:0:0:0:
329,192,91703,1,0,0:0:0:0:
402,192,91703,1,0,0:0:0:0:
182,192,91760,1,0,0:0:0:0:
109,192,91760,1,0,0:0:0:0:
36,192,91760,1,0,0:0:0:0:
475,192,91818,1,0,0:0:0:0:
402,192,91818,1,0,0:0:0:0:
329,192,91876,1,0,0:0:0:0:
256,192,91876,1,0,0:0:0:0:
182,192,91933,1,0,0:0:0:0:
109,192,91933,1,0,0:0:0:0:
36,192,91991,1,0,0:0:0:0:
256,192,91991,1,0,0:0:0:0:
329,192,91991,1,0,0:0:0:0:
402,192,92049,1,0,0:0:0:0:
475,192,92049,1,0,0:0:0:0:
182,192,92107,1,0,0:0:0:0:
109,192,92107,1,0,0:0:0:0:
256,192,92164,1,0,0:0:0:0:
329,192,92164,1,0,0:0:0:0:
402,192,92222,1,0,0:0:0:0:
475,192,92222,1,0,0:0:0:0:
36,192,92222,1,0,0:0:0:0:
109,192,92280,1,0,0:0:0:0:
182,192,92280,1,0,0:0:0:0:
256,192,92337,1,0,0:0:0:0:
329,192,92337,1,0,0:0:0:0:
402,192,92395,1,0,0:0:0:0:
475,192,92395,1,0,0:0:0:0:
256,192,92453,1,0,0:0:0:0:
182,192,92453,1,0,0:0:0:0:
109,192,92453,1,0,0:0:0:0:
36,192,92453,1,0,0:0:0:0:
329,192,92510,1,0,0:0:0:0:
475,192,92510,1,0,0:0:0:0:
256,192,92568,1,0,0:0:0:0:
109,192,92568,1,0,0:0:0:0:
36,192,92568,1,0,0:0:0:0:
182,192,92626,1,0,0:0:0:0:
329,192,92626,1,0,0:0:0:0:
402,192,92683,1,0,0:0:0:0:
475,192,92683,1,0,0:0:0:0:
109,192,92683,1,0,0:0:0:0:
36,192,92683,1,0,0:0:0:0:
256,192,92741,1,0,0:0:0:0:
329,192,92741,1,0,0:0:0:0:
475,192,92799,1,0,0:0:0:0:
182,192,92799,1,0,0:0:0:0:
36,192,92799,1,0,0:0:0:0:
109,192,92857,1,0,0:0:0:0:
256,192,92857,1,0,0:0:0:0:
329,192,92914,1,0,0:0:0:0:
402,192,92914,1,0,0:0:0:0:
475,192,92914,1,0,0:0:0:0:
182,192,92914,1,0,0:0:0:0:
36,192,92972,1,0,0:0:0:0:
109,192,92972,1,0,0:0:0:0:
182,192,93030,1,0,0:0:0:0:
329,192,93030,1,0,0:0:0:0:
256,192,93030,1,0,0:0:0:0:
402,192,93087,1,0,0:0:0:0:
475,192,93087,1,0,0:0:0:0:
109,192,93145,1,0,0:0:0:0:
36,192,93145,1,0,0:0:0:0:
329,192,93145,1,0,0:0:0:0:
256,192,93145,1,0,0:0:0:0:
402,192,93203,1,0,0:0:0:0:
475,192,93203,1,0,0:0:0:0:
182,192,93260,1,0,0:0:0:0:
109,192,93260,1,0,0:0:0:0:
329,192,93260,1,0,0:0:0:0:
36,192,93318,1,0,0:0:0:0:
256,192,93318,1,0,0:0:0:0:
329,192,93376,1,0,0:0:0:0:
402,192,93376,1,0,0:0:0:0:
475,192,93376,1,0,0:0:0:0:
182,192,93376,1,0,0:0:0:0:
109,192,93433,1,0,0:0:0:0:
36,192,93433,1,0,0:0:0:0:
182,192,93491,1,0,0:0:0:0:
329,192,93491,1,0,0:0:0:0:
402,192,93491,1,0,0:0:0:0:
475,192,93549,1,0,0:0:0:0:
256,192,93549,1,0,0:0:0:0:
109,192,93607,1,0,0:0:0:0:
182,192,93607,1,0,0:0:0:0:
36,192,93607,1,0,0:0:0:0:
329,192,93607,1,0,0:0:0:0:
402,192,93664,1,0,0:0:0:0:
475,192,93664,1,0,0:0:0:0:
109,192,93722,1,0,0:0:0:0:
36,192,93722,1,0,0:0:0:0:
256,192,93722,1,0,0:0:0:0:
329,192,93780,1,0,0:0:0:0:
182,192,93780,1,0,0:0:0:0:
475,192,93837,1,0,0:0:0:0:
36,192,93837,1,0,0:0:0:0:
109,192,93837,1,0,0:0:0:0:
402,192,93837,1,0,0:0:0:0:
256,192,93895,1,0,0:0:0:0:
329,192,93895,1,0,0:0:0:0:
402,192,93953,1,0,0:0:0:0:
182,192,93953,1,0,0:0:0:0:
475,192,93953,1,0,0:0:0:0:
109,192,94010,1,0,0:0:0:0:
36,192,94010,1,0,0:0:0:0:
256,192,94068,1,0,0:0:0:0:
329,192,94068,1,0,0:0:0:0:
402,192,94068,1,0,0:0:0:0:
475,192,94068,1,0,0:0:0:0:
182,192,94126,1,0,0:0:0:0:
36,192,94126,1,0,0:0:0:0:
109,192,94183,1,0,0:0:0:0:
256,192,94183,1,0,0:0:0:0:
329,192,94183,1,0,0:0:0:0:
402,192,94241,1,0,0:0:0:0:
475,192,94241,1,0,0:0:0:0:
182,192,94299,1,0,0:0:0:0:
36,192,94299,1,0,0:0:0:0:
109,192,94299,1,0,0:0:0:0:
256,192,94299,1,0,0:0:0:0:
329,192,94357,1,0,0:0:0:0:
475,192,94357,1,0,0:0:0:0:
402,192,94414,1,0,0:0:0:0:
36,192,94414,1,0,0:0:0:0:
109,192,94414,1,0,0:0:0:0:
182,192,94472,1,0,0:0:0:0:
256,192,94472,1,0,0:0:0:0:
329,192,94530,1,0,0:0:0:0:
402,192,94530,1,0,0:0:0:0:
475,192,94530,1,0,0:0:0:0:
36,192,94530,1,0,0:0:0:0:
109,192,94587,1,0,0:0:0:0:
182,192,94587,1,0,0:0:0:0:
256,192,94645,1,0,0:0:0:0:
402,192,94645,1,0,0:0:0:0:
475,192,94645,1,0,0:0:0:0:
329,192,94703,1,0,0:0:0:0:
36,192,94703,1,0,0:0:0:0:
182,192,94760,1,0,0:0:0:0:
109,192,94760,1,0,0:0:0:0:
475,192,94760,1,0,0:0:0:0:
256,192,94760,1,0,0:0:0:0:
329,192,94818,1,0,0:0:0:0:
402,192,94818,1,0,0:0:0:0:
256,192,94876,1,0,0:0:0:0:
475,192,94876,1,0,0:0:0:0:
36,192,94876,1,0,0:0:0:0:
109,192,94933,1,0,0:0:0:0:
182,192,94933,1,0,0:0:0:0:
475,192,94991,1,0,0:0:0:0:
329,192,94991,1,0,0:0:0:0:
402,192,94991,1,0,0:0:0:0:
36,192,94991,1,0,0:0:0:0:
256,192,95049,1,0,0:0:0:0:
182,192,95049,1,0,0:0:0:0:
329,192,95107,1,0,0:0:0:0:
36,192,95107,1,0,0:0:0:0:
402,192,95107,1,0,0:0:0:0:
475,192,95164,1,0,0:0:0:0:
182,192,95164,1,0,0:0:0:0:
36,192,95222,1,0,0:0:0:0:
109,192,95222,1,0,0:0:0:0:
329,192,95222,1,0,0:0:0:0:
402,192,95222,1,0,0:0:0:0:
256,192,95280,1,0,0:0:0:0:
475,192,95280,1,0,0:0:0:0:
182,192,95337,1,0,0:0:0:0:
36,192,95337,1,0,0:0:0:0:
109,192,95337,1,0,0:0:0:0:
256,192,95395,1,0,0:0:0:0:
329,192,95395,1,0,0:0:0:0:
402,192,95453,1,0,0:0:0:0:
475,192,95453,1,0,0:0:0:0:
109,192,95453,1,0,0:0:0:0:
36,192,95453,1,0,0:0:0:0:
182,192,95510,1,0,0:0:0:0:
329,192,95510,1,0,0:0:0:0:
256,192,95568,1,0,0:0:0:0:
402,192,95568,1,0,0:0:0:0:
475,192,95568,1,0,0:0:0:0:
109,192,95626,1,0,0:0:0:0:
36,192,95626,1,0,0:0:0:0:
182,192,95683,1,0,0:0:0:0:
329,192,95683,1,0,0:0:0:0:
402,192,95683,1,0,0:0:0:0:
475,192,95683,1,0,0:0:0:0:
109,192,95741,1,0,0:0:0:0:
36,192,95741,1,0,0:0:0:0:
182,192,95799,1,0,0:0:0:0:
475,192,95799,1,0,0:0:0:0:
402,192,95799,1,0,0:0:0:0:
329,192,95857,1,0,0:0:0:0:
256,192,95857,1,0,0:0:0:0:
109,192,95914,1,0,0:0:0:0:
36,192,95914,1,0,0:0:0:0:
182,192,95914,1,0,0:0:0:0:
402,192,95914,1,0,0:0:0:0:
475,192,95972,1,0,0:0:0:0:
329,192,95972,1,0,0:0:0:0:
36,192,96030,1,0,0:0:0:0:
109,192,96030,1,0,0:0:0:0:
256,192,96030,1,0,0:0:0:0:
329,192,96087,1,0,0:0:0:0:
402,192,96087,1,0,0:0:0:0:
182,192,96145,1,0,0:0:0:0:
256,192,96145,1,0,0:0:0:0:
475,192,96145,1,0,0:0:0:0:
109,192,96145,1,0,0:0:0:0:
36,192,96203,1,0,0:0:0:0:
329,192,96203,1,0,0:0:0:0:
109,192,96260,1,0,0:0:0:0:
475,192,96260,1,0,0:0:0:0:
402,192,96260,1,0,0:0:0:0:
182,192,96318,1,0,0:0:0:0:
256,192,96318,1,0,0:0:0:0:
36,192,96376,1,0,0:0:0:0:
329,192,96376,1,0,0:0:0:0:
109,192,96376,1,0,0:0:0:0:
402,192,96376,1,0,0:0:0:0:
475,192,96433,1,0,0:0:0:0:
182,192,96433,1,0,0:0:0:0:
256,192,96491,1,0,0:0:0:0:
402,192,96491,1,0,0:0:0:0:
329,192,96491,1,0,0:0:0:0:
109,192,96549,1,0,0:0:0:0:
36,192,96549,1,0,0:0:0:0:
256,192,96607,1,0,0:0:0:0:
329,192,96607,1,0,0:0:0:0:
402,192,96607,1,0,0:0:0:0:
475,192,96607,1,0,0:0:0:0:
109,192,96664,1,0,0:0:0:0:
182,192,96664,1,0,0:0:0:0:
329,192,96722,1,0,0:0:0:0:
475,192,96722,1,0,0:0:0:0:
36,192,96722,1,0,0:0:0:0:
256,192,96780,1,0,0:0:0:0:
402,192,96780,1,0,0:0:0:0:
475,192,96837,1,0,0:0:0:0:
109,192,96837,1,0,0:0:0:0:
36,192,96837,1,0,0:0:0:0:
182,192,96837,1,0,0:0:0:0:
256,192,96895,1,0,0:0:0:0:
329,192,96895,1,0,0:0:0:0:
402,192,96953,1,0,0:0:0:0:
475,192,96953,1,0,0:0:0:0:
36,192,96953,1,0,0:0:0:0:
109,192,97010,1,0,0:0:0:0:
182,192,97010,1,0,0:0:0:0:
256,192,97068,1,0,0:0:0:0:
329,192,97068,1,0,0:0:0:0:
36,192,97068,1,0,0:0:0:0:
402,192,97068,1,0,0:0:0:0:
475,192,97126,1,0,0:0:0:0:
109,192,97126,1,0,0:0:0:0:
182,192,97183,1,0,0:0:0:0:
256,192,97183,1,0,0:0:0:0:
402,192,97183,1,0,0:0:0:0:
329,192,97241,1,0,0:0:0:0:
475,192,97241,1,0,0:0:0:0:
182,192,97299,1,0,0:0:0:0:
109,192,97299,1,0,0:0:0:0:
36,192,97299,1,0,0:0:0:0:
256,192,97299,1,0,0:0:0:0:
329,192,97357,1,0,0:0:0:0:
475,192,97357,1,0,0:0:0:0:
256,192,97414,1,0,0:0:0:0:
109,192,97414,1,0,0:0:0:0:
36,192,97414,1,0,0:0:0:0:
182,192,97472,1,0,0:0:0:0:
402,192,97472,1,0,0:0:0:0:
329,192,97530,1,0,0:0:0:0:
256,192,97530,1,0,0:0:0:0:
109,192,97530,1,0,0:0:0:0:
36,192,97530,1,0,0:0:0:0:
402,192,97587,1,0,0:0:0:0:
475,192,97587,1,0,0:0:0:0:
182,192,97645,1,0,0:0:0:0:
329,192,97645,1,0,0:0:0:0:
256,192,97645,1,0,0:0:0:0:
109,192,97703,1,0,0:0:0:0:
36,192,97703,1,0,0:0:0:0:
329,192,97760,1,0,0:0:0:0:
182,192,97760,1,0,0:0:0:0:
402,192,97760,1,0,0:0:0:0:
475,192,97760,1,0,0:0:0:0:
109,192,97818,1,0,0:0:0:0:
256,192,97818,1,0,0:0:0:0:
329,192,97876,1,0,0:0:0:0:
402,192,97876,1,0,0:0:0:0:
36,192,97876,1,0,0:0:0:0:
475,192,97933,1,0,0:0:0:0:
256,192,97933,1,0,0:0:0:0:
182,192,97991,1,0,0:0:0:0:
109,192,97991,1,0,0:0:0:0:
36,192,97991,1,0,0:0:0:0:
402,192,97991,1,0,0:0:0:0:
329,192,98049,1,0,0:0:0:0:
475,192,98049,1,0,0:0:0:0:
256,192,98107,1,0,0:0:0:0:
36,192,98107,1,0,0:0:0:0:
109,192,98107,1,0,0:0:0:0:
182,192,98164,1,0,0:0:0:0:
329,192,98164,1,0,0:0:0:0:
109,192,98222,1,0,0:0:0:0:
36,192,98222,1,0,0:0:0:0:
402,192,98222,1,0,0:0:0:0:
475,192,98222,1,0,0:0:0:0:
256,192,98280,1,0,0:0:0:0:
329,192,98280,1,0,0:0:0:0:
182,192,98337,1,0,0:0:0:0:
475,192,98337,1,0,0:0:0:0:
402,192,98337,1,0,0:0:0:0:
109,192,98395,1,0,0:0:0:0:
36,192,98395,1,0,0:0:0:0:
256,192,98453,1,0,0:0:0:0:
329,192,98453,1,0,0:0:0:0:
402,192,98453,1,0,0:0:0:0:
475,192,98453,1,0,0:0:0:0:
109,192,98510,1,0,0:0:0:0:
36,192,98510,1,0,0:0:0:0:
329,192,98568,1,0,0:0:0:0:
182,192,98568,1,0,0:0:0:0:
402,192,98568,1,0,0:0:0:0:
256,192,98626,1,0,0:0:0:0:
36,192,98626,1,0,0:0:0:0:
109,192,98683,1,0,0:0:0:0:
182,192,98683,1,0,0:0:0:0:
402,192,98683,1,0,0:0:0:0:
475,192,98683,1,0,0:0:0:0:
256,192,98741,1,0,0:0:0:0:
329,192,98741,1,0,0:0:0:0:
36,192,98799,1,0,0:0:0:0:
109,192,98799,1,0,0:0:0:0:
402,192,98799,1,0,0:0:0:0:
475,192,98857,1,0,0:0:0:0:
329,192,98857,1,0,0:0:0:0:
256,192,98914,1,0,0:0:0:0:
182,192,98914,1,0,0:0:0:0:
109,192,98914,1,0,0:0:0:0:
36,192,98914,1,0,0:0:0:0:
329,192,98972,1,0,0:0:0:0:
402,192,98972,1,0,0:0:0:0:
475,192,99030,1,0,0:0:0:0:
182,192,99030,1,0,0:0:0:0:
36,192,99030,1,0,0:0:0:0:
256,192,99087,1,0,0:0:0:0:
329,192,99087,1,0,0:0:0:0:
402,192,99145,1,0,0:0:0:0:
475,192,99145,1,0,0:0:0:0:
109,192,99145,1,0,0:0:0:0:
36,192,99145,1,0,0:0:0:0:
182,192,99203,1,0,0:0:0:0:
329,192,99203,1,0,0:0:0:0:
256,192,99260,1,0,0:0:0:0:
402,192,99260,1,0,0:0:0:0:
475,192,99260,1,0,0:0:0:0:
182,192,99318,1,0,0:0:0:0:
36,192,99318,1,0,0:0:0:0:
109,192,99376,1,0,0:0:0:0:
256,192,99376,1,0,0:0:0:0:
329,192,99376,1,0,0:0:0:0:
402,192,99376,1,0,0:0:0:0:
475,192,99433,1,0,0:0:0:0:
182,192,99433,1,0,0:0:0:0:
36,192,99491,1,0,0:0:0:0:
109,192,99491,1,0,0:0:0:0:
256,192,99491,1,0,0:0:0:0:
329,192,99549,1,0,0:0:0:0:
402,192,99549,1,0,0:0:0:0:
182,192,99607,1,0,0:0:0:0:
109,192,99607,1,0,0:0:0:0:
36,192,99607,1,0,0:0:0:0:
475,192,99607,1,0,0:0:0:0:
256,192,99664,1,0,0:0:0:0:
329,192,99664,1,0,0:0:0:0:
402,192,99722,1,0,0:0:0:0:
475,192,99722,1,0,0:0:0:0:
36,192,99722,1,0,0:0:0:0:
109,192,99780,1,0,0:0:0:0:
182,192,99780,1,0,0:0:0:0:
256,192,99837,1,0,0:0:0:0:
329,192,99837,1,0,0:0:0:0:
402,192,99837,1,0,0:0:0:0:
36,192,99837,1,0,0:0:0:0:
475,192,99895,1,0,0:0:0:0:
109,192,99895,1,0,0:0:0:0:
182,192,99953,1,0,0:0:0:0:
402,192,99953,1,0,0:0:0:0:
329,192,99953,1,0,0:0:0:0:
256,192,100010,1,0,0:0:0:0:
36,192,100010,1,0,0:0:0:0:
109,192,100068,1,0,0:0:0:0:
182,192,100068,1,0,0:0:0:0:
475,192,100068,1,0,0:0:0:0:
402,192,100068,1,0,0:0:0:0:
329,192,100126,1,0,0:0:0:0:
36,192,100126,1,0,0:0:0:0:
256,192,100183,1,0,0:0:0:0:
402,192,100183,1,0,0:0:0:0:
475,192,100183,1,0,0:0:0:0:
182,192,100241,1,0,0:0:0:0:
36,192,100241,1,0,0:0:0:0:
109,192,100299,1,0,0:0:0:0:
256,192,100299,1,0,0:0:0:0:
329,192,100299,1,0,0:0:0:0:
402,192,100299,1,0,0:0:0:0:
475,192,100357,1,0,0:0:0:0:
182,192,100357,1,0,0:0:0:0:
36,192,100414,1,0,0:0:0:0:
109,192,100414,1,0,0:0:0:0:
329,192,100414,1,0,0:0:0:0:
475,192,100472,1,0,0:0:0:0:
402,192,100472,1,0,0:0:0:0:
256,192,100530,1,0,0:0:0:0:
182,192,100530,1,0,0:0:0:0:
36,192,100530,1,0,0:0:0:0:
109,192,100530,1,0,0:0:0:0:
329,192,100587,1,0,0:0:0:0:
402,192,100587,1,0,0:0:0:0:
36,192,100645,1,0,0:0:0:0:
109,192,100645,1,0,0:0:0:0:
256,192,100645,1,0,0:0:0:0:
329,192,100703,1,0,0:0:0:0:
182,192,100703,1,0,0:0:0:0:
402,192,100760,1,0,0:0:0:0:
475,192,100760,1,0,0:0:0:0:
109,192,100760,1,0,0:0:0:0:
36,192,100760,1,0,0:0:0:0:
256,192,100818,1,0,0:0:0:0:
329,192,100818,1,0,0:0:0:0:
182,192,100876,1,0,0:0:0:0:
402,192,100876,1,0,0:0:0:0:
475,192,100876,1,0,0:0:0:0:
109,192,100933,1,0,0:0:0:0:
36,192,100933,1,0,0:0:0:0:
182,192,100991,1,0,0:0:0:0:
256,192,100991,1,0,0:0:0:0:
329,192,100991,1,0,0:0:0:0:
402,192,100991,1,0,0:0:0:0:
475,192,101049,1,0,0:0:0:0:
36,192,101049,1,0,0:0:0:0:
109,192,101107,1,0,0:0:0:0:
182,192,101107,1,0,0:0:0:0:
256,192,101107,1,0,0:0:0:0:
329,192,101164,1,0,0:0:0:0:
475,192,101164,1,0,0:0:0:0:
402,192,101222,1,0,0:0:0:0:
182,192,101222,1,0,0:0:0:0:
109,192,101222,1,0,0:0:0:0:
36,192,101222,1,0,0:0:0:0:
256,192,101280,1,0,0:0:0:0:
329,192,101280,1,0,0:0:0:0:
475,192,101337,1,0,0:0:0:0:
109,192,101337,1,0,0:0:0:0:
36,192,101337,1,0,0:0:0:0:
402,192,101395,1,0,0:0:0:0:
182,192,101395,1,0,0:0:0:0:
109,192,101453,1,0,0:0:0:0:
36,192,101453,1,0,0:0:0:0:
329,192,101453,1,0,0:0:0:0:
256,192,101453,1,0,0:0:0:0:
402,192,101510,1,0,0:0:0:0:
475,192,101510,1,0,0:0:0:0:
182,192,101568,1,0,0:0:0:0:
36,192,101568,1,0,0:0:0:0:
256,192,101568,1,0,0:0:0:0:
329,192,101626,1,0,0:0:0:0:
475,192,101626,1,0,0:0:0:0:
182,192,101683,1,0,0:0:0:0:
109,192,101683,1,0,0:0:0:0:
36,192,101683,1,0,0:0:0:0:
256,192,101683,1,0,0:0:0:0:
402,192,101741,1,0,0:0:0:0:
475,192,101741,1,0,0:0:0:0:
109,192,101799,1,0,0:0:0:0:
36,192,101799,1,0,0:0:0:0:
329,192,101799,1,0,0:0:0:0:
256,192,101857,1,0,0:0:0:0:
182,192,101857,1,0,0:0:0:0:
109,192,101914,1,0,0:0:0:0:
36,192,101914,1,0,0:0:0:0:
402,192,101914,1,0,0:0:0:0:
475,192,101914,1,0,0:0:0:0:
329,192,101972,1,0,0:0:0:0:
182,192,101972,1,0,0:0:0:0:
256,192,102030,1,0,0:0:0:0:
109,192,102030,1,0,0:0:0:0:
36,192,102030,1,0,0:0:0:0:
329,192,102087,1,0,0:0:0:0:
475,192,102087,1,0,0:0:0:0:
402,192,102145,1,0,0:0:0:0:
182,192,102145,1,0,0:0:0:0:
109,192,102145,1,0,0:0:0:0:
36,192,102145,1,0,0:0:0:0:
256,192,102203,1,0,0:0:0:0:
329,192,102203,1,0,0:0:0:0:
109,192,102260,1,0,0:0:0:0:
475,192,102260,1,0,0:0:0:0:
36,192,102260,1,0,0:0:0:0:
329,192,102318,1,0,0:0:0:0:
182,192,102318,1,0,0:0:0:0:
109,192,102376,1,0,0:0:0:0:
36,192,102376,1,0,0:0:0:0:
475,192,102376,1,0,0:0:0:0:
402,192,102376,1,0,0:0:0:0:
256,192,102433,1,0,0:0:0:0:
329,192,102433,1,0,0:0:0:0:
402,192,102491,1,0,0:0:0:0:
182,192,102491,1,0,0:0:0:0:
109,192,102491,1,0,0:0:0:0:
36,192,102549,1,0,0:0:0:0:
475,192,102549,1,0,0:0:0:0:
256,192,102607,1,0,0:0:0:0:
329,192,102607,1,0,0:0:0:0:
402,192,102607,1,0,0:0:0:0:
109,192,102607,1,0,0:0:0:0:
36,192,102664,1,0,0:0:0:0:
182,192,102664,1,0,0:0:0:0:
256,192,102722,1,0,0:0:0:0:
475,192,102722,1,0,0:0:0:0:
329,192,102780,1,0,0:0:0:0:
402,192,102780,1,0,0:0:0:0:
182,192,102837,1,0,0:0:0:0:
36,192,102837,1,0,0:0:0:0:
109,192,102837,1,0,0:0:0:0:
256,192,102837,1,0,0:0:0:0:
329,192,102895,1,0,0:0:0:0:
475,192,102895,1,0,0:0:0:0:
402,192,102953,1,0,0:0:0:0:
182,192,102953,1,0,0:0:0:0:
36,192,102953,1,0,0:0:0:0:
109,192,103010,1,0,0:0:0:0:
256,192,103010,1,0,0:0:0:0:
329,192,103068,1,0,0:0:0:0:
402,192,103068,1,0,0:0:0:0:
475,192,103068,1,0,0:0:0:0:
182,192,103068,1,0,0:0:0:0:
36,192,103126,1,0,0:0:0:0:
109,192,103126,1,0,0:0:0:0:
182,192,103183,1,0,0:0:0:0:
329,192,103183,1,0,0:0:0:0:
402,192,103183,1,0,0:0:0:0:
475,192,103241,1,0,0:0:0:0:
256,192,103241,1,0,0:0:0:0:
182,192,103299,1,0,0:0:0:0:
109,192,103299,1,0,0:0:0:0:
36,192,103299,1,0,0:0:0:0:
329,192,103299,1,0,0:0:0:0:
402,192,103357,1,0,0:0:0:0:
475,192,103357,1,0,0:0:0:0:
256,192,103414,1,0,0:0:0:0:
109,192,103414,1,0,0:0:0:0:
36,192,103414,1,0,0:0:0:0:
329,192,103472,1,0,0:0:0:0:
182,192,103472,1,0,0:0:0:0:
402,192,103530,1,0,0:0:0:0:
109,192,103530,1,0,0:0:0:0:
36,192,103530,1,0,0:0:0:0:
475,192,103530,1,0,0:0:0:0:
256,192,103587,1,0,0:0:0:0:
329,192,103587,1,0,0:0:0:0:
36,192,103645,1,0,0:0:0:0:
402,192,103645,1,0,0:0:0:0:
109,192,103645,1,0,0:0:0:0:
256,192,103703,1,0,0:0:0:0:
182,192,103703,1,0,0:0:0:0:
329,192,103760,1,0,0:0:0:0:
402,192,103760,1,0,0:0:0:0:
475,192,103760,1,0,0:0:0:0:
36,192,103760,1,0,0:0:0:0:
109,192,103818,1,0,0:0:0:0:
256,192,103818,1,0,0:0:0:0:
329,192,103876,1,0,0:0:0:0:
182,192,103876,1,0,0:0:0:0:
402,192,103876,1,0,0:0:0:0:
36,192,103933,1,0,0:0:0:0:
109,192,103933,1,0,0:0:0:0:
256,192,103991,1,0,0:0:0:0:
182,192,103991,1,0,0:0:0:0:
402,192,103991,1,0,0:0:0:0:
329,192,103991,1,0,0:0:0:0:
475,192,104049,1,0,0:0:0:0:
109,192,104049,1,0,0:0:0:0:
36,192,104107,1,0,0:0:0:0:
182,192,104107,1,0,0:0:0:0:
329,192,104107,1,0,0:0:0:0:
256,192,104164,1,0,0:0:0:0:
402,192,104164,1,0,0:0:0:0:
329,192,104222,1,0,0:0:0:0:
475,192,104222,1,0,0:0:0:0:
109,192,104222,1,0,0:0:0:0:
36,192,104222,1,0,0:0:0:0:
182,192,104280,1,0,0:0:0:0:
256,192,104280,1,0,0:0:0:0:
329,192,104337,1,0,0:0:0:0:
109,192,104337,1,0,0:0:0:0:
402,192,104337,1,0,0:0:0:0:
182,192,104395,1,0,0:0:0:0:
36,192,104395,1,0,0:0:0:0:
256,192,104453,1,0,0:0:0:0:
329,192,104453,1,0,0:0:0:0:
475,192,104453,1,0,0:0:0:0:
402,192,104453,1,0,0:0:0:0:
109,192,104510,1,0,0:0:0:0:
36,192,104510,1,0,0:0:0:0:
182,192,104568,1,0,0:0:0:0:
475,192,104568,1,0,0:0:0:0:
329,192,104568,1,0,0:0:0:0:
256,192,104626,1,0,0:0:0:0:
402,192,104626,1,0,0:0:0:0:
329,192,104683,1,0,0:0:0:0:
182,192,104683,1,0,0:0:0:0:
109,192,104683,1,0,0:0:0:0:
36,192,104683,1,0,0:0:0:0:
256,192,104741,1,0,0:0:0:0:
475,192,104741,1,0,0:0:0:0:
402,192,104799,1,0,0:0:0:0:
329,192,104799,1,0,0:0:0:0:
36,192,104799,1,0,0:0:0:0:
109,192,104857,1,0,0:0:0:0:
182,192,104857,1,0,0:0:0:0:
256,192,104914,1,0,0:0:0:0:
329,192,104914,1,0,0:0:0:0:
402,192,104914,1,0,0:0:0:0:
475,192,104914,1,0,0:0:0:0:
36,192,104972,1,0,0:0:0:0:
109,192,104972,1,0,0:0:0:0:
182,192,105030,1,0,0:0:0:0:
329,192,105030,1,0,0:0:0:0:
402,192,105030,1,0,0:0:0:0:
475,192,105087,1,0,0:0:0:0:
256,192,105087,1,0,0:0:0:0:
182,192,105145,1,0,0:0:0:0:
109,192,105145,1,0,0:0:0:0:
36,192,105145,1,0,0:0:0:0:
329,192,105145,1,0,0:0:0:0:
402,192,105203,1,0,0:0:0:0:
475,192,105203,1,0,0:0:0:0:
256,192,105260,1,0,0:0:0:0:
36,192,105260,1,0,0:0:0:0:
109,192,105260,1,0,0:0:0:0:
329,192,105318,1,0,0:0:0:0:
402,192,105318,1,0,0:0:0:0:
36,192,105376,1,0,0:0:0:0:
109,192,105376,1,0,0:0:0:0:
182,192,105376,1,0,0:0:0:0:
256,192,105376,1,0,0:0:0:0:
329,192,105414,1,0,0:0:0:0:
475,192,105453,1,0,0:0:0:0:
182,192,105462,1,0,0:0:0:0:
402,192,105491,1,0,0:0:0:0:
36,192,105491,1,0,0:0:0:0:
256,192,105491,1,0,0:0:0:0:
329,192,105520,1,0,0:0:0:0:
182,192,105530,1,0,0:0:0:0:
256,192,105568,1,0,0:0:0:0:
109,192,105568,1,0,0:0:0:0:
36,192,105607,1,0,0:0:0:0:
109,192,105837,1,0,0:0:0:0:
36,192,105837,1,0,0:0:0:0:
182,192,105876,1,0,0:0:0:0:
475,192,105876,1,0,0:0:0:0:
256,192,105914,1,0,0:0:0:0:
402,192,105914,1,0,0:0:0:0:
329,192,105953,1,0,0:0:0:0:
36,192,105953,1,0,0:0:0:0:
402,192,105982,1,0,0:0:0:0:
109,192,105991,1,0,0:0:0:0:
475,192,106010,1,0,0:0:0:0:
182,192,106030,1,0,0:0:0:0:
329,192,106039,1,0,0:0:0:0:
256,192,106068,1,0,0:0:0:0:
402,192,106068,1,0,0:0:0:0:
109,192,106299,1,0,0:0:0:0:
182,192,106299,1,0,0:0:0:0:
36,192,106299,1,0,0:0:0:0:
475,192,106337,1,0,0:0:0:0:
256,192,106337,1,0,0:0:0:0:
402,192,106376,1,0,0:0:0:0:
182,192,106376,1,0,0:0:0:0:
329,192,106414,1,0,0:0:0:0:
109,192,106414,1,0,0:0:0:0:
256,192,106453,1,0,0:0:0:0:
36,192,106453,1,0,0:0:0:0:
182,192,106491,1,0,0:0:0:0:
329,192,106491,1,0,0:0:0:0:
109,192,106530,1,0,0:0:0:0:
402,192,106530,1,0,0:0:0:0:
182,192,106760,1,0,0:0:0:0:
36,192,106760,1,0,0:0:0:0:
109,192,106760,1,0,0:0:0:0:
475,192,106760,1,0,0:0:0:0:
256,192,106799,1,0,0:0:0:0:
402,192,106799,1,0,0:0:0:0:
329,192,106837,1,0,0:0:0:0:
402,192,106876,1,0,0:0:0:0:
475,192,106876,1,0,0:0:0:0:
182,192,106876,1,0,0:0:0:0:
256,192,106914,1,0,0:0:0:0:
109,192,106914,1,0,0:0:0:0:
329,192,106953,1,0,0:0:0:0:
36,192,106953,1,0,0:0:0:0:
402,192,106991,1,0,0:0:0:0:
182,192,106991,1,0,0:0:0:0:
402,192,107107,1,0,0:0:0:0:
475,192,107107,1,0,0:0:0:0:
109,192,107222,1,0,0:0:0:0:
182,192,107222,1,0,0:0:0:0:
36,192,107222,1,0,0:0:0:0:
256,192,107222,1,0,0:0:0:0:
329,192,107280,1,0,0:0:0:0:
475,192,107280,1,0,0:0:0:0:
256,192,107337,1,0,0:0:0:0:
109,192,107337,1,0,0:0:0:0:
36,192,107337,1,0,0:0:0:0:
182,192,107395,1,0,0:0:0:0:
329,192,107395,1,0,0:0:0:0:
109,192,107453,1,0,0:0:0:0:
36,192,107453,1,0,0:0:0:0:
475,192,107453,1,0,0:0:0:0:
402,192,107453,1,0,0:0:0:0:
256,192,107510,1,0,0:0:0:0:
182,192,107510,1,0,0:0:0:0:
329,192,107568,1,0,0:0:0:0:
475,192,107568,1,0,0:0:0:0:
402,192,107568,1,0,0:0:0:0:
109,192,107626,1,0,0:0:0:0:
36,192,107626,1,0,0:0:0:0:
182,192,107683,1,0,0:0:0:0:
256,192,107683,1,0,0:0:0:0:
329,192,107683,1,0,0:0:0:0:
475,192,107683,1,0,0:0:0:0:
402,192,107741,1,0,0:0:0:0:
36,192,107741,1,0,0:0:0:0:
109,192,107799,1,0,0:0:0:0:
182,192,107799,1,0,0:0:0:0:
329,192,107799,1,0,0:0:0:0:
402,192,107857,1,0,0:0:0:0:
475,192,107857,1,0,0:0:0:0:
256,192,107914,1,0,0:0:0:0:
182,192,107914,1,0,0:0:0:0:
109,192,107914,1,0,0:0:0:0:
36,192,107914,1,0,0:0:0:0:
329,192,107972,1,0,0:0:0:0:
475,192,107972,1,0,0:0:0:0:
36,192,108030,1,0,0:0:0:0:
182,192,108030,1,0,0:0:0:0:
256,192,108030,1,0,0:0:0:0:
329,192,108087,1,0,0:0:0:0:
402,192,108087,1,0,0:0:0:0:
182,192,108145,1,0,0:0:0:0:
109,192,108145,1,0,0:0:0:0:
36,192,108145,1,0,0:0:0:0:
475,192,108145,1,0,0:0:0:0:
256,192,108203,1,0,0:0:0:0:
402,192,108203,1,0,0:0:0:0:
329,192,108260,1,0,0:0:0:0:
182,192,108260,1,0,0:0:0:0:
36,192,108260,1,0,0:0:0:0:
109,192,108318,1,0,0:0:0:0:
256,192,108318,1,0,0:0:0:0:
329,192,108376,1,0,0:0:0:0:
402,192,108376,1,0,0:0:0:0:
475,192,108376,1,0,0:0:0:0:
182,192,108376,1,0,0:0:0:0:
109,192,108433,1,0,0:0:0:0:
36,192,108433,1,0,0:0:0:0:
182,192,108491,1,0,0:0:0:0:
329,192,108491,1,0,0:0:0:0:
475,192,108491,1,0,0:0:0:0:
402,192,108549,1,0,0:0:0:0:
256,192,108549,1,0,0:0:0:0:
182,192,108607,1,0,0:0:0:0:
109,192,108607,1,0,0:0:0:0:
36,192,108607,1,0,0:0:0:0:
329,192,108607,1,0,0:0:0:0:
402,192,108664,1,0,0:0:0:0:
475,192,108664,1,0,0:0:0:0:
329,192,108722,1,0,0:0:0:0:
36,192,108722,1,0,0:0:0:0:
109,192,108722,1,0,0:0:0:0:
256,192,108780,1,0,0:0:0:0:
182,192,108780,1,0,0:0:0:0:
402,192,108837,1,0,0:0:0:0:
109,192,108837,1,0,0:0:0:0:
475,192,108837,1,0,0:0:0:0:
36,192,108837,1,0,0:0:0:0:
182,192,108895,1,0,0:0:0:0:
329,192,108895,1,0,0:0:0:0:
256,192,108953,1,0,0:0:0:0:
402,192,108953,1,0,0:0:0:0:
475,192,108953,1,0,0:0:0:0:
109,192,109010,1,0,0:0:0:0:
36,192,109010,1,0,0:0:0:0:
182,192,109068,1,0,0:0:0:0:
256,192,109068,1,0,0:0:0:0:
329,192,109068,1,0,0:0:0:0:
475,192,109068,1,0,0:0:0:0:
402,192,109126,1,0,0:0:0:0:
36,192,109126,1,0,0:0:0:0:
475,192,109183,1,0,0:0:0:0:
182,192,109183,1,0,0:0:0:0:
109,192,109183,1,0,0:0:0:0:
329,192,109241,1,0,0:0:0:0:
402,192,109241,1,0,0:0:0:0:
256,192,109299,1,0,0:0:0:0:
182,192,109299,1,0,0:0:0:0:
36,192,109299,1,0,0:0:0:0:
109,192,109299,1,0,0:0:0:0:
329,192,109357,1,0,0:0:0:0:
475,192,109357,1,0,0:0:0:0:
109,192,109414,1,0,0:0:0:0:
36,192,109414,1,0,0:0:0:0:
256,192,109414,1,0,0:0:0:0:
329,192,109472,1,0,0:0:0:0:
182,192,109472,1,0,0:0:0:0:
109,192,109530,1,0,0:0:0:0:
402,192,109530,1,0,0:0:0:0:
475,192,109530,1,0,0:0:0:0:
36,192,109530,1,0,0:0:0:0:
182,192,109587,1,0,0:0:0:0:
329,192,109587,1,0,0:0:0:0:
36,192,109645,1,0,0:0:0:0:
109,192,109645,1,0,0:0:0:0:
256,192,109645,1,0,0:0:0:0:
329,192,109703,1,0,0:0:0:0:
475,192,109703,1,0,0:0:0:0:
402,192,109760,1,0,0:0:0:0:
109,192,109760,1,0,0:0:0:0:
182,192,109760,1,0,0:0:0:0:
36,192,109760,1,0,0:0:0:0:
329,192,109818,1,0,0:0:0:0:
256,192,109818,1,0,0:0:0:0:
36,192,109876,1,0,0:0:0:0:
475,192,109876,1,0,0:0:0:0:
402,192,109876,1,0,0:0:0:0:
182,192,109933,1,0,0:0:0:0:
109,192,109933,1,0,0:0:0:0:
475,192,109991,1,0,0:0:0:0:
256,192,109991,1,0,0:0:0:0:
329,192,109991,1,0,0:0:0:0:
402,192,109991,1,0,0:0:0:0:
36,192,110049,1,0,0:0:0:0:
109,192,110049,1,0,0:0:0:0:
182,192,110107,1,0,0:0:0:0:
329,192,110107,1,0,0:0:0:0:
402,192,110164,1,0,0:0:0:0:
475,192,110164,1,0,0:0:0:0:
36,192,110222,1,0,0:0:0:0:
256,192,110222,1,0,0:0:0:0:
182,192,110222,1,0,0:0:0:0:
109,192,110222,1,0,0:0:0:0:
329,192,110280,1,0,0:0:0:0:
475,192,110280,1,0,0:0:0:0:
402,192,110337,1,0,0:0:0:0:
256,192,110337,1,0,0:0:0:0:
182,192,110337,1,0,0:0:0:0:
109,192,110395,1,0,0:0:0:0:
36,192,110395,1,0,0:0:0:0:
256,192,110453,1,0,0:0:0:0:
329,192,110453,1,0,0:0:0:0:
402,192,110453,1,0,0:0:0:0:
475,192,110453,1,0,0:0:0:0:
109,192,110510,1,0,0:0:0:0:
36,192,110510,1,0,0:0:0:0:
256,192,110568,1,0,0:0:0:0:
475,192,110568,1,0,0:0:0:0:
182,192,110568,1,0,0:0:0:0:
329,192,110626,1,0,0:0:0:0:
402,192,110626,1,0,0:0:0:0:
109,192,110683,1,0,0:0:0:0:
36,192,110683,1,0,0:0:0:0:
475,192,110683,1,0,0:0:0:0:
182,192,110683,1,0,0:0:0:0:
256,192,110741,1,0,0:0:0:0:
402,192,110741,1,0,0:0:0:0:
329,192,110799,1,0,0:0:0:0:
475,192,110799,1,0,0:0:0:0:
182,192,110799,1,0,0:0:0:0:
109,192,110857,1,0,0:0:0:0:
36,192,110857,1,0,0:0:0:0:
256,192,110914,1,0,0:0:0:0:
329,192,110914,1,0,0:0:0:0:
182,192,110914,1,0,0:0:0:0:
475,192,110914,1,0,0:0:0:0:
109,192,110972,1,0,0:0:0:0:
36,192,110972,1,0,0:0:0:0:
182,192,111030,1,0,0:0:0:0:
475,192,111030,1,0,0:0:0:0:
402,192,111030,1,0,0:0:0:0:
256,192,111087,1,0,0:0:0:0:
329,192,111087,1,0,0:0:0:0:
109,192,111145,1,0,0:0:0:0:
36,192,111145,1,0,0:0:0:0:
402,192,111145,1,0,0:0:0:0:
475,192,111145,1,0,0:0:0:0:
182,192,111203,1,0,0:0:0:0:
256,192,111203,1,0,0:0:0:0:
329,192,111260,1,0,0:0:0:0:
475,192,111260,1,0,0:0:0:0:
36,192,111260,1,0,0:0:0:0:
109,192,111318,1,0,0:0:0:0:
182,192,111318,1,0,0:0:0:0:
256,192,111376,1,0,0:0:0:0:
329,192,111376,1,0,0:0:0:0:
475,192,111376,1,0,0:0:0:0:
402,192,111376,1,0,0:0:0:0:
109,192,111433,1,0,0:0:0:0:
36,192,111433,1,0,0:0:0:0:
182,192,111491,1,0,0:0:0:0:
402,192,111491,1,0,0:0:0:0:
475,192,111491,1,0,0:0:0:0:
256,192,111549,1,0,0:0:0:0:
329,192,111549,1,0,0:0:0:0:
109,192,111607,1,0,0:0:0:0:
36,192,111607,1,0,0:0:0:0:
402,192,111607,1,0,0:0:0:0:
475,192,111607,1,0,0:0:0:0:
182,192,111664,1,0,0:0:0:0:
329,192,111664,1,0,0:0:0:0:
256,192,111722,1,0,0:0:0:0:
109,192,111722,1,0,0:0:0:0:
36,192,111722,1,0,0:0:0:0:
402,192,111780,1,0,0:0:0:0:
475,192,111780,1,0,0:0:0:0:
329,192,111837,1,0,0:0:0:0:
182,192,111837,1,0,0:0:0:0:
109,192,111837,1,0,0:0:0:0:
36,192,111837,1,0,0:0:0:0:
256,192,111895,1,0,0:0:0:0:
402,192,111895,1,0,0:0:0:0:
36,192,111953,1,0,0:0:0:0:
182,192,111953,1,0,0:0:0:0:
475,192,111953,1,0,0:0:0:0:
109,192,112010,1,0,0:0:0:0:
256,192,112010,1,0,0:0:0:0:
329,192,112068,1,0,0:0:0:0:
402,192,112068,1,0,0:0:0:0:
475,192,112068,1,0,0:0:0:0:
182,192,112068,1,0,0:0:0:0:
36,192,112126,1,0,0:0:0:0:
109,192,112126,1,0,0:0:0:0:
256,192,112183,1,0,0:0:0:0:
402,192,112183,1,0,0:0:0:0:
475,192,112183,1,0,0:0:0:0:
182,192,112241,1,0,0:0:0:0:
109,192,112241,1,0,0:0:0:0:
36,192,112299,1,0,0:0:0:0:
256,192,112299,1,0,0:0:0:0:
329,192,112299,1,0,0:0:0:0:
402,192,112299,1,0,0:0:0:0:
475,192,112357,1,0,0:0:0:0:
182,192,112357,1,0,0:0:0:0:
109,192,112414,1,0,0:0:0:0:
36,192,112414,1,0,0:0:0:0:
256,192,112414,1,0,0:0:0:0:
329,192,112472,1,0,0:0:0:0:
402,192,112472,1,0,0:0:0:0:
475,192,112530,1,0,0:0:0:0:
256,192,112530,1,0,0:0:0:0:
182,192,112530,1,0,0:0:0:0:
109,192,112530,1,0,0:0:0:0:
36,192,112587,1,0,0:0:0:0:
329,192,112587,1,0,0:0:0:0:
402,192,112645,1,0,0:0:0:0:
475,192,112645,1,0,0:0:0:0:
109,192,112645,1,0,0:0:0:0:
256,192,112703,1,0,0:0:0:0:
182,192,112703,1,0,0:0:0:0:
329,192,112760,1,0,0:0:0:0:
402,192,112760,1,0,0:0:0:0:
475,192,112760,1,0,0:0:0:0:
109,192,112760,1,0,0:0:0:0:
36,192,112818,1,0,0:0:0:0:
182,192,112818,1,0,0:0:0:0:
256,192,112876,1,0,0:0:0:0:
329,192,112876,1,0,0:0:0:0:
475,192,112876,1,0,0:0:0:0:
182,192,112933,1,0,0:0:0:0:
109,192,112933,1,0,0:0:0:0:
36,192,112991,1,0,0:0:0:0:
256,192,112991,1,0,0:0:0:0:
329,192,112991,1,0,0:0:0:0:
402,192,112991,1,0,0:0:0:0:
475,192,113049,1,0,0:0:0:0:
109,192,113049,1,0,0:0:0:0:
182,192,113107,1,0,0:0:0:0:
329,192,113107,1,0,0:0:0:0:
402,192,113107,1,0,0:0:0:0:
475,192,113164,1,0,0:0:0:0:
256,192,113164,1,0,0:0:0:0:
182,192,113222,1,0,0:0:0:0:
36,192,113222,1,0,0:0:0:0:
109,192,113222,1,0,0:0:0:0:
329,192,113222,1,0,0:0:0:0:
475,192,113280,1,0,0:0:0:0:
402,192,113280,1,0,0:0:0:0:
182,192,113337,1,0,0:0:0:0:
36,192,113337,1,0,0:0:0:0:
256,192,113337,1,0,0:0:0:0:
402,192,113395,1,0,0:0:0:0:
475,192,113395,1,0,0:0:0:0:
182,192,113453,1,0,0:0:0:0:
36,192,113453,1,0,0:0:0:0:
109,192,113453,1,0,0:0:0:0:
256,192,113453,1,0,0:0:0:0:
329,192,113510,1,0,0:0:0:0:
402,192,113510,1,0,0:0:0:0:
475,192,113568,1,0,0:0:0:0:
256,192,113568,1,0,0:0:0:0:
36,192,113568,1,0,0:0:0:0:
182,192,113626,1,0,0:0:0:0:
109,192,113626,1,0,0:0:0:0:
402,192,113683,1,0,0:0:0:0:
475,192,113683,1,0,0:0:0:0:
329,192,113683,1,0,0:0:0:0:
256,192,113683,1,0,0:0:0:0:
36,192,113799,1,0,0:0:0:0:
475,192,113799,1,0,0:0:0:0:
109,192,113799,1,0,0:0:0:0:
402,192,113799,1,0,0:0:0:0:
256,192,113914,1,0,0:0:0:0:
182,192,113914,1,0,0:0:0:0:
109,192,113914,1,0,0:0:0:0:
36,192,113914,1,0,0:0:0:0:
182,192,114030,1,0,0:0:0:0:
109,192,114030,1,0,0:0:0:0:
329,192,114030,1,0,0:0:0:0:
402,192,114030,1,0,0:0:0:0:
256,192,114145,1,0,0:0:0:0:
329,192,114145,1,0,0:0:0:0:
402,192,114145,1,0,0:0:0:0:
475,192,114145,1,0,0:0:0:0:
182,192,114260,1,0,0:0:0:0:
256,192,114260,1,0,0:0:0:0:
109,192,114260,1,0,0:0:0:0:
36,192,114260,1,0,0:0:0:0:
109,192,114376,1,0,0:0:0:0:
475,192,114376,1,0,0:0:0:0:
402,192,114376,1,0,0:0:0:0:
182,192,114376,1,0,0:0:0:0:
256,192,114491,1,0,0:0:0:0:
329,192,114491,1,0,0:0:0:0:
402,192,114491,1,0,0:0:0:0:
475,192,114491,1,0,0:0:0:0:
256,192,114607,1,0,0:0:0:0:
109,192,114607,1,0,0:0:0:0:
36,192,114607,1,0,0:0:0:0:
182,192,114607,1,0,0:0:0:0:
329,192,114664,1,0,0:0:0:0:
475,192,114664,1,0,0:0:0:0:
402,192,114722,1,0,0:0:0:0:
109,192,114722,1,0,0:0:0:0:
36,192,114722,1,0,0:0:0:0:
182,192,114780,1,0,0:0:0:0:
256,192,114780,1,0,0:0:0:0:
402,192,114837,1,0,0:0:0:0:
475,192,114837,1,0,0:0:0:0:
109,192,114837,1,0,0:0:0:0:
36,192,114837,1,0,0:0:0:0:
256,192,114895,1,0,0:0:0:0:
329,192,114895,1,0,0:0:0:0:
402,192,114953,1,0,0:0:0:0:
182,192,114953,1,0,0:0:0:0:
475,192,114953,1,0,0:0:0:0:
109,192,115010,1,0,0:0:0:0:
36,192,115010,1,0,0:0:0:0:
256,192,115068,1,0,0:0:0:0:
329,192,115068,1,0,0:0:0:0:
402,192,115068,1,0,0:0:0:0:
475,192,115068,1,0,0:0:0:0:
182,192,115126,1,0,0:0:0:0:
36,192,115126,1,0,0:0:0:0:
109,192,115183,1,0,0:0:0:0:
256,192,115183,1,0,0:0:0:0:
329,192,115183,1,0,0:0:0:0:
402,192,115241,1,0,0:0:0:0:
475,192,115241,1,0,0:0:0:0:
182,192,115299,1,0,0:0:0:0:
109,192,115299,1,0,0:0:0:0:
36,192,115299,1,0,0:0:0:0:
256,192,115299,1,0,0:0:0:0:
329,192,115357,1,0,0:0:0:0:
475,192,115357,1,0,0:0:0:0:
109,192,115414,1,0,0:0:0:0:
36,192,115414,1,0,0:0:0:0:
256,192,115414,1,0,0:0:0:0:
182,192,115472,1,0,0:0:0:0:
329,192,115472,1,0,0:0:0:0:
402,192,115530,1,0,0:0:0:0:
475,192,115530,1,0,0:0:0:0:
109,192,115530,1,0,0:0:0:0:
36,192,115530,1,0,0:0:0:0:
182,192,115587,1,0,0:0:0:0:
329,192,115587,1,0,0:0:0:0:
402,192,115645,1,0,0:0:0:0:
475,192,115645,1,0,0:0:0:0:
256,192,115645,1,0,0:0:0:0:
109,192,115703,1,0,0:0:0:0:
36,192,115703,1,0,0:0:0:0:
402,192,115760,1,0,0:0:0:0:
475,192,115760,1,0,0:0:0:0:
329,192,115760,1,0,0:0:0:0:
256,192,115760,1,0,0:0:0:0:
182,192,115818,1,0,0:0:0:0:
36,192,115818,1,0,0:0:0:0:
329,192,115876,1,0,0:0:0:0:
475,192,115876,1,0,0:0:0:0:
109,192,115876,1,0,0:0:0:0:
256,192,115933,1,0,0:0:0:0:
402,192,115933,1,0,0:0:0:0:
182,192,115991,1,0,0:0:0:0:
109,192,115991,1,0,0:0:0:0:
36,192,115991,1,0,0:0:0:0:
329,192,115991,1,0,0:0:0:0:
402,192,116049,1,0,0:0:0:0:
475,192,116049,1,0,0:0:0:0:
256,192,116107,1,0,0:0:0:0:
36,192,116107,1,0,0:0:0:0:
109,192,116107,1,0,0:0:0:0:
329,192,116164,1,0,0:0:0:0:
402,192,116164,1,0,0:0:0:0:
475,192,116222,1,0,0:0:0:0:
182,192,116222,1,0,0:0:0:0:
109,192,116222,1,0,0:0:0:0:
36,192,116222,1,0,0:0:0:0:
256,192,116280,1,0,0:0:0:0:
402,192,116280,1,0,0:0:0:0:
329,192,116337,1,0,0:0:0:0:
182,192,116337,1,0,0:0:0:0:
475,192,116337,1,0,0:0:0:0:
36,192,116395,1,0,0:0:0:0:
109,192,116395,1,0,0:0:0:0:
256,192,116453,1,0,0:0:0:0:
329,192,116453,1,0,0:0:0:0:
402,192,116453,1,0,0:0:0:0:
475,192,116453,1,0,0:0:0:0:
182,192,116510,1,0,0:0:0:0:
109,192,116510,1,0,0:0:0:0:
36,192,116568,1,0,0:0:0:0:
256,192,116568,1,0,0:0:0:0:
329,192,116568,1,0,0:0:0:0:
402,192,116626,1,0,0:0:0:0:
475,192,116626,1,0,0:0:0:0:
109,192,116683,1,0,0:0:0:0:
36,192,116683,1,0,0:0:0:0:
182,192,116683,1,0,0:0:0:0:
256,192,116683,1,0,0:0:0:0:
329,192,116741,1,0,0:0:0:0:
475,192,116741,1,0,0:0:0:0:
402,192,116799,1,0,0:0:0:0:
109,192,116799,1,0,0:0:0:0:
36,192,116799,1,0,0:0:0:0:
182,192,116857,1,0,0:0:0:0:
256,192,116857,1,0,0:0:0:0:
329,192,116914,1,0,0:0:0:0:
402,192,116914,1,0,0:0:0:0:
475,192,116914,1,0,0:0:0:0:
36,192,116914,1,0,0:0:0:0:
109,192,116972,1,0,0:0:0:0:
182,192,116972,1,0,0:0:0:0:
256,192,117030,1,0,0:0:0:0:
329,192,117030,1,0,0:0:0:0:
475,192,117030,1,0,0:0:0:0:
109,192,117087,1,0,0:0:0:0:
182,192,117087,1,0,0:0:0:0:
36,192,117145,1,0,0:0:0:0:
475,192,117145,1,0,0:0:0:0:
402,192,117145,1,0,0:0:0:0:
329,192,117145,1,0,0:0:0:0:
256,192,117203,1,0,0:0:0:0:
182,192,117203,1,0,0:0:0:0:
109,192,117260,1,0,0:0:0:0:
36,192,117260,1,0,0:0:0:0:
475,192,117260,1,0,0:0:0:0:
182,192,117318,1,0,0:0:0:0:
329,192,117318,1,0,0:0:0:0:
109,192,117376,1,0,0:0:0:0:
36,192,117376,1,0,0:0:0:0:
402,192,117376,1,0,0:0:0:0:
475,192,117376,1,0,0:0:0:0:
256,192,117433,1,0,0:0:0:0:
329,192,117433,1,0,0:0:0:0:
36,192,117491,1,0,0:0:0:0:
402,192,117491,1,0,0:0:0:0:
109,192,117491,1,0,0:0:0:0:
182,192,117549,1,0,0:0:0:0:
256,192,117549,1,0,0:0:0:0:
329,192,117607,1,0,0:0:0:0:
402,192,117607,1,0,0:0:0:0:
475,192,117607,1,0,0:0:0:0:
109,192,117607,1,0,0:0:0:0:
36,192,117664,1,0,0:0:0:0:
182,192,117664,1,0,0:0:0:0:
256,192,117722,1,0,0:0:0:0:
329,192,117722,1,0,0:0:0:0:
475,192,117722,1,0,0:0:0:0:
109,192,117780,1,0,0:0:0:0:
36,192,117780,1,0,0:0:0:0:
182,192,117837,1,0,0:0:0:0:
256,192,117837,1,0,0:0:0:0:
329,192,117837,1,0,0:0:0:0:
402,192,117837,1,0,0:0:0:0:
475,192,117895,1,0,0:0:0:0:
109,192,117895,1,0,0:0:0:0:
36,192,117953,1,0,0:0:0:0:
182,192,117953,1,0,0:0:0:0:
329,192,117953,1,0,0:0:0:0:
402,192,118010,1,0,0:0:0:0:
475,192,118010,1,0,0:0:0:0:
256,192,118068,1,0,0:0:0:0:
109,192,118068,1,0,0:0:0:0:
36,192,118068,1,0,0:0:0:0:
329,192,118068,1,0,0:0:0:0:
402,192,118126,1,0,0:0:0:0:
475,192,118126,1,0,0:0:0:0:
182,192,118183,1,0,0:0:0:0:
36,192,118183,1,0,0:0:0:0:
256,192,118183,1,0,0:0:0:0:
329,192,118241,1,0,0:0:0:0:
402,192,118241,1,0,0:0:0:0:
256,192,118299,1,0,0:0:0:0:
182,192,118299,1,0,0:0:0:0:
109,192,118299,1,0,0:0:0:0:
36,192,118299,1,0,0:0:0:0:
329,192,118357,1,0,0:0:0:0:
475,192,118357,1,0,0:0:0:0:
402,192,118414,1,0,0:0:0:0:
256,192,118414,1,0,0:0:0:0:
182,192,118472,1,0,0:0:0:0:
36,192,118472,1,0,0:0:0:0:
109,192,118530,1,0,0:0:0:0:
256,192,118530,1,0,0:0:0:0:
329,192,118530,1,0,0:0:0:0:
402,192,118530,1,0,0:0:0:0:
475,192,118587,1,0,0:0:0:0:
182,192,118587,1,0,0:0:0:0:
109,192,118645,1,0,0:0:0:0:
36,192,118645,1,0,0:0:0:0:
256,192,118703,1,0,0:0:0:0:
402,192,118703,1,0,0:0:0:0:
329,192,118760,1,0,0:0:0:0:
475,192,118760,1,0,0:0:0:0:
182,192,118760,1,0,0:0:0:0:
109,192,118760,1,0,0:0:0:0:
36,192,118818,1,0,0:0:0:0:
256,192,118818,1,0,0:0:0:0:
329,192,118876,1,0,0:0:0:0:
402,192,118876,1,0,0:0:0:0:
109,192,118933,1,0,0:0:0:0:
36,192,118933,1,0,0:0:0:0:
182,192,118991,1,0,0:0:0:0:
256,192,118991,1,0,0:0:0:0:
329,192,118991,1,0,0:0:0:0:
475,192,118991,1,0,0:0:0:0:
402,192,119049,1,0,0:0:0:0:
109,192,119049,1,0,0:0:0:0:
36,192,119107,1,0,0:0:0:0:
182,192,119107,1,0,0:0:0:0:
256,192,119164,1,0,0:0:0:0:
329,192,119164,1,0,0:0:0:0:
109,192,119222,1,0,0:0:0:0:
36,192,119222,1,0,0:0:0:0:
402,192,119222,1,0,0:0:0:0:
475,192,119222,1,0,0:0:0:0:
182,192,119280,1,0,0:0:0:0:
329,192,119280,1,0,0:0:0:0:
256,192,119337,1,0,0:0:0:0:
109,192,119337,1,0,0:0:0:0:
36,192,119395,1,0,0:0:0:0:
182,192,119395,1,0,0:0:0:0:
256,192,119453,1,0,0:0:0:0:
329,192,119453,1,0,0:0:0:0:
402,192,119453,1,0,0:0:0:0:
475,192,119453,1,0,0:0:0:0:
182,192,119510,1,0,0:0:0:0:
109,192,119510,1,0,0:0:0:0:
256,192,119568,1,0,0:0:0:0:
402,192,119568,1,0,0:0:0:0:
329,192,119626,1,0,0:0:0:0:
475,192,119626,1,0,0:0:0:0:
256,192,119683,1,0,0:0:0:0:
182,192,119683,1,0,0:0:0:0:
109,192,119683,1,0,0:0:0:0:
36,192,119683,1,0,0:0:0:0:
329,192,119741,1,0,0:0:0:0:
475,192,119741,1,0,0:0:0:0:
182,192,119799,1,0,0:0:0:0:
36,192,119799,1,0,0:0:0:0:
109,192,119857,1,0,0:0:0:0:
256,192,119857,1,0,0:0:0:0:
329,192,119914,1,0,0:0:0:0:
36,192,119914,1,0,0:0:0:0:
402,192,119914,1,0,0:0:0:0:
475,192,119914,1,0,0:0:0:0:
182,192,119972,1,0,0:0:0:0:
256,192,119972,1,0,0:0:0:0:
329,192,120030,1,0,0:0:0:0:
475,192,120030,1,0,0:0:0:0:
109,192,120087,1,0,0:0:0:0:
36,192,120087,1,0,0:0:0:0:
256,192,120145,1,0,0:0:0:0:
329,192,120145,1,0,0:0:0:0:
402,192,120145,1,0,0:0:0:0:
475,192,120145,1,0,0:0:0:0:
109,192,120203,1,0,0:0:0:0:
182,192,120203,1,0,0:0:0:0:
256,192,120260,1,0,0:0:0:0:
329,192,120318,1,0,0:0:0:0:
475,192,120376,1,0,0:0:0:0:
36,192,120376,1,0,0:0:0:0:
109,192,120376,1,0,0:0:0:0:
402,192,120376,1,0,0:0:0:0:
182,192,120433,1,0,0:0:0:0:
256,192,120433,1,0,0:0:0:0:
329,192,120491,1,0,0:0:0:0:
402,192,120549,1,0,0:0:0:0:
109,192,120607,1,0,0:0:0:0:
36,192,120607,1,0,0:0:0:0:
182,192,120607,1,0,0:0:0:0:
256,192,120607,1,0,0:0:0:0:
475,192,120664,1,0,0:0:0:0:
329,192,120664,1,0,0:0:0:0:
109,192,120722,1,0,0:0:0:0:
182,192,120780,1,0,0:0:0:0:
329,192,120837,1,0,0:0:0:0:
402,192,120837,1,0,0:0:0:0:
475,192,120837,1,0,0:0:0:0:
256,192,120837,1,0,0:0:0:0:
36,192,120895,1,0,0:0:0:0:
109,192,120895,1,0,0:0:0:0:
182,192,120953,1,0,0:0:0:0:
256,192,121010,1,0,0:0:0:0:
402,192,121068,1,0,0:0:0:0:
109,192,121068,1,0,0:0:0:0:
36,192,121068,1,0,0:0:0:0:
329,192,121068,1,0,0:0:0:0:
475,192,121126,1,0,0:0:0:0:
256,192,121126,1,0,0:0:0:0:
182,192,121183,1,0,0:0:0:0:
109,192,121241,1,0,0:0:0:0:
256,192,121299,1,0,0:0:0:0:
36,192,121299,1,0,0:0:0:0:
329,192,121299,1,0,0:0:0:0:
402,192,121299,1,0,0:0:0:0:
182,192,121414,1,0,0:0:0:0:
109,192,121414,1,0,0:0:0:0:
329,192,121414,1,0,0:0:0:0:
402,192,121414,1,0,0:0:0:0:
109,192,121530,1,0,0:0:0:0:
36,192,121530,1,0,0:0:0:0:
182,192,121530,1,0,0:0:0:0:
256,192,121645,1,0,0:0:0:0:
329,192,121645,1,0,0:0:0:0:
402,192,121645,1,0,0:0:0:0:
475,192,121645,1,0,0:0:0:0:
182,192,121760,1,0,0:0:0:0:
109,192,121760,1,0,0:0:0:0:
36,192,121760,1,0,0:0:0:0:
182,192,121876,1,0,0:0:0:0:
256,192,121876,1,0,0:0:0:0:
329,192,121876,1,0,0:0:0:0:
402,192,121876,1,0,0:0:0:0:
256,192,121991,1,0,0:0:0:0:
109,192,121991,1,0,0:0:0:0:
36,192,121991,1,0,0:0:0:0:
182,192,121991,1,0,0:0:0:0:
475,192,122222,1,0,0:0:0:0:
256,192,122453,1,0,0:0:0:0:
182,192,122683,1,0,0:0:0:0:
36,192,122914,1,0,0:0:0:0:
329,192,123145,1,0,0:0:0:0:
475,192,123376,1,0,0:0:0:0:
256,192,123607,1,0,0:0:0:0:
109,192,123837,1,0,0:0:0:0:
402,192,124068,1,0,0:0:0:0:
182,192,124299,1,0,0:0:0:0:
475,192,124530,1,0,0:0:0:0:
329,192,124760,1,0,0:0:0:0:
182,192,124991,1,0,0:0:0:0:
36,192,125222,1,0,0:0:0:0:
329,192,125453,1,0,0:0:0:0:
475,192,125683,1,0,0:0:0:0:
402,192,125689,1,0,0:0:0:0:
329,192,125695,1,0,0:0:0:0:
109,192,125914,1,0,0:0:0:0:
256,192,126145,1,0,0:0:0:0:
329,192,126376,1,0,0:0:0:0:
402,192,126380,1,0,0:0:0:0:
475,192,126385,1,0,0:0:0:0:
109,192,126607,1,0,0:0:0:0:
256,192,126837,1,0,0:0:0:0:
329,192,127068,1,0,0:0:0:0:
475,192,127299,1,0,0:0:0:0:
182,192,127530,1,0,0:0:0:0:
109,192,127760,1,0,0:0:0:0:
402,192,127991,1,0,0:0:0:0:
475,192,128222,1,0,0:0:0:0:
182,192,128453,1,0,0:0:0:0:
36,192,128683,1,0,0:0:0:0:
182,192,128914,1,0,0:0:0:0:
329,192,129145,1,0,0:0:0:0:
256,192,129376,1,0,0:0:0:0:
182,192,129382,1,0,0:0:0:0:
109,192,129387,1,0,0:0:0:0:
402,192,129607,1,0,0:0:0:0:
329,192,129837,1,0,0:0:0:0:
182,192,130068,1,0,0:0:0:0:
36,192,130299,1,0,0:0:0:0:
256,192,130530,1,0,0:0:0:0:
329,192,130760,1,0,0:0:0:0:
402,192,130991,1,0,0:0:0:0:
182,192,131222,1,0,0:0:0:0:
256,192,131453,1,0,0:0:0:0:
36,192,131683,1,0,0:0:0:0:
182,192,131914,1,0,0:0:0:0:
329,192,132145,1,0,0:0:0:0:
402,192,132376,1,0,0:0:0:0:
329,192,132607,1,0,0:0:0:0:
182,192,132837,1,0,0:0:0:0:
36,192,133068,1,0,0:0:0:0:
182,192,133299,1,0,0:0:0:0:
402,192,133530,1,0,0:0:0:0:
256,192,133760,1,0,0:0:0:0:
109,192,133991,1,0,0:0:0:0:
36,192,134222,1,0,0:0:0:0:
256,192,134453,1,0,0:0:0:0:
402,192,134683,1,0,0:0:0:0:
109,192,134914,1,0,0:0:0:0:
402,192,135145,1,0,0:0:0:0:
475,192,135376,1,0,0:0:0:0:
256,192,135607,1,0,0:0:0:0:
36,192,135837,1,0,0:0:0:0:
109,192,135841,1,0,0:0:0:0:
182,192,135847,1,0,0:0:0:0:
256,192,135853,1,0,0:0:0:0:
329,192,136068,1,0,0:0:0:0:
475,192,136299,1,0,0:0:0:0:
256,192,136530,1,0,0:0:0:0:
182,192,136760,1,0,0:0:0:0:
109,192,136767,1,0,0:0:0:0:
36,192,136771,1,0,0:0:0:0:
256,192,136991,1,0,0:0:0:0:
329,192,137222,1,0,0:0:0:0:
402,192,137453,1,0,0:0:0:0:
182,192,137683,1,0,0:0:0:0:
109,192,137914,1,0,0:0:0:0:
36,192,138145,1,0,0:0:0:0:
256,192,138376,1,0,0:0:0:0:
329,192,138607,1,0,0:0:0:0:
475,192,138837,1,0,0:0:0:0:
256,192,139068,1,0,0:0:0:0:
36,192,139299,1,0,0:0:0:0:
109,192,139530,1,0,0:0:0:0:
329,192,139760,1,0,0:0:0:0:
402,192,139991,1,0,0:0:0:0:
475,192,140222,1,0,0:0:0:0:
402,192,140226,1,0,0:0:0:0:
329,192,140229,1,0,0:0:0:0:
109,192,140453,1,0,0:0:0:0:
182,192,140683,1,0,0:0:0:0:
329,192,140914,1,0,0:0:0:0:
402,192,141145,1,0,0:0:0:0:
475,192,141376,1,0,0:0:0:0:
182,192,141607,1,0,0:0:0:0:
182,192,141837,1,0,0:0:0:0:
36,192,142068,1,0,0:0:0:0:
256,192,142299,1,0,0:0:0:0:
329,192,142530,1,0,0:0:0:0:
402,192,142760,1,0,0:0:0:0:
475,192,142991,1,0,0:0:0:0:
182,192,143222,1,0,0:0:0:0:
256,192,143453,1,0,0:0:0:0:
329,192,143683,1,0,0:0:0:0:
475,192,143914,1,0,0:0:0:0:
402,192,144145,1,0,0:0:0:0:
256,192,144376,1,0,0:0:0:0:
182,192,144607,1,0,0:0:0:0:
109,192,144837,1,0,0:0:0:0:
36,192,145068,1,0,0:0:0:0:
256,192,145299,1,0,0:0:0:0:
329,192,145530,1,0,0:0:0:0:
475,192,145760,1,0,0:0:0:0:
329,192,145991,1,0,0:0:0:0:
256,192,146337,1,0,0:0:0:0:
182,192,146683,1,0,0:0:0:0:
329,192,147030,1,0,0:0:0:0:
109,192,147376,1,0,0:0:0:0:
256,192,147491,1,0,0:0:0:0:
329,192,147498,1,0,0:0:0:0:
402,192,147503,1,0,0:0:0:0:
109,192,147837,1,0,0:0:0:0:
256,192,148299,1,0,0:0:0:0:
256,192,148876,1,0,0:0:0:0:
329,192,148991,1,0,0:0:0:0:
109,192,149453,1,0,0:0:0:0:
36,192,157991,5,0,0:0:0:0:
109,192,157991,1,0,0:0:0:0:
182,192,157991,1,0,0:0:0:0:
329,192,157991,1,0,0:0:0:0:
402,192,157991,1,0,0:0:0:0:
475,192,157991,1,0,0:0:0:0:
256,192,158107,1,0,0:0:0:0:
182,192,158107,1,0,0:0:0:0:
329,192,158107,1,0,0:0:0:0:
475,192,158107,1,0,0:0:0:0:
109,192,158107,1,0,0:0:0:0:
109,192,158222,1,0,0:0:0:0:
36,192,158222,1,0,0:0:0:0:
182,192,158222,1,0,0:0:0:0:
329,192,158222,1,0,0:0:0:0:
256,192,158222,1,0,0:0:0:0:
402,192,158222,1,0,0:0:0:0:
36,192,158337,1,0,0:0:0:0:
256,192,158337,1,0,0:0:0:0:
329,192,158337,1,0,0:0:0:0:
402,192,158337,1,0,0:0:0:0:
475,192,158337,1,0,0:0:0:0:
182,192,158453,1,0,0:0:0:0:
109,192,158453,1,0,0:0:0:0:
36,192,158453,1,0,0:0:0:0:
256,192,158453,1,0,0:0:0:0:
329,192,158453,1,0,0:0:0:0:
475,192,158453,1,0,0:0:0:0:
475,192,158568,1,0,0:0:0:0:
182,192,158568,1,0,0:0:0:0:
109,192,158568,1,0,0:0:0:0:
36,192,158568,1,0,0:0:0:0:
402,192,158568,1,0,0:0:0:0:
256,192,158683,1,0,0:0:0:0:
182,192,158683,1,0,0:0:0:0:
475,192,158683,1,0,0:0:0:0:
109,192,158683,1,0,0:0:0:0:
329,192,158683,1,0,0:0:0:0:
402,192,158683,1,0,0:0:0:0:
182,192,158799,1,0,0:0:0:0:
36,192,158799,1,0,0:0:0:0:
256,192,158799,1,0,0:0:0:0:
329,192,158799,1,0,0:0:0:0:
402,192,158799,1,0,0:0:0:0:
182,192,158914,1,0,0:0:0:0:
109,192,158914,1,0,0:0:0:0:
36,192,158914,1,0,0:0:0:0:
329,192,158914,1,0,0:0:0:0:
402,192,158914,1,0,0:0:0:0:
475,192,158914,1,0,0:0:0:0:
256,192,159030,1,0,0:0:0:0:
182,192,159030,1,0,0:0:0:0:
109,192,159030,1,0,0:0:0:0:
36,192,159030,1,0,0:0:0:0:
402,192,159030,1,0,0:0:0:0:
329,192,159145,1,0,0:0:0:0:
475,192,159145,1,0,0:0:0:0:
256,192,159145,1,0,0:0:0:0:
182,192,159145,1,0,0:0:0:0:
109,192,159145,1,0,0:0:0:0:
36,192,159145,1,0,0:0:0:0:
109,192,159260,1,0,0:0:0:0:
256,192,159260,1,0,0:0:0:0:
329,192,159260,1,0,0:0:0:0:
402,192,159260,1,0,0:0:0:0:
475,192,159260,1,0,0:0:0:0:
329,192,159376,1,0,0:0:0:0:
36,192,159376,1,0,0:0:0:0:
402,192,159376,1,0,0:0:0:0:
475,192,159376,1,0,0:0:0:0:
109,192,159414,1,0,0:0:0:0:
182,192,159453,1,0,0:0:0:0:
256,192,159491,1,0,0:0:0:0:
329,192,159491,1,0,0:0:0:0:
402,192,159491,1,0,0:0:0:0:
475,192,159491,1,0,0:0:0:0:
182,192,159607,1,0,0:0:0:0:
109,192,159607,1,0,0:0:0:0:
36,192,159607,1,0,0:0:0:0:
329,192,159607,1,0,0:0:0:0:
402,192,159607,1,0,0:0:0:0:
475,192,159607,1,0,0:0:0:0:
182,192,159722,1,0,0:0:0:0:
109,192,159722,1,0,0:0:0:0:
36,192,159722,1,0,0:0:0:0:
475,192,159722,1,0,0:0:0:0:
329,192,159722,1,0,0:0:0:0:
256,192,159837,1,0,0:0:0:0:
182,192,159837,1,0,0:0:0:0:
109,192,159837,1,0,0:0:0:0:
329,192,159837,1,0,0:0:0:0:
402,192,159837,1,0,0:0:0:0:
475,192,159837,1,0,0:0:0:0:
182,192,159953,1,0,0:0:0:0:
109,192,159953,1,0,0:0:0:0:
36,192,159953,1,0,0:0:0:0:
402,192,159953,1,0,0:0:0:0:
329,192,159953,1,0,0:0:0:0:
256,192,160068,1,0,0:0:0:0:
182,192,160068,1,0,0:0:0:0:
36,192,160068,1,0,0:0:0:0:
329,192,160068,1,0,0:0:0:0:
109,192,160068,1,0,0:0:0:0:
475,192,160068,1,0,0:0:0:0:
329,192,160183,1,0,0:0:0:0:
402,192,160183,1,0,0:0:0:0:
475,192,160183,1,0,0:0:0:0:
109,192,160183,1,0,0:0:0:0:
36,192,160183,1,0,0:0:0:0:
182,192,160299,1,0,0:0:0:0:
109,192,160299,1,0,0:0:0:0:
329,192,160299,1,0,0:0:0:0:
256,192,160299,1,0,0:0:0:0:
402,192,160299,1,0,0:0:0:0:
475,192,160299,1,0,0:0:0:0:
36,192,160414,1,0,0:0:0:0:
256,192,160414,1,0,0:0:0:0:
182,192,160414,1,0,0:0:0:0:
402,192,160414,1,0,0:0:0:0:
475,192,160414,1,0,0:0:0:0:
182,192,160530,1,0,0:0:0:0:
109,192,160530,1,0,0:0:0:0:
36,192,160530,1,0,0:0:0:0:
402,192,160530,1,0,0:0:0:0:
329,192,160530,1,0,0:0:0:0:
256,192,160530,1,0,0:0:0:0:
402,192,160645,1,0,0:0:0:0:
329,192,160645,1,0,0:0:0:0:
109,192,160645,1,0,0:0:0:0:
36,192,160645,1,0,0:0:0:0:
475,192,160645,1,0,0:0:0:0:
36,192,160760,5,0,0:0:0:0:
329,192,160760,1,0,0:0:0:0:
109,192,160760,1,0,0:0:0:0:
182,192,160760,1,0,0:0:0:0:
402,192,160760,1,0,0:0:0:0:
475,192,160760,1,0,0:0:0:0:
256,192,160876,1,0,0:0:0:0:
182,192,160876,1,0,0:0:0:0:
329,192,160876,1,0,0:0:0:0:
475,192,160876,1,0,0:0:0:0:
109,192,160876,1,0,0:0:0:0:
109,192,160991,1,0,0:0:0:0:
36,192,160991,1,0,0:0:0:0:
182,192,160991,1,0,0:0:0:0:
329,192,160991,1,0,0:0:0:0:
256,192,160991,1,0,0:0:0:0:
402,192,160991,1,0,0:0:0:0:
36,192,161107,1,0,0:0:0:0:
256,192,161107,1,0,0:0:0:0:
329,192,161107,1,0,0:0:0:0:
402,192,161107,1,0,0:0:0:0:
475,192,161107,1,0,0:0:0:0:
182,192,161222,1,0,0:0:0:0:
109,192,161222,1,0,0:0:0:0:
475,192,161222,1,0,0:0:0:0:
36,192,161222,1,0,0:0:0:0:
402,192,161260,1,0,0:0:0:0:
329,192,161299,1,0,0:0:0:0:
182,192,161337,1,0,0:0:0:0:
109,192,161337,1,0,0:0:0:0:
36,192,161337,1,0,0:0:0:0:
256,192,161337,1,0,0:0:0:0:
256,192,161453,1,0,0:0:0:0:
182,192,161453,1,0,0:0:0:0:
475,192,161453,1,0,0:0:0:0:
109,192,161453,1,0,0:0:0:0:
329,192,161453,1,0,0:0:0:0:
402,192,161453,1,0,0:0:0:0:
182,192,161568,1,0,0:0:0:0:
36,192,161568,1,0,0:0:0:0:
256,192,161568,1,0,0:0:0:0:
329,192,161568,1,0,0:0:0:0:
402,192,161568,1,0,0:0:0:0:
182,192,161683,1,0,0:0:0:0:
109,192,161683,1,0,0:0:0:0:
36,192,161683,1,0,0:0:0:0:
329,192,161683,1,0,0:0:0:0:
402,192,161683,1,0,0:0:0:0:
475,192,161683,1,0,0:0:0:0:
256,192,161799,1,0,0:0:0:0:
182,192,161799,1,0,0:0:0:0:
109,192,161799,1,0,0:0:0:0:
36,192,161799,1,0,0:0:0:0:
402,192,161799,1,0,0:0:0:0:
329,192,161914,1,0,0:0:0:0:
475,192,161914,1,0,0:0:0:0:
256,192,161914,1,0,0:0:0:0:
182,192,161914,1,0,0:0:0:0:
109,192,161914,1,0,0:0:0:0:
36,192,161914,1,0,0:0:0:0:
109,192,162030,1,0,0:0:0:0:
256,192,162030,1,0,0:0:0:0:
329,192,162030,1,0,0:0:0:0:
402,192,162030,1,0,0:0:0:0:
475,192,162030,1,0,0:0:0:0:
329,192,162145,1,0,0:0:0:0:
256,192,162145,1,0,0:0:0:0:
402,192,162145,1,0,0:0:0:0:
475,192,162145,1,0,0:0:0:0:
109,192,162145,1,0,0:0:0:0:
36,192,162145,1,0,0:0:0:0:
256,192,162260,1,0,0:0:0:0:
182,192,162260,1,0,0:0:0:0:
402,192,162260,1,0,0:0:0:0:
329,192,162260,1,0,0:0:0:0:
36,192,162260,1,0,0:0:0:0:
182,192,162376,1,0,0:0:0:0:
109,192,162376,1,0,0:0:0:0:
36,192,162376,1,0,0:0:0:0:
329,192,162376,1,0,0:0:0:0:
402,192,162376,1,0,0:0:0:0:
475,192,162376,1,0,0:0:0:0:
182,192,162491,1,0,0:0:0:0:
109,192,162491,1,0,0:0:0:0:
36,192,162491,1,0,0:0:0:0:
475,192,162491,1,0,0:0:0:0:
329,192,162491,1,0,0:0:0:0:
256,192,162607,1,0,0:0:0:0:
182,192,162607,1,0,0:0:0:0:
109,192,162607,1,0,0:0:0:0:
329,192,162607,1,0,0:0:0:0:
402,192,162607,1,0,0:0:0:0:
475,192,162607,1,0,0:0:0:0:
182,192,162722,1,0,0:0:0:0:
109,192,162722,1,0,0:0:0:0:
36,192,162722,1,0,0:0:0:0:
402,192,162722,1,0,0:0:0:0:
329,192,162722,1,0,0:0:0:0:
256,192,162837,1,0,0:0:0:0:
182,192,162837,1,0,0:0:0:0:
36,192,162837,1,0,0:0:0:0:
329,192,162837,1,0,0:0:0:0:
109,192,162837,1,0,0:0:0:0:
475,192,162837,1,0,0:0:0:0:
329,192,162953,1,0,0:0:0:0:
402,192,162953,1,0,0:0:0:0:
475,192,162953,1,0,0:0:0:0:
109,192,162953,1,0,0:0:0:0:
36,192,162953,1,0,0:0:0:0:
329,192,163068,1,0,0:0:0:0:
402,192,163068,1,0,0:0:0:0:
475,192,163068,1,0,0:0:0:0:
36,192,163068,1,0,0:0:0:0:
109,192,163107,1,0,0:0:0:0:
182,192,163145,1,0,0:0:0:0:
402,192,163183,1,0,0:0:0:0:
475,192,163183,1,0,0:0:0:0:
256,192,163183,1,0,0:0:0:0:
329,192,163183,1,0,0:0:0:0:
182,192,163299,1,0,0:0:0:0:
109,192,163299,1,0,0:0:0:0:
36,192,163299,1,0,0:0:0:0:
402,192,163299,1,0,0:0:0:0:
329,192,163299,1,0,0:0:0:0:
256,192,163299,1,0,0:0:0:0:
402,192,163414,1,0,0:0:0:0:
329,192,163414,1,0,0:0:0:0:
109,192,163414,1,0,0:0:0:0:
36,192,163414,1,0,0:0:0:0:
475,192,163414,1,0,0:0:0:0:
36,192,163530,5,0,0:0:0:0:
402,192,163530,1,0,0:0:0:0:
475,192,163530,1,0,0:0:0:0:
329,192,163530,1,0,0:0:0:0:
109,192,163530,1,0,0:0:0:0:
182,192,163530,1,0,0:0:0:0:
475,192,163645,1,0,0:0:0:0:
109,192,163645,1,0,0:0:0:0:
329,192,163645,1,0,0:0:0:0:
256,192,163645,1,0,0:0:0:0:
182,192,163645,1,0,0:0:0:0:
329,192,163760,1,0,0:0:0:0:
256,192,163760,1,0,0:0:0:0:
402,192,163760,1,0,0:0:0:0:
109,192,163760,1,0,0:0:0:0:
36,192,163760,1,0,0:0:0:0:
182,192,163760,1,0,0:0:0:0:
402,192,163876,1,0,0:0:0:0:
475,192,163876,1,0,0:0:0:0:
329,192,163876,1,0,0:0:0:0:
36,192,163876,1,0,0:0:0:0:
256,192,163876,1,0,0:0:0:0:
256,192,163991,1,0,0:0:0:0:
329,192,163991,1,0,0:0:0:0:
475,192,163991,1,0,0:0:0:0:
182,192,163991,1,0,0:0:0:0:
109,192,163991,1,0,0:0:0:0:
36,192,163991,1,0,0:0:0:0:
36,192,164107,1,0,0:0:0:0:
402,192,164107,1,0,0:0:0:0:
109,192,164107,1,0,0:0:0:0:
475,192,164107,1,0,0:0:0:0:
182,192,164107,1,0,0:0:0:0:
109,192,164222,5,0,0:0:0:0:
329,192,164222,1,0,0:0:0:0:
402,192,164222,1,0,0:0:0:0:
256,192,164222,1,0,0:0:0:0:
182,192,164222,1,0,0:0:0:0:
475,192,164222,1,0,0:0:0:0:
329,192,164337,1,0,0:0:0:0:
402,192,164337,1,0,0:0:0:0:
256,192,164337,1,0,0:0:0:0:
182,192,164337,1,0,0:0:0:0:
36,192,164337,1,0,0:0:0:0:
182,192,164453,1,0,0:0:0:0:
109,192,164453,1,0,0:0:0:0:
36,192,164453,1,0,0:0:0:0:
256,192,164491,1,0,0:0:0:0:
329,192,164530,1,0,0:0:0:0:
36,192,164568,1,0,0:0:0:0:
402,192,164568,1,0,0:0:0:0:
109,192,164568,1,0,0:0:0:0:
475,192,164568,1,0,0:0:0:0:
182,192,164683,1,0,0:0:0:0:
109,192,164683,1,0,0:0:0:0:
36,192,164683,1,0,0:0:0:0:
329,192,164683,1,0,0:0:0:0:
475,192,164683,1,0,0:0:0:0:
256,192,164683,1,0,0:0:0:0:
402,192,164799,1,0,0:0:0:0:
475,192,164799,1,0,0:0:0:0:
329,192,164799,1,0,0:0:0:0:
109,192,164799,1,0,0:0:0:0:
256,192,164799,1,0,0:0:0:0:
402,192,164914,1,0,0:0:0:0:
36,192,164914,1,0,0:0:0:0:
329,192,164914,1,0,0:0:0:0:
256,192,164914,1,0,0:0:0:0:
182,192,164914,1,0,0:0:0:0:
475,192,164914,1,0,0:0:0:0:
36,192,165030,1,0,0:0:0:0:
109,192,165030,1,0,0:0:0:0:
256,192,165030,1,0,0:0:0:0:
329,192,165030,1,0,0:0:0:0:
329,192,165145,1,0,0:0:0:0:
402,192,165145,1,0,0:0:0:0:
475,192,165145,1,0,0:0:0:0:
182,192,165145,1,0,0:0:0:0:
109,192,165145,1,0,0:0:0:0:
36,192,165145,1,0,0:0:0:0:
475,192,165260,1,0,0:0:0:0:
329,192,165260,1,0,0:0:0:0:
36,192,165260,1,0,0:0:0:0:
182,192,165260,1,0,0:0:0:0:
109,192,165260,1,0,0:0:0:0:
36,192,165376,1,0,0:0:0:0:
329,192,165405,1,0,0:0:0:0:
109,192,165414,1,0,0:0:0:0:
402,192,165433,1,0,0:0:0:0:
475,192,165491,1,0,0:0:0:0:
256,192,165491,1,0,0:0:0:0:
36,192,165520,1,0,0:0:0:0:
182,192,165530,1,0,0:0:0:0:
329,192,165568,1,0,0:0:0:0:
402,192,165607,1,0,0:0:0:0:
109,192,165607,1,0,0:0:0:0:
182,192,165645,1,0,0:0:0:0:
475,192,165683,1,0,0:0:0:0:
36,192,165683,1,0,0:0:0:0:
256,192,165722,1,0,0:0:0:0:
329,192,165760,1,0,0:0:0:0:
109,192,165760,1,0,0:0:0:0:
36,192,165799,1,0,0:0:0:0:
475,192,165799,1,0,0:0:0:0:
256,192,165837,1,0,0:0:0:0:
182,192,165876,1,0,0:0:0:0:
36,192,165914,1,0,0:0:0:0:
329,192,165914,1,0,0:0:0:0:
109,192,165953,1,0,0:0:0:0:
402,192,165953,1,0,0:0:0:0:
256,192,165991,1,0,0:0:0:0:
329,192,166030,1,0,0:0:0:0:
475,192,166068,1,0,0:0:0:0:
109,192,166068,1,0,0:0:0:0:
36,192,166107,1,0,0:0:0:0:
256,192,166145,1,0,0:0:0:0:
329,192,166183,1,0,0:0:0:0:
475,192,166183,1,0,0:0:0:0:
182,192,166222,1,0,0:0:0:0:
109,192,166260,1,0,0:0:0:0:
402,192,166299,1,0,0:0:0:0:
256,192,166299,1,0,0:0:0:0:
475,192,166337,1,0,0:0:0:0:
36,192,166337,1,0,0:0:0:0:
109,192,166376,1,0,0:0:0:0:
256,192,166414,1,0,0:0:0:0:
402,192,166453,1,0,0:0:0:0:
182,192,166453,1,0,0:0:0:0:
475,192,166491,1,0,0:0:0:0:
36,192,166491,1,0,0:0:0:0:
109,192,166530,1,0,0:0:0:0:
256,192,166568,1,0,0:0:0:0:
402,192,166607,1,0,0:0:0:0:
36,192,166607,1,0,0:0:0:0:
475,192,166645,1,0,0:0:0:0:
182,192,166645,1,0,0:0:0:0:
256,192,166683,1,0,0:0:0:0:
109,192,166722,1,0,0:0:0:0:
36,192,166760,1,0,0:0:0:0:
329,192,166760,1,0,0:0:0:0:
475,192,166799,1,0,0:0:0:0:
256,192,166837,1,0,0:0:0:0:
36,192,166876,1,0,0:0:0:0:
329,192,166914,1,0,0:0:0:0:
109,192,166914,1,0,0:0:0:0:
402,192,166953,1,0,0:0:0:0:
182,192,166991,1,0,0:0:0:0:
109,192,167030,1,0,0:0:0:0:
402,192,167030,1,0,0:0:0:0:
475,192,167068,1,0,0:0:0:0:
256,192,167068,1,0,0:0:0:0:
109,192,167145,1,0,0:0:0:0:
36,192,167183,1,0,0:0:0:0:
256,192,167183,1,0,0:0:0:0:
329,192,167222,1,0,0:0:0:0:
475,192,167222,1,0,0:0:0:0:
182,192,167260,1,0,0:0:0:0:
36,192,167299,1,0,0:0:0:0:
256,192,167337,1,0,0:0:0:0:
475,192,167337,1,0,0:0:0:0:
329,192,167376,1,0,0:0:0:0:
36,192,167414,1,0,0:0:0:0:
182,192,167453,1,0,0:0:0:0:
402,192,167453,1,0,0:0:0:0:
256,192,167530,1,0,0:0:0:0:
475,192,167530,1,0,0:0:0:0:
109,192,167568,1,0,0:0:0:0:
329,192,167607,1,0,0:0:0:0:
402,192,167645,1,0,0:0:0:0:
182,192,167645,1,0,0:0:0:0:
36,192,167683,1,0,0:0:0:0:
256,192,167683,1,0,0:0:0:0:
475,192,167722,1,0,0:0:0:0:
402,192,167760,1,0,0:0:0:0:
182,192,167760,1,0,0:0:0:0:
36,192,167799,1,0,0:0:0:0:
109,192,167837,1,0,0:0:0:0:
256,192,167876,1,0,0:0:0:0:
402,192,167914,1,0,0:0:0:0:
36,192,167914,1,0,0:0:0:0:
182,192,167953,1,0,0:0:0:0:
109,192,167991,1,0,0:0:0:0:
475,192,167991,1,0,0:0:0:0:
402,192,168030,1,0,0:0:0:0:
256,192,168030,1,0,0:0:0:0:
109,192,168107,1,0,0:0:0:0:
329,192,168183,1,0,0:0:0:0:
475,192,168183,1,0,0:0:0:0:
109,192,168222,1,0,0:0:0:0:
36,192,168260,1,0,0:0:0:0:
256,192,168260,1,0,0:0:0:0:
329,192,168299,1,0,0:0:0:0:
475,192,168299,1,0,0:0:0:0:
182,192,168337,1,0,0:0:0:0:
36,192,168376,1,0,0:0:0:0:
402,192,168376,1,0,0:0:0:0:
256,192,168414,1,0,0:0:0:0:
329,192,168453,1,0,0:0:0:0:
109,192,168491,1,0,0:0:0:0:
36,192,168530,1,0,0:0:0:0:
256,192,168530,1,0,0:0:0:0:
402,192,168568,1,0,0:0:0:0:
475,192,168607,1,0,0:0:0:0:
182,192,168607,1,0,0:0:0:0:
109,192,168645,1,0,0:0:0:0:
256,192,168683,1,0,0:0:0:0:
402,192,168683,1,0,0:0:0:0:
109,192,168760,1,0,0:0:0:0:
182,192,168799,1,0,0:0:0:0:
402,192,168837,1,0,0:0:0:0:
475,192,168837,1,0,0:0:0:0:
256,192,168876,1,0,0:0:0:0:
36,192,168914,1,0,0:0:0:0:
109,192,168953,1,0,0:0:0:0:
402,192,168953,1,0,0:0:0:0:
475,192,168991,1,0,0:0:0:0:
329,192,168991,1,0,0:0:0:0:
182,192,169030,1,0,0:0:0:0:
109,192,169068,1,0,0:0:0:0:
329,192,169107,1,0,0:0:0:0:
475,192,169145,1,0,0:0:0:0:
182,192,169183,1,0,0:0:0:0:
36,192,169222,1,0,0:0:0:0:
402,192,169222,1,0,0:0:0:0:
256,192,169260,1,0,0:0:0:0:
329,192,169299,1,0,0:0:0:0:
475,192,169299,1,0,0:0:0:0:
109,192,169337,1,0,0:0:0:0:
36,192,169376,1,0,0:0:0:0:
182,192,169414,1,0,0:0:0:0:
256,192,169453,1,0,0:0:0:0:
402,192,169491,1,0,0:0:0:0:
475,192,169530,1,0,0:0:0:0:
109,192,169530,1,0,0:0:0:0:
36,192,169568,1,0,0:0:0:0:
256,192,169568,1,0,0:0:0:0:
329,192,169607,1,0,0:0:0:0:
475,192,169645,1,0,0:0:0:0:
182,192,169645,1,0,0:0:0:0:
402,192,169683,1,0,0:0:0:0:
36,192,169722,1,0,0:0:0:0:
256,192,169722,1,0,0:0:0:0:
109,192,169760,1,0,0:0:0:0:
329,192,169760,1,0,0:0:0:0:
475,192,169799,1,0,0:0:0:0:
182,192,169837,1,0,0:0:0:0:
36,192,169876,1,0,0:0:0:0:
329,192,169914,1,0,0:0:0:0:
402,192,169953,1,0,0:0:0:0:
182,192,169953,1,0,0:0:0:0:
36,192,169991,1,0,0:0:0:0:
109,192,170030,1,0,0:0:0:0:
329,192,170030,1,0,0:0:0:0:
475,192,170068,1,0,0:0:0:0:
402,192,170107,1,0,0:0:0:0:
256,192,170107,1,0,0:0:0:0:
182,192,170145,1,0,0:0:0:0:
36,192,170183,1,0,0:0:0:0:
329,192,170183,1,0,0:0:0:0:
109,192,170222,1,0,0:0:0:0:
475,192,170260,1,0,0:0:0:0:
402,192,170299,1,0,0:0:0:0:
256,192,170299,1,0,0:0:0:0:
182,192,170337,1,0,0:0:0:0:
36,192,170337,1,0,0:0:0:0:
329,192,170376,1,0,0:0:0:0:
475,192,170414,1,0,0:0:0:0:
109,192,170414,1,0,0:0:0:0:
402,192,170453,1,0,0:0:0:0:
256,192,170453,1,0,0:0:0:0:
182,192,170491,1,0,0:0:0:0:
36,192,170530,1,0,0:0:0:0:
109,192,170568,1,0,0:0:0:0:
329,192,170568,1,0,0:0:0:0:
475,192,170607,1,0,0:0:0:0:
256,192,170607,1,0,0:0:0:0:
402,192,170645,1,0,0:0:0:0:
36,192,170645,1,0,0:0:0:0:
182,192,170683,1,0,0:0:0:0:
256,192,170722,1,0,0:0:0:0:
475,192,170760,1,0,0:0:0:0:
109,192,170760,1,0,0:0:0:0:
402,192,170799,1,0,0:0:0:0:
36,192,170799,1,0,0:0:0:0:
182,192,170837,1,0,0:0:0:0:
256,192,170876,1,0,0:0:0:0:
475,192,170876,1,0,0:0:0:0:
36,192,170914,1,0,0:0:0:0:
329,192,170953,1,0,0:0:0:0:
182,192,170991,1,0,0:0:0:0:
402,192,170991,1,0,0:0:0:0:
109,192,171030,1,0,0:0:0:0:
475,192,171068,1,0,0:0:0:0:
329,192,171068,1,0,0:0:0:0:
182,192,171107,1,0,0:0:0:0:
36,192,171145,1,0,0:0:0:0:
256,192,171183,1,0,0:0:0:0:
329,192,171222,1,0,0:0:0:0:
475,192,171222,1,0,0:0:0:0:
182,192,171260,1,0,0:0:0:0:
109,192,171299,1,0,0:0:0:0:
329,192,171337,1,0,0:0:0:0:
475,192,171376,1,0,0:0:0:0:
36,192,171376,1,0,0:0:0:0:
109,192,171414,1,0,0:0:0:0:
256,192,171453,1,0,0:0:0:0:
402,192,171453,1,0,0:0:0:0:
329,192,171491,1,0,0:0:0:0:
475,192,171530,1,0,0:0:0:0:
109,192,171530,1,0,0:0:0:0:
36,192,171568,1,0,0:0:0:0:
256,192,171607,1,0,0:0:0:0:
402,192,171607,1,0,0:0:0:0:
109,192,171645,1,0,0:0:0:0:
329,192,171683,1,0,0:0:0:0:
402,192,171722,1,0,0:0:0:0:
182,192,171722,1,0,0:0:0:0:
36,192,171760,1,0,0:0:0:0:
256,192,171799,1,0,0:0:0:0:
475,192,171799,1,0,0:0:0:0:
329,192,171837,1,0,0:0:0:0:
109,192,171837,1,0,0:0:0:0:
182,192,171876,1,0,0:0:0:0:
36,192,171914,1,0,0:0:0:0:
475,192,171914,1,0,0:0:0:0:
329,192,171953,1,0,0:0:0:0:
402,192,171991,1,0,0:0:0:0:
182,192,171991,1,0,0:0:0:0:
36,192,172030,1,0,0:0:0:0:
109,192,172068,1,0,0:0:0:0:
256,192,172068,1,0,0:0:0:0:
402,192,172107,1,0,0:0:0:0:
329,192,172145,1,0,0:0:0:0:
182,192,172183,1,0,0:0:0:0:
109,192,172222,1,0,0:0:0:0:
402,192,172222,1,0,0:0:0:0:
329,192,172260,1,0,0:0:0:0:
36,192,172299,1,0,0:0:0:0:
109,192,172337,1,0,0:0:0:0:
402,192,172337,1,0,0:0:0:0:
182,192,172376,1,0,0:0:0:0:
475,192,172376,1,0,0:0:0:0:
329,192,172414,1,0,0:0:0:0:
256,192,172453,1,0,0:0:0:0:
109,192,172453,1,0,0:0:0:0:
36,192,172491,1,0,0:0:0:0:
182,192,172530,1,0,0:0:0:0:
475,192,172530,1,0,0:0:0:0:
402,192,172568,1,0,0:0:0:0:
109,192,172568,1,0,0:0:0:0:
329,192,172607,1,0,0:0:0:0:
36,192,172645,1,0,0:0:0:0:
109,192,172683,1,0,0:0:0:0:
402,192,172683,1,0,0:0:0:0:
36,192,172760,1,0,0:0:0:0:
402,192,172760,1,0,0:0:0:0:
182,192,172760,1,0,0:0:0:0:
329,192,172760,1,0,0:0:0:0:
109,192,172818,1,0,0:0:0:0:
256,192,172818,1,0,0:0:0:0:
182,192,172876,1,0,0:0:0:0:
329,192,172876,1,0,0:0:0:0:
256,192,172933,1,0,0:0:0:0:
402,192,172933,1,0,0:0:0:0:
329,192,172991,1,0,0:0:0:0:
182,192,172991,1,0,0:0:0:0:
109,192,172991,1,0,0:0:0:0:
36,192,172991,1,0,0:0:0:0:
475,192,172991,1,0,0:0:0:0:
256,192,173049,1,0,0:0:0:0:
402,192,173049,1,0,0:0:0:0:
182,192,173107,1,0,0:0:0:0:
329,192,173107,1,0,0:0:0:0:
109,192,173164,1,0,0:0:0:0:
256,192,173164,1,0,0:0:0:0:
182,192,173222,1,0,0:0:0:0:
36,192,173222,1,0,0:0:0:0:
402,192,173222,1,0,0:0:0:0:
329,192,173222,1,0,0:0:0:0:
256,192,173280,1,0,0:0:0:0:
475,192,173280,1,0,0:0:0:0:
182,192,173337,1,0,0:0:0:0:
36,192,173337,1,0,0:0:0:0:
329,192,173337,1,0,0:0:0:0:
109,192,173395,1,0,0:0:0:0:
256,192,173395,1,0,0:0:0:0:
329,192,173453,1,0,0:0:0:0:
402,192,173453,1,0,0:0:0:0:
475,192,173453,1,0,0:0:0:0:
182,192,173453,1,0,0:0:0:0:
109,192,173510,1,0,0:0:0:0:
256,192,173510,1,0,0:0:0:0:
182,192,173568,1,0,0:0:0:0:
402,192,173568,1,0,0:0:0:0:
329,192,173568,1,0,0:0:0:0:
36,192,173626,1,0,0:0:0:0:
109,192,173626,1,0,0:0:0:0:
182,192,173683,1,0,0:0:0:0:
256,192,173683,1,0,0:0:0:0:
329,192,173683,1,0,0:0:0:0:
475,192,173683,1,0,0:0:0:0:
109,192,173741,1,0,0:0:0:0:
402,192,173741,1,0,0:0:0:0:
182,192,173799,1,0,0:0:0:0:
36,192,173799,1,0,0:0:0:0:
329,192,173799,1,0,0:0:0:0:
109,192,173857,1,0,0:0:0:0:
256,192,173857,1,0,0:0:0:0:
182,192,173914,1,0,0:0:0:0:
329,192,173914,1,0,0:0:0:0:
402,192,173914,1,0,0:0:0:0:
475,192,173914,1,0,0:0:0:0:
36,192,173972,1,0,0:0:0:0:
109,192,173972,1,0,0:0:0:0:
182,192,174030,1,0,0:0:0:0:
475,192,174030,1,0,0:0:0:0:
402,192,174030,1,0,0:0:0:0:
256,192,174087,1,0,0:0:0:0:
109,192,174087,1,0,0:0:0:0:
329,192,174145,1,0,0:0:0:0:
402,192,174145,1,0,0:0:0:0:
475,192,174145,1,0,0:0:0:0:
36,192,174145,1,0,0:0:0:0:
182,192,174203,1,0,0:0:0:0:
256,192,174203,1,0,0:0:0:0:
475,192,174260,1,0,0:0:0:0:
36,192,174260,1,0,0:0:0:0:
109,192,174260,1,0,0:0:0:0:
402,192,174318,1,0,0:0:0:0:
329,192,174318,1,0,0:0:0:0:
36,192,174376,1,0,0:0:0:0:
256,192,174376,1,0,0:0:0:0:
109,192,174376,1,0,0:0:0:0:
182,192,174376,1,0,0:0:0:0:
402,192,174433,1,0,0:0:0:0:
475,192,174433,1,0,0:0:0:0:
109,192,174491,1,0,0:0:0:0:
36,192,174491,1,0,0:0:0:0:
329,192,174491,1,0,0:0:0:0:
256,192,174549,1,0,0:0:0:0:
402,192,174549,1,0,0:0:0:0:
329,192,174607,1,0,0:0:0:0:
182,192,174607,1,0,0:0:0:0:
475,192,174607,1,0,0:0:0:0:
109,192,174607,1,0,0:0:0:0:
402,192,174664,1,0,0:0:0:0:
256,192,174664,1,0,0:0:0:0:
329,192,174722,1,0,0:0:0:0:
182,192,174722,1,0,0:0:0:0:
109,192,174780,1,0,0:0:0:0:
256,192,174780,1,0,0:0:0:0:
182,192,174837,1,0,0:0:0:0:
329,192,174837,1,0,0:0:0:0:
402,192,174837,1,0,0:0:0:0:
36,192,174837,1,0,0:0:0:0:
256,192,174895,1,0,0:0:0:0:
109,192,174895,1,0,0:0:0:0:
182,192,174953,1,0,0:0:0:0:
329,192,174953,1,0,0:0:0:0:
256,192,175010,1,0,0:0:0:0:
402,192,175010,1,0,0:0:0:0:
329,192,175068,1,0,0:0:0:0:
109,192,175068,1,0,0:0:0:0:
36,192,175068,1,0,0:0:0:0:
182,192,175068,1,0,0:0:0:0:
402,192,175126,1,0,0:0:0:0:
475,192,175126,1,0,0:0:0:0:
329,192,175183,1,0,0:0:0:0:
36,192,175183,1,0,0:0:0:0:
182,192,175183,1,0,0:0:0:0:
109,192,175241,1,0,0:0:0:0:
256,192,175241,1,0,0:0:0:0:
182,192,175299,1,0,0:0:0:0:
475,192,175299,1,0,0:0:0:0:
329,192,175299,1,0,0:0:0:0:
402,192,175299,1,0,0:0:0:0:
36,192,175357,1,0,0:0:0:0:
256,192,175357,1,0,0:0:0:0:
109,192,175414,1,0,0:0:0:0:
329,192,175414,1,0,0:0:0:0:
475,192,175414,1,0,0:0:0:0:
402,192,175472,1,0,0:0:0:0:
182,192,175472,1,0,0:0:0:0:
256,192,175530,1,0,0:0:0:0:
329,192,175530,1,0,0:0:0:0:
475,192,175530,1,0,0:0:0:0:
36,192,175530,1,0,0:0:0:0:
109,192,175587,1,0,0:0:0:0:
182,192,175587,1,0,0:0:0:0:
256,192,175645,1,0,0:0:0:0:
36,192,175645,1,0,0:0:0:0:
402,192,175645,1,0,0:0:0:0:
329,192,175703,1,0,0:0:0:0:
182,192,175703,1,0,0:0:0:0:
402,192,175760,1,0,0:0:0:0:
475,192,175760,1,0,0:0:0:0:
256,192,175760,1,0,0:0:0:0:
109,192,175760,1,0,0:0:0:0:
36,192,175818,1,0,0:0:0:0:
182,192,175818,1,0,0:0:0:0:
256,192,175876,1,0,0:0:0:0:
329,192,175876,1,0,0:0:0:0:
475,192,175876,1,0,0:0:0:0:
109,192,175933,1,0,0:0:0:0:
36,192,175933,1,0,0:0:0:0:
182,192,175991,1,0,0:0:0:0:
402,192,175991,1,0,0:0:0:0:
329,192,175991,1,0,0:0:0:0:
475,192,175991,1,0,0:0:0:0:
256,192,176049,1,0,0:0:0:0:
109,192,176049,1,0,0:0:0:0:
36,192,176107,1,0,0:0:0:0:
182,192,176107,1,0,0:0:0:0:
329,192,176107,1,0,0:0:0:0:
402,192,176164,1,0,0:0:0:0:
256,192,176164,1,0,0:0:0:0:
329,192,176222,1,0,0:0:0:0:
475,192,176222,1,0,0:0:0:0:
36,192,176222,1,0,0:0:0:0:
109,192,176222,1,0,0:0:0:0:
182,192,176280,1,0,0:0:0:0:
256,192,176280,1,0,0:0:0:0:
109,192,176337,1,0,0:0:0:0:
402,192,176337,1,0,0:0:0:0:
475,192,176337,1,0,0:0:0:0:
329,192,176395,1,0,0:0:0:0:
256,192,176395,1,0,0:0:0:0:
402,192,176453,1,0,0:0:0:0:
475,192,176453,1,0,0:0:0:0:
36,192,176453,1,0,0:0:0:0:
182,192,176453,1,0,0:0:0:0:
256,192,176510,1,0,0:0:0:0:
109,192,176510,1,0,0:0:0:0:
329,192,176568,1,0,0:0:0:0:
182,192,176568,1,0,0:0:0:0:
256,192,176626,1,0,0:0:0:0:
402,192,176626,1,0,0:0:0:0:
329,192,176683,1,0,0:0:0:0:
36,192,176683,1,0,0:0:0:0:
109,192,176683,1,0,0:0:0:0:
475,192,176683,1,0,0:0:0:0:
256,192,176741,1,0,0:0:0:0:
402,192,176741,1,0,0:0:0:0:
329,192,176799,1,0,0:0:0:0:
182,192,176799,1,0,0:0:0:0:
109,192,176857,1,0,0:0:0:0:
256,192,176857,1,0,0:0:0:0:
36,192,176914,1,0,0:0:0:0:
182,192,176914,1,0,0:0:0:0:
329,192,176914,1,0,0:0:0:0:
402,192,176914,1,0,0:0:0:0:
256,192,176972,1,0,0:0:0:0:
475,192,176972,1,0,0:0:0:0:
329,192,177030,1,0,0:0:0:0:
182,192,177030,1,0,0:0:0:0:
109,192,177030,1,0,0:0:0:0:
36,192,177087,1,0,0:0:0:0:
256,192,177087,1,0,0:0:0:0:
329,192,177145,1,0,0:0:0:0:
402,192,177145,1,0,0:0:0:0:
475,192,177145,1,0,0:0:0:0:
182,192,177145,1,0,0:0:0:0:
36,192,177203,1,0,0:0:0:0:
109,192,177203,1,0,0:0:0:0:
182,192,177260,1,0,0:0:0:0:
256,192,177260,1,0,0:0:0:0:
475,192,177260,1,0,0:0:0:0:
329,192,177318,1,0,0:0:0:0:
36,192,177318,1,0,0:0:0:0:
109,192,177376,1,0,0:0:0:0:
182,192,177376,1,0,0:0:0:0:
402,192,177376,1,0,0:0:0:0:
475,192,177376,1,0,0:0:0:0:
256,192,177433,1,0,0:0:0:0:
36,192,177433,1,0,0:0:0:0:
109,192,177491,1,0,0:0:0:0:
329,192,177491,1,0,0:0:0:0:
475,192,177491,1,0,0:0:0:0:
402,192,177549,1,0,0:0:0:0:
182,192,177549,1,0,0:0:0:0:
36,192,177607,1,0,0:0:0:0:
109,192,177607,1,0,0:0:0:0:
256,192,177607,1,0,0:0:0:0:
329,192,177607,1,0,0:0:0:0:
402,192,177664,1,0,0:0:0:0:
475,192,177664,1,0,0:0:0:0:
182,192,177722,1,0,0:0:0:0:
36,192,177722,1,0,0:0:0:0:
256,192,177722,1,0,0:0:0:0:
329,192,177780,1,0,0:0:0:0:
109,192,177780,1,0,0:0:0:0:
182,192,177837,1,0,0:0:0:0:
256,192,177837,1,0,0:0:0:0:
475,192,177837,1,0,0:0:0:0:
402,192,177837,1,0,0:0:0:0:
36,192,177895,1,0,0:0:0:0:
109,192,177895,1,0,0:0:0:0:
182,192,177953,1,0,0:0:0:0:
329,192,177953,1,0,0:0:0:0:
475,192,177953,1,0,0:0:0:0:
402,192,178010,1,0,0:0:0:0:
256,192,178010,1,0,0:0:0:0:
182,192,178068,1,0,0:0:0:0:
109,192,178068,1,0,0:0:0:0:
36,192,178068,1,0,0:0:0:0:
329,192,178068,1,0,0:0:0:0:
256,192,178126,1,0,0:0:0:0:
475,192,178126,1,0,0:0:0:0:
36,192,178183,1,0,0:0:0:0:
329,192,178183,1,0,0:0:0:0:
402,192,178183,1,0,0:0:0:0:
109,192,178241,1,0,0:0:0:0:
256,192,178241,1,0,0:0:0:0:
36,192,178299,1,0,0:0:0:0:
475,192,178299,1,0,0:0:0:0:
182,192,178299,1,0,0:0:0:0:
329,192,178299,1,0,0:0:0:0:
109,192,178357,1,0,0:0:0:0:
256,192,178357,1,0,0:0:0:0:
182,192,178414,1,0,0:0:0:0:
329,192,178414,1,0,0:0:0:0:
256,192,178472,1,0,0:0:0:0:
402,192,178472,1,0,0:0:0:0:
329,192,178530,1,0,0:0:0:0:
182,192,178530,1,0,0:0:0:0:
109,192,178530,1,0,0:0:0:0:
36,192,178530,1,0,0:0:0:0:
475,192,178530,1,0,0:0:0:0:
256,192,178587,1,0,0:0:0:0:
402,192,178587,1,0,0:0:0:0:
182,192,178645,1,0,0:0:0:0:
329,192,178645,1,0,0:0:0:0:
109,192,178703,1,0,0:0:0:0:
256,192,178703,1,0,0:0:0:0:
182,192,178760,1,0,0:0:0:0:
36,192,178760,1,0,0:0:0:0:
402,192,178760,1,0,0:0:0:0:
329,192,178760,1,0,0:0:0:0:
256,192,178818,1,0,0:0:0:0:
475,192,178818,1,0,0:0:0:0:
182,192,178876,1,0,0:0:0:0:
36,192,178876,1,0,0:0:0:0:
329,192,178876,1,0,0:0:0:0:
109,192,178933,1,0,0:0:0:0:
256,192,178933,1,0,0:0:0:0:
329,192,178991,1,0,0:0:0:0:
402,192,178991,1,0,0:0:0:0:
475,192,178991,1,0,0:0:0:0:
182,192,178991,1,0,0:0:0:0:
109,192,179049,1,0,0:0:0:0:
256,192,179049,1,0,0:0:0:0:
182,192,179107,1,0,0:0:0:0:
402,192,179107,1,0,0:0:0:0:
329,192,179107,1,0,0:0:0:0:
36,192,179164,1,0,0:0:0:0:
109,192,179164,1,0,0:0:0:0:
182,192,179222,1,0,0:0:0:0:
256,192,179222,1,0,0:0:0:0:
329,192,179222,1,0,0:0:0:0:
475,192,179222,1,0,0:0:0:0:
109,192,179280,1,0,0:0:0:0:
402,192,179280,1,0,0:0:0:0:
182,192,179337,1,0,0:0:0:0:
329,192,179337,1,0,0:0:0:0:
256,192,179395,1,0,0:0:0:0:
36,192,179453,1,0,0:0:0:0:
329,192,179453,1,0,0:0:0:0:
402,192,179453,1,0,0:0:0:0:
475,192,179453,1,0,0:0:0:0:
109,192,179510,1,0,0:0:0:0:
256,192,179568,1,0,0:0:0:0:
182,192,179626,1,0,0:0:0:0:
109,192,179626,1,0,0:0:0:0:
329,192,179683,1,0,0:0:0:0:
402,192,179683,1,0,0:0:0:0:
475,192,179683,1,0,0:0:0:0:
36,192,179683,1,0,0:0:0:0:
182,192,179741,1,0,0:0:0:0:
256,192,179741,1,0,0:0:0:0:
475,192,179799,1,0,0:0:0:0:
36,192,179799,1,0,0:0:0:0:
109,192,179799,1,0,0:0:0:0:
402,192,179857,1,0,0:0:0:0:
329,192,179857,1,0,0:0:0:0:
36,192,179914,1,0,0:0:0:0:
256,192,179914,1,0,0:0:0:0:
109,192,179914,1,0,0:0:0:0:
182,192,179914,1,0,0:0:0:0:
402,192,179972,1,0,0:0:0:0:
475,192,179972,1,0,0:0:0:0:
109,192,180030,1,0,0:0:0:0:
36,192,180030,1,0,0:0:0:0:
329,192,180030,1,0,0:0:0:0:
256,192,180087,1,0,0:0:0:0:
402,192,180087,1,0,0:0:0:0:
329,192,180145,1,0,0:0:0:0:
182,192,180145,1,0,0:0:0:0:
475,192,180145,1,0,0:0:0:0:
109,192,180145,1,0,0:0:0:0:
402,192,180203,1,0,0:0:0:0:
256,192,180203,1,0,0:0:0:0:
329,192,180260,1,0,0:0:0:0:
182,192,180260,1,0,0:0:0:0:
109,192,180318,1,0,0:0:0:0:
256,192,180318,1,0,0:0:0:0:
182,192,180376,1,0,0:0:0:0:
329,192,180376,1,0,0:0:0:0:
402,192,180376,1,0,0:0:0:0:
36,192,180376,1,0,0:0:0:0:
256,192,180433,1,0,0:0:0:0:
109,192,180433,1,0,0:0:0:0:
182,192,180491,1,0,0:0:0:0:
329,192,180491,1,0,0:0:0:0:
256,192,180549,1,0,0:0:0:0:
402,192,180549,1,0,0:0:0:0:
329,192,180607,1,0,0:0:0:0:
109,192,180607,1,0,0:0:0:0:
36,192,180607,1,0,0:0:0:0:
182,192,180607,1,0,0:0:0:0:
402,192,180664,1,0,0:0:0:0:
475,192,180664,1,0,0:0:0:0:
329,192,180722,1,0,0:0:0:0:
36,192,180722,1,0,0:0:0:0:
182,192,180722,1,0,0:0:0:0:
109,192,180780,1,0,0:0:0:0:
256,192,180780,1,0,0:0:0:0:
182,192,180837,1,0,0:0:0:0:
475,192,180837,1,0,0:0:0:0:
329,192,180837,1,0,0:0:0:0:
402,192,180837,1,0,0:0:0:0:
36,192,180895,1,0,0:0:0:0:
256,192,180895,1,0,0:0:0:0:
109,192,180953,1,0,0:0:0:0:
329,192,180953,1,0,0:0:0:0:
475,192,180953,1,0,0:0:0:0:
402,192,181010,1,0,0:0:0:0:
182,192,181010,1,0,0:0:0:0:
256,192,181068,1,0,0:0:0:0:
329,192,181068,1,0,0:0:0:0:
475,192,181068,1,0,0:0:0:0:
36,192,181068,1,0,0:0:0:0:
109,192,181126,1,0,0:0:0:0:
182,192,181126,1,0,0:0:0:0:
256,192,181183,1,0,0:0:0:0:
36,192,181183,1,0,0:0:0:0:
402,192,181183,1,0,0:0:0:0:
329,192,181241,1,0,0:0:0:0:
182,192,181241,1,0,0:0:0:0:
402,192,181299,1,0,0:0:0:0:
475,192,181299,1,0,0:0:0:0:
256,192,181299,1,0,0:0:0:0:
109,192,181299,1,0,0:0:0:0:
36,192,181357,1,0,0:0:0:0:
182,192,181357,1,0,0:0:0:0:
256,192,181414,1,0,0:0:0:0:
329,192,181414,1,0,0:0:0:0:
475,192,181414,1,0,0:0:0:0:
109,192,181472,1,0,0:0:0:0:
36,192,181472,1,0,0:0:0:0:
329,192,181530,1,0,0:0:0:0:
402,192,181530,1,0,0:0:0:0:
256,192,181530,1,0,0:0:0:0:
182,192,181530,1,0,0:0:0:0:
36,192,181587,1,0,0:0:0:0:
109,192,181587,1,0,0:0:0:0:
475,192,181645,1,0,0:0:0:0:
329,192,181645,1,0,0:0:0:0:
256,192,181645,1,0,0:0:0:0:
109,192,181703,1,0,0:0:0:0:
182,192,181703,1,0,0:0:0:0:
256,192,181760,1,0,0:0:0:0:
475,192,181760,1,0,0:0:0:0:
36,192,181760,1,0,0:0:0:0:
402,192,181760,1,0,0:0:0:0:
182,192,181818,1,0,0:0:0:0:
329,192,181818,1,0,0:0:0:0:
109,192,181876,1,0,0:0:0:0:
402,192,181876,1,0,0:0:0:0:
475,192,181876,1,0,0:0:0:0:
329,192,181933,1,0,0:0:0:0:
256,192,181933,1,0,0:0:0:0:
402,192,181991,1,0,0:0:0:0:
475,192,181991,1,0,0:0:0:0:
36,192,181991,1,0,0:0:0:0:
182,192,181991,1,0,0:0:0:0:
256,192,182049,1,0,0:0:0:0:
109,192,182049,1,0,0:0:0:0:
329,192,182107,1,0,0:0:0:0:
182,192,182107,1,0,0:0:0:0:
256,192,182164,1,0,0:0:0:0:
402,192,182164,1,0,0:0:0:0:
329,192,182222,1,0,0:0:0:0:
36,192,182222,1,0,0:0:0:0:
109,192,182222,1,0,0:0:0:0:
475,192,182222,1,0,0:0:0:0:
256,192,182280,1,0,0:0:0:0:
402,192,182280,1,0,0:0:0:0:
329,192,182337,1,0,0:0:0:0:
182,192,182337,1,0,0:0:0:0:
109,192,182395,1,0,0:0:0:0:
256,192,182395,1,0,0:0:0:0:
36,192,182453,1,0,0:0:0:0:
182,192,182453,1,0,0:0:0:0:
329,192,182453,1,0,0:0:0:0:
402,192,182453,1,0,0:0:0:0:
475,192,182510,1,0,0:0:0:0:
256,192,182510,1,0,0:0:0:0:
182,192,182568,1,0,0:0:0:0:
109,192,182568,1,0,0:0:0:0:
402,192,182568,1,0,0:0:0:0:
256,192,182626,1,0,0:0:0:0:
36,192,182626,1,0,0:0:0:0:
329,192,182683,1,0,0:0:0:0:
402,192,182683,1,0,0:0:0:0:
475,192,182683,1,0,0:0:0:0:
182,192,182683,1,0,0:0:0:0:
109,192,182741,1,0,0:0:0:0:
36,192,182741,1,0,0:0:0:0:
182,192,182799,1,0,0:0:0:0:
475,192,182799,1,0,0:0:0:0:
329,192,182799,1,0,0:0:0:0:
109,192,182857,1,0,0:0:0:0:
256,192,182857,1,0,0:0:0:0:
36,192,182914,1,0,0:0:0:0:
182,192,182914,1,0,0:0:0:0:
329,192,182914,1,0,0:0:0:0:
402,192,182914,1,0,0:0:0:0:
475,192,182972,1,0,0:0:0:0:
256,192,182972,1,0,0:0:0:0:
109,192,183030,1,0,0:0:0:0:
329,192,183030,1,0,0:0:0:0:
402,192,183030,1,0,0:0:0:0:
182,192,183087,1,0,0:0:0:0:
36,192,183087,1,0,0:0:0:0:
256,192,183145,1,0,0:0:0:0:
329,192,183145,1,0,0:0:0:0:
402,192,183145,1,0,0:0:0:0:
475,192,183145,1,0,0:0:0:0:
109,192,183203,1,0,0:0:0:0:
182,192,183203,1,0,0:0:0:0:
36,192,183260,1,0,0:0:0:0:
329,192,183260,1,0,0:0:0:0:
475,192,183260,1,0,0:0:0:0:
256,192,183318,1,0,0:0:0:0:
182,192,183318,1,0,0:0:0:0:
109,192,183376,1,0,0:0:0:0:
36,192,183376,1,0,0:0:0:0:
402,192,183376,1,0,0:0:0:0:
475,192,183376,1,0,0:0:0:0:
256,192,183433,1,0,0:0:0:0:
329,192,183433,1,0,0:0:0:0:
182,192,183491,1,0,0:0:0:0:
475,192,183491,1,0,0:0:0:0:
402,192,183491,1,0,0:0:0:0:
329,192,183549,1,0,0:0:0:0:
109,192,183549,1,0,0:0:0:0:
256,192,183607,1,0,0:0:0:0:
402,192,183607,1,0,0:0:0:0:
36,192,183607,1,0,0:0:0:0:
182,192,183607,1,0,0:0:0:0:
329,192,183664,1,0,0:0:0:0:
475,192,183664,1,0,0:0:0:0:
182,192,183722,1,0,0:0:0:0:
109,192,183722,1,0,0:0:0:0:
36,192,183722,1,0,0:0:0:0:
256,192,183780,1,0,0:0:0:0:
402,192,183780,1,0,0:0:0:0:
36,192,183837,1,0,0:0:0:0:
475,192,183837,1,0,0:0:0:0:
182,192,183837,1,0,0:0:0:0:
329,192,183837,1,0,0:0:0:0:
109,192,183895,1,0,0:0:0:0:
256,192,183895,1,0,0:0:0:0:
182,192,183953,1,0,0:0:0:0:
329,192,183953,1,0,0:0:0:0:
256,192,184010,1,0,0:0:0:0:
402,192,184010,1,0,0:0:0:0:
329,192,184068,1,0,0:0:0:0:
182,192,184068,1,0,0:0:0:0:
109,192,184068,1,0,0:0:0:0:
36,192,184068,1,0,0:0:0:0:
475,192,184068,1,0,0:0:0:0:
256,192,184126,1,0,0:0:0:0:
402,192,184126,1,0,0:0:0:0:
182,192,184183,1,0,0:0:0:0:
329,192,184183,1,0,0:0:0:0:
109,192,184241,1,0,0:0:0:0:
256,192,184241,1,0,0:0:0:0:
182,192,184299,1,0,0:0:0:0:
36,192,184299,1,0,0:0:0:0:
402,192,184299,1,0,0:0:0:0:
329,192,184299,1,0,0:0:0:0:
256,192,184357,1,0,0:0:0:0:
475,192,184357,1,0,0:0:0:0:
182,192,184414,1,0,0:0:0:0:
36,192,184414,1,0,0:0:0:0:
329,192,184414,1,0,0:0:0:0:
109,192,184472,1,0,0:0:0:0:
256,192,184472,1,0,0:0:0:0:
329,192,184530,1,0,0:0:0:0:
402,192,184530,1,0,0:0:0:0:
475,192,184530,1,0,0:0:0:0:
182,192,184530,1,0,0:0:0:0:
109,192,184587,1,0,0:0:0:0:
256,192,184587,1,0,0:0:0:0:
182,192,184645,1,0,0:0:0:0:
402,192,184645,1,0,0:0:0:0:
329,192,184645,1,0,0:0:0:0:
36,192,184703,1,0,0:0:0:0:
109,192,184703,1,0,0:0:0:0:
182,192,184760,1,0,0:0:0:0:
256,192,184760,1,0,0:0:0:0:
329,192,184760,1,0,0:0:0:0:
475,192,184760,1,0,0:0:0:0:
109,192,184818,1,0,0:0:0:0:
402,192,184818,1,0,0:0:0:0:
182,192,184876,1,0,0:0:0:0:
329,192,184876,1,0,0:0:0:0:
475,192,184876,1,0,0:0:0:0:
109,192,184933,1,0,0:0:0:0:
36,192,184933,1,0,0:0:0:0:
256,192,184991,1,0,0:0:0:0:
182,192,184991,1,0,0:0:0:0:
402,192,184991,1,0,0:0:0:0:
475,192,184991,1,0,0:0:0:0:
109,192,185049,1,0,0:0:0:0:
36,192,185049,1,0,0:0:0:0:
182,192,185107,1,0,0:0:0:0:
402,192,185107,1,0,0:0:0:0:
329,192,185107,1,0,0:0:0:0:
256,192,185164,1,0,0:0:0:0:
109,192,185164,1,0,0:0:0:0:
329,192,185222,1,0,0:0:0:0:
402,192,185222,1,0,0:0:0:0:
475,192,185222,1,0,0:0:0:0:
36,192,185222,1,0,0:0:0:0:
182,192,185280,1,0,0:0:0:0:
256,192,185280,1,0,0:0:0:0:
475,192,185337,1,0,0:0:0:0:
36,192,185337,1,0,0:0:0:0:
109,192,185337,1,0,0:0:0:0:
402,192,185395,1,0,0:0:0:0:
329,192,185395,1,0,0:0:0:0:
36,192,185453,1,0,0:0:0:0:
256,192,185453,1,0,0:0:0:0:
109,192,185453,1,0,0:0:0:0:
182,192,185453,1,0,0:0:0:0:
402,192,185510,1,0,0:0:0:0:
475,192,185510,1,0,0:0:0:0:
109,192,185568,1,0,0:0:0:0:
36,192,185568,1,0,0:0:0:0:
329,192,185568,1,0,0:0:0:0:
256,192,185626,1,0,0:0:0:0:
402,192,185626,1,0,0:0:0:0:
329,192,185683,1,0,0:0:0:0:
182,192,185683,1,0,0:0:0:0:
475,192,185683,1,0,0:0:0:0:
109,192,185683,1,0,0:0:0:0:
402,192,185741,1,0,0:0:0:0:
256,192,185741,1,0,0:0:0:0:
329,192,185799,1,0,0:0:0:0:
182,192,185799,1,0,0:0:0:0:
109,192,185857,1,0,0:0:0:0:
256,192,185857,1,0,0:0:0:0:
182,192,185914,1,0,0:0:0:0:
329,192,185914,1,0,0:0:0:0:
402,192,185914,1,0,0:0:0:0:
36,192,185914,1,0,0:0:0:0:
256,192,185972,1,0,0:0:0:0:
109,192,185972,1,0,0:0:0:0:
182,192,186030,1,0,0:0:0:0:
329,192,186030,1,0,0:0:0:0:
256,192,186087,1,0,0:0:0:0:
402,192,186087,1,0,0:0:0:0:
329,192,186145,1,0,0:0:0:0:
109,192,186145,1,0,0:0:0:0:
36,192,186145,1,0,0:0:0:0:
182,192,186145,1,0,0:0:0:0:
402,192,186203,1,0,0:0:0:0:
475,192,186203,1,0,0:0:0:0:
329,192,186260,1,0,0:0:0:0:
36,192,186260,1,0,0:0:0:0:
182,192,186260,1,0,0:0:0:0:
109,192,186318,1,0,0:0:0:0:
256,192,186318,1,0,0:0:0:0:
182,192,186376,1,0,0:0:0:0:
475,192,186376,1,0,0:0:0:0:
329,192,186376,1,0,0:0:0:0:
402,192,186376,1,0,0:0:0:0:
36,192,186433,1,0,0:0:0:0:
256,192,186433,1,0,0:0:0:0:
109,192,186491,1,0,0:0:0:0:
329,192,186491,1,0,0:0:0:0:
475,192,186491,1,0,0:0:0:0:
402,192,186549,1,0,0:0:0:0:
182,192,186549,1,0,0:0:0:0:
256,192,186607,1,0,0:0:0:0:
109,192,186607,1,0,0:0:0:0:
36,192,186607,1,0,0:0:0:0:
329,192,186607,1,0,0:0:0:0:
402,192,186664,1,0,0:0:0:0:
475,192,186664,1,0,0:0:0:0:
256,192,186722,1,0,0:0:0:0:
109,192,186722,1,0,0:0:0:0:
36,192,186722,1,0,0:0:0:0:
182,192,186780,1,0,0:0:0:0:
329,192,186780,1,0,0:0:0:0:
402,192,186837,1,0,0:0:0:0:
475,192,186837,1,0,0:0:0:0:
109,192,186837,1,0,0:0:0:0:
36,192,186837,1,0,0:0:0:0:
256,192,186895,1,0,0:0:0:0:
182,192,186895,1,0,0:0:0:0:
109,192,186953,1,0,0:0:0:0:
329,192,186953,1,0,0:0:0:0:
36,192,186953,1,0,0:0:0:0:
256,192,187010,1,0,0:0:0:0:
402,192,187010,1,0,0:0:0:0:
475,192,187068,1,0,0:0:0:0:
329,192,187068,1,0,0:0:0:0:
182,192,187068,1,0,0:0:0:0:
109,192,187068,1,0,0:0:0:0:
36,192,187126,1,0,0:0:0:0:
256,192,187126,1,0,0:0:0:0:
329,192,187183,1,0,0:0:0:0:
475,192,187183,1,0,0:0:0:0:
109,192,187241,1,0,0:0:0:0:
36,192,187241,1,0,0:0:0:0:
182,192,187299,1,0,0:0:0:0:
329,192,187299,1,0,0:0:0:0:
402,192,187299,1,0,0:0:0:0:
475,192,187299,1,0,0:0:0:0:
256,192,187357,1,0,0:0:0:0:
109,192,187357,1,0,0:0:0:0:
402,192,187414,1,0,0:0:0:0:
329,192,187414,1,0,0:0:0:0:
36,192,187472,1,0,0:0:0:0:
109,192,187472,1,0,0:0:0:0:
256,192,187530,1,0,0:0:0:0:
329,192,187530,1,0,0:0:0:0:
402,192,187530,1,0,0:0:0:0:
475,192,187530,1,0,0:0:0:0:
182,192,187587,1,0,0:0:0:0:
109,192,187587,1,0,0:0:0:0:
329,192,187645,1,0,0:0:0:0:
256,192,187645,1,0,0:0:0:0:
475,192,187703,1,0,0:0:0:0:
402,192,187703,1,0,0:0:0:0:
182,192,187760,1,0,0:0:0:0:
109,192,187760,1,0,0:0:0:0:
36,192,187760,1,0,0:0:0:0:
329,192,187760,1,0,0:0:0:0:
402,192,187818,1,0,0:0:0:0:
475,192,187818,1,0,0:0:0:0:
109,192,187876,1,0,0:0:0:0:
256,192,187876,1,0,0:0:0:0:
182,192,187933,1,0,0:0:0:0:
329,192,187933,1,0,0:0:0:0:
109,192,187991,1,0,0:0:0:0:
36,192,187991,1,0,0:0:0:0:
402,192,187991,1,0,0:0:0:0:
475,192,187991,1,0,0:0:0:0:
256,192,188049,1,0,0:0:0:0:
329,192,188049,1,0,0:0:0:0:
182,192,188107,1,0,0:0:0:0:
36,192,188107,1,0,0:0:0:0:
109,192,188164,1,0,0:0:0:0:
256,192,188164,1,0,0:0:0:0:
329,192,188222,1,0,0:0:0:0:
402,192,188222,1,0,0:0:0:0:
475,192,188222,1,0,0:0:0:0:
36,192,188222,1,0,0:0:0:0:
182,192,188280,1,0,0:0:0:0:
256,192,188280,1,0,0:0:0:0:
109,192,188337,1,0,0:0:0:0:
36,192,188337,1,0,0:0:0:0:
256,192,188395,1,0,0:0:0:0:
329,192,188395,1,0,0:0:0:0:
36,192,188453,1,0,0:0:0:0:
109,192,188453,1,0,0:0:0:0:
402,192,188453,1,0,0:0:0:0:
475,192,188453,1,0,0:0:0:0:
109,192,188568,1,0,0:0:0:0:
182,192,188568,1,0,0:0:0:0:
256,192,188568,1,0,0:0:0:0:
329,192,188683,1,0,0:0:0:0:
402,192,188683,1,0,0:0:0:0:
475,192,188683,1,0,0:0:0:0:
36,192,188799,1,0,0:0:0:0:
182,192,188799,1,0,0:0:0:0:
109,192,188799,1,0,0:0:0:0:
475,192,188914,1,0,0:0:0:0:
402,192,188914,1,0,0:0:0:0:
329,192,188914,1,0,0:0:0:0:
329,192,189030,1,0,0:0:0:0:
256,192,189030,1,0,0:0:0:0:
182,192,189030,1,0,0:0:0:0:
36,192,189145,1,0,0:0:0:0:
182,192,189145,1,0,0:0:0:0:
109,192,189145,1,0,0:0:0:0:
329,192,189260,1,0,0:0:0:0:
402,192,189260,1,0,0:0:0:0:
475,192,189260,1,0,0:0:0:0:
109,192,189376,1,0,0:0:0:0:
36,192,189376,1,0,0:0:0:0:
182,192,189376,1,0,0:0:0:0:
256,192,189491,1,0,0:0:0:0:
329,192,189491,1,0,0:0:0:0:
402,192,189491,1,0,0:0:0:0:
182,192,189607,1,0,0:0:0:0:
109,192,189607,1,0,0:0:0:0:
36,192,189607,1,0,0:0:0:0:
182,192,189722,1,0,0:0:0:0:
256,192,189722,1,0,0:0:0:0:
329,192,189722,1,0,0:0:0:0:
256,192,189837,1,0,0:0:0:0:
329,192,189837,1,0,0:0:0:0:
402,192,189837,1,0,0:0:0:0:
109,192,189953,1,0,0:0:0:0:
36,192,189953,1,0,0:0:0:0:
182,192,189953,1,0,0:0:0:0:
182,192,190068,1,0,0:0:0:0:
256,192,190068,1,0,0:0:0:0:
109,192,190068,1,0,0:0:0:0:
329,192,190126,1,0,0:0:0:0:
402,192,190183,1,0,0:0:0:0:
475,192,190241,1,0,0:0:0:0:
182,192,190299,1,0,0:0:0:0:
256,192,190299,1,0,0:0:0:0:
329,192,190299,1,0,0:0:0:0:
109,192,190299,1,0,0:0:0:0:
36,192,190357,1,0,0:0:0:0:
402,192,190357,1,0,0:0:0:0:
329,192,190414,1,0,0:0:0:0:
182,192,190414,1,0,0:0:0:0:
109,192,190472,1,0,0:0:0:0:
256,192,190472,1,0,0:0:0:0:
36,192,190530,1,0,0:0:0:0:
182,192,190530,1,0,0:0:0:0:
329,192,190530,1,0,0:0:0:0:
402,192,190530,1,0,0:0:0:0:
475,192,190587,1,0,0:0:0:0:
256,192,190587,1,0,0:0:0:0:
182,192,190645,1,0,0:0:0:0:
402,192,190645,1,0,0:0:0:0:
109,192,190703,1,0,0:0:0:0:
329,192,190703,1,0,0:0:0:0:
256,192,190760,1,0,0:0:0:0:
402,192,190760,1,0,0:0:0:0:
475,192,190760,1,0,0:0:0:0:
182,192,190760,1,0,0:0:0:0:
36,192,190818,1,0,0:0:0:0:
329,192,190818,1,0,0:0:0:0:
109,192,190876,1,0,0:0:0:0:
256,192,190876,1,0,0:0:0:0:
182,192,190933,1,0,0:0:0:0:
36,192,190933,1,0,0:0:0:0:
256,192,190991,1,0,0:0:0:0:
329,192,190991,1,0,0:0:0:0:
402,192,190991,1,0,0:0:0:0:
475,192,190991,1,0,0:0:0:0:
109,192,191049,1,0,0:0:0:0:
182,192,191049,1,0,0:0:0:0:
256,192,191107,1,0,0:0:0:0:
402,192,191107,1,0,0:0:0:0:
475,192,191164,1,0,0:0:0:0:
329,192,191164,1,0,0:0:0:0:
256,192,191222,1,0,0:0:0:0:
182,192,191222,1,0,0:0:0:0:
109,192,191222,1,0,0:0:0:0:
36,192,191222,1,0,0:0:0:0:
329,192,191280,1,0,0:0:0:0:
402,192,191280,1,0,0:0:0:0:
182,192,191337,1,0,0:0:0:0:
36,192,191337,1,0,0:0:0:0:
109,192,191395,1,0,0:0:0:0:
256,192,191395,1,0,0:0:0:0:
329,192,191453,1,0,0:0:0:0:
402,192,191453,1,0,0:0:0:0:
475,192,191453,1,0,0:0:0:0:
182,192,191453,1,0,0:0:0:0:
36,192,191510,1,0,0:0:0:0:
256,192,191510,1,0,0:0:0:0:
329,192,191568,1,0,0:0:0:0:
182,192,191568,1,0,0:0:0:0:
402,192,191626,1,0,0:0:0:0:
475,192,191626,1,0,0:0:0:0:
182,192,191683,1,0,0:0:0:0:
109,192,191683,1,0,0:0:0:0:
36,192,191683,1,0,0:0:0:0:
256,192,191683,1,0,0:0:0:0:
329,192,191741,1,0,0:0:0:0:
475,192,191741,1,0,0:0:0:0:
256,192,191799,1,0,0:0:0:0:
109,192,191799,1,0,0:0:0:0:
36,192,191857,1,0,0:0:0:0:
182,192,191857,1,0,0:0:0:0:
256,192,191914,1,0,0:0:0:0:
329,192,191914,1,0,0:0:0:0:
402,192,191914,1,0,0:0:0:0:
475,192,191914,1,0,0:0:0:0:
109,192,191972,1,0,0:0:0:0:
182,192,191972,1,0,0:0:0:0:
256,192,192030,1,0,0:0:0:0:
402,192,192030,1,0,0:0:0:0:
36,192,192087,1,0,0:0:0:0:
182,192,192087,1,0,0:0:0:0:
329,192,192145,1,0,0:0:0:0:
402,192,192145,1,0,0:0:0:0:
475,192,192145,1,0,0:0:0:0:
109,192,192145,1,0,0:0:0:0:
256,192,192203,1,0,0:0:0:0:
36,192,192203,1,0,0:0:0:0:
182,192,192260,1,0,0:0:0:0:
329,192,192260,1,0,0:0:0:0:
402,192,192318,1,0,0:0:0:0:
475,192,192318,1,0,0:0:0:0:
256,192,192376,1,0,0:0:0:0:
36,192,192376,1,0,0:0:0:0:
109,192,192376,1,0,0:0:0:0:
182,192,192376,1,0,0:0:0:0:
329,192,192433,1,0,0:0:0:0:
475,192,192433,1,0,0:0:0:0:
182,192,192491,1,0,0:0:0:0:
36,192,192491,1,0,0:0:0:0:
109,192,192549,1,0,0:0:0:0:
256,192,192549,1,0,0:0:0:0:
182,192,192607,1,0,0:0:0:0:
329,192,192607,1,0,0:0:0:0:
402,192,192607,1,0,0:0:0:0:
475,192,192607,1,0,0:0:0:0:
36,192,192664,1,0,0:0:0:0:
256,192,192664,1,0,0:0:0:0:
182,192,192722,1,0,0:0:0:0:
329,192,192722,1,0,0:0:0:0:
402,192,192780,1,0,0:0:0:0:
475,192,192780,1,0,0:0:0:0:
182,192,192837,1,0,0:0:0:0:
36,192,192837,1,0,0:0:0:0:
256,192,192837,1,0,0:0:0:0:
329,192,192837,1,0,0:0:0:0:
109,192,192895,1,0,0:0:0:0:
402,192,192895,1,0,0:0:0:0:
329,192,192953,1,0,0:0:0:0:
182,192,192953,1,0,0:0:0:0:
109,192,193010,1,0,0:0:0:0:
36,192,193010,1,0,0:0:0:0:
256,192,193068,1,0,0:0:0:0:
329,192,193068,1,0,0:0:0:0:
475,192,193068,1,0,0:0:0:0:
182,192,193068,1,0,0:0:0:0:
109,192,193126,1,0,0:0:0:0:
402,192,193126,1,0,0:0:0:0:
182,192,193183,1,0,0:0:0:0:
36,192,193183,1,0,0:0:0:0:
256,192,193241,1,0,0:0:0:0:
329,192,193241,1,0,0:0:0:0:
402,192,193299,1,0,0:0:0:0:
475,192,193299,1,0,0:0:0:0:
36,192,193299,1,0,0:0:0:0:
109,192,193299,1,0,0:0:0:0:
182,192,193357,1,0,0:0:0:0:
329,192,193357,1,0,0:0:0:0:
256,192,193414,1,0,0:0:0:0:
402,192,193414,1,0,0:0:0:0:
182,192,193472,1,0,0:0:0:0:
36,192,193472,1,0,0:0:0:0:
109,192,193530,1,0,0:0:0:0:
256,192,193530,1,0,0:0:0:0:
329,192,193530,1,0,0:0:0:0:
402,192,193530,1,0,0:0:0:0:
475,192,193587,1,0,0:0:0:0:
182,192,193587,1,0,0:0:0:0:
256,192,193645,1,0,0:0:0:0:
402,192,193645,1,0,0:0:0:0:
329,192,193703,1,0,0:0:0:0:
475,192,193703,1,0,0:0:0:0:
182,192,193760,1,0,0:0:0:0:
109,192,193760,1,0,0:0:0:0:
36,192,193760,1,0,0:0:0:0:
256,192,193760,1,0,0:0:0:0:
402,192,193818,1,0,0:0:0:0:
475,192,193818,1,0,0:0:0:0:
109,192,193876,1,0,0:0:0:0:
36,192,193876,1,0,0:0:0:0:
182,192,193933,1,0,0:0:0:0:
256,192,193933,1,0,0:0:0:0:
109,192,193991,1,0,0:0:0:0:
36,192,193991,1,0,0:0:0:0:
329,192,193991,1,0,0:0:0:0:
402,192,193991,1,0,0:0:0:0:
475,192,194049,1,0,0:0:0:0:
182,192,194049,1,0,0:0:0:0:
329,192,194107,1,0,0:0:0:0:
109,192,194107,1,0,0:0:0:0:
36,192,194164,1,0,0:0:0:0:
256,192,194164,1,0,0:0:0:0:
329,192,194222,1,0,0:0:0:0:
402,192,194222,1,0,0:0:0:0:
475,192,194222,1,0,0:0:0:0:
182,192,194222,1,0,0:0:0:0:
109,192,194280,1,0,0:0:0:0:
36,192,194280,1,0,0:0:0:0:
475,192,194337,1,0,0:0:0:0:
329,192,194337,1,0,0:0:0:0:
256,192,194395,1,0,0:0:0:0:
402,192,194395,1,0,0:0:0:0:
329,192,194453,1,0,0:0:0:0:
475,192,194453,1,0,0:0:0:0:
182,192,194453,1,0,0:0:0:0:
109,192,194453,1,0,0:0:0:0:
36,192,194510,1,0,0:0:0:0:
256,192,194510,1,0,0:0:0:0:
329,192,194568,1,0,0:0:0:0:
402,192,194568,1,0,0:0:0:0:
182,192,194626,1,0,0:0:0:0:
109,192,194626,1,0,0:0:0:0:
256,192,194683,1,0,0:0:0:0:
329,192,194683,1,0,0:0:0:0:
402,192,194683,1,0,0:0:0:0:
475,192,194683,1,0,0:0:0:0:
109,192,194741,1,0,0:0:0:0:
36,192,194741,1,0,0:0:0:0:
182,192,194799,1,0,0:0:0:0:
256,192,194799,1,0,0:0:0:0:
329,192,194857,1,0,0:0:0:0:
475,192,194857,1,0,0:0:0:0:
402,192,194914,1,0,0:0:0:0:
256,192,194914,1,0,0:0:0:0:
109,192,194914,1,0,0:0:0:0:
36,192,194914,1,0,0:0:0:0:
182,192,194972,1,0,0:0:0:0:
329,192,194972,1,0,0:0:0:0:
256,192,195030,1,0,0:0:0:0:
109,192,195030,1,0,0:0:0:0:
36,192,195087,1,0,0:0:0:0:
182,192,195087,1,0,0:0:0:0:
402,192,195145,1,0,0:0:0:0:
475,192,195145,1,0,0:0:0:0:
256,192,195145,1,0,0:0:0:0:
329,192,195145,1,0,0:0:0:0:
36,192,195203,1,0,0:0:0:0:
182,192,195203,1,0,0:0:0:0:
256,192,195260,1,0,0:0:0:0:
109,192,195260,1,0,0:0:0:0:
329,192,195318,1,0,0:0:0:0:
182,192,195318,1,0,0:0:0:0:
36,192,195376,1,0,0:0:0:0:
256,192,195376,1,0,0:0:0:0:
475,192,195376,1,0,0:0:0:0:
402,192,195376,1,0,0:0:0:0:
329,192,195433,1,0,0:0:0:0:
182,192,195433,1,0,0:0:0:0:
36,192,195491,1,0,0:0:0:0:
109,192,195491,1,0,0:0:0:0:
182,192,195549,1,0,0:0:0:0:
256,192,195549,1,0,0:0:0:0:
329,192,195607,1,0,0:0:0:0:
475,192,195607,1,0,0:0:0:0:
36,192,195607,1,0,0:0:0:0:
402,192,195607,1,0,0:0:0:0:
182,192,195664,1,0,0:0:0:0:
109,192,195664,1,0,0:0:0:0:
256,192,195722,1,0,0:0:0:0:
329,192,195722,1,0,0:0:0:0:
36,192,195780,1,0,0:0:0:0:
182,192,195780,1,0,0:0:0:0:
256,192,195837,1,0,0:0:0:0:
329,192,195837,1,0,0:0:0:0:
402,192,195837,1,0,0:0:0:0:
475,192,195837,1,0,0:0:0:0:
182,192,195895,1,0,0:0:0:0:
109,192,195895,1,0,0:0:0:0:
256,192,195953,1,0,0:0:0:0:
402,192,195953,1,0,0:0:0:0:
329,192,196010,1,0,0:0:0:0:
475,192,196010,1,0,0:0:0:0:
256,192,196068,1,0,0:0:0:0:
182,192,196068,1,0,0:0:0:0:
109,192,196068,1,0,0:0:0:0:
36,192,196068,1,0,0:0:0:0:
329,192,196126,1,0,0:0:0:0:
475,192,196126,1,0,0:0:0:0:
36,192,196183,1,0,0:0:0:0:
182,192,196183,1,0,0:0:0:0:
109,192,196241,1,0,0:0:0:0:
256,192,196241,1,0,0:0:0:0:
329,192,196299,1,0,0:0:0:0:
182,192,196299,1,0,0:0:0:0:
402,192,196299,1,0,0:0:0:0:
475,192,196299,1,0,0:0:0:0:
36,192,196357,1,0,0:0:0:0:
109,192,196357,1,0,0:0:0:0:
329,192,196414,1,0,0:0:0:0:
256,192,196414,1,0,0:0:0:0:
182,192,196472,1,0,0:0:0:0:
109,192,196472,1,0,0:0:0:0:
329,192,196530,1,0,0:0:0:0:
402,192,196530,1,0,0:0:0:0:
475,192,196530,1,0,0:0:0:0:
36,192,196530,1,0,0:0:0:0:
256,192,196587,1,0,0:0:0:0:
109,192,196587,1,0,0:0:0:0:
182,192,196645,1,0,0:0:0:0:
329,192,196645,1,0,0:0:0:0:
36,192,196703,1,0,0:0:0:0:
109,192,196703,1,0,0:0:0:0:
182,192,196760,1,0,0:0:0:0:
329,192,196760,1,0,0:0:0:0:
402,192,196760,1,0,0:0:0:0:
475,192,196760,1,0,0:0:0:0:
256,192,196818,1,0,0:0:0:0:
36,192,196818,1,0,0:0:0:0:
109,192,196876,1,0,0:0:0:0:
182,192,196876,1,0,0:0:0:0:
256,192,196933,1,0,0:0:0:0:
329,192,196933,1,0,0:0:0:0:
402,192,196991,1,0,0:0:0:0:
475,192,196991,1,0,0:0:0:0:
36,192,196991,1,0,0:0:0:0:
109,192,196991,1,0,0:0:0:0:
182,192,197049,1,0,0:0:0:0:
329,192,197049,1,0,0:0:0:0:
256,192,197107,1,0,0:0:0:0:
36,192,197107,1,0,0:0:0:0:
109,192,197164,1,0,0:0:0:0:
182,192,197164,1,0,0:0:0:0:
256,192,197222,1,0,0:0:0:0:
329,192,197222,1,0,0:0:0:0:
402,192,197222,1,0,0:0:0:0:
475,192,197222,1,0,0:0:0:0:
36,192,197280,1,0,0:0:0:0:
182,192,197280,1,0,0:0:0:0:
256,192,197337,1,0,0:0:0:0:
402,192,197337,1,0,0:0:0:0:
329,192,197395,1,0,0:0:0:0:
475,192,197395,1,0,0:0:0:0:
256,192,197453,1,0,0:0:0:0:
109,192,197453,1,0,0:0:0:0:
36,192,197453,1,0,0:0:0:0:
182,192,197453,1,0,0:0:0:0:
329,192,197510,1,0,0:0:0:0:
402,192,197510,1,0,0:0:0:0:
36,192,197568,1,0,0:0:0:0:
109,192,197568,1,0,0:0:0:0:
402,192,197626,1,0,0:0:0:0:
475,192,197626,1,0,0:0:0:0:
256,192,197683,1,0,0:0:0:0:
109,192,197683,1,0,0:0:0:0:
36,192,197683,1,0,0:0:0:0:
182,192,197683,1,0,0:0:0:0:
329,192,197741,1,0,0:0:0:0:
475,192,197741,1,0,0:0:0:0:
402,192,197799,1,0,0:0:0:0:
109,192,197799,1,0,0:0:0:0:
256,192,197857,1,0,0:0:0:0:
182,192,197857,1,0,0:0:0:0:
329,192,197914,1,0,0:0:0:0:
402,192,197914,1,0,0:0:0:0:
475,192,197914,1,0,0:0:0:0:
36,192,197914,1,0,0:0:0:0:
182,192,197972,1,0,0:0:0:0:
109,192,197972,1,0,0:0:0:0:
256,192,198030,1,0,0:0:0:0:
402,192,198030,1,0,0:0:0:0:
329,192,198087,1,0,0:0:0:0:
475,192,198087,1,0,0:0:0:0:
256,192,198145,1,0,0:0:0:0:
182,192,198145,1,0,0:0:0:0:
109,192,198145,1,0,0:0:0:0:
36,192,198145,1,0,0:0:0:0:
329,192,198203,1,0,0:0:0:0:
402,192,198203,1,0,0:0:0:0:
182,192,198260,1,0,0:0:0:0:
36,192,198260,1,0,0:0:0:0:
256,192,198318,1,0,0:0:0:0:
329,192,198318,1,0,0:0:0:0:
402,192,198376,1,0,0:0:0:0:
475,192,198376,1,0,0:0:0:0:
109,192,198376,1,0,0:0:0:0:
36,192,198376,1,0,0:0:0:0:
182,192,198433,1,0,0:0:0:0:
329,192,198433,1,0,0:0:0:0:
36,192,198491,1,0,0:0:0:0:
256,192,198491,1,0,0:0:0:0:
329,192,198549,1,0,0:0:0:0:
402,192,198549,1,0,0:0:0:0:
475,192,198607,1,0,0:0:0:0:
182,192,198607,1,0,0:0:0:0:
256,192,198607,1,0,0:0:0:0:
36,192,198607,1,0,0:0:0:0:
109,192,198664,1,0,0:0:0:0:
329,192,198664,1,0,0:0:0:0:
256,192,198722,1,0,0:0:0:0:
182,192,198722,1,0,0:0:0:0:
329,192,198780,1,0,0:0:0:0:
402,192,198780,1,0,0:0:0:0:
475,192,198837,1,0,0:0:0:0:
182,192,198837,1,0,0:0:0:0:
109,192,198837,1,0,0:0:0:0:
36,192,198837,1,0,0:0:0:0:
256,192,198895,1,0,0:0:0:0:
329,192,198895,1,0,0:0:0:0:
182,192,198953,1,0,0:0:0:0:
36,192,198953,1,0,0:0:0:0:
109,192,199010,1,0,0:0:0:0:
256,192,199010,1,0,0:0:0:0:
329,192,199068,1,0,0:0:0:0:
402,192,199068,1,0,0:0:0:0:
475,192,199068,1,0,0:0:0:0:
36,192,199068,1,0,0:0:0:0:
182,192,199126,1,0,0:0:0:0:
256,192,199126,1,0,0:0:0:0:
329,192,199183,1,0,0:0:0:0:
475,192,199183,1,0,0:0:0:0:
402,192,199241,1,0,0:0:0:0:
36,192,199241,1,0,0:0:0:0:
182,192,199299,1,0,0:0:0:0:
256,192,199299,1,0,0:0:0:0:
329,192,199299,1,0,0:0:0:0:
109,192,199299,1,0,0:0:0:0:
36,192,199357,1,0,0:0:0:0:
402,192,199357,1,0,0:0:0:0:
329,192,199414,1,0,0:0:0:0:
182,192,199414,1,0,0:0:0:0:
109,192,199472,1,0,0:0:0:0:
256,192,199472,1,0,0:0:0:0:
36,192,199530,1,0,0:0:0:0:
182,192,199530,1,0,0:0:0:0:
329,192,199530,1,0,0:0:0:0:
402,192,199530,1,0,0:0:0:0:
475,192,199587,1,0,0:0:0:0:
256,192,199587,1,0,0:0:0:0:
182,192,199645,1,0,0:0:0:0:
402,192,199645,1,0,0:0:0:0:
109,192,199703,1,0,0:0:0:0:
329,192,199703,1,0,0:0:0:0:
256,192,199760,1,0,0:0:0:0:
402,192,199760,1,0,0:0:0:0:
475,192,199760,1,0,0:0:0:0:
182,192,199760,1,0,0:0:0:0:
36,192,199818,1,0,0:0:0:0:
109,192,199818,1,0,0:0:0:0:
182,192,199876,1,0,0:0:0:0:
402,192,199876,1,0,0:0:0:0:
329,192,199933,1,0,0:0:0:0:
256,192,199933,1,0,0:0:0:0:
402,192,199991,1,0,0:0:0:0:
36,192,199991,1,0,0:0:0:0:
109,192,199991,1,0,0:0:0:0:
475,192,199991,1,0,0:0:0:0:
256,192,200049,1,0,0:0:0:0:
182,192,200049,1,0,0:0:0:0:
329,192,200107,1,0,0:0:0:0:
402,192,200107,1,0,0:0:0:0:
475,192,200164,1,0,0:0:0:0:
36,192,200164,1,0,0:0:0:0:
256,192,200222,1,0,0:0:0:0:
182,192,200222,1,0,0:0:0:0:
329,192,200222,1,0,0:0:0:0:
109,192,200222,1,0,0:0:0:0:
475,192,200280,1,0,0:0:0:0:
402,192,200280,1,0,0:0:0:0:
182,192,200337,1,0,0:0:0:0:
36,192,200337,1,0,0:0:0:0:
109,192,200395,1,0,0:0:0:0:
256,192,200395,1,0,0:0:0:0:
329,192,200453,1,0,0:0:0:0:
402,192,200453,1,0,0:0:0:0:
475,192,200453,1,0,0:0:0:0:
182,192,200453,1,0,0:0:0:0:
36,192,200510,1,0,0:0:0:0:
256,192,200510,1,0,0:0:0:0:
329,192,200568,1,0,0:0:0:0:
182,192,200568,1,0,0:0:0:0:
402,192,200626,1,0,0:0:0:0:
475,192,200626,1,0,0:0:0:0:
182,192,200683,1,0,0:0:0:0:
109,192,200683,1,0,0:0:0:0:
36,192,200683,1,0,0:0:0:0:
256,192,200683,1,0,0:0:0:0:
329,192,200741,1,0,0:0:0:0:
475,192,200741,1,0,0:0:0:0:
256,192,200799,1,0,0:0:0:0:
109,192,200799,1,0,0:0:0:0:
36,192,200857,1,0,0:0:0:0:
182,192,200857,1,0,0:0:0:0:
256,192,200914,1,0,0:0:0:0:
329,192,200914,1,0,0:0:0:0:
402,192,200914,1,0,0:0:0:0:
475,192,200914,1,0,0:0:0:0:
109,192,200972,1,0,0:0:0:0:
182,192,200972,1,0,0:0:0:0:
256,192,201030,1,0,0:0:0:0:
402,192,201030,1,0,0:0:0:0:
36,192,201087,1,0,0:0:0:0:
182,192,201087,1,0,0:0:0:0:
329,192,201145,1,0,0:0:0:0:
402,192,201145,1,0,0:0:0:0:
475,192,201145,1,0,0:0:0:0:
109,192,201145,1,0,0:0:0:0:
256,192,201203,1,0,0:0:0:0:
36,192,201203,1,0,0:0:0:0:
182,192,201260,1,0,0:0:0:0:
329,192,201260,1,0,0:0:0:0:
402,192,201318,1,0,0:0:0:0:
475,192,201318,1,0,0:0:0:0:
256,192,201376,1,0,0:0:0:0:
36,192,201376,1,0,0:0:0:0:
109,192,201376,1,0,0:0:0:0:
182,192,201376,1,0,0:0:0:0:
329,192,201433,1,0,0:0:0:0:
475,192,201433,1,0,0:0:0:0:
256,192,201491,1,0,0:0:0:0:
36,192,201491,1,0,0:0:0:0:
109,192,201549,1,0,0:0:0:0:
182,192,201549,1,0,0:0:0:0:
256,192,201607,1,0,0:0:0:0:
329,192,201607,1,0,0:0:0:0:
402,192,201607,1,0,0:0:0:0:
475,192,201607,1,0,0:0:0:0:
109,192,201664,1,0,0:0:0:0:
36,192,201664,1,0,0:0:0:0:
256,192,201722,1,0,0:0:0:0:
329,192,201722,1,0,0:0:0:0:
402,192,201780,1,0,0:0:0:0:
475,192,201780,1,0,0:0:0:0:
182,192,201837,1,0,0:0:0:0:
36,192,201837,1,0,0:0:0:0:
256,192,201837,1,0,0:0:0:0:
329,192,201837,1,0,0:0:0:0:
109,192,201895,1,0,0:0:0:0:
402,192,201895,1,0,0:0:0:0:
329,192,201953,1,0,0:0:0:0:
182,192,201953,1,0,0:0:0:0:
109,192,202010,1,0,0:0:0:0:
36,192,202010,1,0,0:0:0:0:
256,192,202068,1,0,0:0:0:0:
329,192,202068,1,0,0:0:0:0:
475,192,202068,1,0,0:0:0:0:
182,192,202068,1,0,0:0:0:0:
109,192,202126,1,0,0:0:0:0:
402,192,202126,1,0,0:0:0:0:
182,192,202183,1,0,0:0:0:0:
36,192,202183,1,0,0:0:0:0:
256,192,202241,1,0,0:0:0:0:
329,192,202241,1,0,0:0:0:0:
402,192,202299,1,0,0:0:0:0:
475,192,202299,1,0,0:0:0:0:
36,192,202299,1,0,0:0:0:0:
109,192,202299,1,0,0:0:0:0:
182,192,202357,1,0,0:0:0:0:
329,192,202357,1,0,0:0:0:0:
256,192,202414,1,0,0:0:0:0:
402,192,202414,1,0,0:0:0:0:
182,192,202472,1,0,0:0:0:0:
36,192,202472,1,0,0:0:0:0:
109,192,202530,1,0,0:0:0:0:
256,192,202530,1,0,0:0:0:0:
329,192,202530,1,0,0:0:0:0:
402,192,202530,1,0,0:0:0:0:
475,192,202587,1,0,0:0:0:0:
182,192,202587,1,0,0:0:0:0:
256,192,202645,1,0,0:0:0:0:
402,192,202645,1,0,0:0:0:0:
329,192,202703,1,0,0:0:0:0:
475,192,202703,1,0,0:0:0:0:
182,192,202760,1,0,0:0:0:0:
109,192,202760,1,0,0:0:0:0:
36,192,202760,1,0,0:0:0:0:
256,192,202760,1,0,0:0:0:0:
402,192,202818,1,0,0:0:0:0:
475,192,202818,1,0,0:0:0:0:
109,192,202876,1,0,0:0:0:0:
36,192,202876,1,0,0:0:0:0:
182,192,202933,1,0,0:0:0:0:
256,192,202933,1,0,0:0:0:0:
109,192,202991,1,0,0:0:0:0:
36,192,202991,1,0,0:0:0:0:
329,192,202991,1,0,0:0:0:0:
402,192,202991,1,0,0:0:0:0:
475,192,203049,1,0,0:0:0:0:
182,192,203049,1,0,0:0:0:0:
329,192,203107,1,0,0:0:0:0:
109,192,203107,1,0,0:0:0:0:
36,192,203164,1,0,0:0:0:0:
256,192,203164,1,0,0:0:0:0:
329,192,203222,1,0,0:0:0:0:
402,192,203222,1,0,0:0:0:0:
475,192,203222,1,0,0:0:0:0:
182,192,203222,1,0,0:0:0:0:
109,192,203280,1,0,0:0:0:0:
36,192,203280,1,0,0:0:0:0:
475,192,203337,1,0,0:0:0:0:
329,192,203337,1,0,0:0:0:0:
256,192,203395,1,0,0:0:0:0:
402,192,203395,1,0,0:0:0:0:
329,192,203453,1,0,0:0:0:0:
475,192,203453,1,0,0:0:0:0:
182,192,203453,1,0,0:0:0:0:
109,192,203453,1,0,0:0:0:0:
36,192,203510,1,0,0:0:0:0:
256,192,203510,1,0,0:0:0:0:
329,192,203568,1,0,0:0:0:0:
402,192,203568,1,0,0:0:0:0:
182,192,203626,1,0,0:0:0:0:
109,192,203626,1,0,0:0:0:0:
256,192,203683,1,0,0:0:0:0:
329,192,203683,1,0,0:0:0:0:
402,192,203683,1,0,0:0:0:0:
475,192,203683,1,0,0:0:0:0:
36,192,203799,1,0,0:0:0:0:
109,192,203799,1,0,0:0:0:0:
182,192,203799,1,0,0:0:0:0:
329,192,203857,1,0,0:0:0:0:
402,192,203857,1,0,0:0:0:0:
475,192,203857,1,0,0:0:0:0:
36,192,203914,1,0,0:0:0:0:
109,192,203914,1,0,0:0:0:0:
329,192,203972,1,0,0:0:0:0:
256,192,203972,1,0,0:0:0:0:
402,192,203972,1,0,0:0:0:0:
182,192,204030,1,0,0:0:0:0:
109,192,204030,1,0,0:0:0:0:
36,192,204030,1,0,0:0:0:0:
256,192,204087,1,0,0:0:0:0:
329,192,204087,1,0,0:0:0:0:
402,192,204145,1,0,0:0:0:0:
475,192,204145,1,0,0:0:0:0:
182,192,204260,1,0,0:0:0:0:
109,192,204260,1,0,0:0:0:0:
36,192,204260,1,0,0:0:0:0:
256,192,204376,1,0,0:0:0:0:
329,192,204376,1,0,0:0:0:0:
402,192,204376,1,0,0:0:0:0:
475,192,204376,1,0,0:0:0:0:
256,192,204491,1,0,0:0:0:0:
182,192,204491,1,0,0:0:0:0:
109,192,204491,1,0,0:0:0:0:
36,192,204491,1,0,0:0:0:0:
36,192,204607,1,0,0:0:0:0:
256,192,204607,1,0,0:0:0:0:
329,192,204607,1,0,0:0:0:0:
402,192,204607,1,0,0:0:0:0:
182,192,204722,1,0,0:0:0:0:
109,192,204722,1,0,0:0:0:0:
36,192,204722,1,0,0:0:0:0:
329,192,204780,1,0,0:0:0:0:
475,192,204780,1,0,0:0:0:0:
402,192,204780,1,0,0:0:0:0:
36,192,204837,1,0,0:0:0:0:
109,192,204837,1,0,0:0:0:0:
182,192,204895,1,0,0:0:0:0:
256,192,204895,1,0,0:0:0:0:
329,192,204895,1,0,0:0:0:0:
402,192,204953,1,0,0:0:0:0:
475,192,204953,1,0,0:0:0:0:
36,192,205010,1,0,0:0:0:0:
109,192,205010,1,0,0:0:0:0:
329,192,205068,1,0,0:0:0:0:
475,192,205068,1,0,0:0:0:0:
256,192,205068,1,0,0:0:0:0:
402,192,205068,1,0,0:0:0:0:
182,192,205126,1,0,0:0:0:0:
36,192,205126,1,0,0:0:0:0:
109,192,205183,1,0,0:0:0:0:
402,192,205183,1,0,0:0:0:0:
256,192,205183,1,0,0:0:0:0:
182,192,205241,1,0,0:0:0:0:
329,192,205241,1,0,0:0:0:0:
402,192,205299,1,0,0:0:0:0:
475,192,205299,1,0,0:0:0:0:
109,192,205299,1,0,0:0:0:0:
36,192,205299,1,0,0:0:0:0:
256,192,205357,1,0,0:0:0:0:
329,192,205357,1,0,0:0:0:0:
475,192,205414,1,0,0:0:0:0:
182,192,205414,1,0,0:0:0:0:
36,192,205414,1,0,0:0:0:0:
109,192,205472,1,0,0:0:0:0:
256,192,205472,1,0,0:0:0:0:
329,192,205530,1,0,0:0:0:0:
402,192,205530,1,0,0:0:0:0:
475,192,205530,1,0,0:0:0:0:
182,192,205530,1,0,0:0:0:0:
36,192,205587,1,0,0:0:0:0:
109,192,205587,1,0,0:0:0:0:
182,192,205645,1,0,0:0:0:0:
329,192,205645,1,0,0:0:0:0:
256,192,205645,1,0,0:0:0:0:
402,192,205703,1,0,0:0:0:0:
475,192,205703,1,0,0:0:0:0:
109,192,205760,1,0,0:0:0:0:
36,192,205760,1,0,0:0:0:0:
329,192,205760,1,0,0:0:0:0:
256,192,205760,1,0,0:0:0:0:
402,192,205818,1,0,0:0:0:0:
475,192,205818,1,0,0:0:0:0:
182,192,205876,1,0,0:0:0:0:
109,192,205876,1,0,0:0:0:0:
329,192,205876,1,0,0:0:0:0:
36,192,205933,1,0,0:0:0:0:
256,192,205933,1,0,0:0:0:0:
329,192,205991,1,0,0:0:0:0:
402,192,205991,1,0,0:0:0:0:
475,192,205991,1,0,0:0:0:0:
182,192,205991,1,0,0:0:0:0:
109,192,206049,1,0,0:0:0:0:
36,192,206049,1,0,0:0:0:0:
182,192,206107,1,0,0:0:0:0:
329,192,206107,1,0,0:0:0:0:
402,192,206107,1,0,0:0:0:0:
475,192,206164,1,0,0:0:0:0:
256,192,206164,1,0,0:0:0:0:
109,192,206222,1,0,0:0:0:0:
182,192,206222,1,0,0:0:0:0:
36,192,206222,1,0,0:0:0:0:
329,192,206222,1,0,0:0:0:0:
402,192,206280,1,0,0:0:0:0:
475,192,206280,1,0,0:0:0:0:
109,192,206337,1,0,0:0:0:0:
36,192,206337,1,0,0:0:0:0:
256,192,206337,1,0,0:0:0:0:
329,192,206395,1,0,0:0:0:0:
182,192,206395,1,0,0:0:0:0:
475,192,206453,1,0,0:0:0:0:
36,192,206453,1,0,0:0:0:0:
109,192,206453,1,0,0:0:0:0:
402,192,206453,1,0,0:0:0:0:
256,192,206510,1,0,0:0:0:0:
329,192,206510,1,0,0:0:0:0:
402,192,206568,1,0,0:0:0:0:
182,192,206568,1,0,0:0:0:0:
475,192,206568,1,0,0:0:0:0:
109,192,206626,1,0,0:0:0:0:
36,192,206626,1,0,0:0:0:0:
256,192,206683,1,0,0:0:0:0:
329,192,206683,1,0,0:0:0:0:
402,192,206683,1,0,0:0:0:0:
475,192,206683,1,0,0:0:0:0:
182,192,206741,1,0,0:0:0:0:
36,192,206741,1,0,0:0:0:0:
109,192,206799,1,0,0:0:0:0:
256,192,206799,1,0,0:0:0:0:
329,192,206799,1,0,0:0:0:0:
402,192,206857,1,0,0:0:0:0:
475,192,206857,1,0,0:0:0:0:
182,192,206914,1,0,0:0:0:0:
36,192,206914,1,0,0:0:0:0:
109,192,206914,1,0,0:0:0:0:
256,192,206914,1,0,0:0:0:0:
329,192,206972,1,0,0:0:0:0:
475,192,206972,1,0,0:0:0:0:
402,192,207030,1,0,0:0:0:0:
36,192,207030,1,0,0:0:0:0:
109,192,207030,1,0,0:0:0:0:
182,192,207087,1,0,0:0:0:0:
256,192,207087,1,0,0:0:0:0:
329,192,207145,1,0,0:0:0:0:
402,192,207145,1,0,0:0:0:0:
475,192,207145,1,0,0:0:0:0:
36,192,207145,1,0,0:0:0:0:
109,192,207203,1,0,0:0:0:0:
182,192,207203,1,0,0:0:0:0:
256,192,207260,1,0,0:0:0:0:
402,192,207260,1,0,0:0:0:0:
475,192,207260,1,0,0:0:0:0:
329,192,207318,1,0,0:0:0:0:
36,192,207318,1,0,0:0:0:0:
182,192,207376,1,0,0:0:0:0:
109,192,207376,1,0,0:0:0:0:
475,192,207376,1,0,0:0:0:0:
256,192,207376,1,0,0:0:0:0:
329,192,207433,1,0,0:0:0:0:
402,192,207433,1,0,0:0:0:0:
256,192,207491,1,0,0:0:0:0:
475,192,207491,1,0,0:0:0:0:
36,192,207491,1,0,0:0:0:0:
109,192,207549,1,0,0:0:0:0:
182,192,207549,1,0,0:0:0:0:
475,192,207607,1,0,0:0:0:0:
329,192,207607,1,0,0:0:0:0:
402,192,207607,1,0,0:0:0:0:
36,192,207607,1,0,0:0:0:0:
256,192,207664,1,0,0:0:0:0:
182,192,207664,1,0,0:0:0:0:
329,192,207722,1,0,0:0:0:0:
36,192,207722,1,0,0:0:0:0:
402,192,207722,1,0,0:0:0:0:
475,192,207780,1,0,0:0:0:0:
182,192,207780,1,0,0:0:0:0:
36,192,207837,1,0,0:0:0:0:
109,192,207837,1,0,0:0:0:0:
329,192,207837,1,0,0:0:0:0:
402,192,207837,1,0,0:0:0:0:
256,192,207895,1,0,0:0:0:0:
475,192,207895,1,0,0:0:0:0:
182,192,207953,1,0,0:0:0:0:
36,192,207953,1,0,0:0:0:0:
109,192,207953,1,0,0:0:0:0:
256,192,208010,1,0,0:0:0:0:
329,192,208010,1,0,0:0:0:0:
402,192,208068,1,0,0:0:0:0:
475,192,208068,1,0,0:0:0:0:
109,192,208068,1,0,0:0:0:0:
36,192,208068,1,0,0:0:0:0:
182,192,208126,1,0,0:0:0:0:
329,192,208126,1,0,0:0:0:0:
256,192,208183,1,0,0:0:0:0:
402,192,208183,1,0,0:0:0:0:
475,192,208183,1,0,0:0:0:0:
109,192,208241,1,0,0:0:0:0:
36,192,208241,1,0,0:0:0:0:
182,192,208299,1,0,0:0:0:0:
329,192,208299,1,0,0:0:0:0:
402,192,208299,1,0,0:0:0:0:
475,192,208299,1,0,0:0:0:0:
109,192,208357,1,0,0:0:0:0:
36,192,208357,1,0,0:0:0:0:
182,192,208414,1,0,0:0:0:0:
475,192,208414,1,0,0:0:0:0:
402,192,208414,1,0,0:0:0:0:
329,192,208472,1,0,0:0:0:0:
256,192,208472,1,0,0:0:0:0:
109,192,208530,1,0,0:0:0:0:
36,192,208530,1,0,0:0:0:0:
182,192,208530,1,0,0:0:0:0:
402,192,208530,1,0,0:0:0:0:
475,192,208587,1,0,0:0:0:0:
329,192,208587,1,0,0:0:0:0:
36,192,208645,1,0,0:0:0:0:
109,192,208645,1,0,0:0:0:0:
256,192,208645,1,0,0:0:0:0:
329,192,208703,1,0,0:0:0:0:
402,192,208703,1,0,0:0:0:0:
182,192,208760,1,0,0:0:0:0:
256,192,208760,1,0,0:0:0:0:
475,192,208760,1,0,0:0:0:0:
109,192,208760,1,0,0:0:0:0:
36,192,208818,1,0,0:0:0:0:
329,192,208818,1,0,0:0:0:0:
109,192,208876,1,0,0:0:0:0:
475,192,208876,1,0,0:0:0:0:
402,192,208876,1,0,0:0:0:0:
182,192,208933,1,0,0:0:0:0:
256,192,208933,1,0,0:0:0:0:
36,192,208991,1,0,0:0:0:0:
329,192,208991,1,0,0:0:0:0:
109,192,208991,1,0,0:0:0:0:
402,192,208991,1,0,0:0:0:0:
475,192,209049,1,0,0:0:0:0:
182,192,209049,1,0,0:0:0:0:
256,192,209107,1,0,0:0:0:0:
402,192,209107,1,0,0:0:0:0:
329,192,209107,1,0,0:0:0:0:
109,192,209164,1,0,0:0:0:0:
36,192,209164,1,0,0:0:0:0:
256,192,209222,1,0,0:0:0:0:
329,192,209222,1,0,0:0:0:0:
402,192,209222,1,0,0:0:0:0:
475,192,209222,1,0,0:0:0:0:
109,192,209280,1,0,0:0:0:0:
182,192,209280,1,0,0:0:0:0:
329,192,209337,1,0,0:0:0:0:
475,192,209337,1,0,0:0:0:0:
36,192,209337,1,0,0:0:0:0:
256,192,209395,1,0,0:0:0:0:
402,192,209395,1,0,0:0:0:0:
475,192,209453,1,0,0:0:0:0:
109,192,209453,1,0,0:0:0:0:
36,192,209453,1,0,0:0:0:0:
182,192,209453,1,0,0:0:0:0:
256,192,209510,1,0,0:0:0:0:
329,192,209510,1,0,0:0:0:0:
402,192,209568,1,0,0:0:0:0:
475,192,209568,1,0,0:0:0:0:
36,192,209568,1,0,0:0:0:0:
109,192,209626,1,0,0:0:0:0:
182,192,209626,1,0,0:0:0:0:
256,192,209683,1,0,0:0:0:0:
329,192,209683,1,0,0:0:0:0:
36,192,209683,1,0,0:0:0:0:
402,192,209683,1,0,0:0:0:0:
475,192,209741,1,0,0:0:0:0:
109,192,209741,1,0,0:0:0:0:
182,192,209799,1,0,0:0:0:0:
256,192,209799,1,0,0:0:0:0:
402,192,209799,1,0,0:0:0:0:
329,192,209857,1,0,0:0:0:0:
475,192,209857,1,0,0:0:0:0:
182,192,209914,1,0,0:0:0:0:
109,192,209914,1,0,0:0:0:0:
36,192,209914,1,0,0:0:0:0:
256,192,209914,1,0,0:0:0:0:
329,192,209972,1,0,0:0:0:0:
475,192,209972,1,0,0:0:0:0:
256,192,210030,1,0,0:0:0:0:
109,192,210030,1,0,0:0:0:0:
36,192,210030,1,0,0:0:0:0:
182,192,210087,1,0,0:0:0:0:
402,192,210087,1,0,0:0:0:0:
329,192,210145,1,0,0:0:0:0:
256,192,210145,1,0,0:0:0:0:
109,192,210145,1,0,0:0:0:0:
36,192,210145,1,0,0:0:0:0:
402,192,210203,1,0,0:0:0:0:
475,192,210203,1,0,0:0:0:0:
182,192,210260,1,0,0:0:0:0:
329,192,210260,1,0,0:0:0:0:
256,192,210260,1,0,0:0:0:0:
109,192,210318,1,0,0:0:0:0:
36,192,210318,1,0,0:0:0:0:
329,192,210376,1,0,0:0:0:0:
182,192,210376,1,0,0:0:0:0:
402,192,210376,1,0,0:0:0:0:
475,192,210376,1,0,0:0:0:0:
109,192,210433,1,0,0:0:0:0:
256,192,210433,1,0,0:0:0:0:
329,192,210491,1,0,0:0:0:0:
402,192,210491,1,0,0:0:0:0:
36,192,210491,1,0,0:0:0:0:
475,192,210549,1,0,0:0:0:0:
256,192,210549,1,0,0:0:0:0:
182,192,210607,1,0,0:0:0:0:
109,192,210607,1,0,0:0:0:0:
36,192,210607,1,0,0:0:0:0:
402,192,210607,1,0,0:0:0:0:
329,192,210664,1,0,0:0:0:0:
475,192,210664,1,0,0:0:0:0:
256,192,210722,1,0,0:0:0:0:
36,192,210722,1,0,0:0:0:0:
109,192,210722,1,0,0:0:0:0:
182,192,210780,1,0,0:0:0:0:
329,192,210780,1,0,0:0:0:0:
109,192,210837,1,0,0:0:0:0:
36,192,210837,1,0,0:0:0:0:
402,192,210837,1,0,0:0:0:0:
475,192,210837,1,0,0:0:0:0:
256,192,210895,1,0,0:0:0:0:
329,192,210895,1,0,0:0:0:0:
182,192,210953,1,0,0:0:0:0:
475,192,210953,1,0,0:0:0:0:
402,192,210953,1,0,0:0:0:0:
109,192,211010,1,0,0:0:0:0:
36,192,211010,1,0,0:0:0:0:
256,192,211068,1,0,0:0:0:0:
329,192,211068,1,0,0:0:0:0:
402,192,211068,1,0,0:0:0:0:
475,192,211068,1,0,0:0:0:0:
109,192,211126,1,0,0:0:0:0:
36,192,211126,1,0,0:0:0:0:
329,192,211183,1,0,0:0:0:0:
182,192,211183,1,0,0:0:0:0:
402,192,211183,1,0,0:0:0:0:
256,192,211241,1,0,0:0:0:0:
36,192,211241,1,0,0:0:0:0:
109,192,211299,1,0,0:0:0:0:
182,192,211299,1,0,0:0:0:0:
402,192,211299,1,0,0:0:0:0:
475,192,211299,1,0,0:0:0:0:
256,192,211357,1,0,0:0:0:0:
329,192,211357,1,0,0:0:0:0:
36,192,211414,1,0,0:0:0:0:
109,192,211414,1,0,0:0:0:0:
402,192,211414,1,0,0:0:0:0:
475,192,211472,1,0,0:0:0:0:
329,192,211472,1,0,0:0:0:0:
256,192,211530,1,0,0:0:0:0:
182,192,211530,1,0,0:0:0:0:
109,192,211530,1,0,0:0:0:0:
36,192,211530,1,0,0:0:0:0:
329,192,211587,1,0,0:0:0:0:
402,192,211587,1,0,0:0:0:0:
475,192,211645,1,0,0:0:0:0:
182,192,211645,1,0,0:0:0:0:
36,192,211645,1,0,0:0:0:0:
256,192,211703,1,0,0:0:0:0:
329,192,211703,1,0,0:0:0:0:
402,192,211760,1,0,0:0:0:0:
475,192,211760,1,0,0:0:0:0:
109,192,211760,1,0,0:0:0:0:
36,192,211760,1,0,0:0:0:0:
182,192,211818,1,0,0:0:0:0:
329,192,211818,1,0,0:0:0:0:
256,192,211876,1,0,0:0:0:0:
402,192,211876,1,0,0:0:0:0:
475,192,211876,1,0,0:0:0:0:
182,192,211933,1,0,0:0:0:0:
36,192,211933,1,0,0:0:0:0:
109,192,211991,1,0,0:0:0:0:
256,192,211991,1,0,0:0:0:0:
329,192,211991,1,0,0:0:0:0:
402,192,211991,1,0,0:0:0:0:
475,192,212049,1,0,0:0:0:0:
182,192,212049,1,0,0:0:0:0:
36,192,212107,1,0,0:0:0:0:
109,192,212107,1,0,0:0:0:0:
256,192,212107,1,0,0:0:0:0:
329,192,212164,1,0,0:0:0:0:
402,192,212164,1,0,0:0:0:0:
182,192,212222,1,0,0:0:0:0:
109,192,212222,1,0,0:0:0:0:
36,192,212222,1,0,0:0:0:0:
475,192,212222,1,0,0:0:0:0:
256,192,212280,1,0,0:0:0:0:
329,192,212280,1,0,0:0:0:0:
402,192,212337,1,0,0:0:0:0:
475,192,212337,1,0,0:0:0:0:
36,192,212337,1,0,0:0:0:0:
109,192,212395,1,0,0:0:0:0:
182,192,212395,1,0,0:0:0:0:
256,192,212453,1,0,0:0:0:0:
329,192,212453,1,0,0:0:0:0:
402,192,212453,1,0,0:0:0:0:
36,192,212453,1,0,0:0:0:0:
475,192,212510,1,0,0:0:0:0:
109,192,212510,1,0,0:0:0:0:
182,192,212568,1,0,0:0:0:0:
402,192,212568,1,0,0:0:0:0:
329,192,212568,1,0,0:0:0:0:
256,192,212626,1,0,0:0:0:0:
36,192,212626,1,0,0:0:0:0:
109,192,212683,1,0,0:0:0:0:
182,192,212683,1,0,0:0:0:0:
475,192,212683,1,0,0:0:0:0:
402,192,212683,1,0,0:0:0:0:
329,192,212741,1,0,0:0:0:0:
36,192,212741,1,0,0:0:0:0:
256,192,212799,1,0,0:0:0:0:
402,192,212799,1,0,0:0:0:0:
475,192,212799,1,0,0:0:0:0:
182,192,212857,1,0,0:0:0:0:
36,192,212857,1,0,0:0:0:0:
109,192,212914,1,0,0:0:0:0:
256,192,212914,1,0,0:0:0:0:
329,192,212914,1,0,0:0:0:0:
402,192,212914,1,0,0:0:0:0:
475,192,212972,1,0,0:0:0:0:
182,192,212972,1,0,0:0:0:0:
36,192,213030,1,0,0:0:0:0:
109,192,213030,1,0,0:0:0:0:
329,192,213030,1,0,0:0:0:0:
475,192,213087,1,0,0:0:0:0:
402,192,213087,1,0,0:0:0:0:
256,192,213145,1,0,0:0:0:0:
182,192,213145,1,0,0:0:0:0:
36,192,213145,1,0,0:0:0:0:
109,192,213145,1,0,0:0:0:0:
329,192,213203,1,0,0:0:0:0:
402,192,213203,1,0,0:0:0:0:
36,192,213260,1,0,0:0:0:0:
109,192,213260,1,0,0:0:0:0:
256,192,213260,1,0,0:0:0:0:
329,192,213318,1,0,0:0:0:0:
182,192,213318,1,0,0:0:0:0:
402,192,213376,1,0,0:0:0:0:
475,192,213376,1,0,0:0:0:0:
109,192,213376,1,0,0:0:0:0:
36,192,213376,1,0,0:0:0:0:
256,192,213433,1,0,0:0:0:0:
329,192,213433,1,0,0:0:0:0:
182,192,213491,1,0,0:0:0:0:
402,192,213491,1,0,0:0:0:0:
475,192,213491,1,0,0:0:0:0:
109,192,213549,1,0,0:0:0:0:
36,192,213549,1,0,0:0:0:0:
182,192,213607,1,0,0:0:0:0:
256,192,213607,1,0,0:0:0:0:
329,192,213607,1,0,0:0:0:0:
402,192,213607,1,0,0:0:0:0:
475,192,213664,1,0,0:0:0:0:
36,192,213664,1,0,0:0:0:0:
109,192,213722,1,0,0:0:0:0:
182,192,213722,1,0,0:0:0:0:
256,192,213722,1,0,0:0:0:0:
329,192,213780,1,0,0:0:0:0:
475,192,213780,1,0,0:0:0:0:
402,192,213837,1,0,0:0:0:0:
182,192,213837,1,0,0:0:0:0:
109,192,213837,1,0,0:0:0:0:
36,192,213837,1,0,0:0:0:0:
256,192,213895,1,0,0:0:0:0:
329,192,213895,1,0,0:0:0:0:
475,192,213953,1,0,0:0:0:0:
109,192,213953,1,0,0:0:0:0:
36,192,213953,1,0,0:0:0:0:
402,192,214010,1,0,0:0:0:0:
182,192,214010,1,0,0:0:0:0:
109,192,214068,1,0,0:0:0:0:
36,192,214068,1,0,0:0:0:0:
329,192,214068,1,0,0:0:0:0:
256,192,214068,1,0,0:0:0:0:
402,192,214126,1,0,0:0:0:0:
475,192,214126,1,0,0:0:0:0:
182,192,214183,1,0,0:0:0:0:
36,192,214183,1,0,0:0:0:0:
256,192,214183,1,0,0:0:0:0:
329,192,214241,1,0,0:0:0:0:
475,192,214241,1,0,0:0:0:0:
182,192,214299,1,0,0:0:0:0:
109,192,214299,1,0,0:0:0:0:
36,192,214299,1,0,0:0:0:0:
256,192,214299,1,0,0:0:0:0:
402,192,214357,1,0,0:0:0:0:
475,192,214357,1,0,0:0:0:0:
109,192,214414,1,0,0:0:0:0:
36,192,214414,1,0,0:0:0:0:
329,192,214414,1,0,0:0:0:0:
256,192,214472,1,0,0:0:0:0:
182,192,214472,1,0,0:0:0:0:
109,192,214530,1,0,0:0:0:0:
36,192,214530,1,0,0:0:0:0:
402,192,214530,1,0,0:0:0:0:
475,192,214530,1,0,0:0:0:0:
329,192,214587,1,0,0:0:0:0:
182,192,214587,1,0,0:0:0:0:
256,192,214645,1,0,0:0:0:0:
109,192,214645,1,0,0:0:0:0:
36,192,214645,1,0,0:0:0:0:
329,192,214703,1,0,0:0:0:0:
475,192,214703,1,0,0:0:0:0:
402,192,214760,1,0,0:0:0:0:
182,192,214760,1,0,0:0:0:0:
109,192,214760,1,0,0:0:0:0:
36,192,214760,1,0,0:0:0:0:
256,192,214818,1,0,0:0:0:0:
329,192,214818,1,0,0:0:0:0:
109,192,214876,1,0,0:0:0:0:
475,192,214876,1,0,0:0:0:0:
36,192,214876,1,0,0:0:0:0:
329,192,214933,1,0,0:0:0:0:
182,192,214933,1,0,0:0:0:0:
109,192,214991,1,0,0:0:0:0:
36,192,214991,1,0,0:0:0:0:
475,192,214991,1,0,0:0:0:0:
402,192,214991,1,0,0:0:0:0:
256,192,215049,1,0,0:0:0:0:
329,192,215049,1,0,0:0:0:0:
402,192,215107,1,0,0:0:0:0:
182,192,215107,1,0,0:0:0:0:
109,192,215107,1,0,0:0:0:0:
36,192,215164,1,0,0:0:0:0:
475,192,215164,1,0,0:0:0:0:
256,192,215222,1,0,0:0:0:0:
329,192,215222,1,0,0:0:0:0:
402,192,215222,1,0,0:0:0:0:
109,192,215222,1,0,0:0:0:0:
36,192,215280,1,0,0:0:0:0:
182,192,215280,1,0,0:0:0:0:
256,192,215337,1,0,0:0:0:0:
475,192,215337,1,0,0:0:0:0:
329,192,215395,1,0,0:0:0:0:
402,192,215395,1,0,0:0:0:0:
182,192,215453,1,0,0:0:0:0:
36,192,215453,1,0,0:0:0:0:
109,192,215453,1,0,0:0:0:0:
256,192,215453,1,0,0:0:0:0:
329,192,215510,1,0,0:0:0:0:
475,192,215510,1,0,0:0:0:0:
402,192,215568,1,0,0:0:0:0:
182,192,215568,1,0,0:0:0:0:
36,192,215568,1,0,0:0:0:0:
109,192,215626,1,0,0:0:0:0:
256,192,215626,1,0,0:0:0:0:
329,192,215683,1,0,0:0:0:0:
402,192,215683,1,0,0:0:0:0:
475,192,215683,1,0,0:0:0:0:
182,192,215683,1,0,0:0:0:0:
36,192,215741,1,0,0:0:0:0:
109,192,215741,1,0,0:0:0:0:
182,192,215799,1,0,0:0:0:0:
329,192,215799,1,0,0:0:0:0:
402,192,215799,1,0,0:0:0:0:
475,192,215857,1,0,0:0:0:0:
256,192,215857,1,0,0:0:0:0:
182,192,215914,1,0,0:0:0:0:
109,192,215914,1,0,0:0:0:0:
36,192,215914,1,0,0:0:0:0:
329,192,215914,1,0,0:0:0:0:
402,192,215972,1,0,0:0:0:0:
475,192,215972,1,0,0:0:0:0:
256,192,216030,1,0,0:0:0:0:
109,192,216030,1,0,0:0:0:0:
36,192,216030,1,0,0:0:0:0:
329,192,216087,1,0,0:0:0:0:
182,192,216087,1,0,0:0:0:0:
402,192,216145,1,0,0:0:0:0:
109,192,216145,1,0,0:0:0:0:
36,192,216145,1,0,0:0:0:0:
475,192,216145,1,0,0:0:0:0:
256,192,216203,1,0,0:0:0:0:
329,192,216203,1,0,0:0:0:0:
36,192,216260,1,0,0:0:0:0:
402,192,216260,1,0,0:0:0:0:
109,192,216260,1,0,0:0:0:0:
256,192,216318,1,0,0:0:0:0:
182,192,216318,1,0,0:0:0:0:
329,192,216376,1,0,0:0:0:0:
402,192,216376,1,0,0:0:0:0:
475,192,216376,1,0,0:0:0:0:
36,192,216376,1,0,0:0:0:0:
109,192,216433,1,0,0:0:0:0:
256,192,216433,1,0,0:0:0:0:
329,192,216491,1,0,0:0:0:0:
182,192,216491,1,0,0:0:0:0:
402,192,216491,1,0,0:0:0:0:
36,192,216549,1,0,0:0:0:0:
109,192,216549,1,0,0:0:0:0:
256,192,216607,1,0,0:0:0:0:
182,192,216607,1,0,0:0:0:0:
402,192,216607,1,0,0:0:0:0:
329,192,216607,1,0,0:0:0:0:
475,192,216664,1,0,0:0:0:0:
109,192,216664,1,0,0:0:0:0:
36,192,216722,1,0,0:0:0:0:
182,192,216722,1,0,0:0:0:0:
329,192,216722,1,0,0:0:0:0:
256,192,216780,1,0,0:0:0:0:
402,192,216780,1,0,0:0:0:0:
329,192,216837,1,0,0:0:0:0:
475,192,216837,1,0,0:0:0:0:
109,192,216837,1,0,0:0:0:0:
36,192,216837,1,0,0:0:0:0:
182,192,216895,1,0,0:0:0:0:
256,192,216895,1,0,0:0:0:0:
329,192,216953,1,0,0:0:0:0:
109,192,216953,1,0,0:0:0:0:
402,192,216953,1,0,0:0:0:0:
182,192,217010,1,0,0:0:0:0:
36,192,217010,1,0,0:0:0:0:
256,192,217068,1,0,0:0:0:0:
329,192,217068,1,0,0:0:0:0:
475,192,217068,1,0,0:0:0:0:
402,192,217068,1,0,0:0:0:0:
109,192,217126,1,0,0:0:0:0:
36,192,217126,1,0,0:0:0:0:
182,192,217183,1,0,0:0:0:0:
475,192,217183,1,0,0:0:0:0:
329,192,217183,1,0,0:0:0:0:
256,192,217241,1,0,0:0:0:0:
402,192,217241,1,0,0:0:0:0:
329,192,217299,1,0,0:0:0:0:
182,192,217299,1,0,0:0:0:0:
109,192,217299,1,0,0:0:0:0:
36,192,217299,1,0,0:0:0:0:
256,192,217357,1,0,0:0:0:0:
475,192,217357,1,0,0:0:0:0:
402,192,217414,1,0,0:0:0:0:
329,192,217414,1,0,0:0:0:0:
36,192,217414,1,0,0:0:0:0:
109,192,217472,1,0,0:0:0:0:
182,192,217472,1,0,0:0:0:0:
256,192,217530,1,0,0:0:0:0:
329,192,217530,1,0,0:0:0:0:
402,192,217530,1,0,0:0:0:0:
475,192,217530,1,0,0:0:0:0:
36,192,217587,1,0,0:0:0:0:
109,192,217587,1,0,0:0:0:0:
182,192,217645,1,0,0:0:0:0:
329,192,217645,1,0,0:0:0:0:
402,192,217645,1,0,0:0:0:0:
475,192,217703,1,0,0:0:0:0:
256,192,217703,1,0,0:0:0:0:
182,192,217760,1,0,0:0:0:0:
109,192,217760,1,0,0:0:0:0:
36,192,217760,1,0,0:0:0:0:
329,192,217760,1,0,0:0:0:0:
402,192,217818,1,0,0:0:0:0:
475,192,217818,1,0,0:0:0:0:
256,192,217876,1,0,0:0:0:0:
36,192,217876,1,0,0:0:0:0:
109,192,217876,1,0,0:0:0:0:
329,192,217933,1,0,0:0:0:0:
402,192,217933,1,0,0:0:0:0:
36,192,217991,1,0,0:0:0:0:
109,192,217991,1,0,0:0:0:0:
182,192,217991,1,0,0:0:0:0:
256,192,217991,1,0,0:0:0:0:
329,192,218030,1,0,0:0:0:0:
475,192,218049,1,0,0:0:0:0:
182,192,218078,1,0,0:0:0:0:
402,192,218078,1,0,0:0:0:0:
36,192,218107,1,0,0:0:0:0:
256,192,218107,1,0,0:0:0:0:
329,192,218135,1,0,0:0:0:0:
109,192,218135,1,0,0:0:0:0:
182,192,218164,1,0,0:0:0:0:
256,192,218183,1,0,0:0:0:0:
36,192,218222,1,0,0:0:0:0:
109,192,218453,1,0,0:0:0:0:
36,192,218453,1,0,0:0:0:0:
182,192,218491,1,0,0:0:0:0:
475,192,218491,1,0,0:0:0:0:
256,192,218530,1,0,0:0:0:0:
402,192,218530,1,0,0:0:0:0:
329,192,218568,1,0,0:0:0:0:
36,192,218568,1,0,0:0:0:0:
402,192,218597,1,0,0:0:0:0:
109,192,218607,1,0,0:0:0:0:
475,192,218626,1,0,0:0:0:0:
182,192,218645,1,0,0:0:0:0:
329,192,218655,1,0,0:0:0:0:
256,192,218683,1,0,0:0:0:0:
402,192,218683,1,0,0:0:0:0:
402,192,218914,1,0,0:0:0:0:
329,192,218914,1,0,0:0:0:0:
475,192,218914,1,0,0:0:0:0:
36,192,218953,1,0,0:0:0:0:
109,192,218953,1,0,0:0:0:0:
475,192,218991,1,0,0:0:0:0:
182,192,218991,1,0,0:0:0:0:
402,192,219030,1,0,0:0:0:0:
256,192,219030,1,0,0:0:0:0:
329,192,219068,1,0,0:0:0:0:
182,192,219068,1,0,0:0:0:0:
109,192,219107,1,0,0:0:0:0:
36,192,219145,1,0,0:0:0:0:
182,192,219376,1,0,0:0:0:0:
36,192,219376,1,0,0:0:0:0:
109,192,219376,1,0,0:0:0:0:
475,192,219376,1,0,0:0:0:0:
256,192,219414,1,0,0:0:0:0:
402,192,219414,1,0,0:0:0:0:
329,192,219453,1,0,0:0:0:0:
402,192,219491,1,0,0:0:0:0:
475,192,219491,1,0,0:0:0:0:
182,192,219491,1,0,0:0:0:0:
256,192,219530,1,0,0:0:0:0:
109,192,219530,1,0,0:0:0:0:
329,192,219568,1,0,0:0:0:0:
36,192,219568,1,0,0:0:0:0:
402,192,219607,1,0,0:0:0:0:
182,192,219607,1,0,0:0:0:0:
402,192,219722,1,0,0:0:0:0:
475,192,219722,1,0,0:0:0:0:
109,192,219837,1,0,0:0:0:0:
182,192,219837,1,0,0:0:0:0:
36,192,219837,1,0,0:0:0:0:
256,192,219837,1,0,0:0:0:0:
329,192,219895,1,0,0:0:0:0:
475,192,219895,1,0,0:0:0:0:
256,192,219953,1,0,0:0:0:0:
109,192,219953,1,0,0:0:0:0:
36,192,219953,1,0,0:0:0:0:
182,192,220010,1,0,0:0:0:0:
329,192,220010,1,0,0:0:0:0:
109,192,220068,1,0,0:0:0:0:
36,192,220068,1,0,0:0:0:0:
475,192,220068,1,0,0:0:0:0:
402,192,220068,1,0,0:0:0:0:
256,192,220126,1,0,0:0:0:0:
182,192,220126,1,0,0:0:0:0:
329,192,220183,1,0,0:0:0:0:
475,192,220183,1,0,0:0:0:0:
402,192,220183,1,0,0:0:0:0:
109,192,220241,1,0,0:0:0:0:
36,192,220241,1,0,0:0:0:0:
182,192,220299,1,0,0:0:0:0:
256,192,220299,1,0,0:0:0:0:
329,192,220299,1,0,0:0:0:0:
475,192,220299,1,0,0:0:0:0:
402,192,220357,1,0,0:0:0:0:
36,192,220357,1,0,0:0:0:0:
109,192,220414,1,0,0:0:0:0:
182,192,220414,1,0,0:0:0:0:
329,192,220414,1,0,0:0:0:0:
402,192,220472,1,0,0:0:0:0:
475,192,220472,1,0,0:0:0:0:
256,192,220530,1,0,0:0:0:0:
182,192,220530,1,0,0:0:0:0:
109,192,220530,1,0,0:0:0:0:
36,192,220530,1,0,0:0:0:0:
329,192,220587,1,0,0:0:0:0:
475,192,220587,1,0,0:0:0:0:
36,192,220645,1,0,0:0:0:0:
182,192,220645,1,0,0:0:0:0:
256,192,220645,1,0,0:0:0:0:
329,192,220703,1,0,0:0:0:0:
402,192,220703,1,0,0:0:0:0:
182,192,220760,1,0,0:0:0:0:
109,192,220760,1,0,0:0:0:0:
36,192,220760,1,0,0:0:0:0:
475,192,220760,1,0,0:0:0:0:
256,192,220818,1,0,0:0:0:0:
402,192,220818,1,0,0:0:0:0:
329,192,220876,1,0,0:0:0:0:
182,192,220876,1,0,0:0:0:0:
36,192,220876,1,0,0:0:0:0:
109,192,220933,1,0,0:0:0:0:
256,192,220933,1,0,0:0:0:0:
329,192,220991,1,0,0:0:0:0:
402,192,220991,1,0,0:0:0:0:
475,192,220991,1,0,0:0:0:0:
182,192,220991,1,0,0:0:0:0:
109,192,221049,1,0,0:0:0:0:
36,192,221049,1,0,0:0:0:0:
182,192,221107,1,0,0:0:0:0:
329,192,221107,1,0,0:0:0:0:
475,192,221107,1,0,0:0:0:0:
402,192,221164,1,0,0:0:0:0:
256,192,221164,1,0,0:0:0:0:
182,192,221222,1,0,0:0:0:0:
109,192,221222,1,0,0:0:0:0:
36,192,221222,1,0,0:0:0:0:
329,192,221222,1,0,0:0:0:0:
402,192,221280,1,0,0:0:0:0:
475,192,221280,1,0,0:0:0:0:
329,192,221337,1,0,0:0:0:0:
36,192,221337,1,0,0:0:0:0:
109,192,221337,1,0,0:0:0:0:
256,192,221395,1,0,0:0:0:0:
182,192,221395,1,0,0:0:0:0:
402,192,221453,1,0,0:0:0:0:
109,192,221453,1,0,0:0:0:0:
475,192,221453,1,0,0:0:0:0:
36,192,221453,1,0,0:0:0:0:
182,192,221510,1,0,0:0:0:0:
329,192,221510,1,0,0:0:0:0:
256,192,221568,1,0,0:0:0:0:
402,192,221568,1,0,0:0:0:0:
475,192,221568,1,0,0:0:0:0:
109,192,221626,1,0,0:0:0:0:
36,192,221626,1,0,0:0:0:0:
182,192,221683,1,0,0:0:0:0:
256,192,221683,1,0,0:0:0:0:
329,192,221683,1,0,0:0:0:0:
475,192,221683,1,0,0:0:0:0:
402,192,221741,1,0,0:0:0:0:
36,192,221741,1,0,0:0:0:0:
475,192,221799,1,0,0:0:0:0:
182,192,221799,1,0,0:0:0:0:
109,192,221799,1,0,0:0:0:0:
329,192,221857,1,0,0:0:0:0:
402,192,221857,1,0,0:0:0:0:
256,192,221914,1,0,0:0:0:0:
182,192,221914,1,0,0:0:0:0:
36,192,221914,1,0,0:0:0:0:
109,192,221914,1,0,0:0:0:0:
329,192,221972,1,0,0:0:0:0:
475,192,221972,1,0,0:0:0:0:
109,192,222030,1,0,0:0:0:0:
36,192,222030,1,0,0:0:0:0:
256,192,222030,1,0,0:0:0:0:
329,192,222087,1,0,0:0:0:0:
182,192,222087,1,0,0:0:0:0:
109,192,222145,1,0,0:0:0:0:
402,192,222145,1,0,0:0:0:0:
475,192,222145,1,0,0:0:0:0:
36,192,222145,1,0,0:0:0:0:
182,192,222203,1,0,0:0:0:0:
329,192,222203,1,0,0:0:0:0:
36,192,222260,1,0,0:0:0:0:
109,192,222260,1,0,0:0:0:0:
256,192,222260,1,0,0:0:0:0:
329,192,222318,1,0,0:0:0:0:
475,192,222318,1,0,0:0:0:0:
402,192,222376,1,0,0:0:0:0:
109,192,222376,1,0,0:0:0:0:
182,192,222376,1,0,0:0:0:0:
36,192,222376,1,0,0:0:0:0:
329,192,222433,1,0,0:0:0:0:
256,192,222433,1,0,0:0:0:0:
36,192,222491,1,0,0:0:0:0:
475,192,222491,1,0,0:0:0:0:
402,192,222491,1,0,0:0:0:0:
182,192,222549,1,0,0:0:0:0:
109,192,222549,1,0,0:0:0:0:
475,192,222607,1,0,0:0:0:0:
256,192,222607,1,0,0:0:0:0:
329,192,222607,1,0,0:0:0:0:
402,192,222607,1,0,0:0:0:0:
36,192,222664,1,0,0:0:0:0:
109,192,222664,1,0,0:0:0:0:
182,192,222722,1,0,0:0:0:0:
329,192,222722,1,0,0:0:0:0:
402,192,222780,1,0,0:0:0:0:
475,192,222780,1,0,0:0:0:0:
36,192,222837,1,0,0:0:0:0:
256,192,222837,1,0,0:0:0:0:
182,192,222837,1,0,0:0:0:0:
109,192,222837,1,0,0:0:0:0:
329,192,222895,1,0,0:0:0:0:
475,192,222895,1,0,0:0:0:0:
402,192,222953,1,0,0:0:0:0:
256,192,222953,1,0,0:0:0:0:
182,192,222953,1,0,0:0:0:0:
109,192,223010,1,0,0:0:0:0:
36,192,223010,1,0,0:0:0:0:
256,192,223068,1,0,0:0:0:0:
329,192,223068,1,0,0:0:0:0:
402,192,223068,1,0,0:0:0:0:
475,192,223068,1,0,0:0:0:0:
109,192,223126,1,0,0:0:0:0:
36,192,223126,1,0,0:0:0:0:
256,192,223183,1,0,0:0:0:0:
475,192,223183,1,0,0:0:0:0:
182,192,223183,1,0,0:0:0:0:
329,192,223241,1,0,0:0:0:0:
402,192,223241,1,0,0:0:0:0:
109,192,223299,1,0,0:0:0:0:
36,192,223299,1,0,0:0:0:0:
475,192,223299,1,0,0:0:0:0:
182,192,223299,1,0,0:0:0:0:
256,192,223357,1,0,0:0:0:0:
402,192,223357,1,0,0:0:0:0:
329,192,223414,1,0,0:0:0:0:
475,192,223414,1,0,0:0:0:0:
182,192,223414,1,0,0:0:0:0:
109,192,223472,1,0,0:0:0:0:
36,192,223472,1,0,0:0:0:0:
256,192,223530,1,0,0:0:0:0:
329,192,223530,1,0,0:0:0:0:
182,192,223530,1,0,0:0:0:0:
475,192,223530,1,0,0:0:0:0:
109,192,223587,1,0,0:0:0:0:
36,192,223587,1,0,0:0:0:0:
182,192,223645,1,0,0:0:0:0:
475,192,223645,1,0,0:0:0:0:
402,192,223645,1,0,0:0:0:0:
256,192,223703,1,0,0:0:0:0:
329,192,223703,1,0,0:0:0:0:
109,192,223760,1,0,0:0:0:0:
36,192,223760,1,0,0:0:0:0:
402,192,223760,1,0,0:0:0:0:
475,192,223760,1,0,0:0:0:0:
182,192,223818,1,0,0:0:0:0:
256,192,223818,1,0,0:0:0:0:
329,192,223876,1,0,0:0:0:0:
475,192,223876,1,0,0:0:0:0:
36,192,223876,1,0,0:0:0:0:
109,192,223933,1,0,0:0:0:0:
182,192,223933,1,0,0:0:0:0:
256,192,223991,1,0,0:0:0:0:
329,192,223991,1,0,0:0:0:0:
475,192,223991,1,0,0:0:0:0:
402,192,223991,1,0,0:0:0:0:
109,192,224049,1,0,0:0:0:0:
36,192,224049,1,0,0:0:0:0:
182,192,224107,1,0,0:0:0:0:
402,192,224107,1,0,0:0:0:0:
475,192,224107,1,0,0:0:0:0:
256,192,224164,1,0,0:0:0:0:
329,192,224164,1,0,0:0:0:0:
109,192,224222,1,0,0:0:0:0:
36,192,224222,1,0,0:0:0:0:
402,192,224222,1,0,0:0:0:0:
475,192,224222,1,0,0:0:0:0:
182,192,224280,1,0,0:0:0:0:
329,192,224280,1,0,0:0:0:0:
256,192,224337,1,0,0:0:0:0:
109,192,224337,1,0,0:0:0:0:
36,192,224337,1,0,0:0:0:0:
402,192,224395,1,0,0:0:0:0:
475,192,224395,1,0,0:0:0:0:
329,192,224453,1,0,0:0:0:0:
182,192,224453,1,0,0:0:0:0:
109,192,224453,1,0,0:0:0:0:
36,192,224453,1,0,0:0:0:0:
256,192,224510,1,0,0:0:0:0:
402,192,224510,1,0,0:0:0:0:
36,192,224568,1,0,0:0:0:0:
182,192,224568,1,0,0:0:0:0:
475,192,224568,1,0,0:0:0:0:
109,192,224626,1,0,0:0:0:0:
256,192,224626,1,0,0:0:0:0:
329,192,224683,1,0,0:0:0:0:
402,192,224683,1,0,0:0:0:0:
475,192,224683,1,0,0:0:0:0:
182,192,224683,1,0,0:0:0:0:
36,192,224741,1,0,0:0:0:0:
109,192,224741,1,0,0:0:0:0:
256,192,224799,1,0,0:0:0:0:
402,192,224799,1,0,0:0:0:0:
475,192,224799,1,0,0:0:0:0:
182,192,224857,1,0,0:0:0:0:
109,192,224857,1,0,0:0:0:0:
36,192,224914,1,0,0:0:0:0:
256,192,224914,1,0,0:0:0:0:
329,192,224914,1,0,0:0:0:0:
402,192,224914,1,0,0:0:0:0:
475,192,224972,1,0,0:0:0:0:
182,192,224972,1,0,0:0:0:0:
109,192,225030,1,0,0:0:0:0:
36,192,225030,1,0,0:0:0:0:
256,192,225030,1,0,0:0:0:0:
329,192,225087,1,0,0:0:0:0:
402,192,225087,1,0,0:0:0:0:
475,192,225145,1,0,0:0:0:0:
256,192,225145,1,0,0:0:0:0:
182,192,225145,1,0,0:0:0:0:
109,192,225145,1,0,0:0:0:0:
36,192,225203,1,0,0:0:0:0:
329,192,225203,1,0,0:0:0:0:
402,192,225260,1,0,0:0:0:0:
475,192,225260,1,0,0:0:0:0:
109,192,225260,1,0,0:0:0:0:
256,192,225318,1,0,0:0:0:0:
182,192,225318,1,0,0:0:0:0:
329,192,225376,1,0,0:0:0:0:
402,192,225376,1,0,0:0:0:0:
475,192,225376,1,0,0:0:0:0:
109,192,225376,1,0,0:0:0:0:
36,192,225433,1,0,0:0:0:0:
182,192,225433,1,0,0:0:0:0:
256,192,225491,1,0,0:0:0:0:
329,192,225491,1,0,0:0:0:0:
475,192,225491,1,0,0:0:0:0:
182,192,225549,1,0,0:0:0:0:
109,192,225549,1,0,0:0:0:0:
36,192,225607,1,0,0:0:0:0:
256,192,225607,1,0,0:0:0:0:
329,192,225607,1,0,0:0:0:0:
402,192,225607,1,0,0:0:0:0:
475,192,225664,1,0,0:0:0:0:
109,192,225664,1,0,0:0:0:0:
182,192,225722,1,0,0:0:0:0:
329,192,225722,1,0,0:0:0:0:
402,192,225722,1,0,0:0:0:0:
475,192,225780,1,0,0:0:0:0:
256,192,225780,1,0,0:0:0:0:
182,192,225837,1,0,0:0:0:0:
36,192,225837,1,0,0:0:0:0:
109,192,225837,1,0,0:0:0:0:
329,192,225837,1,0,0:0:0:0:
475,192,225895,1,0,0:0:0:0:
402,192,225895,1,0,0:0:0:0:
182,192,225953,1,0,0:0:0:0:
36,192,225953,1,0,0:0:0:0:
256,192,225953,1,0,0:0:0:0:
402,192,226010,1,0,0:0:0:0:
475,192,226010,1,0,0:0:0:0:
182,192,226068,1,0,0:0:0:0:
36,192,226068,1,0,0:0:0:0:
109,192,226068,1,0,0:0:0:0:
256,192,226068,1,0,0:0:0:0:
329,192,226126,1,0,0:0:0:0:
402,192,226126,1,0,0:0:0:0:
475,192,226183,1,0,0:0:0:0:
256,192,226183,1,0,0:0:0:0:
36,192,226183,1,0,0:0:0:0:
182,192,226241,1,0,0:0:0:0:
109,192,226241,1,0,0:0:0:0:
402,192,226299,1,0,0:0:0:0:
475,192,226299,1,0,0:0:0:0:
329,192,226299,1,0,0:0:0:0:
256,192,226299,1,0,0:0:0:0:
36,192,226414,1,0,0:0:0:0:
475,192,226414,1,0,0:0:0:0:
109,192,226414,1,0,0:0:0:0:
402,192,226414,1,0,0:0:0:0:
256,192,226530,1,0,0:0:0:0:
182,192,226530,1,0,0:0:0:0:
109,192,226530,1,0,0:0:0:0:
36,192,226530,1,0,0:0:0:0:
182,192,226645,1,0,0:0:0:0:
109,192,226645,1,0,0:0:0:0:
329,192,226645,1,0,0:0:0:0:
402,192,226645,1,0,0:0:0:0:
256,192,226760,1,0,0:0:0:0:
329,192,226760,1,0,0:0:0:0:
402,192,226760,1,0,0:0:0:0:
475,192,226760,1,0,0:0:0:0:
182,192,226876,1,0,0:0:0:0:
256,192,226876,1,0,0:0:0:0:
109,192,226876,1,0,0:0:0:0:
36,192,226876,1,0,0:0:0:0:
109,192,226991,1,0,0:0:0:0:
475,192,226991,1,0,0:0:0:0:
402,192,226991,1,0,0:0:0:0:
182,192,226991,1,0,0:0:0:0:
256,192,227107,1,0,0:0:0:0:
329,192,227107,1,0,0:0:0:0:
402,192,227107,1,0,0:0:0:0:
475,192,227107,1,0,0:0:0:0:
256,192,227222,1,0,0:0:0:0:
109,192,227222,1,0,0:0:0:0:
36,192,227222,1,0,0:0:0:0:
182,192,227222,1,0,0:0:0:0:
329,192,227280,1,0,0:0:0:0:
475,192,227280,1,0,0:0:0:0:
402,192,227337,1,0,0:0:0:0:
109,192,227337,1,0,0:0:0:0:
36,192,227337,1,0,0:0:0:0:
182,192,227395,1,0,0:0:0:0:
256,192,227395,1,0,0:0:0:0:
402,192,227453,1,0,0:0:0:0:
475,192,227453,1,0,0:0:0:0:
109,192,227453,1,0,0:0:0:0:
36,192,227453,1,0,0:0:0:0:
256,192,227510,1,0,0:0:0:0:
329,192,227510,1,0,0:0:0:0:
402,192,227568,1,0,0:0:0:0:
182,192,227568,1,0,0:0:0:0:
475,192,227568,1,0,0:0:0:0:
109,192,227626,1,0,0:0:0:0:
36,192,227626,1,0,0:0:0:0:
256,192,227683,1,0,0:0:0:0:
329,192,227683,1,0,0:0:0:0:
402,192,227683,1,0,0:0:0:0:
475,192,227683,1,0,0:0:0:0:
182,192,227741,1,0,0:0:0:0:
36,192,227741,1,0,0:0:0:0:
109,192,227799,1,0,0:0:0:0:
256,192,227799,1,0,0:0:0:0:
329,192,227799,1,0,0:0:0:0:
402,192,227857,1,0,0:0:0:0:
475,192,227857,1,0,0:0:0:0:
182,192,227914,1,0,0:0:0:0:
109,192,227914,1,0,0:0:0:0:
36,192,227914,1,0,0:0:0:0:
256,192,227914,1,0,0:0:0:0:
329,192,227972,1,0,0:0:0:0:
475,192,227972,1,0,0:0:0:0:
109,192,228030,1,0,0:0:0:0:
36,192,228030,1,0,0:0:0:0:
256,192,228030,1,0,0:0:0:0:
182,192,228087,1,0,0:0:0:0:
329,192,228087,1,0,0:0:0:0:
402,192,228145,1,0,0:0:0:0:
475,192,228145,1,0,0:0:0:0:
109,192,228145,1,0,0:0:0:0:
36,192,228145,1,0,0:0:0:0:
182,192,228203,1,0,0:0:0:0:
329,192,228203,1,0,0:0:0:0:
402,192,228260,1,0,0:0:0:0:
475,192,228260,1,0,0:0:0:0:
256,192,228260,1,0,0:0:0:0:
109,192,228318,1,0,0:0:0:0:
36,192,228318,1,0,0:0:0:0:
402,192,228376,1,0,0:0:0:0:
475,192,228376,1,0,0:0:0:0:
329,192,228376,1,0,0:0:0:0:
256,192,228376,1,0,0:0:0:0:
182,192,228433,1,0,0:0:0:0:
36,192,228433,1,0,0:0:0:0:
329,192,228491,1,0,0:0:0:0:
475,192,228491,1,0,0:0:0:0:
109,192,228491,1,0,0:0:0:0:
256,192,228549,1,0,0:0:0:0:
402,192,228549,1,0,0:0:0:0:
182,192,228607,1,0,0:0:0:0:
109,192,228607,1,0,0:0:0:0:
36,192,228607,1,0,0:0:0:0:
329,192,228607,1,0,0:0:0:0:
402,192,228664,1,0,0:0:0:0:
475,192,228664,1,0,0:0:0:0:
256,192,228722,1,0,0:0:0:0:
36,192,228722,1,0,0:0:0:0:
109,192,228722,1,0,0:0:0:0:
329,192,228780,1,0,0:0:0:0:
402,192,228780,1,0,0:0:0:0:
475,192,228837,1,0,0:0:0:0:
182,192,228837,1,0,0:0:0:0:
109,192,228837,1,0,0:0:0:0:
36,192,228837,1,0,0:0:0:0:
256,192,228895,1,0,0:0:0:0:
402,192,228895,1,0,0:0:0:0:
329,192,228953,1,0,0:0:0:0:
182,192,228953,1,0,0:0:0:0:
475,192,228953,1,0,0:0:0:0:
36,192,229010,1,0,0:0:0:0:
109,192,229010,1,0,0:0:0:0:
256,192,229068,1,0,0:0:0:0:
329,192,229068,1,0,0:0:0:0:
402,192,229068,1,0,0:0:0:0:
475,192,229068,1,0,0:0:0:0:
182,192,229126,1,0,0:0:0:0:
36,192,229126,1,0,0:0:0:0:
109,192,229183,1,0,0:0:0:0:
256,192,229183,1,0,0:0:0:0:
329,192,229183,1,0,0:0:0:0:
402,192,229241,1,0,0:0:0:0:
475,192,229241,1,0,0:0:0:0:
256,192,229299,1,0,0:0:0:0:
182,192,229299,1,0,0:0:0:0:
109,192,229299,1,0,0:0:0:0:
36,192,229299,1,0,0:0:0:0:
329,192,229357,1,0,0:0:0:0:
402,192,229357,1,0,0:0:0:0:
182,192,229414,1,0,0:0:0:0:
36,192,229414,1,0,0:0:0:0:
256,192,229414,1,0,0:0:0:0:
329,192,229472,1,0,0:0:0:0:
475,192,229472,1,0,0:0:0:0:
402,192,229530,1,0,0:0:0:0:
182,192,229530,1,0,0:0:0:0:
109,192,229530,1,0,0:0:0:0:
36,192,229530,1,0,0:0:0:0:
256,192,229587,1,0,0:0:0:0:
329,192,229587,1,0,0:0:0:0:
109,192,229645,1,0,0:0:0:0:
475,192,229645,1,0,0:0:0:0:
36,192,229645,1,0,0:0:0:0:
329,192,229703,1,0,0:0:0:0:
182,192,229703,1,0,0:0:0:0:
109,192,229760,1,0,0:0:0:0:
36,192,229760,1,0,0:0:0:0:
475,192,229760,1,0,0:0:0:0:
402,192,229760,1,0,0:0:0:0:
256,192,229818,1,0,0:0:0:0:
329,192,229818,1,0,0:0:0:0:
402,192,229876,1,0,0:0:0:0:
182,192,229876,1,0,0:0:0:0:
109,192,229876,1,0,0:0:0:0:
36,192,229933,1,0,0:0:0:0:
475,192,229933,1,0,0:0:0:0:
256,192,229991,1,0,0:0:0:0:
329,192,229991,1,0,0:0:0:0:
402,192,229991,1,0,0:0:0:0:
109,192,229991,1,0,0:0:0:0:
36,192,230049,1,0,0:0:0:0:
182,192,230049,1,0,0:0:0:0:
256,192,230107,1,0,0:0:0:0:
475,192,230107,1,0,0:0:0:0:
329,192,230164,1,0,0:0:0:0:
402,192,230164,1,0,0:0:0:0:
182,192,230222,1,0,0:0:0:0:
36,192,230222,1,0,0:0:0:0:
109,192,230222,1,0,0:0:0:0:
256,192,230222,1,0,0:0:0:0:
329,192,230280,1,0,0:0:0:0:
475,192,230280,1,0,0:0:0:0:
402,192,230337,1,0,0:0:0:0:
182,192,230337,1,0,0:0:0:0:
36,192,230337,1,0,0:0:0:0:
109,192,230395,1,0,0:0:0:0:
256,192,230395,1,0,0:0:0:0:
329,192,230453,1,0,0:0:0:0:
402,192,230453,1,0,0:0:0:0:
475,192,230453,1,0,0:0:0:0:
182,192,230453,1,0,0:0:0:0:
36,192,230510,1,0,0:0:0:0:
109,192,230510,1,0,0:0:0:0:
182,192,230568,1,0,0:0:0:0:
329,192,230568,1,0,0:0:0:0:
402,192,230568,1,0,0:0:0:0:
475,192,230626,1,0,0:0:0:0:
256,192,230626,1,0,0:0:0:0:
182,192,230683,1,0,0:0:0:0:
109,192,230683,1,0,0:0:0:0:
36,192,230683,1,0,0:0:0:0:
329,192,230683,1,0,0:0:0:0:
402,192,230741,1,0,0:0:0:0:
475,192,230741,1,0,0:0:0:0:
256,192,230799,1,0,0:0:0:0:
109,192,230799,1,0,0:0:0:0:
36,192,230799,1,0,0:0:0:0:
329,192,230857,1,0,0:0:0:0:
182,192,230857,1,0,0:0:0:0:
402,192,230914,1,0,0:0:0:0:
109,192,230914,1,0,0:0:0:0:
36,192,230914,1,0,0:0:0:0:
475,192,230914,1,0,0:0:0:0:
256,192,230972,1,0,0:0:0:0:
329,192,230972,1,0,0:0:0:0:
36,192,231030,1,0,0:0:0:0:
402,192,231030,1,0,0:0:0:0:
109,192,231030,1,0,0:0:0:0:
256,192,231087,1,0,0:0:0:0:
182,192,231087,1,0,0:0:0:0:
329,192,231145,1,0,0:0:0:0:
402,192,231145,1,0,0:0:0:0:
475,192,231145,1,0,0:0:0:0:
36,192,231145,1,0,0:0:0:0:
109,192,231203,1,0,0:0:0:0:
256,192,231203,1,0,0:0:0:0:
329,192,231260,1,0,0:0:0:0:
182,192,231260,1,0,0:0:0:0:
402,192,231260,1,0,0:0:0:0:
36,192,231318,1,0,0:0:0:0:
109,192,231318,1,0,0:0:0:0:
256,192,231376,1,0,0:0:0:0:
182,192,231376,1,0,0:0:0:0:
402,192,231376,1,0,0:0:0:0:
329,192,231376,1,0,0:0:0:0:
475,192,231433,1,0,0:0:0:0:
109,192,231433,1,0,0:0:0:0:
36,192,231491,1,0,0:0:0:0:
182,192,231491,1,0,0:0:0:0:
329,192,231491,1,0,0:0:0:0:
256,192,231549,1,0,0:0:0:0:
402,192,231549,1,0,0:0:0:0:
329,192,231607,1,0,0:0:0:0:
475,192,231607,1,0,0:0:0:0:
109,192,231607,1,0,0:0:0:0:
36,192,231607,1,0,0:0:0:0:
182,192,231664,1,0,0:0:0:0:
256,192,231664,1,0,0:0:0:0:
329,192,231722,1,0,0:0:0:0:
109,192,231722,1,0,0:0:0:0:
402,192,231722,1,0,0:0:0:0:
182,192,231780,1,0,0:0:0:0:
36,192,231780,1,0,0:0:0:0:
256,192,231837,1,0,0:0:0:0:
329,192,231837,1,0,0:0:0:0:
475,192,231837,1,0,0:0:0:0:
402,192,231837,1,0,0:0:0:0:
109,192,231895,1,0,0:0:0:0:
36,192,231895,1,0,0:0:0:0:
182,192,231953,1,0,0:0:0:0:
475,192,231953,1,0,0:0:0:0:
329,192,231953,1,0,0:0:0:0:
256,192,232010,1,0,0:0:0:0:
402,192,232010,1,0,0:0:0:0:
329,192,232068,1,0,0:0:0:0:
182,192,232068,1,0,0:0:0:0:
109,192,232068,1,0,0:0:0:0:
36,192,232068,1,0,0:0:0:0:
256,192,232126,1,0,0:0:0:0:
475,192,232126,1,0,0:0:0:0:
402,192,232183,1,0,0:0:0:0:
329,192,232183,1,0,0:0:0:0:
36,192,232183,1,0,0:0:0:0:
109,192,232241,1,0,0:0:0:0:
182,192,232241,1,0,0:0:0:0:
256,192,232299,1,0,0:0:0:0:
329,192,232299,1,0,0:0:0:0:
402,192,232299,1,0,0:0:0:0:
475,192,232299,1,0,0:0:0:0:
36,192,232357,1,0,0:0:0:0:
109,192,232357,1,0,0:0:0:0:
182,192,232414,1,0,0:0:0:0:
329,192,232414,1,0,0:0:0:0:
402,192,232414,1,0,0:0:0:0:
475,192,232472,1,0,0:0:0:0:
256,192,232472,1,0,0:0:0:0:
182,192,232530,1,0,0:0:0:0:
109,192,232530,1,0,0:0:0:0:
36,192,232530,1,0,0:0:0:0:
329,192,232530,1,0,0:0:0:0:
402,192,232587,1,0,0:0:0:0:
475,192,232587,1,0,0:0:0:0:
256,192,232645,1,0,0:0:0:0:
36,192,232645,1,0,0:0:0:0:
109,192,232645,1,0,0:0:0:0:
329,192,232703,1,0,0:0:0:0:
402,192,232703,1,0,0:0:0:0:
36,192,232760,1,0,0:0:0:0:
109,192,232760,1,0,0:0:0:0:
182,192,232760,1,0,0:0:0:0:
256,192,232760,1,0,0:0:0:0:
475,192,232799,1,0,0:0:0:0:
402,192,232837,1,0,0:0:0:0:
182,192,232837,1,0,0:0:0:0:
256,192,232876,1,0,0:0:0:0:
109,192,232876,1,0,0:0:0:0:
329,192,232914,1,0,0:0:0:0:
36,192,232914,1,0,0:0:0:0:
402,192,232953,1,0,0:0:0:0:
182,192,232953,1,0,0:0:0:0:
109,192,232991,1,0,0:0:0:0:
109,192,233222,1,0,0:0:0:0:
36,192,233222,1,0,0:0:0:0:
182,192,233260,1,0,0:0:0:0:
475,192,233260,1,0,0:0:0:0:
256,192,233299,1,0,0:0:0:0:
402,192,233299,1,0,0:0:0:0:
329,192,233337,1,0,0:0:0:0:
36,192,233337,1,0,0:0:0:0:
402,192,233366,1,0,0:0:0:0:
109,192,233376,1,0,0:0:0:0:
475,192,233395,1,0,0:0:0:0:
182,192,233414,1,0,0:0:0:0:
329,192,233424,1,0,0:0:0:0:
256,192,233453,1,0,0:0:0:0:
402,192,233453,1,0,0:0:0:0:
402,192,233683,1,0,0:0:0:0:
329,192,233683,1,0,0:0:0:0:
475,192,233683,1,0,0:0:0:0:
36,192,233722,1,0,0:0:0:0:
109,192,233722,1,0,0:0:0:0:
475,192,233760,1,0,0:0:0:0:
182,192,233760,1,0,0:0:0:0:
402,192,233799,1,0,0:0:0:0:
256,192,233799,1,0,0:0:0:0:
329,192,233837,1,0,0:0:0:0:
182,192,233837,1,0,0:0:0:0:
109,192,233876,1,0,0:0:0:0:
36,192,233914,1,0,0:0:0:0:
182,192,234145,1,0,0:0:0:0:
36,192,234145,1,0,0:0:0:0:
109,192,234145,1,0,0:0:0:0:
475,192,234145,1,0,0:0:0:0:
256,192,234183,1,0,0:0:0:0:
402,192,234183,1,0,0:0:0:0:
329,192,234222,1,0,0:0:0:0:
402,192,234260,1,0,0:0:0:0:
475,192,234260,1,0,0:0:0:0:
182,192,234260,1,0,0:0:0:0:
256,192,234299,1,0,0:0:0:0:
109,192,234299,1,0,0:0:0:0:
329,192,234337,1,0,0:0:0:0:
36,192,234337,1,0,0:0:0:0:
402,192,234376,1,0,0:0:0:0:
182,192,234376,1,0,0:0:0:0:
402,192,234491,1,0,0:0:0:0:
475,192,234491,1,0,0:0:0:0:
109,192,234607,1,0,0:0:0:0:
182,192,234607,1,0,0:0:0:0:
36,192,234607,1,0,0:0:0:0:
256,192,234607,1,0,0:0:0:0:
329,192,234664,1,0,0:0:0:0:
475,192,234664,1,0,0:0:0:0:
256,192,234722,1,0,0:0:0:0:
109,192,234722,1,0,0:0:0:0:
36,192,234722,1,0,0:0:0:0:
182,192,234780,1,0,0:0:0:0:
329,192,234780,1,0,0:0:0:0:
109,192,234837,1,0,0:0:0:0:
36,192,234837,1,0,0:0:0:0:
475,192,234837,1,0,0:0:0:0:
402,192,234837,1,0,0:0:0:0:
256,192,234895,1,0,0:0:0:0:
182,192,234895,1,0,0:0:0:0:
329,192,234953,1,0,0:0:0:0:
475,192,234953,1,0,0:0:0:0:
402,192,234953,1,0,0:0:0:0:
109,192,235010,1,0,0:0:0:0:
36,192,235010,1,0,0:0:0:0:
182,192,235068,1,0,0:0:0:0:
256,192,235068,1,0,0:0:0:0:
329,192,235068,1,0,0:0:0:0:
475,192,235068,1,0,0:0:0:0:
402,192,235126,1,0,0:0:0:0:
36,192,235126,1,0,0:0:0:0:
109,192,235183,1,0,0:0:0:0:
182,192,235183,1,0,0:0:0:0:
329,192,235183,1,0,0:0:0:0:
402,192,235241,1,0,0:0:0:0:
475,192,235241,1,0,0:0:0:0:
256,192,235299,1,0,0:0:0:0:
182,192,235299,1,0,0:0:0:0:
109,192,235299,1,0,0:0:0:0:
36,192,235299,1,0,0:0:0:0:
329,192,235357,1,0,0:0:0:0:
475,192,235357,1,0,0:0:0:0:
36,192,235414,1,0,0:0:0:0:
182,192,235414,1,0,0:0:0:0:
256,192,235414,1,0,0:0:0:0:
329,192,235472,1,0,0:0:0:0:
402,192,235472,1,0,0:0:0:0:
182,192,235530,1,0,0:0:0:0:
109,192,235530,1,0,0:0:0:0:
36,192,235530,1,0,0:0:0:0:
475,192,235530,1,0,0:0:0:0:
256,192,235587,1,0,0:0:0:0:
402,192,235587,1,0,0:0:0:0:
329,192,235645,1,0,0:0:0:0:
182,192,235645,1,0,0:0:0:0:
36,192,235645,1,0,0:0:0:0:
109,192,235703,1,0,0:0:0:0:
256,192,235703,1,0,0:0:0:0:
329,192,235760,1,0,0:0:0:0:
402,192,235760,1,0,0:0:0:0:
475,192,235760,1,0,0:0:0:0:
182,192,235760,1,0,0:0:0:0:
109,192,235818,1,0,0:0:0:0:
36,192,235818,1,0,0:0:0:0:
182,192,235876,1,0,0:0:0:0:
329,192,235876,1,0,0:0:0:0:
475,192,235876,1,0,0:0:0:0:
402,192,235933,1,0,0:0:0:0:
256,192,235933,1,0,0:0:0:0:
182,192,235991,1,0,0:0:0:0:
109,192,235991,1,0,0:0:0:0:
36,192,235991,1,0,0:0:0:0:
329,192,235991,1,0,0:0:0:0:
402,192,236049,1,0,0:0:0:0:
475,192,236049,1,0,0:0:0:0:
329,192,236107,1,0,0:0:0:0:
36,192,236107,1,0,0:0:0:0:
109,192,236107,1,0,0:0:0:0:
256,192,236164,1,0,0:0:0:0:
182,192,236164,1,0,0:0:0:0:
402,192,236222,1,0,0:0:0:0:
109,192,236222,1,0,0:0:0:0:
475,192,236222,1,0,0:0:0:0:
36,192,236222,1,0,0:0:0:0:
182,192,236280,1,0,0:0:0:0:
329,192,236280,1,0,0:0:0:0:
256,192,236337,1,0,0:0:0:0:
402,192,236337,1,0,0:0:0:0:
475,192,236337,1,0,0:0:0:0:
109,192,236395,1,0,0:0:0:0:
36,192,236395,1,0,0:0:0:0:
182,192,236453,1,0,0:0:0:0:
256,192,236453,1,0,0:0:0:0:
329,192,236453,1,0,0:0:0:0:
475,192,236453,1,0,0:0:0:0:
402,192,236510,1,0,0:0:0:0:
36,192,236510,1,0,0:0:0:0:
475,192,236568,1,0,0:0:0:0:
182,192,236568,1,0,0:0:0:0:
109,192,236568,1,0,0:0:0:0:
329,192,236626,1,0,0:0:0:0:
402,192,236626,1,0,0:0:0:0:
256,192,236683,1,0,0:0:0:0:
182,192,236683,1,0,0:0:0:0:
36,192,236683,1,0,0:0:0:0:
109,192,236683,1,0,0:0:0:0:
329,192,236741,1,0,0:0:0:0:
475,192,236741,1,0,0:0:0:0:
109,192,236799,1,0,0:0:0:0:
36,192,236799,1,0,0:0:0:0:
256,192,236799,1,0,0:0:0:0:
329,192,236857,1,0,0:0:0:0:
182,192,236857,1,0,0:0:0:0:
109,192,236914,1,0,0:0:0:0:
402,192,236914,1,0,0:0:0:0:
475,192,236914,1,0,0:0:0:0:
36,192,236914,1,0,0:0:0:0:
182,192,236972,1,0,0:0:0:0:
329,192,236972,1,0,0:0:0:0:
36,192,237030,1,0,0:0:0:0:
109,192,237030,1,0,0:0:0:0:
256,192,237030,1,0,0:0:0:0:
329,192,237087,1,0,0:0:0:0:
475,192,237087,1,0,0:0:0:0:
402,192,237145,1,0,0:0:0:0:
109,192,237145,1,0,0:0:0:0:
182,192,237145,1,0,0:0:0:0:
36,192,237145,1,0,0:0:0:0:
329,192,237203,1,0,0:0:0:0:
256,192,237203,1,0,0:0:0:0:
36,192,237260,1,0,0:0:0:0:
475,192,237260,1,0,0:0:0:0:
402,192,237260,1,0,0:0:0:0:
182,192,237318,1,0,0:0:0:0:
109,192,237318,1,0,0:0:0:0:
475,192,237376,1,0,0:0:0:0:
256,192,237376,1,0,0:0:0:0:
329,192,237376,1,0,0:0:0:0:
402,192,237376,1,0,0:0:0:0:
36,192,237433,1,0,0:0:0:0:
109,192,237433,1,0,0:0:0:0:
182,192,237491,1,0,0:0:0:0:
329,192,237491,1,0,0:0:0:0:
402,192,237549,1,0,0:0:0:0:
475,192,237549,1,0,0:0:0:0:
36,192,237607,1,0,0:0:0:0:
256,192,237607,1,0,0:0:0:0:
182,192,237607,1,0,0:0:0:0:
109,192,237607,1,0,0:0:0:0:
329,192,237664,1,0,0:0:0:0:
475,192,237664,1,0,0:0:0:0:
402,192,237722,1,0,0:0:0:0:
256,192,237722,1,0,0:0:0:0:
182,192,237722,1,0,0:0:0:0:
109,192,237780,1,0,0:0:0:0:
36,192,237780,1,0,0:0:0:0:
256,192,237837,1,0,0:0:0:0:
329,192,237837,1,0,0:0:0:0:
402,192,237837,1,0,0:0:0:0:
475,192,237837,1,0,0:0:0:0:
109,192,237895,1,0,0:0:0:0:
36,192,237895,1,0,0:0:0:0:
256,192,237953,1,0,0:0:0:0:
475,192,237953,1,0,0:0:0:0:
182,192,237953,1,0,0:0:0:0:
329,192,238010,1,0,0:0:0:0:
402,192,238010,1,0,0:0:0:0:
109,192,238068,1,0,0:0:0:0:
36,192,238068,1,0,0:0:0:0:
475,192,238068,1,0,0:0:0:0:
182,192,238068,1,0,0:0:0:0:
256,192,238126,1,0,0:0:0:0:
402,192,238126,1,0,0:0:0:0:
329,192,238183,1,0,0:0:0:0:
475,192,238183,1,0,0:0:0:0:
182,192,238183,1,0,0:0:0:0:
109,192,238241,1,0,0:0:0:0:
36,192,238241,1,0,0:0:0:0:
256,192,238299,1,0,0:0:0:0:
329,192,238299,1,0,0:0:0:0:
182,192,238299,1,0,0:0:0:0:
475,192,238299,1,0,0:0:0:0:
109,192,238357,1,0,0:0:0:0:
36,192,238357,1,0,0:0:0:0:
182,192,238414,1,0,0:0:0:0:
475,192,238414,1,0,0:0:0:0:
402,192,238414,1,0,0:0:0:0:
256,192,238472,1,0,0:0:0:0:
329,192,238472,1,0,0:0:0:0:
109,192,238530,1,0,0:0:0:0:
36,192,238530,1,0,0:0:0:0:
402,192,238530,1,0,0:0:0:0:
475,192,238530,1,0,0:0:0:0:
182,192,238587,1,0,0:0:0:0:
256,192,238587,1,0,0:0:0:0:
329,192,238645,1,0,0:0:0:0:
475,192,238645,1,0,0:0:0:0:
36,192,238645,1,0,0:0:0:0:
109,192,238703,1,0,0:0:0:0:
182,192,238703,1,0,0:0:0:0:
256,192,238760,1,0,0:0:0:0:
329,192,238760,1,0,0:0:0:0:
475,192,238760,1,0,0:0:0:0:
402,192,238760,1,0,0:0:0:0:
109,192,238818,1,0,0:0:0:0:
36,192,238818,1,0,0:0:0:0:
182,192,238876,1,0,0:0:0:0:
402,192,238876,1,0,0:0:0:0:
475,192,238876,1,0,0:0:0:0:
256,192,238933,1,0,0:0:0:0:
329,192,238933,1,0,0:0:0:0:
109,192,238991,1,0,0:0:0:0:
36,192,238991,1,0,0:0:0:0:
402,192,238991,1,0,0:0:0:0:
475,192,238991,1,0,0:0:0:0:
182,192,239049,1,0,0:0:0:0:
329,192,239049,1,0,0:0:0:0:
256,192,239107,1,0,0:0:0:0:
109,192,239107,1,0,0:0:0:0:
36,192,239107,1,0,0:0:0:0:
402,192,239164,1,0,0:0:0:0:
475,192,239164,1,0,0:0:0:0:
329,192,239222,1,0,0:0:0:0:
182,192,239222,1,0,0:0:0:0:
109,192,239222,1,0,0:0:0:0:
36,192,239222,1,0,0:0:0:0:
256,192,239280,1,0,0:0:0:0:
402,192,239280,1,0,0:0:0:0:
36,192,239337,1,0,0:0:0:0:
182,192,239337,1,0,0:0:0:0:
475,192,239337,1,0,0:0:0:0:
109,192,239395,1,0,0:0:0:0:
256,192,239395,1,0,0:0:0:0:
329,192,239453,1,0,0:0:0:0:
402,192,239453,1,0,0:0:0:0:
475,192,239453,1,0,0:0:0:0:
182,192,239453,1,0,0:0:0:0:
36,192,239510,1,0,0:0:0:0:
109,192,239510,1,0,0:0:0:0:
256,192,239568,1,0,0:0:0:0:
402,192,239568,1,0,0:0:0:0:
475,192,239568,1,0,0:0:0:0:
182,192,239626,1,0,0:0:0:0:
109,192,239626,1,0,0:0:0:0:
36,192,239683,1,0,0:0:0:0:
256,192,239683,1,0,0:0:0:0:
329,192,239683,1,0,0:0:0:0:
402,192,239683,1,0,0:0:0:0:
475,192,239741,1,0,0:0:0:0:
182,192,239741,1,0,0:0:0:0:
109,192,239799,1,0,0:0:0:0:
36,192,239799,1,0,0:0:0:0:
256,192,239799,1,0,0:0:0:0:
329,192,239857,1,0,0:0:0:0:
402,192,239857,1,0,0:0:0:0:
475,192,239914,1,0,0:0:0:0:
256,192,239914,1,0,0:0:0:0:
182,192,239914,1,0,0:0:0:0:
109,192,239914,1,0,0:0:0:0:
36,192,239972,1,0,0:0:0:0:
329,192,239972,1,0,0:0:0:0:
402,192,240030,1,0,0:0:0:0:
475,192,240030,1,0,0:0:0:0:
109,192,240030,1,0,0:0:0:0:
256,192,240087,1,0,0:0:0:0:
182,192,240087,1,0,0:0:0:0:
329,192,240145,1,0,0:0:0:0:
402,192,240145,1,0,0:0:0:0:
475,192,240145,1,0,0:0:0:0:
109,192,240145,1,0,0:0:0:0:
36,192,240203,1,0,0:0:0:0:
182,192,240203,1,0,0:0:0:0:
256,192,240260,1,0,0:0:0:0:
329,192,240260,1,0,0:0:0:0:
475,192,240260,1,0,0:0:0:0:
182,192,240318,1,0,0:0:0:0:
109,192,240318,1,0,0:0:0:0:
36,192,240376,1,0,0:0:0:0:
256,192,240376,1,0,0:0:0:0:
329,192,240376,1,0,0:0:0:0:
402,192,240376,1,0,0:0:0:0:
475,192,240433,1,0,0:0:0:0:
109,192,240433,1,0,0:0:0:0:
182,192,240491,1,0,0:0:0:0:
329,192,240491,1,0,0:0:0:0:
402,192,240491,1,0,0:0:0:0:
475,192,240549,1,0,0:0:0:0:
256,192,240549,1,0,0:0:0:0:
182,192,240607,1,0,0:0:0:0:
36,192,240607,1,0,0:0:0:0:
109,192,240607,1,0,0:0:0:0:
329,192,240607,1,0,0:0:0:0:
475,192,240664,1,0,0:0:0:0:
402,192,240664,1,0,0:0:0:0:
182,192,240722,1,0,0:0:0:0:
36,192,240722,1,0,0:0:0:0:
256,192,240722,1,0,0:0:0:0:
402,192,240780,1,0,0:0:0:0:
475,192,240780,1,0,0:0:0:0:
182,192,240837,1,0,0:0:0:0:
36,192,240837,1,0,0:0:0:0:
109,192,240837,1,0,0:0:0:0:
256,192,240837,1,0,0:0:0:0:
329,192,240895,1,0,0:0:0:0:
402,192,240895,1,0,0:0:0:0:
475,192,240953,1,0,0:0:0:0:
256,192,240953,1,0,0:0:0:0:
36,192,240953,1,0,0:0:0:0:
182,192,241010,1,0,0:0:0:0:
109,192,241010,1,0,0:0:0:0:
402,192,241068,1,0,0:0:0:0:
475,192,241068,1,0,0:0:0:0:
329,192,241068,1,0,0:0:0:0:
256,192,241068,1,0,0:0:0:0:
36,192,241183,1,0,0:0:0:0:
475,192,241183,1,0,0:0:0:0:
109,192,241183,1,0,0:0:0:0:
402,192,241183,1,0,0:0:0:0:
256,192,241299,1,0,0:0:0:0:
182,192,241299,1,0,0:0:0:0:
109,192,241299,1,0,0:0:0:0:
36,192,241299,1,0,0:0:0:0:
182,192,241414,1,0,0:0:0:0:
109,192,241414,1,0,0:0:0:0:
329,192,241414,1,0,0:0:0:0:
402,192,241414,1,0,0:0:0:0:
256,192,241530,1,0,0:0:0:0:
329,192,241530,1,0,0:0:0:0:
402,192,241530,1,0,0:0:0:0:
475,192,241530,1,0,0:0:0:0:
182,192,241645,1,0,0:0:0:0:
256,192,241645,1,0,0:0:0:0:
109,192,241645,1,0,0:0:0:0:
36,192,241645,1,0,0:0:0:0:
109,192,241760,1,0,0:0:0:0:
475,192,241760,1,0,0:0:0:0:
402,192,241760,1,0,0:0:0:0:
182,192,241760,1,0,0:0:0:0:
256,192,241876,1,0,0:0:0:0:
329,192,241876,1,0,0:0:0:0:
402,192,241876,1,0,0:0:0:0:
475,192,241876,1,0,0:0:0:0:
256,192,241991,1,0,0:0:0:0:
109,192,241991,1,0,0:0:0:0:
36,192,241991,1,0,0:0:0:0:
182,192,241991,1,0,0:0:0:0:
329,192,242049,1,0,0:0:0:0:
475,192,242049,1,0,0:0:0:0:
402,192,242107,1,0,0:0:0:0:
109,192,242107,1,0,0:0:0:0:
36,192,242107,1,0,0:0:0:0:
182,192,242164,1,0,0:0:0:0:
256,192,242164,1,0,0:0:0:0:
402,192,242222,1,0,0:0:0:0:
475,192,242222,1,0,0:0:0:0:
109,192,242222,1,0,0:0:0:0:
36,192,242222,1,0,0:0:0:0:
256,192,242280,1,0,0:0:0:0:
329,192,242280,1,0,0:0:0:0:
402,192,242337,1,0,0:0:0:0:
182,192,242337,1,0,0:0:0:0:
475,192,242337,1,0,0:0:0:0:
109,192,242395,1,0,0:0:0:0:
36,192,242395,1,0,0:0:0:0:
256,192,242453,1,0,0:0:0:0:
329,192,242453,1,0,0:0:0:0:
402,192,242453,1,0,0:0:0:0:
475,192,242453,1,0,0:0:0:0:
182,192,242510,1,0,0:0:0:0:
36,192,242510,1,0,0:0:0:0:
109,192,242568,1,0,0:0:0:0:
256,192,242568,1,0,0:0:0:0:
329,192,242568,1,0,0:0:0:0:
402,192,242626,1,0,0:0:0:0:
475,192,242626,1,0,0:0:0:0:
182,192,242683,1,0,0:0:0:0:
109,192,242683,1,0,0:0:0:0:
36,192,242683,1,0,0:0:0:0:
256,192,242683,1,0,0:0:0:0:
329,192,242741,1,0,0:0:0:0:
475,192,242741,1,0,0:0:0:0:
109,192,242799,1,0,0:0:0:0:
36,192,242799,1,0,0:0:0:0:
256,192,242799,1,0,0:0:0:0:
182,192,242857,1,0,0:0:0:0:
329,192,242857,1,0,0:0:0:0:
402,192,242914,1,0,0:0:0:0:
475,192,242914,1,0,0:0:0:0:
109,192,242914,1,0,0:0:0:0:
36,192,242914,1,0,0:0:0:0:
182,192,242972,1,0,0:0:0:0:
329,192,242972,1,0,0:0:0:0:
402,192,243030,1,0,0:0:0:0:
475,192,243030,1,0,0:0:0:0:
256,192,243030,1,0,0:0:0:0:
109,192,243087,1,0,0:0:0:0:
36,192,243087,1,0,0:0:0:0:
402,192,243145,1,0,0:0:0:0:
475,192,243145,1,0,0:0:0:0:
329,192,243145,1,0,0:0:0:0:
256,192,243145,1,0,0:0:0:0:
182,192,243203,1,0,0:0:0:0:
36,192,243203,1,0,0:0:0:0:
329,192,243260,1,0,0:0:0:0:
475,192,243260,1,0,0:0:0:0:
109,192,243260,1,0,0:0:0:0:
256,192,243318,1,0,0:0:0:0:
402,192,243318,1,0,0:0:0:0:
182,192,243376,1,0,0:0:0:0:
109,192,243376,1,0,0:0:0:0:
36,192,243376,1,0,0:0:0:0:
329,192,243376,1,0,0:0:0:0:
402,192,243433,1,0,0:0:0:0:
475,192,243433,1,0,0:0:0:0:
256,192,243491,1,0,0:0:0:0:
36,192,243491,1,0,0:0:0:0:
109,192,243491,1,0,0:0:0:0:
329,192,243549,1,0,0:0:0:0:
402,192,243549,1,0,0:0:0:0:
475,192,243607,1,0,0:0:0:0:
182,192,243607,1,0,0:0:0:0:
109,192,243607,1,0,0:0:0:0:
36,192,243607,1,0,0:0:0:0:
256,192,243664,1,0,0:0:0:0:
402,192,243664,1,0,0:0:0:0:
329,192,243722,1,0,0:0:0:0:
182,192,243722,1,0,0:0:0:0:
475,192,243722,1,0,0:0:0:0:
36,192,243780,1,0,0:0:0:0:
109,192,243780,1,0,0:0:0:0:
256,192,243837,1,0,0:0:0:0:
329,192,243837,1,0,0:0:0:0:
402,192,243837,1,0,0:0:0:0:
475,192,243837,1,0,0:0:0:0:
182,192,243895,1,0,0:0:0:0:
36,192,243895,1,0,0:0:0:0:
109,192,243953,1,0,0:0:0:0:
256,192,243953,1,0,0:0:0:0:
329,192,243953,1,0,0:0:0:0:
402,192,244010,1,0,0:0:0:0:
475,192,244010,1,0,0:0:0:0:
256,192,244068,1,0,0:0:0:0:
182,192,244068,1,0,0:0:0:0:
109,192,244068,1,0,0:0:0:0:
36,192,244068,1,0,0:0:0:0:
329,192,244126,1,0,0:0:0:0:
402,192,244126,1,0,0:0:0:0:
182,192,244183,1,0,0:0:0:0:
36,192,244183,1,0,0:0:0:0:
256,192,244183,1,0,0:0:0:0:
402,192,244241,1,0,0:0:0:0:
475,192,244241,1,0,0:0:0:0:
329,192,244299,1,0,0:0:0:0:
182,192,244299,1,0,0:0:0:0:
109,192,244299,1,0,0:0:0:0:
36,192,244299,1,0,0:0:0:0:
256,192,244357,1,0,0:0:0:0:
402,192,244357,1,0,0:0:0:0:
475,192,244414,1,0,0:0:0:0:
109,192,244414,1,0,0:0:0:0:
36,192,244414,1,0,0:0:0:0:
402,192,244472,1,0,0:0:0:0:
182,192,244472,1,0,0:0:0:0:
109,192,244530,1,0,0:0:0:0:
36,192,244530,1,0,0:0:0:0:
329,192,244530,1,0,0:0:0:0:
256,192,244530,1,0,0:0:0:0:
402,192,244587,1,0,0:0:0:0:
475,192,244587,1,0,0:0:0:0:
182,192,244645,1,0,0:0:0:0:
36,192,244645,1,0,0:0:0:0:
256,192,244645,1,0,0:0:0:0:
329,192,244703,1,0,0:0:0:0:
475,192,244703,1,0,0:0:0:0:
182,192,244760,1,0,0:0:0:0:
109,192,244760,1,0,0:0:0:0:
36,192,244760,1,0,0:0:0:0:
256,192,244760,1,0,0:0:0:0:
402,192,244818,1,0,0:0:0:0:
475,192,244818,1,0,0:0:0:0:
109,192,244876,1,0,0:0:0:0:
36,192,244876,1,0,0:0:0:0:
329,192,244876,1,0,0:0:0:0:
256,192,244933,1,0,0:0:0:0:
182,192,244933,1,0,0:0:0:0:
109,192,244991,1,0,0:0:0:0:
36,192,244991,1,0,0:0:0:0:
402,192,244991,1,0,0:0:0:0:
475,192,244991,1,0,0:0:0:0:
329,192,245049,1,0,0:0:0:0:
182,192,245049,1,0,0:0:0:0:
256,192,245107,1,0,0:0:0:0:
109,192,245107,1,0,0:0:0:0:
36,192,245107,1,0,0:0:0:0:
329,192,245164,1,0,0:0:0:0:
475,192,245164,1,0,0:0:0:0:
402,192,245222,1,0,0:0:0:0:
182,192,245222,1,0,0:0:0:0:
109,192,245222,1,0,0:0:0:0:
36,192,245222,1,0,0:0:0:0:
256,192,245280,1,0,0:0:0:0:
329,192,245280,1,0,0:0:0:0:
109,192,245337,1,0,0:0:0:0:
475,192,245337,1,0,0:0:0:0:
36,192,245337,1,0,0:0:0:0:
329,192,245395,1,0,0:0:0:0:
182,192,245395,1,0,0:0:0:0:
109,192,245453,1,0,0:0:0:0:
36,192,245453,1,0,0:0:0:0:
475,192,245453,1,0,0:0:0:0:
402,192,245453,1,0,0:0:0:0:
256,192,245510,1,0,0:0:0:0:
329,192,245510,1,0,0:0:0:0:
402,192,245568,1,0,0:0:0:0:
182,192,245568,1,0,0:0:0:0:
109,192,245568,1,0,0:0:0:0:
36,192,245626,1,0,0:0:0:0:
475,192,245626,1,0,0:0:0:0:
256,192,245683,1,0,0:0:0:0:
329,192,245683,1,0,0:0:0:0:
402,192,245683,1,0,0:0:0:0:
109,192,245683,1,0,0:0:0:0:
36,192,245741,1,0,0:0:0:0:
182,192,245741,1,0,0:0:0:0:
256,192,245799,1,0,0:0:0:0:
475,192,245799,1,0,0:0:0:0:
329,192,245857,1,0,0:0:0:0:
402,192,245857,1,0,0:0:0:0:
182,192,245914,1,0,0:0:0:0:
36,192,245914,1,0,0:0:0:0:
109,192,245914,1,0,0:0:0:0:
256,192,245914,1,0,0:0:0:0:
329,192,245972,1,0,0:0:0:0:
475,192,245972,1,0,0:0:0:0:
402,192,246030,1,0,0:0:0:0:
182,192,246030,1,0,0:0:0:0:
36,192,246030,1,0,0:0:0:0:
109,192,246087,1,0,0:0:0:0:
256,192,246087,1,0,0:0:0:0:
329,192,246145,1,0,0:0:0:0:
402,192,246145,1,0,0:0:0:0:
475,192,246145,1,0,0:0:0:0:
182,192,246145,1,0,0:0:0:0:
36,192,246203,1,0,0:0:0:0:
109,192,246203,1,0,0:0:0:0:
182,192,246260,1,0,0:0:0:0:
402,192,246260,1,0,0:0:0:0:
475,192,246260,1,0,0:0:0:0:
329,192,246318,1,0,0:0:0:0:
256,192,246318,1,0,0:0:0:0:
475,192,246376,5,0,0:0:0:0:
36,192,246376,1,0,0:0:0:0:
109,192,246376,1,0,0:0:0:0:
402,192,246376,1,0,0:0:0:0:
329,192,246433,1,0,0:0:0:0:
182,192,246433,1,0,0:0:0:0:
256,192,246491,1,0,0:0:0:0:
402,192,246491,1,0,0:0:0:0:
475,192,246491,1,0,0:0:0:0:
109,192,246549,1,0,0:0:0:0:
36,192,246549,1,0,0:0:0:0:
182,192,246607,1,0,0:0:0:0:
475,192,246607,1,0,0:0:0:0:
402,192,246607,1,0,0:0:0:0:
256,192,246607,1,0,0:0:0:0:
109,192,246664,1,0,0:0:0:0:
36,192,246722,1,0,0:0:0:0:
182,192,246722,1,0,0:0:0:0:
329,192,246722,1,0,0:0:0:0:
256,192,246780,1,0,0:0:0:0:
402,192,246780,1,0,0:0:0:0:
329,192,246837,1,0,0:0:0:0:
475,192,246837,1,0,0:0:0:0:
182,192,246837,1,0,0:0:0:0:
109,192,246837,1,0,0:0:0:0:
36,192,246895,1,0,0:0:0:0:
256,192,246895,1,0,0:0:0:0:
329,192,246953,1,0,0:0:0:0:
475,192,246953,1,0,0:0:0:0:
182,192,246953,1,0,0:0:0:0:
109,192,247010,1,0,0:0:0:0:
36,192,247010,1,0,0:0:0:0:
256,192,247068,1,0,0:0:0:0:
329,192,247068,1,0,0:0:0:0:
402,192,247068,1,0,0:0:0:0:
475,192,247068,1,0,0:0:0:0:
182,192,247126,1,0,0:0:0:0:
36,192,247126,1,0,0:0:0:0:
109,192,247183,1,0,0:0:0:0:
256,192,247183,1,0,0:0:0:0:
402,192,247183,1,0,0:0:0:0:
329,192,247241,1,0,0:0:0:0:
475,192,247241,1,0,0:0:0:0:
256,192,247299,1,0,0:0:0:0:
182,192,247299,1,0,0:0:0:0:
109,192,247299,1,0,0:0:0:0:
36,192,247299,1,0,0:0:0:0:
329,192,247357,1,0,0:0:0:0:
475,192,247357,1,0,0:0:0:0:
256,192,247414,1,0,0:0:0:0:
109,192,247414,1,0,0:0:0:0:
402,192,247414,1,0,0:0:0:0:
182,192,247472,1,0,0:0:0:0:
36,192,247472,1,0,0:0:0:0:
109,192,247530,1,0,0:0:0:0:
256,192,247530,1,0,0:0:0:0:
402,192,247530,1,0,0:0:0:0:
329,192,247530,1,0,0:0:0:0:
475,192,247587,1,0,0:0:0:0:
182,192,247587,1,0,0:0:0:0:
109,192,247645,1,0,0:0:0:0:
36,192,247645,1,0,0:0:0:0:
256,192,247645,1,0,0:0:0:0:
329,192,247703,1,0,0:0:0:0:
475,192,247703,1,0,0:0:0:0:
402,192,247760,1,0,0:0:0:0:
256,192,247760,1,0,0:0:0:0:
182,192,247760,1,0,0:0:0:0:
109,192,247760,1,0,0:0:0:0:
36,192,247818,1,0,0:0:0:0:
329,192,247818,1,0,0:0:0:0:
256,192,247876,1,0,0:0:0:0:
109,192,247876,1,0,0:0:0:0:
475,192,247876,1,0,0:0:0:0:
182,192,247933,1,0,0:0:0:0:
36,192,247933,1,0,0:0:0:0:
256,192,247991,1,0,0:0:0:0:
329,192,247991,1,0,0:0:0:0:
475,192,247991,1,0,0:0:0:0:
402,192,247991,1,0,0:0:0:0:
182,192,248049,1,0,0:0:0:0:
36,192,248049,1,0,0:0:0:0:
109,192,248107,1,0,0:0:0:0:
329,192,248107,1,0,0:0:0:0:
475,192,248107,1,0,0:0:0:0:
256,192,248164,1,0,0:0:0:0:
402,192,248164,1,0,0:0:0:0:
329,192,248222,1,0,0:0:0:0:
182,192,248222,1,0,0:0:0:0:
109,192,248222,1,0,0:0:0:0:
36,192,248222,1,0,0:0:0:0:
256,192,248280,1,0,0:0:0:0:
475,192,248280,1,0,0:0:0:0:
182,192,248337,1,0,0:0:0:0:
36,192,248337,1,0,0:0:0:0:
402,192,248337,1,0,0:0:0:0:
256,192,248395,1,0,0:0:0:0:
109,192,248395,1,0,0:0:0:0:
36,192,248453,1,0,0:0:0:0:
329,192,248453,1,0,0:0:0:0:
475,192,248453,1,0,0:0:0:0:
402,192,248453,1,0,0:0:0:0:
256,192,248510,1,0,0:0:0:0:
109,192,248510,1,0,0:0:0:0:
182,192,248568,1,0,0:0:0:0:
329,192,248568,1,0,0:0:0:0:
402,192,248568,1,0,0:0:0:0:
475,192,248626,1,0,0:0:0:0:
256,192,248626,1,0,0:0:0:0:
109,192,248683,1,0,0:0:0:0:
36,192,248683,1,0,0:0:0:0:
182,192,248683,1,0,0:0:0:0:
402,192,248683,1,0,0:0:0:0:
256,192,248741,1,0,0:0:0:0:
475,192,248741,1,0,0:0:0:0:
329,192,248799,1,0,0:0:0:0:
109,192,248799,1,0,0:0:0:0:
36,192,248799,1,0,0:0:0:0:
182,192,248857,1,0,0:0:0:0:
402,192,248857,1,0,0:0:0:0:
256,192,248914,1,0,0:0:0:0:
329,192,248914,1,0,0:0:0:0:
475,192,248914,1,0,0:0:0:0:
109,192,248914,1,0,0:0:0:0:
182,192,248972,1,0,0:0:0:0:
36,192,248972,1,0,0:0:0:0:
109,192,249030,1,0,0:0:0:0:
329,192,249030,1,0,0:0:0:0:
402,192,249030,1,0,0:0:0:0:
475,192,249087,1,0,0:0:0:0:
256,192,249087,1,0,0:0:0:0:
182,192,249145,1,0,0:0:0:0:
109,192,249145,1,0,0:0:0:0:
36,192,249145,1,0,0:0:0:0:
329,192,249145,1,0,0:0:0:0:
402,192,249203,1,0,0:0:0:0:
475,192,249203,1,0,0:0:0:0:
36,192,249260,1,0,0:0:0:0:
329,192,249260,1,0,0:0:0:0:
182,192,249260,1,0,0:0:0:0:
256,192,249318,1,0,0:0:0:0:
109,192,249318,1,0,0:0:0:0:
36,192,249376,1,0,0:0:0:0:
182,192,249376,1,0,0:0:0:0:
329,192,249376,1,0,0:0:0:0:
402,192,249376,1,0,0:0:0:0:
475,192,249433,1,0,0:0:0:0:
256,192,249433,1,0,0:0:0:0:
182,192,249491,1,0,0:0:0:0:
109,192,249491,1,0,0:0:0:0:
402,192,249491,1,0,0:0:0:0:
329,192,249549,1,0,0:0:0:0:
36,192,249549,1,0,0:0:0:0:
109,192,249607,1,0,0:0:0:0:
182,192,249607,1,0,0:0:0:0:
256,192,249607,1,0,0:0:0:0:
475,192,249607,1,0,0:0:0:0:
402,192,249664,1,0,0:0:0:0:
329,192,249664,1,0,0:0:0:0:
182,192,249722,1,0,0:0:0:0:
36,192,249722,1,0,0:0:0:0:
256,192,249722,1,0,0:0:0:0:
109,192,249780,1,0,0:0:0:0:
329,192,249780,1,0,0:0:0:0:
182,192,249837,1,0,0:0:0:0:
36,192,249837,1,0,0:0:0:0:
256,192,249837,1,0,0:0:0:0:
402,192,249837,1,0,0:0:0:0:
475,192,249895,1,0,0:0:0:0:
329,192,249895,1,0,0:0:0:0:
182,192,249953,1,0,0:0:0:0:
109,192,249953,1,0,0:0:0:0:
402,192,249953,1,0,0:0:0:0:
256,192,250010,1,0,0:0:0:0:
36,192,250010,1,0,0:0:0:0:
329,192,250068,1,0,0:0:0:0:
475,192,250068,1,0,0:0:0:0:
402,192,250068,1,0,0:0:0:0:
182,192,250068,1,0,0:0:0:0:
36,192,250126,1,0,0:0:0:0:
256,192,250126,1,0,0:0:0:0:
109,192,250183,1,0,0:0:0:0:
329,192,250183,1,0,0:0:0:0:
475,192,250183,1,0,0:0:0:0:
402,192,250241,1,0,0:0:0:0:
256,192,250241,1,0,0:0:0:0:
182,192,250299,1,0,0:0:0:0:
109,192,250299,1,0,0:0:0:0:
36,192,250299,1,0,0:0:0:0:
329,192,250299,1,0,0:0:0:0:
182,192,250414,1,0,0:0:0:0:
109,192,250414,1,0,0:0:0:0:
256,192,250414,1,0,0:0:0:0:
475,192,250472,1,0,0:0:0:0:
402,192,250472,1,0,0:0:0:0:
329,192,250472,1,0,0:0:0:0:
36,192,250530,1,0,0:0:0:0:
182,192,250530,1,0,0:0:0:0:
109,192,250530,1,0,0:0:0:0:
256,192,250530,1,0,0:0:0:0:
109,192,250645,1,0,0:0:0:0:
36,192,250645,1,0,0:0:0:0:
402,192,250645,1,0,0:0:0:0:
475,192,250645,1,0,0:0:0:0:
182,192,250760,1,0,0:0:0:0:
256,192,250760,1,0,0:0:0:0:
329,192,250760,1,0,0:0:0:0:
402,192,250760,1,0,0:0:0:0:
182,192,250876,1,0,0:0:0:0:
109,192,250876,1,0,0:0:0:0:
36,192,250876,1,0,0:0:0:0:
475,192,250991,1,0,0:0:0:0:
402,192,250991,1,0,0:0:0:0:
329,192,250991,1,0,0:0:0:0:
256,192,250991,1,0,0:0:0:0:
182,192,251107,1,0,0:0:0:0:
36,192,251107,1,0,0:0:0:0:
109,192,251107,1,0,0:0:0:0:
256,192,251222,1,0,0:0:0:0:
329,192,251222,1,0,0:0:0:0:
475,192,251222,1,0,0:0:0:0:
402,192,251222,1,0,0:0:0:0:
182,192,251280,1,0,0:0:0:0:
36,192,251280,1,0,0:0:0:0:
109,192,251337,1,0,0:0:0:0:
329,192,251337,1,0,0:0:0:0:
475,192,251337,1,0,0:0:0:0:
256,192,251395,1,0,0:0:0:0:
402,192,251395,1,0,0:0:0:0:
329,192,251453,1,0,0:0:0:0:
182,192,251453,1,0,0:0:0:0:
109,192,251453,1,0,0:0:0:0:
36,192,251453,1,0,0:0:0:0:
256,192,251510,1,0,0:0:0:0:
475,192,251510,1,0,0:0:0:0:
182,192,251568,1,0,0:0:0:0:
36,192,251568,1,0,0:0:0:0:
402,192,251568,1,0,0:0:0:0:
256,192,251626,1,0,0:0:0:0:
109,192,251626,1,0,0:0:0:0:
36,192,251683,1,0,0:0:0:0:
329,192,251683,1,0,0:0:0:0:
475,192,251683,1,0,0:0:0:0:
402,192,251683,1,0,0:0:0:0:
256,192,251741,1,0,0:0:0:0:
109,192,251741,1,0,0:0:0:0:
182,192,251799,1,0,0:0:0:0:
329,192,251799,1,0,0:0:0:0:
402,192,251799,1,0,0:0:0:0:
475,192,251857,1,0,0:0:0:0:
256,192,251857,1,0,0:0:0:0:
109,192,251914,1,0,0:0:0:0:
36,192,251914,1,0,0:0:0:0:
182,192,251914,1,0,0:0:0:0:
402,192,251914,1,0,0:0:0:0:
256,192,251972,1,0,0:0:0:0:
475,192,251972,1,0,0:0:0:0:
329,192,252030,1,0,0:0:0:0:
109,192,252030,1,0,0:0:0:0:
36,192,252030,1,0,0:0:0:0:
182,192,252087,1,0,0:0:0:0:
402,192,252087,1,0,0:0:0:0:
256,192,252145,1,0,0:0:0:0:
329,192,252145,1,0,0:0:0:0:
475,192,252145,1,0,0:0:0:0:
109,192,252145,1,0,0:0:0:0:
182,192,252203,1,0,0:0:0:0:
36,192,252203,1,0,0:0:0:0:
109,192,252260,1,0,0:0:0:0:
329,192,252260,1,0,0:0:0:0:
402,192,252260,1,0,0:0:0:0:
475,192,252318,1,0,0:0:0:0:
256,192,252318,1,0,0:0:0:0:
182,192,252376,1,0,0:0:0:0:
109,192,252376,1,0,0:0:0:0:
36,192,252376,1,0,0:0:0:0:
329,192,252376,1,0,0:0:0:0:
402,192,252433,1,0,0:0:0:0:
475,192,252433,1,0,0:0:0:0:
36,192,252491,1,0,0:0:0:0:
329,192,252491,1,0,0:0:0:0:
182,192,252491,1,0,0:0:0:0:
256,192,252549,1,0,0:0:0:0:
109,192,252549,1,0,0:0:0:0:
36,192,252607,1,0,0:0:0:0:
182,192,252607,1,0,0:0:0:0:
329,192,252607,1,0,0:0:0:0:
402,192,252607,1,0,0:0:0:0:
475,192,252664,1,0,0:0:0:0:
256,192,252664,1,0,0:0:0:0:
182,192,252722,1,0,0:0:0:0:
109,192,252722,1,0,0:0:0:0:
402,192,252722,1,0,0:0:0:0:
329,192,252780,1,0,0:0:0:0:
36,192,252780,1,0,0:0:0:0:
109,192,252837,1,0,0:0:0:0:
182,192,252837,1,0,0:0:0:0:
256,192,252837,1,0,0:0:0:0:
475,192,252837,1,0,0:0:0:0:
402,192,252895,1,0,0:0:0:0:
329,192,252895,1,0,0:0:0:0:
182,192,252953,1,0,0:0:0:0:
36,192,252953,1,0,0:0:0:0:
256,192,252953,1,0,0:0:0:0:
109,192,253010,1,0,0:0:0:0:
329,192,253010,1,0,0:0:0:0:
182,192,253068,1,0,0:0:0:0:
36,192,253068,1,0,0:0:0:0:
256,192,253068,1,0,0:0:0:0:
402,192,253068,1,0,0:0:0:0:
475,192,253126,1,0,0:0:0:0:
329,192,253126,1,0,0:0:0:0:
182,192,253183,1,0,0:0:0:0:
109,192,253183,1,0,0:0:0:0:
402,192,253183,1,0,0:0:0:0:
256,192,253241,1,0,0:0:0:0:
36,192,253241,1,0,0:0:0:0:
329,192,253299,1,0,0:0:0:0:
475,192,253299,1,0,0:0:0:0:
402,192,253299,1,0,0:0:0:0:
182,192,253299,1,0,0:0:0:0:
36,192,253357,1,0,0:0:0:0:
256,192,253357,1,0,0:0:0:0:
109,192,253414,1,0,0:0:0:0:
329,192,253414,1,0,0:0:0:0:
475,192,253414,1,0,0:0:0:0:
402,192,253472,1,0,0:0:0:0:
256,192,253472,1,0,0:0:0:0:
182,192,253530,1,0,0:0:0:0:
109,192,253530,1,0,0:0:0:0:
36,192,253530,1,0,0:0:0:0:
329,192,253530,1,0,0:0:0:0:
475,192,253587,1,0,0:0:0:0:
256,192,253587,1,0,0:0:0:0:
182,192,253645,1,0,0:0:0:0:
36,192,253645,1,0,0:0:0:0:
329,192,253645,1,0,0:0:0:0:
109,192,253703,1,0,0:0:0:0:
256,192,253703,1,0,0:0:0:0:
36,192,253760,1,0,0:0:0:0:
182,192,253760,1,0,0:0:0:0:
329,192,253760,1,0,0:0:0:0:
402,192,253760,1,0,0:0:0:0:
475,192,253818,1,0,0:0:0:0:
256,192,253818,1,0,0:0:0:0:
109,192,253876,1,0,0:0:0:0:
329,192,253876,1,0,0:0:0:0:
36,192,253876,1,0,0:0:0:0:
182,192,253933,1,0,0:0:0:0:
402,192,253933,1,0,0:0:0:0:
256,192,253991,1,0,0:0:0:0:
36,192,253991,1,0,0:0:0:0:
109,192,253991,1,0,0:0:0:0:
329,192,253991,1,0,0:0:0:0:
402,192,254049,1,0,0:0:0:0:
475,192,254049,1,0,0:0:0:0:
256,192,254107,1,0,0:0:0:0:
109,192,254107,1,0,0:0:0:0:
329,192,254107,1,0,0:0:0:0:
182,192,254164,1,0,0:0:0:0:
36,192,254164,1,0,0:0:0:0:
329,192,254222,1,0,0:0:0:0:
402,192,254222,1,0,0:0:0:0:
475,192,254222,1,0,0:0:0:0:
256,192,254222,1,0,0:0:0:0:
109,192,254280,1,0,0:0:0:0:
36,192,254280,1,0,0:0:0:0:
182,192,254337,1,0,0:0:0:0:
402,192,254337,1,0,0:0:0:0:
329,192,254337,1,0,0:0:0:0:
475,192,254395,1,0,0:0:0:0:
256,192,254395,1,0,0:0:0:0:
182,192,254453,1,0,0:0:0:0:
109,192,254453,1,0,0:0:0:0:
36,192,254453,1,0,0:0:0:0:
329,192,254453,1,0,0:0:0:0:
402,192,254510,1,0,0:0:0:0:
475,192,254510,1,0,0:0:0:0:
329,192,254568,1,0,0:0:0:0:
36,192,254568,1,0,0:0:0:0:
109,192,254568,1,0,0:0:0:0:
182,192,254626,1,0,0:0:0:0:
256,192,254626,1,0,0:0:0:0:
109,192,254683,1,0,0:0:0:0:
36,192,254683,1,0,0:0:0:0:
402,192,254683,1,0,0:0:0:0:
475,192,254683,1,0,0:0:0:0:
182,192,254741,1,0,0:0:0:0:
329,192,254741,1,0,0:0:0:0:
256,192,254799,1,0,0:0:0:0:
475,192,254799,1,0,0:0:0:0:
109,192,254799,1,0,0:0:0:0:
329,192,254857,1,0,0:0:0:0:
402,192,254857,1,0,0:0:0:0:
109,192,254914,1,0,0:0:0:0:
36,192,254914,1,0,0:0:0:0:
182,192,254914,1,0,0:0:0:0:
256,192,254914,1,0,0:0:0:0:
402,192,254972,1,0,0:0:0:0:
475,192,254972,1,0,0:0:0:0:
329,192,255030,1,0,0:0:0:0:
109,192,255030,1,0,0:0:0:0:
36,192,255030,1,0,0:0:0:0:
182,192,255087,1,0,0:0:0:0:
402,192,255087,1,0,0:0:0:0:
256,192,255145,1,0,0:0:0:0:
329,192,255145,1,0,0:0:0:0:
475,192,255145,1,0,0:0:0:0:
109,192,255145,1,0,0:0:0:0:
182,192,255203,1,0,0:0:0:0:
36,192,255203,1,0,0:0:0:0:
109,192,255260,1,0,0:0:0:0:
329,192,255260,1,0,0:0:0:0:
402,192,255260,1,0,0:0:0:0:
475,192,255318,1,0,0:0:0:0:
256,192,255318,1,0,0:0:0:0:
182,192,255376,1,0,0:0:0:0:
109,192,255376,1,0,0:0:0:0:
36,192,255376,1,0,0:0:0:0:
329,192,255376,1,0,0:0:0:0:
402,192,255433,1,0,0:0:0:0:
475,192,255433,1,0,0:0:0:0:
36,192,255491,1,0,0:0:0:0:
329,192,255491,1,0,0:0:0:0:
182,192,255491,1,0,0:0:0:0:
256,192,255549,1,0,0:0:0:0:
109,192,255549,1,0,0:0:0:0:
36,192,255607,1,0,0:0:0:0:
182,192,255607,1,0,0:0:0:0:
329,192,255607,1,0,0:0:0:0:
402,192,255607,1,0,0:0:0:0:
475,192,255664,1,0,0:0:0:0:
256,192,255664,1,0,0:0:0:0:
182,192,255722,1,0,0:0:0:0:
109,192,255722,1,0,0:0:0:0:
402,192,255722,1,0,0:0:0:0:
329,192,255780,1,0,0:0:0:0:
36,192,255780,1,0,0:0:0:0:
109,192,255837,1,0,0:0:0:0:
182,192,255837,1,0,0:0:0:0:
256,192,255837,1,0,0:0:0:0:
475,192,255837,1,0,0:0:0:0:
402,192,255895,1,0,0:0:0:0:
329,192,255895,1,0,0:0:0:0:
182,192,255953,1,0,0:0:0:0:
36,192,255953,1,0,0:0:0:0:
256,192,255953,1,0,0:0:0:0:
109,192,256010,1,0,0:0:0:0:
329,192,256010,1,0,0:0:0:0:
182,192,256068,1,0,0:0:0:0:
36,192,256068,1,0,0:0:0:0:
256,192,256068,1,0,0:0:0:0:
402,192,256068,1,0,0:0:0:0:
475,192,256126,1,0,0:0:0:0:
329,192,256126,1,0,0:0:0:0:
182,192,256183,1,0,0:0:0:0:
109,192,256183,1,0,0:0:0:0:
402,192,256183,1,0,0:0:0:0:
256,192,256241,1,0,0:0:0:0:
36,192,256241,1,0,0:0:0:0:
329,192,256299,1,0,0:0:0:0:
475,192,256299,1,0,0:0:0:0:
402,192,256299,1,0,0:0:0:0:
182,192,256299,1,0,0:0:0:0:
36,192,256357,1,0,0:0:0:0:
256,192,256357,1,0,0:0:0:0:
109,192,256414,1,0,0:0:0:0:
329,192,256414,1,0,0:0:0:0:
475,192,256414,1,0,0:0:0:0:
402,192,256472,1,0,0:0:0:0:
256,192,256472,1,0,0:0:0:0:
182,192,256530,1,0,0:0:0:0:
109,192,256530,1,0,0:0:0:0:
36,192,256530,1,0,0:0:0:0:
329,192,256530,1,0,0:0:0:0:
475,192,256587,1,0,0:0:0:0:
256,192,256587,1,0,0:0:0:0:
182,192,256645,1,0,0:0:0:0:
36,192,256645,1,0,0:0:0:0:
329,192,256645,1,0,0:0:0:0:
109,192,256703,1,0,0:0:0:0:
256,192,256703,1,0,0:0:0:0:
36,192,256760,1,0,0:0:0:0:
182,192,256760,1,0,0:0:0:0:
329,192,256760,1,0,0:0:0:0:
402,192,256760,1,0,0:0:0:0:
475,192,256818,1,0,0:0:0:0:
256,192,256818,1,0,0:0:0:0:
109,192,256876,1,0,0:0:0:0:
329,192,256876,1,0,0:0:0:0:
36,192,256876,1,0,0:0:0:0:
182,192,256933,1,0,0:0:0:0:
402,192,256933,1,0,0:0:0:0:
256,192,256991,1,0,0:0:0:0:
36,192,256991,1,0,0:0:0:0:
109,192,256991,1,0,0:0:0:0:
329,192,256991,1,0,0:0:0:0:
402,192,257049,1,0,0:0:0:0:
475,192,257049,1,0,0:0:0:0:
256,192,257107,1,0,0:0:0:0:
109,192,257107,1,0,0:0:0:0:
329,192,257107,1,0,0:0:0:0:
182,192,257164,1,0,0:0:0:0:
36,192,257164,1,0,0:0:0:0:
329,192,257222,1,0,0:0:0:0:
402,192,257222,1,0,0:0:0:0:
475,192,257222,1,0,0:0:0:0:
256,192,257222,1,0,0:0:0:0:
109,192,257280,1,0,0:0:0:0:
36,192,257280,1,0,0:0:0:0:
182,192,257337,1,0,0:0:0:0:
402,192,257337,1,0,0:0:0:0:
329,192,257337,1,0,0:0:0:0:
475,192,257395,1,0,0:0:0:0:
256,192,257395,1,0,0:0:0:0:
182,192,257453,1,0,0:0:0:0:
109,192,257453,1,0,0:0:0:0:
36,192,257453,1,0,0:0:0:0:
329,192,257453,1,0,0:0:0:0:
402,192,257510,1,0,0:0:0:0:
475,192,257510,1,0,0:0:0:0:
256,192,257568,1,0,0:0:0:0:
36,192,257568,1,0,0:0:0:0:
109,192,257568,1,0,0:0:0:0:
329,192,257626,1,0,0:0:0:0:
475,192,257626,1,0,0:0:0:0:
256,192,257683,1,0,0:0:0:0:
36,192,257683,1,0,0:0:0:0:
109,192,257683,1,0,0:0:0:0:
182,192,257683,1,0,0:0:0:0:
402,192,257741,1,0,0:0:0:0:
475,192,257741,1,0,0:0:0:0:
256,192,257799,1,0,0:0:0:0:
109,192,257799,1,0,0:0:0:0:
329,192,257799,1,0,0:0:0:0:
182,192,257857,1,0,0:0:0:0:
36,192,257857,1,0,0:0:0:0:
329,192,257914,1,0,0:0:0:0:
402,192,257914,1,0,0:0:0:0:
475,192,257914,1,0,0:0:0:0:
256,192,257914,1,0,0:0:0:0:
109,192,257972,1,0,0:0:0:0:
36,192,257972,1,0,0:0:0:0:
182,192,258030,1,0,0:0:0:0:
402,192,258030,1,0,0:0:0:0:
329,192,258030,1,0,0:0:0:0:
475,192,258087,1,0,0:0:0:0:
256,192,258087,1,0,0:0:0:0:
182,192,258145,1,0,0:0:0:0:
109,192,258145,1,0,0:0:0:0:
36,192,258145,1,0,0:0:0:0:
329,192,258145,1,0,0:0:0:0:
402,192,258203,1,0,0:0:0:0:
475,192,258203,1,0,0:0:0:0:
256,192,258260,1,0,0:0:0:0:
36,192,258260,1,0,0:0:0:0:
109,192,258260,1,0,0:0:0:0:
182,192,258318,1,0,0:0:0:0:
329,192,258318,1,0,0:0:0:0:
109,192,258376,1,0,0:0:0:0:
36,192,258376,1,0,0:0:0:0:
402,192,258376,1,0,0:0:0:0:
475,192,258376,1,0,0:0:0:0:
256,192,258433,1,0,0:0:0:0:
329,192,258433,1,0,0:0:0:0:
402,192,258491,1,0,0:0:0:0:
475,192,258491,1,0,0:0:0:0:
182,192,258491,1,0,0:0:0:0:
36,192,258549,1,0,0:0:0:0:
256,192,258549,1,0,0:0:0:0:
182,192,258607,1,0,0:0:0:0:
109,192,258607,1,0,0:0:0:0:
329,192,258607,1,0,0:0:0:0:
402,192,258607,1,0,0:0:0:0:
36,192,258664,1,0,0:0:0:0:
256,192,258664,1,0,0:0:0:0:
109,192,258722,1,0,0:0:0:0:
402,192,258722,1,0,0:0:0:0:
475,192,258722,1,0,0:0:0:0:
182,192,258780,1,0,0:0:0:0:
36,192,258780,1,0,0:0:0:0:
256,192,258837,1,0,0:0:0:0:
329,192,258837,1,0,0:0:0:0:
475,192,258837,1,0,0:0:0:0:
402,192,258837,1,0,0:0:0:0:
182,192,258895,1,0,0:0:0:0:
36,192,258895,1,0,0:0:0:0:
109,192,258953,1,0,0:0:0:0:
329,192,258953,1,0,0:0:0:0:
475,192,258953,1,0,0:0:0:0:
402,192,259010,1,0,0:0:0:0:
256,192,259010,1,0,0:0:0:0:
182,192,259068,1,0,0:0:0:0:
36,192,259068,1,0,0:0:0:0:
109,192,259068,1,0,0:0:0:0:
329,192,259068,1,0,0:0:0:0:
256,192,259126,1,0,0:0:0:0:
475,192,259126,1,0,0:0:0:0:
329,192,259183,1,0,0:0:0:0:
109,192,259183,1,0,0:0:0:0:
36,192,259183,1,0,0:0:0:0:
182,192,259241,1,0,0:0:0:0:
402,192,259241,1,0,0:0:0:0:
256,192,259299,1,0,0:0:0:0:
329,192,259299,1,0,0:0:0:0:
475,192,259299,1,0,0:0:0:0:
109,192,259299,1,0,0:0:0:0:
36,192,259357,1,0,0:0:0:0:
182,192,259357,1,0,0:0:0:0:
256,192,259414,1,0,0:0:0:0:
402,192,259414,1,0,0:0:0:0:
475,192,259414,1,0,0:0:0:0:
182,192,259472,1,0,0:0:0:0:
109,192,259472,1,0,0:0:0:0:
36,192,259530,1,0,0:0:0:0:
256,192,259530,1,0,0:0:0:0:
329,192,259530,1,0,0:0:0:0:
475,192,259530,1,0,0:0:0:0:
402,192,259587,1,0,0:0:0:0:
182,192,259587,1,0,0:0:0:0:
109,192,259645,1,0,0:0:0:0:
36,192,259645,1,0,0:0:0:0:
256,192,259645,1,0,0:0:0:0:
329,192,259703,1,0,0:0:0:0:
475,192,259703,1,0,0:0:0:0:
182,192,259760,1,0,0:0:0:0:
109,192,259760,1,0,0:0:0:0:
402,192,259760,1,0,0:0:0:0:
36,192,259760,1,0,0:0:0:0:
256,192,259818,1,0,0:0:0:0:
475,192,259818,1,0,0:0:0:0:
36,192,259876,1,0,0:0:0:0:
329,192,259876,1,0,0:0:0:0:
402,192,259876,1,0,0:0:0:0:
109,192,259933,1,0,0:0:0:0:
182,192,259933,1,0,0:0:0:0:
256,192,259991,1,0,0:0:0:0:
329,192,259991,1,0,0:0:0:0:
475,192,259991,1,0,0:0:0:0:
402,192,259991,1,0,0:0:0:0:
36,192,260049,1,0,0:0:0:0:
182,192,260049,1,0,0:0:0:0:
109,192,260107,1,0,0:0:0:0:
329,192,260107,1,0,0:0:0:0:
475,192,260107,1,0,0:0:0:0:
402,192,260164,1,0,0:0:0:0:
256,192,260164,1,0,0:0:0:0:
182,192,260222,1,0,0:0:0:0:
109,192,260222,1,0,0:0:0:0:
329,192,260222,1,0,0:0:0:0:
475,192,260222,1,0,0:0:0:0:
36,192,260280,1,0,0:0:0:0:
256,192,260280,1,0,0:0:0:0:
329,192,260337,1,0,0:0:0:0:
182,192,260337,1,0,0:0:0:0:
475,192,260337,1,0,0:0:0:0:
109,192,260395,1,0,0:0:0:0:
36,192,260395,1,0,0:0:0:0:
182,192,260453,1,0,0:0:0:0:
329,192,260453,1,0,0:0:0:0:
402,192,260453,1,0,0:0:0:0:
475,192,260453,1,0,0:0:0:0:
256,192,260510,1,0,0:0:0:0:
109,192,260510,1,0,0:0:0:0:
36,192,260568,1,0,0:0:0:0:
182,192,260568,1,0,0:0:0:0:
475,192,260568,1,0,0:0:0:0:
402,192,260626,1,0,0:0:0:0:
329,192,260626,1,0,0:0:0:0:
256,192,260683,1,0,0:0:0:0:
182,192,260683,1,0,0:0:0:0:
109,192,260683,1,0,0:0:0:0:
36,192,260683,1,0,0:0:0:0:
475,192,260741,1,0,0:0:0:0:
329,192,260741,1,0,0:0:0:0:
402,192,260799,1,0,0:0:0:0:
182,192,260799,1,0,0:0:0:0:
36,192,260799,1,0,0:0:0:0:
109,192,260857,1,0,0:0:0:0:
256,192,260857,1,0,0:0:0:0:
182,192,260914,1,0,0:0:0:0:
329,192,260914,1,0,0:0:0:0:
402,192,260914,1,0,0:0:0:0:
475,192,260914,1,0,0:0:0:0:
36,192,260972,1,0,0:0:0:0:
109,192,260972,1,0,0:0:0:0:
182,192,261030,1,0,0:0:0:0:
329,192,261030,1,0,0:0:0:0:
475,192,261030,1,0,0:0:0:0:
256,192,261087,1,0,0:0:0:0:
109,192,261087,1,0,0:0:0:0:
36,192,261145,1,0,0:0:0:0:
182,192,261145,1,0,0:0:0:0:
329,192,261145,1,0,0:0:0:0:
402,192,261145,1,0,0:0:0:0:
475,192,261203,1,0,0:0:0:0:
109,192,261203,1,0,0:0:0:0:
256,192,261260,1,0,0:0:0:0:
329,192,261260,1,0,0:0:0:0:
182,192,261260,1,0,0:0:0:0:
36,192,261318,1,0,0:0:0:0:
109,192,261318,1,0,0:0:0:0:
256,192,261376,1,0,0:0:0:0:
402,192,261376,1,0,0:0:0:0:
475,192,261376,1,0,0:0:0:0:
182,192,261376,1,0,0:0:0:0:
36,192,261433,1,0,0:0:0:0:
329,192,261433,1,0,0:0:0:0:
182,192,261491,1,0,0:0:0:0:
109,192,261491,1,0,0:0:0:0:
256,192,261491,1,0,0:0:0:0:
329,192,261549,1,0,0:0:0:0:
475,192,261549,1,0,0:0:0:0:
36,192,261607,1,0,0:0:0:0:
256,192,261607,1,0,0:0:0:0:
182,192,261607,1,0,0:0:0:0:
109,192,261607,1,0,0:0:0:0:
402,192,261664,1,0,0:0:0:0:
475,192,261664,1,0,0:0:0:0:
329,192,261722,1,0,0:0:0:0:
109,192,261722,1,0,0:0:0:0:
36,192,261722,1,0,0:0:0:0:
182,192,261780,1,0,0:0:0:0:
402,192,261780,1,0,0:0:0:0:
329,192,261837,1,0,0:0:0:0:
256,192,261837,1,0,0:0:0:0:
109,192,261837,1,0,0:0:0:0:
36,192,261837,1,0,0:0:0:0:
475,192,261895,1,0,0:0:0:0:
402,192,261895,1,0,0:0:0:0:
182,192,261953,1,0,0:0:0:0:
36,192,261953,1,0,0:0:0:0:
256,192,261953,1,0,0:0:0:0:
329,192,262010,1,0,0:0:0:0:
109,192,262010,1,0,0:0:0:0:
402,192,262068,1,0,0:0:0:0:
475,192,262068,1,0,0:0:0:0:
256,192,262068,1,0,0:0:0:0:
182,192,262068,1,0,0:0:0:0:
36,192,262126,1,0,0:0:0:0:
109,192,262126,1,0,0:0:0:0:
182,192,262183,1,0,0:0:0:0:
329,192,262183,1,0,0:0:0:0:
402,192,262183,1,0,0:0:0:0:
256,192,262241,1,0,0:0:0:0:
109,192,262241,1,0,0:0:0:0:
36,192,262299,1,0,0:0:0:0:
182,192,262299,1,0,0:0:0:0:
402,192,262299,1,0,0:0:0:0:
329,192,262299,1,0,0:0:0:0:
475,192,262357,1,0,0:0:0:0:
256,192,262357,1,0,0:0:0:0:
182,192,262414,1,0,0:0:0:0:
329,192,262414,1,0,0:0:0:0:
402,192,262414,1,0,0:0:0:0:
109,192,262472,1,0,0:0:0:0:
36,192,262472,1,0,0:0:0:0:
329,192,262530,1,0,0:0:0:0:
475,192,262530,1,0,0:0:0:0:
182,192,262530,1,0,0:0:0:0:
256,192,262530,1,0,0:0:0:0:
36,192,262587,1,0,0:0:0:0:
402,192,262587,1,0,0:0:0:0:
182,192,262645,1,0,0:0:0:0:
109,192,262645,1,0,0:0:0:0:
329,192,262645,1,0,0:0:0:0:
256,192,262703,1,0,0:0:0:0:
402,192,262703,1,0,0:0:0:0:
182,192,262760,1,0,0:0:0:0:
36,192,262760,1,0,0:0:0:0:
109,192,262760,1,0,0:0:0:0:
329,192,262760,1,0,0:0:0:0:
402,192,262818,1,0,0:0:0:0:
475,192,262818,1,0,0:0:0:0:
256,192,262876,1,0,0:0:0:0:
109,192,262876,1,0,0:0:0:0:
36,192,262876,1,0,0:0:0:0:
182,192,262933,1,0,0:0:0:0:
329,192,262933,1,0,0:0:0:0:
402,192,262991,1,0,0:0:0:0:
475,192,262991,1,0,0:0:0:0:
256,192,262991,1,0,0:0:0:0:
109,192,262991,1,0,0:0:0:0:
36,192,263049,1,0,0:0:0:0:
182,192,263049,1,0,0:0:0:0:
256,192,263107,1,0,0:0:0:0:
475,192,263107,1,0,0:0:0:0:
329,192,263107,1,0,0:0:0:0:
402,192,263164,1,0,0:0:0:0:
109,192,263164,1,0,0:0:0:0:
182,192,263222,1,0,0:0:0:0:
36,192,263222,1,0,0:0:0:0:
256,192,263222,1,0,0:0:0:0:
329,192,263222,1,0,0:0:0:0:
475,192,263280,1,0,0:0:0:0:
402,192,263280,1,0,0:0:0:0:
109,192,263337,1,0,0:0:0:0:
329,192,263337,1,0,0:0:0:0:
36,192,263337,1,0,0:0:0:0:
182,192,263395,1,0,0:0:0:0:
402,192,263395,1,0,0:0:0:0:
256,192,263453,1,0,0:0:0:0:
109,192,263453,1,0,0:0:0:0:
36,192,263453,1,0,0:0:0:0:
329,192,263453,1,0,0:0:0:0:
402,192,263510,1,0,0:0:0:0:
475,192,263510,1,0,0:0:0:0:
329,192,263568,1,0,0:0:0:0:
182,192,263568,1,0,0:0:0:0:
36,192,263568,1,0,0:0:0:0:
109,192,263626,1,0,0:0:0:0:
256,192,263626,1,0,0:0:0:0:
182,192,263683,1,0,0:0:0:0:
402,192,263683,1,0,0:0:0:0:
475,192,263683,1,0,0:0:0:0:
329,192,263683,1,0,0:0:0:0:
36,192,263741,1,0,0:0:0:0:
109,192,263741,1,0,0:0:0:0:
182,192,263799,1,0,0:0:0:0:
402,192,263799,1,0,0:0:0:0:
256,192,263799,1,0,0:0:0:0:
329,192,263857,1,0,0:0:0:0:
475,192,263857,1,0,0:0:0:0:
182,192,263914,1,0,0:0:0:0:
109,192,263914,1,0,0:0:0:0:
36,192,263914,1,0,0:0:0:0:
256,192,263914,1,0,0:0:0:0:
329,192,263972,1,0,0:0:0:0:
402,192,263972,1,0,0:0:0:0:
475,192,264030,1,0,0:0:0:0:
182,192,264030,1,0,0:0:0:0:
36,192,264030,1,0,0:0:0:0:
109,192,264087,1,0,0:0:0:0:
256,192,264087,1,0,0:0:0:0:
329,192,264145,1,0,0:0:0:0:
402,192,264145,1,0,0:0:0:0:
475,192,264145,1,0,0:0:0:0:
182,192,264145,1,0,0:0:0:0:
109,192,264203,1,0,0:0:0:0:
36,192,264203,1,0,0:0:0:0:
182,192,264260,1,0,0:0:0:0:
329,192,264260,1,0,0:0:0:0:
402,192,264260,1,0,0:0:0:0:
475,192,264318,1,0,0:0:0:0:
256,192,264318,1,0,0:0:0:0:
109,192,264376,1,0,0:0:0:0:
182,192,264376,1,0,0:0:0:0:
36,192,264376,1,0,0:0:0:0:
329,192,264376,1,0,0:0:0:0:
402,192,264433,1,0,0:0:0:0:
475,192,264433,1,0,0:0:0:0:
109,192,264491,1,0,0:0:0:0:
36,192,264491,1,0,0:0:0:0:
256,192,264491,1,0,0:0:0:0:
329,192,264549,1,0,0:0:0:0:
182,192,264549,1,0,0:0:0:0:
475,192,264607,1,0,0:0:0:0:
36,192,264607,1,0,0:0:0:0:
109,192,264607,1,0,0:0:0:0:
402,192,264607,1,0,0:0:0:0:
256,192,264664,1,0,0:0:0:0:
329,192,264664,1,0,0:0:0:0:
402,192,264722,1,0,0:0:0:0:
182,192,264722,1,0,0:0:0:0:
475,192,264722,1,0,0:0:0:0:
109,192,264780,1,0,0:0:0:0:
36,192,264780,1,0,0:0:0:0:
256,192,264837,1,0,0:0:0:0:
329,192,264837,1,0,0:0:0:0:
402,192,264837,1,0,0:0:0:0:
475,192,264837,1,0,0:0:0:0:
182,192,264895,1,0,0:0:0:0:
36,192,264895,1,0,0:0:0:0:
109,192,264953,1,0,0:0:0:0:
256,192,264953,1,0,0:0:0:0:
329,192,264953,1,0,0:0:0:0:
402,192,265010,1,0,0:0:0:0:
475,192,265010,1,0,0:0:0:0:
182,192,265068,1,0,0:0:0:0:
36,192,265068,1,0,0:0:0:0:
109,192,265068,1,0,0:0:0:0:
256,192,265068,1,0,0:0:0:0:
329,192,265126,1,0,0:0:0:0:
475,192,265126,1,0,0:0:0:0:
402,192,265183,1,0,0:0:0:0:
36,192,265183,1,0,0:0:0:0:
109,192,265183,1,0,0:0:0:0:
182,192,265241,1,0,0:0:0:0:
256,192,265241,1,0,0:0:0:0:
329,192,265299,1,0,0:0:0:0:
402,192,265299,1,0,0:0:0:0:
475,192,265299,1,0,0:0:0:0:
36,192,265299,1,0,0:0:0:0:
109,192,265357,1,0,0:0:0:0:
182,192,265357,1,0,0:0:0:0:
256,192,265414,1,0,0:0:0:0:
402,192,265414,1,0,0:0:0:0:
475,192,265414,1,0,0:0:0:0:
329,192,265472,1,0,0:0:0:0:
36,192,265472,1,0,0:0:0:0:
182,192,265530,1,0,0:0:0:0:
109,192,265530,1,0,0:0:0:0:
475,192,265530,1,0,0:0:0:0:
256,192,265530,1,0,0:0:0:0:
329,192,265587,1,0,0:0:0:0:
402,192,265587,1,0,0:0:0:0:
256,192,265645,1,0,0:0:0:0:
475,192,265645,1,0,0:0:0:0:
36,192,265645,1,0,0:0:0:0:
109,192,265703,1,0,0:0:0:0:
182,192,265703,1,0,0:0:0:0:
475,192,265760,1,0,0:0:0:0:
329,192,265760,1,0,0:0:0:0:
402,192,265760,1,0,0:0:0:0:
36,192,265760,1,0,0:0:0:0:
256,192,265818,1,0,0:0:0:0:
182,192,265818,1,0,0:0:0:0:
475,192,265876,1,0,0:0:0:0:
36,192,265876,1,0,0:0:0:0:
402,192,265876,1,0,0:0:0:0:
329,192,265933,1,0,0:0:0:0:
256,192,265933,1,0,0:0:0:0:
182,192,265991,1,0,0:0:0:0:
109,192,265991,1,0,0:0:0:0:
36,192,265991,1,0,0:0:0:0:
402,192,265991,1,0,0:0:0:0:
182,192,266453,1,0,0:0:0:0:
256,192,266453,1,0,0:0:0:0:
402,192,266453,1,0,0:0:0:0:
329,192,266453,1,0,0:0:0:0:
475,192,266453,1,0,0:0:0:0:
182,192,266683,1,0,0:0:0:0:
109,192,266683,1,0,0:0:0:0:
36,192,266683,1,0,0:0:0:0:
256,192,266914,1,0,0:0:0:0:
329,192,266914,1,0,0:0:0:0:
402,192,266914,1,0,0:0:0:0:
475,192,266914,1,0,0:0:0:0:
182,192,267145,1,0,0:0:0:0:
109,192,267145,1,0,0:0:0:0:
36,192,267145,1,0,0:0:0:0:
182,192,267376,1,0,0:0:0:0:
256,192,267376,1,0,0:0:0:0:
329,192,267376,1,0,0:0:0:0:
402,192,267376,1,0,0:0:0:0:
256,192,267607,1,0,0:0:0:0:
182,192,267607,1,0,0:0:0:0:
109,192,267607,1,0,0:0:0:0:
36,192,267607,1,0,0:0:0:0:
329,192,267683,1,0,0:0:0:0:
402,192,267683,1,0,0:0:0:0:
475,192,267683,1,0,0:0:0:0:
109,192,267837,1,0,0:0:0:0:
36,192,267837,1,0,0:0:0:0:
182,192,267837,1,0,0:0:0:0:
256,192,267837,1,0,0:0:0:0:
182,192,268068,1,0,0:0:0:0:
329,192,268068,1,0,0:0:0:0:
256,192,268068,1,0,0:0:0:0:
402,192,268068,1,0,0:0:0:0:
182,192,268299,1,0,0:0:0:0:
109,192,268299,1,0,0:0:0:0:
36,192,268299,1,0,0:0:0:0:
256,192,268299,1,0,0:0:0:0:
475,192,268530,1,0,0:0:0:0:
256,192,268530,1,0,0:0:0:0:
329,192,268530,1,0,0:0:0:0:
402,192,268530,1,0,0:0:0:0:
36,192,268645,1,0,0:0:0:0:
109,192,268645,1,0,0:0:0:0:
182,192,268645,1,0,0:0:0:0:
182,192,268760,1,0,0:0:0:0:
256,192,268760,1,0,0:0:0:0:
329,192,268760,1,0,0:0:0:0:
402,192,268760,1,0,0:0:0:0:
109,192,268991,1,0,0:0:0:0:
36,192,268991,1,0,0:0:0:0:
402,192,268991,1,0,0:0:0:0:
475,192,268991,1,0,0:0:0:0:
182,192,269222,1,0,0:0:0:0:
256,192,269222,1,0,0:0:0:0:
329,192,269222,1,0,0:0:0:0:
402,192,269222,1,0,0:0:0:0:
109,192,269337,1,0,0:0:0:0:
36,192,269337,1,0,0:0:0:0:
182,192,269337,1,0,0:0:0:0:
256,192,269453,1,0,0:0:0:0:
329,192,269453,1,0,0:0:0:0:
402,192,269453,1,0,0:0:0:0:
475,192,269453,1,0,0:0:0:0:
182,192,269568,1,0,0:0:0:0:
329,192,269568,1,0,0:0:0:0:
256,192,269568,1,0,0:0:0:0:
109,192,269683,1,0,0:0:0:0:
36,192,269683,1,0,0:0:0:0:
402,192,269683,1,0,0:0:0:0:
475,192,269683,1,0,0:0:0:0:
182,192,269914,1,0,0:0:0:0:
109,192,269914,1,0,0:0:0:0:
36,192,269914,1,0,0:0:0:0:
256,192,269914,1,0,0:0:0:0:
256,192,270145,1,0,0:0:0:0:
329,192,270145,1,0,0:0:0:0:
402,192,270145,1,0,0:0:0:0:
36,192,270222,1,0,0:0:0:0:
182,192,270222,1,0,0:0:0:0:
109,192,270222,1,0,0:0:0:0:
256,192,270337,1,0,0:0:0:0:
329,192,270337,1,0,0:0:0:0:
402,192,270337,1,0,0:0:0:0:
475,192,270337,1,0,0:0:0:0:
109,192,270607,1,0,0:0:0:0:
36,192,270607,1,0,0:0:0:0:
182,192,270607,1,0,0:0:0:0:
256,192,270607,1,0,0:0:0:0:
182,192,270837,1,0,0:0:0:0:
329,192,270837,1,0,0:0:0:0:
256,192,270837,1,0,0:0:0:0:
402,192,270837,1,0,0:0:0:0:
182,192,271068,1,0,0:0:0:0:
109,192,271068,1,0,0:0:0:0:
36,192,271068,1,0,0:0:0:0:
256,192,271068,1,0,0:0:0:0:
475,192,271183,1,0,0:0:0:0:
329,192,271183,1,0,0:0:0:0:
402,192,271183,1,0,0:0:0:0:
109,192,271299,1,0,0:0:0:0:
256,192,271299,1,0,0:0:0:0:
329,192,271299,1,0,0:0:0:0:
182,192,271299,1,0,0:0:0:0:
36,192,271414,1,0,0:0:0:0:
109,192,271414,1,0,0:0:0:0:
182,192,271414,1,0,0:0:0:0:
182,192,271530,1,0,0:0:0:0:
256,192,271530,1,0,0:0:0:0:
329,192,271530,1,0,0:0:0:0:
402,192,271530,1,0,0:0:0:0:
109,192,271760,1,0,0:0:0:0:
36,192,271760,1,0,0:0:0:0:
402,192,271760,1,0,0:0:0:0:
475,192,271760,1,0,0:0:0:0:
182,192,271991,1,0,0:0:0:0:
256,192,271991,1,0,0:0:0:0:
329,192,271991,1,0,0:0:0:0:
402,192,271991,1,0,0:0:0:0:
109,192,272107,1,0,0:0:0:0:
36,192,272107,1,0,0:0:0:0:
182,192,272107,1,0,0:0:0:0:
256,192,272222,1,0,0:0:0:0:
329,192,272222,1,0,0:0:0:0:
402,192,272222,1,0,0:0:0:0:
475,192,272222,1,0,0:0:0:0:
182,192,272337,1,0,0:0:0:0:
329,192,272337,1,0,0:0:0:0:
256,192,272337,1,0,0:0:0:0:
109,192,272453,1,0,0:0:0:0:
36,192,272453,1,0,0:0:0:0:
402,192,272453,1,0,0:0:0:0:
475,192,272453,1,0,0:0:0:0:
182,192,272683,1,0,0:0:0:0:
109,192,272683,1,0,0:0:0:0:
36,192,272683,1,0,0:0:0:0:
256,192,272683,1,0,0:0:0:0:
256,192,272914,1,0,0:0:0:0:
329,192,272914,1,0,0:0:0:0:
402,192,272914,1,0,0:0:0:0:
475,192,273145,1,0,0:0:0:0:
402,192,273145,1,0,0:0:0:0:
329,192,273145,1,0,0:0:0:0:
256,192,273145,1,0,0:0:0:0:
182,192,273376,1,0,0:0:0:0:
109,192,273376,1,0,0:0:0:0:
36,192,273376,1,0,0:0:0:0:
256,192,273376,1,0,0:0:0:0:
402,192,273607,1,0,0:0:0:0:
36,192,273837,1,0,0:0:0:0:
256,192,274068,1,0,0:0:0:0:
329,192,274068,1,0,0:0:0:0:
402,192,274068,1,0,0:0:0:0:
475,192,274068,1,0,0:0:0:0:
182,192,274299,1,0,0:0:0:0:
109,192,274299,1,0,0:0:0:0:
36,192,274299,1,0,0:0:0:0:
329,192,274530,1,0,0:0:0:0:
256,192,274645,1,0,0:0:0:0:
182,192,274645,1,0,0:0:0:0:
109,192,274645,1,0,0:0:0:0:
475,192,274760,1,0,0:0:0:0:
329,192,274991,1,0,0:0:0:0:
256,192,274991,1,0,0:0:0:0:
182,192,274991,1,0,0:0:0:0:
36,192,275222,1,0,0:0:0:0:
109,192,275222,1,0,0:0:0:0:
182,192,275222,1,0,0:0:0:0:
329,192,275299,1,0,0:0:0:0:
402,192,275299,1,0,0:0:0:0:
475,192,275299,1,0,0:0:0:0:
182,192,275453,1,0,0:0:0:0:
329,192,275683,1,0,0:0:0:0:
402,192,275683,1,0,0:0:0:0:
475,192,275683,1,0,0:0:0:0:
256,192,275799,1,0,0:0:0:0:
182,192,275914,1,0,0:0:0:0:
109,192,275914,1,0,0:0:0:0:
36,192,275914,1,0,0:0:0:0:
256,192,276145,1,0,0:0:0:0:
182,192,276145,1,0,0:0:0:0:
109,192,276145,1,0,0:0:0:0:
329,192,276260,1,0,0:0:0:0:
475,192,276376,1,0,0:0:0:0:
402,192,276491,1,0,0:0:0:0:
329,192,276491,1,0,0:0:0:0:
182,192,276607,1,0,0:0:0:0:
36,192,276837,1,0,0:0:0:0:
109,192,276837,1,0,0:0:0:0:
182,192,276837,1,0,0:0:0:0:
256,192,276953,1,0,0:0:0:0:
36,192,277068,1,0,0:0:0:0:
329,192,277068,1,0,0:0:0:0:
182,192,277068,1,0,0:0:0:0:
256,192,277126,1,0,0:0:0:0:
475,192,277126,1,0,0:0:0:0:
402,192,277183,1,0,0:0:0:0:
182,192,277183,1,0,0:0:0:0:
109,192,277241,1,0,0:0:0:0:
256,192,277241,1,0,0:0:0:0:
475,192,277299,1,0,0:0:0:0:
36,192,277299,1,0,0:0:0:0:
329,192,277299,1,0,0:0:0:0:
182,192,277357,1,0,0:0:0:0:
329,192,277414,1,0,0:0:0:0:
475,192,277414,1,0,0:0:0:0:
256,192,277472,1,0,0:0:0:0:
109,192,277472,1,0,0:0:0:0:
36,192,277530,1,0,0:0:0:0:
182,192,277530,1,0,0:0:0:0:
402,192,277530,1,0,0:0:0:0:
329,192,277587,1,0,0:0:0:0:
109,192,277587,1,0,0:0:0:0:
475,192,277645,1,0,0:0:0:0:
182,192,277645,1,0,0:0:0:0:
256,192,277703,1,0,0:0:0:0:
109,192,277703,1,0,0:0:0:0:
36,192,277760,1,0,0:0:0:0:
182,192,277760,1,0,0:0:0:0:
402,192,277760,1,0,0:0:0:0:
475,192,277818,1,0,0:0:0:0:
329,192,277818,1,0,0:0:0:0:
402,192,277876,1,0,0:0:0:0:
256,192,277876,1,0,0:0:0:0:
329,192,277933,1,0,0:0:0:0:
182,192,277933,1,0,0:0:0:0:
402,192,277991,1,0,0:0:0:0:
109,192,277991,1,0,0:0:0:0:
256,192,277991,1,0,0:0:0:0:
36,192,278049,1,0,0:0:0:0:
475,192,278049,1,0,0:0:0:0:
402,192,278107,1,0,0:0:0:0:
182,192,278107,1,0,0:0:0:0:
109,192,278164,1,0,0:0:0:0:
256,192,278222,1,0,0:0:0:0:
475,192,278222,1,0,0:0:0:0:
36,192,278222,1,0,0:0:0:0:
182,192,278280,1,0,0:0:0:0:
329,192,278280,1,0,0:0:0:0:
402,192,278337,1,0,0:0:0:0:
109,192,278337,1,0,0:0:0:0:
256,192,278395,1,0,0:0:0:0:
475,192,278395,1,0,0:0:0:0:
329,192,278453,1,0,0:0:0:0:
182,192,278453,1,0,0:0:0:0:
36,192,278453,1,0,0:0:0:0:
109,192,278510,1,0,0:0:0:0:
256,192,278510,1,0,0:0:0:0:
329,192,278568,1,0,0:0:0:0:
475,192,278568,1,0,0:0:0:0:
256,192,278626,1,0,0:0:0:0:
402,192,278626,1,0,0:0:0:0:
36,192,278683,1,0,0:0:0:0:
182,192,278683,1,0,0:0:0:0:
329,192,278683,1,0,0:0:0:0:
109,192,278741,1,0,0:0:0:0:
402,192,278741,1,0,0:0:0:0:
256,192,278799,1,0,0:0:0:0:
329,192,278857,1,0,0:0:0:0:
36,192,278914,1,0,0:0:0:0:
109,192,278914,1,0,0:0:0:0:
182,192,278914,1,0,0:0:0:0:
256,192,278914,1,0,0:0:0:0:
329,192,278914,1,0,0:0:0:0:
402,192,278914,1,0,0:0:0:0:
475,192,278914,1,0,0:0:0:0:
