osu file format v14

[General]
AudioFilename: audio 0.900x.mp3
AudioLeadIn: 0
PreviewTime: 102731
Countdown: 0
SampleSet: Normal
StackLeniency: 0.7
Mode: 3
LetterboxInBreaks: 0
SpecialStyle: 0
WidescreenStoryboard: 0

[Editor]
DistanceSpacing: 0.8
BeatDivisor: 4
GridSize: 16
TimelineZoom: 3.699999

[Metadata]
Title:IMAGE -MATERIAL
TitleUnicode:IMAGE -MATERIAL
Artist:Tatsh
ArtistUnicode:Tatsh
Creator:Jonjizz
Version:0.9x Rate
Source:
Tags:
BeatmapID:4538020
BeatmapSetID:2153656

[Difficulty]
HPDrainRate:7.5
CircleSize:7
OverallDifficulty:8
ApproachRate:2.5
SliderMultiplier:1.4
SliderTickRate:1

[Events]
//Background and Video events
0,0,"anime-girl-hatsune-miku-hd-wallpaper-uhdpaper.com-1@0@j.jpg",0,0
//Break Periods
2,166281,174045
//Storyboard Layer 0 (Background)
//Storyboard Layer 1 (Fail)
//Storyboard Layer 2 (Pass)
//Storyboard Layer 3 (Foreground)
//Storyboard Layer 4 (Overlay)
//Storyboard Sound Samples

[TimingPoints]
7341,256.410256410257,4,1,0,100,1,0
31955,-100,4,1,0,100,0,1
45545,-100,4,1,0,100,0,0
48366,-100,4,1,0,100,0,1
65802,-100,4,1,0,100,0,0
102725,-100,4,1,0,100,0,1
134776,-100,4,1,0,100,0,0
191955,-100,4,1,0,100,0,1
209392,-100,4,1,0,100,0,0
211443,-100,4,1,0,100,0,1
226827,-100,4,1,0,100,0,0
227853,-100,4,1,0,100,0,1
295545,-100,4,1,0,100,0,0

[HitObjects]
329,192,1827,5,0,0:0:0:0:
182,192,2084,1,0,0:0:0:0:
402,192,2340,1,0,0:0:0:0:
329,192,5001,5,0,0:0:0:0:
402,192,5011,1,0,0:0:0:0:
109,192,5513,1,0,0:0:0:0:
182,192,5524,1,0,0:0:0:0:
329,192,6026,1,0,0:0:0:0:
402,192,6041,1,0,0:0:0:0:
256,192,6538,1,0,0:0:0:0:
182,192,6547,1,0,0:0:0:0:
329,192,7084,1,0,0:0:0:0:
256,192,7094,1,0,0:0:0:0:
36,192,7340,5,0,0:0:0:0:
109,192,7340,1,0,0:0:0:0:
182,192,7340,1,0,0:0:0:0:
329,192,7340,1,0,0:0:0:0:
475,192,7340,1,0,0:0:0:0:
402,192,7340,1,0,0:0:0:0:
256,192,7340,1,0,0:0:0:0:
36,192,9392,1,0,0:0:0:0:
109,192,9392,1,0,0:0:0:0:
256,192,9392,1,0,0:0:0:0:
329,192,9392,1,0,0:0:0:0:
475,192,9392,1,0,0:0:0:0:
402,192,9392,1,0,0:0:0:0:
182,192,9392,1,0,0:0:0:0:
36,192,11443,1,0,0:0:0:0:
109,192,11443,1,0,0:0:0:0:
182,192,11443,1,0,0:0:0:0:
256,192,11443,1,0,0:0:0:0:
329,192,11443,1,0,0:0:0:0:
402,192,11443,1,0,0:0:0:0:
475,192,11443,1,0,0:0:0:0:
36,192,13494,1,0,0:0:0:0:
109,192,13494,1,0,0:0:0:0:
256,192,13494,1,0,0:0:0:0:
182,192,13494,1,0,0:0:0:0:
329,192,13494,1,0,0:0:0:0:
329,192,14520,1,0,0:0:0:0:
402,192,14520,1,0,0:0:0:0:
475,192,14520,1,0,0:0:0:0:
256,192,14520,1,0,0:0:0:0:
256,192,15545,1,0,0:0:0:0:
182,192,15545,1,0,0:0:0:0:
109,192,15545,1,0,0:0:0:0:
329,192,15545,1,0,0:0:0:0:
402,192,15545,1,0,0:0:0:0:
475,192,15545,1,0,0:0:0:0:
36,192,15545,1,0,0:0:0:0:
109,192,17596,1,0,0:0:0:0:
36,192,17596,1,0,0:0:0:0:
182,192,17596,1,0,0:0:0:0:
402,192,17596,1,0,0:0:0:0:
475,192,17596,1,0,0:0:0:0:
329,192,17596,1,0,0:0:0:0:
256,192,17596,1,0,0:0:0:0:
256,192,18622,1,0,0:0:0:0:
402,192,18622,1,0,0:0:0:0:
329,192,18622,1,0,0:0:0:0:
256,192,19647,1,0,0:0:0:0:
182,192,19647,1,0,0:0:0:0:
36,192,19647,1,0,0:0:0:0:
109,192,19647,1,0,0:0:0:0:
329,192,19647,1,0,0:0:0:0:
402,192,19647,1,0,0:0:0:0:
475,192,19647,1,0,0:0:0:0:
329,192,21700,1,0,0:0:0:0:
256,192,21700,1,0,0:0:0:0:
182,192,21700,1,0,0:0:0:0:
36,192,23751,1,0,0:0:0:0:
109,192,23751,1,0,0:0:0:0:
182,192,23751,1,0,0:0:0:0:
329,192,23751,1,0,0:0:0:0:
256,192,23751,1,0,0:0:0:0:
402,192,23878,1,0,0:0:0:0:
256,192,24007,1,0,0:0:0:0:
182,192,24007,1,0,0:0:0:0:
36,192,24135,1,0,0:0:0:0:
256,192,24263,1,0,0:0:0:0:
329,192,24263,1,0,0:0:0:0:
402,192,24392,1,0,0:0:0:0:
182,192,24520,1,0,0:0:0:0:
109,192,24520,1,0,0:0:0:0:
36,192,24647,1,0,0:0:0:0:
256,192,24776,1,0,0:0:0:0:
329,192,24776,1,0,0:0:0:0:
475,192,24904,1,0,0:0:0:0:
36,192,25033,1,0,0:0:0:0:
182,192,25033,1,0,0:0:0:0:
256,192,25161,1,0,0:0:0:0:
329,192,25288,1,0,0:0:0:0:
475,192,25288,1,0,0:0:0:0:
402,192,25417,1,0,0:0:0:0:
256,192,25545,1,0,0:0:0:0:
109,192,25545,1,0,0:0:0:0:
402,192,25674,1,0,0:0:0:0:
329,192,25802,1,0,0:0:0:0:
475,192,25802,1,0,0:0:0:0:
182,192,25930,1,0,0:0:0:0:
36,192,26058,1,0,0:0:0:0:
109,192,26058,1,0,0:0:0:0:
256,192,26186,1,0,0:0:0:0:
329,192,26314,1,0,0:0:0:0:
475,192,26314,1,0,0:0:0:0:
256,192,26443,1,0,0:0:0:0:
109,192,26571,1,0,0:0:0:0:
36,192,26571,1,0,0:0:0:0:
256,192,26700,1,0,0:0:0:0:
402,192,26827,1,0,0:0:0:0:
475,192,26827,1,0,0:0:0:0:
256,192,26955,1,0,0:0:0:0:
182,192,27084,1,0,0:0:0:0:
36,192,27084,1,0,0:0:0:0:
109,192,27212,1,0,0:0:0:0:
256,192,27341,1,0,0:0:0:0:
402,192,27341,1,0,0:0:0:0:
329,192,27468,1,0,0:0:0:0:
256,192,27596,1,0,0:0:0:0:
182,192,27596,1,0,0:0:0:0:
36,192,27725,1,0,0:0:0:0:
256,192,27853,1,0,0:0:0:0:
329,192,27853,1,0,0:0:0:0:
402,192,27981,1,0,0:0:0:0:
182,192,28110,1,0,0:0:0:0:
109,192,28110,1,0,0:0:0:0:
36,192,28237,1,0,0:0:0:0:
256,192,28366,1,0,0:0:0:0:
329,192,28366,1,0,0:0:0:0:
475,192,28494,1,0,0:0:0:0:
36,192,28622,1,0,0:0:0:0:
182,192,28622,1,0,0:0:0:0:
256,192,28751,1,0,0:0:0:0:
329,192,28878,1,0,0:0:0:0:
475,192,28878,1,0,0:0:0:0:
402,192,29007,1,0,0:0:0:0:
256,192,29135,1,0,0:0:0:0:
109,192,29135,1,0,0:0:0:0:
402,192,29263,1,0,0:0:0:0:
329,192,29392,1,0,0:0:0:0:
475,192,29392,1,0,0:0:0:0:
182,192,29520,1,0,0:0:0:0:
36,192,29647,1,0,0:0:0:0:
109,192,29647,1,0,0:0:0:0:
256,192,29776,1,0,0:0:0:0:
329,192,29904,1,0,0:0:0:0:
475,192,29904,1,0,0:0:0:0:
256,192,30033,1,0,0:0:0:0:
109,192,30161,1,0,0:0:0:0:
36,192,30161,1,0,0:0:0:0:
256,192,30288,1,0,0:0:0:0:
402,192,30417,1,0,0:0:0:0:
475,192,30417,1,0,0:0:0:0:
256,192,30545,1,0,0:0:0:0:
182,192,30674,5,0,0:0:0:0:
36,192,30674,1,0,0:0:0:0:
109,192,30802,1,0,0:0:0:0:
256,192,30930,1,0,0:0:0:0:
402,192,30930,1,0,0:0:0:0:
182,192,31058,1,0,0:0:0:0:
36,192,31186,1,0,0:0:0:0:
256,192,31186,1,0,0:0:0:0:
182,192,31314,1,0,0:0:0:0:
329,192,31443,1,0,0:0:0:0:
475,192,31443,1,0,0:0:0:0:
475,192,31955,5,0,0:0:0:0:
109,192,31955,1,0,0:0:0:0:
36,192,31955,1,0,0:0:0:0:
402,192,31955,1,0,0:0:0:0:
329,192,32020,1,0,0:0:0:0:
182,192,32020,1,0,0:0:0:0:
256,192,32084,1,0,0:0:0:0:
402,192,32084,1,0,0:0:0:0:
475,192,32084,1,0,0:0:0:0:
109,192,32147,1,0,0:0:0:0:
36,192,32147,1,0,0:0:0:0:
182,192,32212,1,0,0:0:0:0:
475,192,32212,1,0,0:0:0:0:
402,192,32212,1,0,0:0:0:0:
256,192,32212,1,0,0:0:0:0:
109,192,32276,1,0,0:0:0:0:
36,192,32341,1,0,0:0:0:0:
182,192,32341,1,0,0:0:0:0:
329,192,32341,1,0,0:0:0:0:
256,192,32404,1,0,0:0:0:0:
402,192,32404,1,0,0:0:0:0:
329,192,32468,1,0,0:0:0:0:
475,192,32468,1,0,0:0:0:0:
182,192,32468,1,0,0:0:0:0:
109,192,32468,1,0,0:0:0:0:
36,192,32533,1,0,0:0:0:0:
256,192,32533,1,0,0:0:0:0:
329,192,32596,1,0,0:0:0:0:
475,192,32596,1,0,0:0:0:0:
182,192,32596,1,0,0:0:0:0:
109,192,32661,1,0,0:0:0:0:
36,192,32661,1,0,0:0:0:0:
256,192,32725,1,0,0:0:0:0:
329,192,32725,1,0,0:0:0:0:
402,192,32725,1,0,0:0:0:0:
475,192,32725,1,0,0:0:0:0:
182,192,32788,1,0,0:0:0:0:
36,192,32788,1,0,0:0:0:0:
109,192,32853,1,0,0:0:0:0:
256,192,32853,1,0,0:0:0:0:
402,192,32853,1,0,0:0:0:0:
329,192,32917,1,0,0:0:0:0:
475,192,32917,1,0,0:0:0:0:
256,192,32981,1,0,0:0:0:0:
182,192,32981,1,0,0:0:0:0:
109,192,32981,1,0,0:0:0:0:
36,192,32981,1,0,0:0:0:0:
329,192,33045,1,0,0:0:0:0:
475,192,33045,1,0,0:0:0:0:
256,192,33110,1,0,0:0:0:0:
109,192,33110,1,0,0:0:0:0:
402,192,33110,1,0,0:0:0:0:
182,192,33174,1,0,0:0:0:0:
36,192,33174,1,0,0:0:0:0:
109,192,33237,1,0,0:0:0:0:
256,192,33237,1,0,0:0:0:0:
402,192,33237,1,0,0:0:0:0:
329,192,33237,1,0,0:0:0:0:
475,192,33302,1,0,0:0:0:0:
182,192,33302,1,0,0:0:0:0:
109,192,33366,1,0,0:0:0:0:
36,192,33366,1,0,0:0:0:0:
256,192,33366,1,0,0:0:0:0:
329,192,33430,1,0,0:0:0:0:
475,192,33430,1,0,0:0:0:0:
402,192,33494,1,0,0:0:0:0:
256,192,33494,1,0,0:0:0:0:
182,192,33494,1,0,0:0:0:0:
109,192,33494,1,0,0:0:0:0:
36,192,33558,1,0,0:0:0:0:
329,192,33558,1,0,0:0:0:0:
256,192,33622,1,0,0:0:0:0:
109,192,33622,1,0,0:0:0:0:
475,192,33622,1,0,0:0:0:0:
182,192,33686,1,0,0:0:0:0:
36,192,33686,1,0,0:0:0:0:
256,192,33751,1,0,0:0:0:0:
329,192,33751,1,0,0:0:0:0:
475,192,33751,1,0,0:0:0:0:
402,192,33751,1,0,0:0:0:0:
182,192,33814,1,0,0:0:0:0:
36,192,33814,1,0,0:0:0:0:
109,192,33878,1,0,0:0:0:0:
329,192,33878,1,0,0:0:0:0:
475,192,33878,1,0,0:0:0:0:
256,192,33943,1,0,0:0:0:0:
402,192,33943,1,0,0:0:0:0:
329,192,34007,1,0,0:0:0:0:
182,192,34007,1,0,0:0:0:0:
109,192,34007,1,0,0:0:0:0:
36,192,34007,1,0,0:0:0:0:
256,192,34071,1,0,0:0:0:0:
475,192,34071,1,0,0:0:0:0:
182,192,34135,1,0,0:0:0:0:
36,192,34135,1,0,0:0:0:0:
402,192,34135,1,0,0:0:0:0:
256,192,34200,1,0,0:0:0:0:
109,192,34200,1,0,0:0:0:0:
36,192,34263,1,0,0:0:0:0:
329,192,34263,1,0,0:0:0:0:
475,192,34263,1,0,0:0:0:0:
402,192,34263,1,0,0:0:0:0:
256,192,34327,1,0,0:0:0:0:
109,192,34327,1,0,0:0:0:0:
182,192,34392,1,0,0:0:0:0:
329,192,34392,1,0,0:0:0:0:
402,192,34392,1,0,0:0:0:0:
475,192,34455,1,0,0:0:0:0:
256,192,34455,1,0,0:0:0:0:
109,192,34520,1,0,0:0:0:0:
36,192,34520,1,0,0:0:0:0:
182,192,34520,1,0,0:0:0:0:
402,192,34520,1,0,0:0:0:0:
256,192,34584,1,0,0:0:0:0:
475,192,34584,1,0,0:0:0:0:
329,192,34647,1,0,0:0:0:0:
109,192,34647,1,0,0:0:0:0:
36,192,34647,1,0,0:0:0:0:
182,192,34712,1,0,0:0:0:0:
402,192,34712,1,0,0:0:0:0:
256,192,34776,1,0,0:0:0:0:
329,192,34776,1,0,0:0:0:0:
475,192,34776,1,0,0:0:0:0:
109,192,34776,1,0,0:0:0:0:
182,192,34841,1,0,0:0:0:0:
36,192,34841,1,0,0:0:0:0:
109,192,34904,1,0,0:0:0:0:
329,192,34904,1,0,0:0:0:0:
402,192,34904,1,0,0:0:0:0:
475,192,34968,1,0,0:0:0:0:
256,192,34968,1,0,0:0:0:0:
182,192,35033,1,0,0:0:0:0:
109,192,35033,1,0,0:0:0:0:
36,192,35033,1,0,0:0:0:0:
329,192,35033,1,0,0:0:0:0:
402,192,35096,1,0,0:0:0:0:
475,192,35096,1,0,0:0:0:0:
36,192,35161,1,0,0:0:0:0:
329,192,35161,1,0,0:0:0:0:
182,192,35161,1,0,0:0:0:0:
256,192,35225,1,0,0:0:0:0:
109,192,35225,1,0,0:0:0:0:
36,192,35288,1,0,0:0:0:0:
182,192,35288,1,0,0:0:0:0:
329,192,35288,1,0,0:0:0:0:
402,192,35288,1,0,0:0:0:0:
475,192,35353,1,0,0:0:0:0:
256,192,35353,1,0,0:0:0:0:
182,192,35417,1,0,0:0:0:0:
109,192,35417,1,0,0:0:0:0:
402,192,35417,1,0,0:0:0:0:
329,192,35481,1,0,0:0:0:0:
36,192,35481,1,0,0:0:0:0:
109,192,35545,1,0,0:0:0:0:
182,192,35545,1,0,0:0:0:0:
256,192,35545,1,0,0:0:0:0:
475,192,35545,1,0,0:0:0:0:
402,192,35610,1,0,0:0:0:0:
329,192,35610,1,0,0:0:0:0:
182,192,35674,1,0,0:0:0:0:
36,192,35674,1,0,0:0:0:0:
256,192,35674,1,0,0:0:0:0:
109,192,35737,1,0,0:0:0:0:
329,192,35737,1,0,0:0:0:0:
182,192,35802,1,0,0:0:0:0:
36,192,35802,1,0,0:0:0:0:
256,192,35802,1,0,0:0:0:0:
402,192,35802,1,0,0:0:0:0:
475,192,35866,1,0,0:0:0:0:
329,192,35866,1,0,0:0:0:0:
182,192,35930,1,0,0:0:0:0:
109,192,35930,1,0,0:0:0:0:
402,192,35930,1,0,0:0:0:0:
256,192,35994,1,0,0:0:0:0:
36,192,35994,1,0,0:0:0:0:
329,192,36058,1,0,0:0:0:0:
475,192,36058,1,0,0:0:0:0:
402,192,36058,1,0,0:0:0:0:
182,192,36058,1,0,0:0:0:0:
36,192,36122,1,0,0:0:0:0:
256,192,36122,1,0,0:0:0:0:
109,192,36186,1,0,0:0:0:0:
329,192,36186,1,0,0:0:0:0:
475,192,36186,1,0,0:0:0:0:
402,192,36251,1,0,0:0:0:0:
256,192,36251,1,0,0:0:0:0:
182,192,36314,1,0,0:0:0:0:
109,192,36314,1,0,0:0:0:0:
36,192,36314,1,0,0:0:0:0:
329,192,36314,1,0,0:0:0:0:
475,192,36378,1,0,0:0:0:0:
256,192,36378,1,0,0:0:0:0:
182,192,36443,1,0,0:0:0:0:
36,192,36443,1,0,0:0:0:0:
329,192,36443,1,0,0:0:0:0:
109,192,36507,1,0,0:0:0:0:
256,192,36507,1,0,0:0:0:0:
36,192,36571,1,0,0:0:0:0:
182,192,36571,1,0,0:0:0:0:
329,192,36571,1,0,0:0:0:0:
402,192,36571,1,0,0:0:0:0:
475,192,36635,1,0,0:0:0:0:
256,192,36635,1,0,0:0:0:0:
109,192,36700,1,0,0:0:0:0:
329,192,36700,1,0,0:0:0:0:
36,192,36700,1,0,0:0:0:0:
182,192,36763,1,0,0:0:0:0:
402,192,36763,1,0,0:0:0:0:
256,192,36827,1,0,0:0:0:0:
36,192,36827,1,0,0:0:0:0:
109,192,36827,1,0,0:0:0:0:
329,192,36827,1,0,0:0:0:0:
402,192,36892,1,0,0:0:0:0:
475,192,36892,1,0,0:0:0:0:
256,192,36955,1,0,0:0:0:0:
109,192,36955,1,0,0:0:0:0:
329,192,36955,1,0,0:0:0:0:
182,192,37020,1,0,0:0:0:0:
36,192,37020,1,0,0:0:0:0:
329,192,37084,1,0,0:0:0:0:
402,192,37084,1,0,0:0:0:0:
475,192,37084,1,0,0:0:0:0:
256,192,37084,1,0,0:0:0:0:
109,192,37147,1,0,0:0:0:0:
36,192,37147,1,0,0:0:0:0:
182,192,37212,1,0,0:0:0:0:
402,192,37212,1,0,0:0:0:0:
329,192,37212,1,0,0:0:0:0:
475,192,37276,1,0,0:0:0:0:
256,192,37276,1,0,0:0:0:0:
182,192,37341,1,0,0:0:0:0:
109,192,37341,1,0,0:0:0:0:
36,192,37341,1,0,0:0:0:0:
329,192,37341,1,0,0:0:0:0:
402,192,37404,1,0,0:0:0:0:
475,192,37404,1,0,0:0:0:0:
256,192,37468,1,0,0:0:0:0:
36,192,37468,1,0,0:0:0:0:
109,192,37468,1,0,0:0:0:0:
182,192,37533,1,0,0:0:0:0:
329,192,37533,1,0,0:0:0:0:
109,192,37596,1,0,0:0:0:0:
36,192,37596,1,0,0:0:0:0:
402,192,37596,1,0,0:0:0:0:
475,192,37596,1,0,0:0:0:0:
256,192,37661,1,0,0:0:0:0:
329,192,37661,1,0,0:0:0:0:
402,192,37725,1,0,0:0:0:0:
475,192,37725,1,0,0:0:0:0:
182,192,37725,1,0,0:0:0:0:
36,192,37788,1,0,0:0:0:0:
256,192,37788,1,0,0:0:0:0:
182,192,37853,1,0,0:0:0:0:
109,192,37853,1,0,0:0:0:0:
329,192,37853,1,0,0:0:0:0:
402,192,37853,1,0,0:0:0:0:
36,192,37917,1,0,0:0:0:0:
256,192,37917,1,0,0:0:0:0:
109,192,37981,1,0,0:0:0:0:
402,192,37981,1,0,0:0:0:0:
475,192,37981,1,0,0:0:0:0:
182,192,38045,1,0,0:0:0:0:
36,192,38045,1,0,0:0:0:0:
256,192,38110,1,0,0:0:0:0:
329,192,38110,1,0,0:0:0:0:
475,192,38110,1,0,0:0:0:0:
402,192,38110,1,0,0:0:0:0:
182,192,38174,1,0,0:0:0:0:
36,192,38174,1,0,0:0:0:0:
109,192,38237,1,0,0:0:0:0:
329,192,38237,1,0,0:0:0:0:
475,192,38237,1,0,0:0:0:0:
402,192,38302,1,0,0:0:0:0:
256,192,38302,1,0,0:0:0:0:
182,192,38366,1,0,0:0:0:0:
36,192,38366,1,0,0:0:0:0:
109,192,38366,1,0,0:0:0:0:
329,192,38366,1,0,0:0:0:0:
256,192,38430,1,0,0:0:0:0:
475,192,38430,1,0,0:0:0:0:
329,192,38494,1,0,0:0:0:0:
109,192,38494,1,0,0:0:0:0:
36,192,38494,1,0,0:0:0:0:
182,192,38558,1,0,0:0:0:0:
402,192,38558,1,0,0:0:0:0:
256,192,38622,1,0,0:0:0:0:
329,192,38622,1,0,0:0:0:0:
475,192,38622,1,0,0:0:0:0:
109,192,38622,1,0,0:0:0:0:
36,192,38686,1,0,0:0:0:0:
182,192,38686,1,0,0:0:0:0:
256,192,38751,1,0,0:0:0:0:
402,192,38751,1,0,0:0:0:0:
475,192,38751,1,0,0:0:0:0:
182,192,38814,1,0,0:0:0:0:
109,192,38814,1,0,0:0:0:0:
36,192,38878,1,0,0:0:0:0:
256,192,38878,1,0,0:0:0:0:
329,192,38878,1,0,0:0:0:0:
475,192,38878,1,0,0:0:0:0:
402,192,38943,1,0,0:0:0:0:
182,192,38943,1,0,0:0:0:0:
109,192,39007,1,0,0:0:0:0:
36,192,39007,1,0,0:0:0:0:
256,192,39007,1,0,0:0:0:0:
329,192,39071,1,0,0:0:0:0:
475,192,39071,1,0,0:0:0:0:
182,192,39135,1,0,0:0:0:0:
109,192,39135,1,0,0:0:0:0:
402,192,39135,1,0,0:0:0:0:
36,192,39135,1,0,0:0:0:0:
256,192,39200,1,0,0:0:0:0:
475,192,39200,1,0,0:0:0:0:
36,192,39263,1,0,0:0:0:0:
329,192,39263,1,0,0:0:0:0:
402,192,39263,1,0,0:0:0:0:
109,192,39327,1,0,0:0:0:0:
182,192,39327,1,0,0:0:0:0:
256,192,39392,1,0,0:0:0:0:
329,192,39392,1,0,0:0:0:0:
475,192,39392,1,0,0:0:0:0:
402,192,39392,1,0,0:0:0:0:
36,192,39455,1,0,0:0:0:0:
182,192,39455,1,0,0:0:0:0:
109,192,39520,1,0,0:0:0:0:
329,192,39520,1,0,0:0:0:0:
475,192,39520,1,0,0:0:0:0:
402,192,39584,1,0,0:0:0:0:
256,192,39584,1,0,0:0:0:0:
182,192,39647,1,0,0:0:0:0:
109,192,39647,1,0,0:0:0:0:
329,192,39647,1,0,0:0:0:0:
475,192,39647,1,0,0:0:0:0:
36,192,39712,1,0,0:0:0:0:
256,192,39712,1,0,0:0:0:0:
329,192,39776,1,0,0:0:0:0:
182,192,39776,1,0,0:0:0:0:
475,192,39776,1,0,0:0:0:0:
109,192,39841,1,0,0:0:0:0:
36,192,39841,1,0,0:0:0:0:
182,192,39904,1,0,0:0:0:0:
329,192,39904,1,0,0:0:0:0:
402,192,39904,1,0,0:0:0:0:
475,192,39904,1,0,0:0:0:0:
256,192,39968,1,0,0:0:0:0:
109,192,39968,1,0,0:0:0:0:
36,192,40033,1,0,0:0:0:0:
182,192,40033,1,0,0:0:0:0:
475,192,40033,1,0,0:0:0:0:
402,192,40096,1,0,0:0:0:0:
329,192,40096,1,0,0:0:0:0:
256,192,40161,1,0,0:0:0:0:
182,192,40161,1,0,0:0:0:0:
109,192,40161,1,0,0:0:0:0:
36,192,40161,1,0,0:0:0:0:
475,192,40225,1,0,0:0:0:0:
329,192,40225,1,0,0:0:0:0:
402,192,40288,1,0,0:0:0:0:
182,192,40288,1,0,0:0:0:0:
36,192,40288,1,0,0:0:0:0:
109,192,40353,1,0,0:0:0:0:
256,192,40353,1,0,0:0:0:0:
182,192,40417,1,0,0:0:0:0:
329,192,40417,1,0,0:0:0:0:
402,192,40417,1,0,0:0:0:0:
475,192,40417,1,0,0:0:0:0:
36,192,40481,1,0,0:0:0:0:
109,192,40481,1,0,0:0:0:0:
182,192,40545,1,0,0:0:0:0:
329,192,40545,1,0,0:0:0:0:
475,192,40545,1,0,0:0:0:0:
256,192,40610,1,0,0:0:0:0:
109,192,40610,1,0,0:0:0:0:
36,192,40674,1,0,0:0:0:0:
182,192,40674,1,0,0:0:0:0:
329,192,40674,1,0,0:0:0:0:
402,192,40674,1,0,0:0:0:0:
475,192,40737,1,0,0:0:0:0:
109,192,40737,1,0,0:0:0:0:
256,192,40802,1,0,0:0:0:0:
329,192,40802,1,0,0:0:0:0:
182,192,40802,1,0,0:0:0:0:
36,192,40866,1,0,0:0:0:0:
109,192,40866,1,0,0:0:0:0:
256,192,40930,1,0,0:0:0:0:
402,192,40930,1,0,0:0:0:0:
475,192,40930,1,0,0:0:0:0:
182,192,40930,1,0,0:0:0:0:
36,192,40994,1,0,0:0:0:0:
329,192,40994,1,0,0:0:0:0:
182,192,41058,1,0,0:0:0:0:
109,192,41058,1,0,0:0:0:0:
256,192,41058,1,0,0:0:0:0:
329,192,41122,1,0,0:0:0:0:
475,192,41122,1,0,0:0:0:0:
36,192,41186,1,0,0:0:0:0:
256,192,41186,1,0,0:0:0:0:
182,192,41186,1,0,0:0:0:0:
109,192,41186,1,0,0:0:0:0:
402,192,41251,1,0,0:0:0:0:
475,192,41251,1,0,0:0:0:0:
329,192,41314,1,0,0:0:0:0:
109,192,41314,1,0,0:0:0:0:
36,192,41314,1,0,0:0:0:0:
182,192,41378,1,0,0:0:0:0:
402,192,41378,1,0,0:0:0:0:
329,192,41443,1,0,0:0:0:0:
256,192,41443,1,0,0:0:0:0:
109,192,41443,1,0,0:0:0:0:
36,192,41443,1,0,0:0:0:0:
475,192,41507,1,0,0:0:0:0:
402,192,41507,1,0,0:0:0:0:
182,192,41571,1,0,0:0:0:0:
36,192,41571,1,0,0:0:0:0:
256,192,41571,1,0,0:0:0:0:
329,192,41635,1,0,0:0:0:0:
109,192,41635,1,0,0:0:0:0:
402,192,41700,1,0,0:0:0:0:
475,192,41700,1,0,0:0:0:0:
256,192,41700,1,0,0:0:0:0:
182,192,41700,1,0,0:0:0:0:
36,192,41763,1,0,0:0:0:0:
109,192,41763,1,0,0:0:0:0:
182,192,41827,1,0,0:0:0:0:
329,192,41827,1,0,0:0:0:0:
402,192,41827,1,0,0:0:0:0:
256,192,41892,1,0,0:0:0:0:
109,192,41892,1,0,0:0:0:0:
36,192,41955,1,0,0:0:0:0:
182,192,41955,1,0,0:0:0:0:
402,192,41955,1,0,0:0:0:0:
329,192,41955,1,0,0:0:0:0:
475,192,42020,1,0,0:0:0:0:
256,192,42020,1,0,0:0:0:0:
182,192,42084,1,0,0:0:0:0:
329,192,42084,1,0,0:0:0:0:
402,192,42084,1,0,0:0:0:0:
109,192,42147,1,0,0:0:0:0:
36,192,42147,1,0,0:0:0:0:
329,192,42212,1,0,0:0:0:0:
475,192,42212,1,0,0:0:0:0:
182,192,42212,1,0,0:0:0:0:
256,192,42212,1,0,0:0:0:0:
36,192,42276,1,0,0:0:0:0:
402,192,42276,1,0,0:0:0:0:
182,192,42341,1,0,0:0:0:0:
109,192,42341,1,0,0:0:0:0:
329,192,42341,1,0,0:0:0:0:
256,192,42404,1,0,0:0:0:0:
402,192,42404,1,0,0:0:0:0:
182,192,42468,1,0,0:0:0:0:
36,192,42468,1,0,0:0:0:0:
109,192,42468,1,0,0:0:0:0:
329,192,42468,1,0,0:0:0:0:
402,192,42533,1,0,0:0:0:0:
475,192,42533,1,0,0:0:0:0:
256,192,42596,1,0,0:0:0:0:
109,192,42596,1,0,0:0:0:0:
36,192,42596,1,0,0:0:0:0:
182,192,42661,1,0,0:0:0:0:
329,192,42661,1,0,0:0:0:0:
402,192,42725,1,0,0:0:0:0:
475,192,42725,1,0,0:0:0:0:
256,192,42725,1,0,0:0:0:0:
109,192,42725,1,0,0:0:0:0:
36,192,42788,1,0,0:0:0:0:
182,192,42788,1,0,0:0:0:0:
256,192,42853,1,0,0:0:0:0:
475,192,42853,1,0,0:0:0:0:
329,192,42853,1,0,0:0:0:0:
402,192,42917,1,0,0:0:0:0:
109,192,42917,1,0,0:0:0:0:
182,192,42981,1,0,0:0:0:0:
36,192,42981,1,0,0:0:0:0:
256,192,42981,1,0,0:0:0:0:
329,192,42981,1,0,0:0:0:0:
475,192,43045,1,0,0:0:0:0:
402,192,43045,1,0,0:0:0:0:
109,192,43110,1,0,0:0:0:0:
329,192,43110,1,0,0:0:0:0:
36,192,43110,1,0,0:0:0:0:
182,192,43174,1,0,0:0:0:0:
402,192,43174,1,0,0:0:0:0:
256,192,43237,1,0,0:0:0:0:
109,192,43237,1,0,0:0:0:0:
36,192,43237,1,0,0:0:0:0:
329,192,43237,1,0,0:0:0:0:
402,192,43302,1,0,0:0:0:0:
475,192,43302,1,0,0:0:0:0:
329,192,43366,1,0,0:0:0:0:
182,192,43366,1,0,0:0:0:0:
36,192,43366,1,0,0:0:0:0:
109,192,43430,1,0,0:0:0:0:
256,192,43430,1,0,0:0:0:0:
182,192,43494,1,0,0:0:0:0:
402,192,43494,1,0,0:0:0:0:
475,192,43494,1,0,0:0:0:0:
329,192,43494,1,0,0:0:0:0:
36,192,43558,1,0,0:0:0:0:
109,192,43558,1,0,0:0:0:0:
182,192,43622,1,0,0:0:0:0:
402,192,43622,1,0,0:0:0:0:
256,192,43622,1,0,0:0:0:0:
329,192,43686,1,0,0:0:0:0:
475,192,43686,1,0,0:0:0:0:
182,192,43751,1,0,0:0:0:0:
109,192,43751,1,0,0:0:0:0:
36,192,43751,1,0,0:0:0:0:
256,192,43751,1,0,0:0:0:0:
329,192,43814,1,0,0:0:0:0:
402,192,43814,1,0,0:0:0:0:
475,192,43878,1,0,0:0:0:0:
182,192,43878,1,0,0:0:0:0:
36,192,43878,1,0,0:0:0:0:
109,192,43943,1,0,0:0:0:0:
256,192,43943,1,0,0:0:0:0:
329,192,44007,1,0,0:0:0:0:
475,192,44007,1,0,0:0:0:0:
402,192,44007,1,0,0:0:0:0:
182,192,44007,1,0,0:0:0:0:
109,192,44071,1,0,0:0:0:0:
36,192,44071,1,0,0:0:0:0:
256,192,44135,1,0,0:0:0:0:
329,192,44135,1,0,0:0:0:0:
475,192,44135,1,0,0:0:0:0:
182,192,44200,1,0,0:0:0:0:
402,192,44200,1,0,0:0:0:0:
109,192,44263,5,0,0:0:0:0:
36,192,44263,1,0,0:0:0:0:
256,192,44263,1,0,0:0:0:0:
329,192,44263,1,0,0:0:0:0:
402,192,44327,1,0,0:0:0:0:
475,192,44327,1,0,0:0:0:0:
109,192,44392,1,0,0:0:0:0:
36,192,44392,1,0,0:0:0:0:
256,192,44392,1,0,0:0:0:0:
182,192,44455,1,0,0:0:0:0:
329,192,44455,1,0,0:0:0:0:
256,192,44520,1,0,0:0:0:0:
402,192,44520,1,0,0:0:0:0:
475,192,44520,1,0,0:0:0:0:
109,192,44520,1,0,0:0:0:0:
36,192,44584,1,0,0:0:0:0:
182,192,44584,1,0,0:0:0:0:
256,192,44647,1,0,0:0:0:0:
329,192,44647,1,0,0:0:0:0:
475,192,44647,1,0,0:0:0:0:
402,192,44712,1,0,0:0:0:0:
109,192,44712,1,0,0:0:0:0:
36,192,44776,1,0,0:0:0:0:
182,192,44776,1,0,0:0:0:0:
256,192,44776,1,0,0:0:0:0:
329,192,44776,1,0,0:0:0:0:
402,192,44841,1,0,0:0:0:0:
475,192,44841,1,0,0:0:0:0:
182,192,44904,1,0,0:0:0:0:
36,192,44904,1,0,0:0:0:0:
109,192,44904,1,0,0:0:0:0:
256,192,44968,1,0,0:0:0:0:
329,192,44968,1,0,0:0:0:0:
402,192,45033,1,0,0:0:0:0:
475,192,45033,1,0,0:0:0:0:
182,192,45033,1,0,0:0:0:0:
109,192,45033,1,0,0:0:0:0:
36,192,45096,1,0,0:0:0:0:
256,192,45096,1,0,0:0:0:0:
109,192,45161,1,0,0:0:0:0:
329,192,45161,1,0,0:0:0:0:
475,192,45161,1,0,0:0:0:0:
402,192,45225,1,0,0:0:0:0:
182,192,45225,1,0,0:0:0:0:
256,192,45288,1,0,0:0:0:0:
329,192,45288,1,0,0:0:0:0:
109,192,45288,1,0,0:0:0:0:
36,192,45288,1,0,0:0:0:0:
402,192,45353,1,0,0:0:0:0:
475,192,45353,1,0,0:0:0:0:
182,192,45417,1,0,0:0:0:0:
36,192,45417,1,0,0:0:0:0:
256,192,45417,1,0,0:0:0:0:
109,192,45481,1,0,0:0:0:0:
475,192,45481,1,0,0:0:0:0:
329,192,45545,5,0,0:0:0:0:
402,192,45545,1,0,0:0:0:0:
256,192,45545,1,0,0:0:0:0:
182,192,45545,1,0,0:0:0:0:
182,192,45674,1,0,0:0:0:0:
109,192,45674,1,0,0:0:0:0:
36,192,45674,1,0,0:0:0:0:
329,192,45674,1,0,0:0:0:0:
182,192,45802,1,0,0:0:0:0:
402,192,45802,1,0,0:0:0:0:
475,192,45802,1,0,0:0:0:0:
256,192,45802,1,0,0:0:0:0:
109,192,45930,1,0,0:0:0:0:
36,192,45930,1,0,0:0:0:0:
256,192,45930,1,0,0:0:0:0:
329,192,45930,1,0,0:0:0:0:
182,192,46058,1,0,0:0:0:0:
329,192,46058,1,0,0:0:0:0:
256,192,46058,1,0,0:0:0:0:
402,192,46058,1,0,0:0:0:0:
109,192,46186,1,0,0:0:0:0:
36,192,46186,1,0,0:0:0:0:
329,192,46186,1,0,0:0:0:0:
402,192,46186,1,0,0:0:0:0:
256,192,46314,1,0,0:0:0:0:
182,192,46314,1,0,0:0:0:0:
475,192,46314,1,0,0:0:0:0:
109,192,46314,1,0,0:0:0:0:
256,192,46443,1,0,0:0:0:0:
36,192,46443,1,0,0:0:0:0:
109,192,46443,1,0,0:0:0:0:
329,192,46443,1,0,0:0:0:0:
402,192,46571,1,0,0:0:0:0:
475,192,46571,1,0,0:0:0:0:
109,192,46571,1,0,0:0:0:0:
182,192,46571,1,0,0:0:0:0:
256,192,46700,1,0,0:0:0:0:
329,192,46700,1,0,0:0:0:0:
402,192,46700,1,0,0:0:0:0:
36,192,46700,1,0,0:0:0:0:
329,192,46827,1,0,0:0:0:0:
475,192,46827,1,0,0:0:0:0:
256,192,46827,1,0,0:0:0:0:
182,192,46827,1,0,0:0:0:0:
402,192,46955,1,0,0:0:0:0:
329,192,46955,1,0,0:0:0:0:
109,192,46955,1,0,0:0:0:0:
36,192,46955,1,0,0:0:0:0:
256,192,47084,1,0,0:0:0:0:
182,192,47084,1,0,0:0:0:0:
475,192,47084,1,0,0:0:0:0:
402,192,47084,1,0,0:0:0:0:
36,192,47212,1,0,0:0:0:0:
109,192,47212,1,0,0:0:0:0:
182,192,47212,1,0,0:0:0:0:
329,192,47212,1,0,0:0:0:0:
256,192,47341,1,0,0:0:0:0:
402,192,47341,1,0,0:0:0:0:
475,192,47341,1,0,0:0:0:0:
109,192,47341,1,0,0:0:0:0:
109,192,47468,1,0,0:0:0:0:
36,192,47468,1,0,0:0:0:0:
182,192,47468,1,0,0:0:0:0:
475,192,47533,1,0,0:0:0:0:
329,192,47533,1,0,0:0:0:0:
402,192,47533,1,0,0:0:0:0:
256,192,47596,1,0,0:0:0:0:
182,192,47596,1,0,0:0:0:0:
109,192,47596,1,0,0:0:0:0:
329,192,47725,1,0,0:0:0:0:
402,192,47725,1,0,0:0:0:0:
475,192,47725,1,0,0:0:0:0:
256,192,47853,1,0,0:0:0:0:
182,192,47853,1,0,0:0:0:0:
109,192,47853,1,0,0:0:0:0:
36,192,47853,1,0,0:0:0:0:
182,192,47981,1,0,0:0:0:0:
402,192,47981,1,0,0:0:0:0:
475,192,47981,1,0,0:0:0:0:
182,192,48110,1,0,0:0:0:0:
36,192,48110,1,0,0:0:0:0:
256,192,48110,1,0,0:0:0:0:
329,192,48110,1,0,0:0:0:0:
402,192,48237,1,0,0:0:0:0:
475,192,48237,1,0,0:0:0:0:
182,192,48237,1,0,0:0:0:0:
109,192,48237,1,0,0:0:0:0:
36,192,48366,1,0,0:0:0:0:
475,192,48366,1,0,0:0:0:0:
182,192,48366,1,0,0:0:0:0:
329,192,48366,1,0,0:0:0:0:
109,192,48430,1,0,0:0:0:0:
256,192,48430,1,0,0:0:0:0:
182,192,48494,1,0,0:0:0:0:
329,192,48494,1,0,0:0:0:0:
256,192,48558,1,0,0:0:0:0:
402,192,48558,1,0,0:0:0:0:
329,192,48622,1,0,0:0:0:0:
182,192,48622,1,0,0:0:0:0:
109,192,48622,1,0,0:0:0:0:
36,192,48622,1,0,0:0:0:0:
475,192,48622,1,0,0:0:0:0:
256,192,48686,1,0,0:0:0:0:
402,192,48686,1,0,0:0:0:0:
182,192,48751,1,0,0:0:0:0:
329,192,48751,1,0,0:0:0:0:
109,192,48814,1,0,0:0:0:0:
256,192,48814,1,0,0:0:0:0:
182,192,48878,1,0,0:0:0:0:
36,192,48878,1,0,0:0:0:0:
402,192,48878,1,0,0:0:0:0:
329,192,48878,1,0,0:0:0:0:
256,192,48943,1,0,0:0:0:0:
475,192,48943,1,0,0:0:0:0:
182,192,49007,1,0,0:0:0:0:
36,192,49007,1,0,0:0:0:0:
329,192,49007,1,0,0:0:0:0:
109,192,49071,1,0,0:0:0:0:
256,192,49071,1,0,0:0:0:0:
329,192,49135,1,0,0:0:0:0:
402,192,49135,1,0,0:0:0:0:
475,192,49135,1,0,0:0:0:0:
182,192,49135,1,0,0:0:0:0:
109,192,49200,1,0,0:0:0:0:
256,192,49200,1,0,0:0:0:0:
182,192,49263,1,0,0:0:0:0:
402,192,49263,1,0,0:0:0:0:
329,192,49263,1,0,0:0:0:0:
36,192,49327,1,0,0:0:0:0:
109,192,49327,1,0,0:0:0:0:
182,192,49392,1,0,0:0:0:0:
256,192,49392,1,0,0:0:0:0:
329,192,49392,1,0,0:0:0:0:
475,192,49392,1,0,0:0:0:0:
109,192,49455,1,0,0:0:0:0:
402,192,49455,1,0,0:0:0:0:
182,192,49520,1,0,0:0:0:0:
36,192,49520,1,0,0:0:0:0:
329,192,49520,1,0,0:0:0:0:
109,192,49584,1,0,0:0:0:0:
256,192,49584,1,0,0:0:0:0:
182,192,49647,1,0,0:0:0:0:
329,192,49647,1,0,0:0:0:0:
402,192,49647,1,0,0:0:0:0:
475,192,49647,1,0,0:0:0:0:
36,192,49712,1,0,0:0:0:0:
109,192,49712,1,0,0:0:0:0:
182,192,49776,1,0,0:0:0:0:
475,192,49776,1,0,0:0:0:0:
402,192,49776,1,0,0:0:0:0:
256,192,49841,1,0,0:0:0:0:
109,192,49841,1,0,0:0:0:0:
329,192,49904,1,0,0:0:0:0:
402,192,49904,1,0,0:0:0:0:
475,192,49904,1,0,0:0:0:0:
36,192,49904,1,0,0:0:0:0:
182,192,49968,1,0,0:0:0:0:
256,192,49968,1,0,0:0:0:0:
475,192,50033,1,0,0:0:0:0:
36,192,50033,1,0,0:0:0:0:
109,192,50033,1,0,0:0:0:0:
402,192,50096,1,0,0:0:0:0:
329,192,50096,1,0,0:0:0:0:
36,192,50161,1,0,0:0:0:0:
256,192,50161,1,0,0:0:0:0:
109,192,50161,1,0,0:0:0:0:
182,192,50161,1,0,0:0:0:0:
402,192,50225,1,0,0:0:0:0:
475,192,50225,1,0,0:0:0:0:
109,192,50288,1,0,0:0:0:0:
36,192,50288,1,0,0:0:0:0:
329,192,50288,1,0,0:0:0:0:
256,192,50353,1,0,0:0:0:0:
402,192,50353,1,0,0:0:0:0:
329,192,50417,1,0,0:0:0:0:
182,192,50417,1,0,0:0:0:0:
475,192,50417,1,0,0:0:0:0:
109,192,50417,1,0,0:0:0:0:
402,192,50481,1,0,0:0:0:0:
256,192,50481,1,0,0:0:0:0:
329,192,50545,1,0,0:0:0:0:
182,192,50545,1,0,0:0:0:0:
109,192,50610,1,0,0:0:0:0:
256,192,50610,1,0,0:0:0:0:
182,192,50674,1,0,0:0:0:0:
329,192,50674,1,0,0:0:0:0:
402,192,50674,1,0,0:0:0:0:
36,192,50674,1,0,0:0:0:0:
256,192,50737,1,0,0:0:0:0:
109,192,50737,1,0,0:0:0:0:
182,192,50802,1,0,0:0:0:0:
329,192,50802,1,0,0:0:0:0:
256,192,50866,1,0,0:0:0:0:
402,192,50866,1,0,0:0:0:0:
329,192,50930,1,0,0:0:0:0:
109,192,50930,1,0,0:0:0:0:
36,192,50930,1,0,0:0:0:0:
182,192,50930,1,0,0:0:0:0:
402,192,50994,1,0,0:0:0:0:
475,192,50994,1,0,0:0:0:0:
329,192,51058,1,0,0:0:0:0:
36,192,51058,1,0,0:0:0:0:
182,192,51058,1,0,0:0:0:0:
109,192,51122,1,0,0:0:0:0:
256,192,51122,1,0,0:0:0:0:
182,192,51186,1,0,0:0:0:0:
475,192,51186,1,0,0:0:0:0:
329,192,51186,1,0,0:0:0:0:
402,192,51186,1,0,0:0:0:0:
36,192,51251,1,0,0:0:0:0:
256,192,51251,1,0,0:0:0:0:
109,192,51314,1,0,0:0:0:0:
329,192,51314,1,0,0:0:0:0:
475,192,51314,1,0,0:0:0:0:
402,192,51378,1,0,0:0:0:0:
182,192,51378,1,0,0:0:0:0:
256,192,51443,1,0,0:0:0:0:
329,192,51443,1,0,0:0:0:0:
475,192,51443,1,0,0:0:0:0:
36,192,51443,1,0,0:0:0:0:
109,192,51507,1,0,0:0:0:0:
182,192,51507,1,0,0:0:0:0:
256,192,51571,1,0,0:0:0:0:
36,192,51571,1,0,0:0:0:0:
402,192,51571,1,0,0:0:0:0:
329,192,51635,1,0,0:0:0:0:
182,192,51635,1,0,0:0:0:0:
402,192,51700,1,0,0:0:0:0:
475,192,51700,1,0,0:0:0:0:
256,192,51700,1,0,0:0:0:0:
109,192,51700,1,0,0:0:0:0:
36,192,51763,1,0,0:0:0:0:
182,192,51763,1,0,0:0:0:0:
256,192,51827,1,0,0:0:0:0:
329,192,51827,1,0,0:0:0:0:
475,192,51827,1,0,0:0:0:0:
109,192,51892,1,0,0:0:0:0:
36,192,51892,1,0,0:0:0:0:
182,192,51955,1,0,0:0:0:0:
402,192,51955,1,0,0:0:0:0:
329,192,51955,1,0,0:0:0:0:
475,192,51955,1,0,0:0:0:0:
256,192,52020,1,0,0:0:0:0:
109,192,52020,1,0,0:0:0:0:
36,192,52084,1,0,0:0:0:0:
182,192,52084,1,0,0:0:0:0:
329,192,52084,1,0,0:0:0:0:
402,192,52147,1,0,0:0:0:0:
256,192,52147,1,0,0:0:0:0:
329,192,52212,1,0,0:0:0:0:
475,192,52212,1,0,0:0:0:0:
36,192,52212,1,0,0:0:0:0:
109,192,52212,1,0,0:0:0:0:
182,192,52276,1,0,0:0:0:0:
256,192,52276,1,0,0:0:0:0:
109,192,52341,1,0,0:0:0:0:
402,192,52341,1,0,0:0:0:0:
475,192,52341,1,0,0:0:0:0:
329,192,52404,1,0,0:0:0:0:
256,192,52404,1,0,0:0:0:0:
402,192,52468,1,0,0:0:0:0:
475,192,52468,1,0,0:0:0:0:
36,192,52468,1,0,0:0:0:0:
182,192,52468,1,0,0:0:0:0:
256,192,52533,1,0,0:0:0:0:
109,192,52533,1,0,0:0:0:0:
329,192,52596,1,0,0:0:0:0:
182,192,52596,1,0,0:0:0:0:
256,192,52661,1,0,0:0:0:0:
402,192,52661,1,0,0:0:0:0:
329,192,52725,1,0,0:0:0:0:
36,192,52725,1,0,0:0:0:0:
109,192,52725,1,0,0:0:0:0:
475,192,52725,1,0,0:0:0:0:
256,192,52788,1,0,0:0:0:0:
402,192,52788,1,0,0:0:0:0:
329,192,52853,1,0,0:0:0:0:
182,192,52853,1,0,0:0:0:0:
109,192,52917,1,0,0:0:0:0:
256,192,52917,1,0,0:0:0:0:
36,192,52981,1,0,0:0:0:0:
182,192,52981,1,0,0:0:0:0:
329,192,52981,1,0,0:0:0:0:
402,192,52981,1,0,0:0:0:0:
256,192,53045,1,0,0:0:0:0:
475,192,53045,1,0,0:0:0:0:
329,192,53110,1,0,0:0:0:0:
182,192,53110,1,0,0:0:0:0:
109,192,53110,1,0,0:0:0:0:
36,192,53174,1,0,0:0:0:0:
256,192,53174,1,0,0:0:0:0:
329,192,53237,1,0,0:0:0:0:
402,192,53237,1,0,0:0:0:0:
475,192,53237,1,0,0:0:0:0:
182,192,53237,1,0,0:0:0:0:
36,192,53302,1,0,0:0:0:0:
109,192,53302,1,0,0:0:0:0:
182,192,53366,1,0,0:0:0:0:
256,192,53366,1,0,0:0:0:0:
475,192,53366,1,0,0:0:0:0:
329,192,53430,1,0,0:0:0:0:
36,192,53430,1,0,0:0:0:0:
109,192,53494,1,0,0:0:0:0:
182,192,53494,1,0,0:0:0:0:
402,192,53494,1,0,0:0:0:0:
475,192,53494,1,0,0:0:0:0:
256,192,53558,1,0,0:0:0:0:
36,192,53558,1,0,0:0:0:0:
109,192,53622,1,0,0:0:0:0:
329,192,53622,1,0,0:0:0:0:
475,192,53622,1,0,0:0:0:0:
402,192,53686,1,0,0:0:0:0:
182,192,53686,1,0,0:0:0:0:
36,192,53751,1,0,0:0:0:0:
109,192,53751,1,0,0:0:0:0:
256,192,53751,1,0,0:0:0:0:
329,192,53751,1,0,0:0:0:0:
402,192,53814,1,0,0:0:0:0:
475,192,53814,1,0,0:0:0:0:
182,192,53878,1,0,0:0:0:0:
36,192,53878,1,0,0:0:0:0:
256,192,53878,1,0,0:0:0:0:
329,192,53943,1,0,0:0:0:0:
109,192,53943,1,0,0:0:0:0:
182,192,54007,1,0,0:0:0:0:
256,192,54007,1,0,0:0:0:0:
475,192,54007,1,0,0:0:0:0:
402,192,54007,1,0,0:0:0:0:
36,192,54071,1,0,0:0:0:0:
109,192,54071,1,0,0:0:0:0:
182,192,54135,1,0,0:0:0:0:
329,192,54135,1,0,0:0:0:0:
475,192,54135,1,0,0:0:0:0:
402,192,54200,1,0,0:0:0:0:
256,192,54200,1,0,0:0:0:0:
182,192,54263,1,0,0:0:0:0:
109,192,54263,1,0,0:0:0:0:
36,192,54263,1,0,0:0:0:0:
329,192,54263,1,0,0:0:0:0:
256,192,54327,1,0,0:0:0:0:
475,192,54327,1,0,0:0:0:0:
36,192,54392,1,0,0:0:0:0:
329,192,54392,1,0,0:0:0:0:
402,192,54392,1,0,0:0:0:0:
109,192,54455,1,0,0:0:0:0:
256,192,54455,1,0,0:0:0:0:
36,192,54520,1,0,0:0:0:0:
475,192,54520,1,0,0:0:0:0:
182,192,54520,1,0,0:0:0:0:
329,192,54520,1,0,0:0:0:0:
109,192,54584,1,0,0:0:0:0:
256,192,54584,1,0,0:0:0:0:
182,192,54647,1,0,0:0:0:0:
329,192,54647,1,0,0:0:0:0:
256,192,54712,1,0,0:0:0:0:
402,192,54712,1,0,0:0:0:0:
329,192,54776,1,0,0:0:0:0:
182,192,54776,1,0,0:0:0:0:
109,192,54776,1,0,0:0:0:0:
36,192,54776,1,0,0:0:0:0:
475,192,54776,1,0,0:0:0:0:
256,192,54841,1,0,0:0:0:0:
402,192,54841,1,0,0:0:0:0:
182,192,54904,1,0,0:0:0:0:
329,192,54904,1,0,0:0:0:0:
109,192,54968,1,0,0:0:0:0:
256,192,54968,1,0,0:0:0:0:
182,192,55033,1,0,0:0:0:0:
36,192,55033,1,0,0:0:0:0:
402,192,55033,1,0,0:0:0:0:
329,192,55033,1,0,0:0:0:0:
256,192,55096,1,0,0:0:0:0:
475,192,55096,1,0,0:0:0:0:
182,192,55161,1,0,0:0:0:0:
36,192,55161,1,0,0:0:0:0:
329,192,55161,1,0,0:0:0:0:
109,192,55225,1,0,0:0:0:0:
256,192,55225,1,0,0:0:0:0:
329,192,55288,1,0,0:0:0:0:
402,192,55288,1,0,0:0:0:0:
475,192,55288,1,0,0:0:0:0:
182,192,55288,1,0,0:0:0:0:
109,192,55353,1,0,0:0:0:0:
256,192,55353,1,0,0:0:0:0:
182,192,55417,1,0,0:0:0:0:
402,192,55417,1,0,0:0:0:0:
329,192,55417,1,0,0:0:0:0:
36,192,55481,1,0,0:0:0:0:
109,192,55481,1,0,0:0:0:0:
182,192,55545,1,0,0:0:0:0:
256,192,55545,1,0,0:0:0:0:
329,192,55545,1,0,0:0:0:0:
475,192,55545,1,0,0:0:0:0:
109,192,55610,1,0,0:0:0:0:
402,192,55610,1,0,0:0:0:0:
182,192,55674,1,0,0:0:0:0:
329,192,55674,1,0,0:0:0:0:
256,192,55737,1,0,0:0:0:0:
36,192,55802,1,0,0:0:0:0:
329,192,55802,1,0,0:0:0:0:
402,192,55802,1,0,0:0:0:0:
475,192,55802,1,0,0:0:0:0:
109,192,55866,1,0,0:0:0:0:
256,192,55930,1,0,0:0:0:0:
182,192,55994,1,0,0:0:0:0:
109,192,55994,1,0,0:0:0:0:
329,192,56058,1,0,0:0:0:0:
402,192,56058,1,0,0:0:0:0:
475,192,56058,1,0,0:0:0:0:
36,192,56058,1,0,0:0:0:0:
182,192,56122,1,0,0:0:0:0:
256,192,56122,1,0,0:0:0:0:
475,192,56186,1,0,0:0:0:0:
36,192,56186,1,0,0:0:0:0:
109,192,56186,1,0,0:0:0:0:
402,192,56251,1,0,0:0:0:0:
329,192,56251,1,0,0:0:0:0:
36,192,56314,1,0,0:0:0:0:
256,192,56314,1,0,0:0:0:0:
109,192,56314,1,0,0:0:0:0:
182,192,56314,1,0,0:0:0:0:
402,192,56378,1,0,0:0:0:0:
475,192,56378,1,0,0:0:0:0:
109,192,56443,1,0,0:0:0:0:
36,192,56443,1,0,0:0:0:0:
329,192,56443,1,0,0:0:0:0:
256,192,56507,1,0,0:0:0:0:
402,192,56507,1,0,0:0:0:0:
329,192,56571,1,0,0:0:0:0:
182,192,56571,1,0,0:0:0:0:
475,192,56571,1,0,0:0:0:0:
109,192,56571,1,0,0:0:0:0:
402,192,56635,1,0,0:0:0:0:
256,192,56635,1,0,0:0:0:0:
329,192,56700,1,0,0:0:0:0:
182,192,56700,1,0,0:0:0:0:
109,192,56763,1,0,0:0:0:0:
256,192,56763,1,0,0:0:0:0:
182,192,56827,1,0,0:0:0:0:
329,192,56827,1,0,0:0:0:0:
402,192,56827,1,0,0:0:0:0:
36,192,56827,1,0,0:0:0:0:
256,192,56892,1,0,0:0:0:0:
109,192,56892,1,0,0:0:0:0:
182,192,56955,1,0,0:0:0:0:
329,192,56955,1,0,0:0:0:0:
256,192,57020,1,0,0:0:0:0:
402,192,57020,1,0,0:0:0:0:
329,192,57084,1,0,0:0:0:0:
109,192,57084,1,0,0:0:0:0:
36,192,57084,1,0,0:0:0:0:
182,192,57084,1,0,0:0:0:0:
402,192,57147,1,0,0:0:0:0:
475,192,57147,1,0,0:0:0:0:
329,192,57212,1,0,0:0:0:0:
36,192,57212,1,0,0:0:0:0:
182,192,57212,1,0,0:0:0:0:
109,192,57276,1,0,0:0:0:0:
256,192,57276,1,0,0:0:0:0:
182,192,57341,1,0,0:0:0:0:
475,192,57341,1,0,0:0:0:0:
329,192,57341,1,0,0:0:0:0:
402,192,57341,1,0,0:0:0:0:
36,192,57404,1,0,0:0:0:0:
256,192,57404,1,0,0:0:0:0:
109,192,57468,1,0,0:0:0:0:
329,192,57468,1,0,0:0:0:0:
475,192,57468,1,0,0:0:0:0:
402,192,57533,1,0,0:0:0:0:
182,192,57533,1,0,0:0:0:0:
256,192,57596,1,0,0:0:0:0:
329,192,57596,1,0,0:0:0:0:
475,192,57596,1,0,0:0:0:0:
36,192,57596,1,0,0:0:0:0:
109,192,57661,1,0,0:0:0:0:
182,192,57661,1,0,0:0:0:0:
256,192,57725,1,0,0:0:0:0:
36,192,57725,1,0,0:0:0:0:
402,192,57725,1,0,0:0:0:0:
329,192,57788,1,0,0:0:0:0:
182,192,57788,1,0,0:0:0:0:
402,192,57853,1,0,0:0:0:0:
475,192,57853,1,0,0:0:0:0:
256,192,57853,1,0,0:0:0:0:
109,192,57853,1,0,0:0:0:0:
36,192,57917,1,0,0:0:0:0:
182,192,57917,1,0,0:0:0:0:
256,192,57981,1,0,0:0:0:0:
329,192,57981,1,0,0:0:0:0:
475,192,57981,1,0,0:0:0:0:
109,192,58045,1,0,0:0:0:0:
36,192,58045,1,0,0:0:0:0:
329,192,58110,1,0,0:0:0:0:
402,192,58110,1,0,0:0:0:0:
256,192,58110,1,0,0:0:0:0:
182,192,58110,1,0,0:0:0:0:
36,192,58174,1,0,0:0:0:0:
109,192,58174,1,0,0:0:0:0:
475,192,58237,1,0,0:0:0:0:
329,192,58237,1,0,0:0:0:0:
256,192,58237,1,0,0:0:0:0:
109,192,58302,1,0,0:0:0:0:
182,192,58302,1,0,0:0:0:0:
256,192,58366,1,0,0:0:0:0:
475,192,58366,1,0,0:0:0:0:
36,192,58366,1,0,0:0:0:0:
402,192,58366,1,0,0:0:0:0:
182,192,58430,1,0,0:0:0:0:
329,192,58430,1,0,0:0:0:0:
109,192,58494,1,0,0:0:0:0:
402,192,58494,1,0,0:0:0:0:
475,192,58494,1,0,0:0:0:0:
329,192,58558,1,0,0:0:0:0:
256,192,58558,1,0,0:0:0:0:
402,192,58622,1,0,0:0:0:0:
475,192,58622,1,0,0:0:0:0:
36,192,58622,1,0,0:0:0:0:
182,192,58622,1,0,0:0:0:0:
256,192,58686,1,0,0:0:0:0:
109,192,58686,1,0,0:0:0:0:
329,192,58751,1,0,0:0:0:0:
182,192,58751,1,0,0:0:0:0:
256,192,58814,1,0,0:0:0:0:
402,192,58814,1,0,0:0:0:0:
329,192,58878,1,0,0:0:0:0:
36,192,58878,1,0,0:0:0:0:
109,192,58878,1,0,0:0:0:0:
475,192,58878,1,0,0:0:0:0:
256,192,58943,1,0,0:0:0:0:
402,192,58943,1,0,0:0:0:0:
329,192,59007,1,0,0:0:0:0:
182,192,59007,1,0,0:0:0:0:
109,192,59071,1,0,0:0:0:0:
256,192,59071,1,0,0:0:0:0:
36,192,59135,1,0,0:0:0:0:
182,192,59135,1,0,0:0:0:0:
329,192,59135,1,0,0:0:0:0:
402,192,59135,1,0,0:0:0:0:
475,192,59200,1,0,0:0:0:0:
256,192,59200,1,0,0:0:0:0:
182,192,59263,1,0,0:0:0:0:
109,192,59263,1,0,0:0:0:0:
402,192,59263,1,0,0:0:0:0:
256,192,59327,1,0,0:0:0:0:
36,192,59327,1,0,0:0:0:0:
329,192,59392,1,0,0:0:0:0:
402,192,59392,1,0,0:0:0:0:
475,192,59392,1,0,0:0:0:0:
182,192,59392,1,0,0:0:0:0:
109,192,59455,1,0,0:0:0:0:
36,192,59455,1,0,0:0:0:0:
182,192,59520,1,0,0:0:0:0:
475,192,59520,1,0,0:0:0:0:
329,192,59520,1,0,0:0:0:0:
109,192,59584,1,0,0:0:0:0:
256,192,59584,1,0,0:0:0:0:
36,192,59647,1,0,0:0:0:0:
182,192,59647,1,0,0:0:0:0:
329,192,59647,1,0,0:0:0:0:
402,192,59647,1,0,0:0:0:0:
475,192,59712,1,0,0:0:0:0:
256,192,59712,1,0,0:0:0:0:
109,192,59776,1,0,0:0:0:0:
329,192,59776,1,0,0:0:0:0:
402,192,59776,1,0,0:0:0:0:
182,192,59841,1,0,0:0:0:0:
36,192,59841,1,0,0:0:0:0:
256,192,59904,1,0,0:0:0:0:
329,192,59904,1,0,0:0:0:0:
402,192,59904,1,0,0:0:0:0:
475,192,59904,1,0,0:0:0:0:
109,192,59968,1,0,0:0:0:0:
182,192,59968,1,0,0:0:0:0:
36,192,60033,1,0,0:0:0:0:
329,192,60033,1,0,0:0:0:0:
475,192,60033,1,0,0:0:0:0:
256,192,60096,1,0,0:0:0:0:
182,192,60096,1,0,0:0:0:0:
109,192,60161,1,0,0:0:0:0:
36,192,60161,1,0,0:0:0:0:
402,192,60161,1,0,0:0:0:0:
475,192,60161,1,0,0:0:0:0:
256,192,60225,1,0,0:0:0:0:
329,192,60225,1,0,0:0:0:0:
182,192,60288,1,0,0:0:0:0:
475,192,60288,1,0,0:0:0:0:
402,192,60288,1,0,0:0:0:0:
329,192,60353,1,0,0:0:0:0:
109,192,60353,1,0,0:0:0:0:
256,192,60417,1,0,0:0:0:0:
402,192,60417,1,0,0:0:0:0:
36,192,60417,1,0,0:0:0:0:
182,192,60417,1,0,0:0:0:0:
329,192,60481,1,0,0:0:0:0:
475,192,60481,1,0,0:0:0:0:
182,192,60545,1,0,0:0:0:0:
109,192,60545,1,0,0:0:0:0:
36,192,60545,1,0,0:0:0:0:
256,192,60610,1,0,0:0:0:0:
402,192,60610,1,0,0:0:0:0:
36,192,60674,1,0,0:0:0:0:
475,192,60674,1,0,0:0:0:0:
182,192,60674,1,0,0:0:0:0:
329,192,60674,1,0,0:0:0:0:
109,192,60737,1,0,0:0:0:0:
256,192,60737,1,0,0:0:0:0:
182,192,60802,1,0,0:0:0:0:
329,192,60802,1,0,0:0:0:0:
256,192,60866,1,0,0:0:0:0:
402,192,60866,1,0,0:0:0:0:
329,192,60930,1,0,0:0:0:0:
182,192,60930,1,0,0:0:0:0:
109,192,60930,1,0,0:0:0:0:
36,192,60930,1,0,0:0:0:0:
475,192,60930,1,0,0:0:0:0:
256,192,60994,1,0,0:0:0:0:
402,192,60994,1,0,0:0:0:0:
182,192,61058,1,0,0:0:0:0:
329,192,61058,1,0,0:0:0:0:
109,192,61122,1,0,0:0:0:0:
256,192,61122,1,0,0:0:0:0:
182,192,61186,1,0,0:0:0:0:
36,192,61186,1,0,0:0:0:0:
402,192,61186,1,0,0:0:0:0:
329,192,61186,1,0,0:0:0:0:
256,192,61251,1,0,0:0:0:0:
475,192,61251,1,0,0:0:0:0:
182,192,61314,1,0,0:0:0:0:
36,192,61314,1,0,0:0:0:0:
329,192,61314,1,0,0:0:0:0:
109,192,61378,1,0,0:0:0:0:
256,192,61378,1,0,0:0:0:0:
329,192,61443,1,0,0:0:0:0:
402,192,61443,1,0,0:0:0:0:
475,192,61443,1,0,0:0:0:0:
182,192,61443,1,0,0:0:0:0:
109,192,61507,1,0,0:0:0:0:
256,192,61507,1,0,0:0:0:0:
182,192,61571,1,0,0:0:0:0:
402,192,61571,1,0,0:0:0:0:
329,192,61571,1,0,0:0:0:0:
36,192,61635,1,0,0:0:0:0:
109,192,61635,1,0,0:0:0:0:
182,192,61700,1,0,0:0:0:0:
256,192,61700,1,0,0:0:0:0:
329,192,61700,1,0,0:0:0:0:
475,192,61700,1,0,0:0:0:0:
109,192,61763,1,0,0:0:0:0:
402,192,61763,1,0,0:0:0:0:
182,192,61827,1,0,0:0:0:0:
329,192,61827,1,0,0:0:0:0:
475,192,61827,1,0,0:0:0:0:
109,192,61892,1,0,0:0:0:0:
36,192,61892,1,0,0:0:0:0:
256,192,61955,1,0,0:0:0:0:
182,192,61955,1,0,0:0:0:0:
402,192,61955,1,0,0:0:0:0:
475,192,61955,1,0,0:0:0:0:
109,192,62020,1,0,0:0:0:0:
36,192,62020,1,0,0:0:0:0:
182,192,62084,1,0,0:0:0:0:
402,192,62084,1,0,0:0:0:0:
329,192,62084,1,0,0:0:0:0:
256,192,62147,1,0,0:0:0:0:
109,192,62147,1,0,0:0:0:0:
329,192,62212,1,0,0:0:0:0:
402,192,62212,1,0,0:0:0:0:
475,192,62212,1,0,0:0:0:0:
36,192,62212,1,0,0:0:0:0:
182,192,62276,1,0,0:0:0:0:
256,192,62276,1,0,0:0:0:0:
475,192,62341,1,0,0:0:0:0:
36,192,62341,1,0,0:0:0:0:
109,192,62341,1,0,0:0:0:0:
402,192,62404,1,0,0:0:0:0:
329,192,62404,1,0,0:0:0:0:
36,192,62468,1,0,0:0:0:0:
256,192,62468,1,0,0:0:0:0:
109,192,62468,1,0,0:0:0:0:
182,192,62468,1,0,0:0:0:0:
402,192,62533,1,0,0:0:0:0:
475,192,62533,1,0,0:0:0:0:
109,192,62596,1,0,0:0:0:0:
36,192,62596,1,0,0:0:0:0:
329,192,62596,1,0,0:0:0:0:
256,192,62661,1,0,0:0:0:0:
402,192,62661,1,0,0:0:0:0:
329,192,62725,1,0,0:0:0:0:
182,192,62725,1,0,0:0:0:0:
475,192,62725,1,0,0:0:0:0:
109,192,62725,1,0,0:0:0:0:
402,192,62788,1,0,0:0:0:0:
256,192,62788,1,0,0:0:0:0:
329,192,62853,1,0,0:0:0:0:
182,192,62853,1,0,0:0:0:0:
109,192,62917,1,0,0:0:0:0:
256,192,62917,1,0,0:0:0:0:
182,192,62981,1,0,0:0:0:0:
329,192,62981,1,0,0:0:0:0:
402,192,62981,1,0,0:0:0:0:
36,192,62981,1,0,0:0:0:0:
256,192,63045,1,0,0:0:0:0:
109,192,63045,1,0,0:0:0:0:
182,192,63110,1,0,0:0:0:0:
329,192,63110,1,0,0:0:0:0:
256,192,63174,1,0,0:0:0:0:
402,192,63174,1,0,0:0:0:0:
329,192,63237,1,0,0:0:0:0:
109,192,63237,1,0,0:0:0:0:
36,192,63237,1,0,0:0:0:0:
182,192,63237,1,0,0:0:0:0:
402,192,63302,1,0,0:0:0:0:
475,192,63302,1,0,0:0:0:0:
329,192,63366,1,0,0:0:0:0:
36,192,63366,1,0,0:0:0:0:
182,192,63366,1,0,0:0:0:0:
109,192,63430,1,0,0:0:0:0:
256,192,63430,1,0,0:0:0:0:
182,192,63494,1,0,0:0:0:0:
475,192,63494,1,0,0:0:0:0:
329,192,63494,1,0,0:0:0:0:
402,192,63494,1,0,0:0:0:0:
36,192,63558,1,0,0:0:0:0:
256,192,63558,1,0,0:0:0:0:
109,192,63622,1,0,0:0:0:0:
329,192,63622,1,0,0:0:0:0:
475,192,63622,1,0,0:0:0:0:
402,192,63686,1,0,0:0:0:0:
182,192,63686,1,0,0:0:0:0:
256,192,63751,1,0,0:0:0:0:
109,192,63751,1,0,0:0:0:0:
36,192,63751,1,0,0:0:0:0:
329,192,63751,1,0,0:0:0:0:
402,192,63814,1,0,0:0:0:0:
475,192,63814,1,0,0:0:0:0:
256,192,63878,1,0,0:0:0:0:
109,192,63878,1,0,0:0:0:0:
36,192,63878,1,0,0:0:0:0:
182,192,63943,1,0,0:0:0:0:
329,192,63943,1,0,0:0:0:0:
402,192,64007,1,0,0:0:0:0:
475,192,64007,1,0,0:0:0:0:
109,192,64007,1,0,0:0:0:0:
36,192,64007,1,0,0:0:0:0:
256,192,64071,1,0,0:0:0:0:
182,192,64071,1,0,0:0:0:0:
109,192,64135,1,0,0:0:0:0:
329,192,64135,1,0,0:0:0:0:
36,192,64135,1,0,0:0:0:0:
256,192,64200,1,0,0:0:0:0:
402,192,64200,1,0,0:0:0:0:
475,192,64263,1,0,0:0:0:0:
329,192,64263,1,0,0:0:0:0:
182,192,64263,1,0,0:0:0:0:
109,192,64263,1,0,0:0:0:0:
36,192,64327,1,0,0:0:0:0:
256,192,64327,1,0,0:0:0:0:
329,192,64392,1,0,0:0:0:0:
475,192,64392,1,0,0:0:0:0:
109,192,64455,1,0,0:0:0:0:
36,192,64455,1,0,0:0:0:0:
182,192,64520,1,0,0:0:0:0:
329,192,64520,1,0,0:0:0:0:
402,192,64520,1,0,0:0:0:0:
475,192,64520,1,0,0:0:0:0:
256,192,64584,1,0,0:0:0:0:
109,192,64584,1,0,0:0:0:0:
402,192,64647,1,0,0:0:0:0:
329,192,64647,1,0,0:0:0:0:
36,192,64712,1,0,0:0:0:0:
109,192,64712,1,0,0:0:0:0:
256,192,64776,1,0,0:0:0:0:
329,192,64776,1,0,0:0:0:0:
402,192,64776,1,0,0:0:0:0:
475,192,64776,1,0,0:0:0:0:
182,192,64841,1,0,0:0:0:0:
109,192,64841,1,0,0:0:0:0:
329,192,64904,1,0,0:0:0:0:
256,192,64904,1,0,0:0:0:0:
475,192,64968,1,0,0:0:0:0:
402,192,64968,1,0,0:0:0:0:
182,192,65033,1,0,0:0:0:0:
109,192,65033,1,0,0:0:0:0:
36,192,65033,1,0,0:0:0:0:
329,192,65033,1,0,0:0:0:0:
402,192,65096,1,0,0:0:0:0:
475,192,65096,1,0,0:0:0:0:
109,192,65161,1,0,0:0:0:0:
256,192,65161,1,0,0:0:0:0:
182,192,65225,1,0,0:0:0:0:
329,192,65225,1,0,0:0:0:0:
109,192,65288,1,0,0:0:0:0:
36,192,65288,1,0,0:0:0:0:
402,192,65288,1,0,0:0:0:0:
475,192,65288,1,0,0:0:0:0:
256,192,65353,1,0,0:0:0:0:
329,192,65353,1,0,0:0:0:0:
182,192,65417,1,0,0:0:0:0:
36,192,65417,1,0,0:0:0:0:
109,192,65481,1,0,0:0:0:0:
256,192,65481,1,0,0:0:0:0:
329,192,65545,1,0,0:0:0:0:
402,192,65545,1,0,0:0:0:0:
475,192,65545,1,0,0:0:0:0:
36,192,65545,1,0,0:0:0:0:
182,192,65610,1,0,0:0:0:0:
256,192,65610,1,0,0:0:0:0:
109,192,65674,1,0,0:0:0:0:
36,192,65674,1,0,0:0:0:0:
256,192,65737,1,0,0:0:0:0:
329,192,65737,1,0,0:0:0:0:
36,192,65802,1,0,0:0:0:0:
109,192,65802,1,0,0:0:0:0:
402,192,65802,1,0,0:0:0:0:
475,192,65802,1,0,0:0:0:0:
109,192,65930,1,0,0:0:0:0:
182,192,65930,1,0,0:0:0:0:
256,192,65930,1,0,0:0:0:0:
329,192,66058,1,0,0:0:0:0:
402,192,66058,1,0,0:0:0:0:
475,192,66058,1,0,0:0:0:0:
36,192,66186,1,0,0:0:0:0:
182,192,66186,1,0,0:0:0:0:
109,192,66186,1,0,0:0:0:0:
475,192,66314,1,0,0:0:0:0:
402,192,66314,1,0,0:0:0:0:
329,192,66314,1,0,0:0:0:0:
329,192,66443,1,0,0:0:0:0:
256,192,66443,1,0,0:0:0:0:
182,192,66443,1,0,0:0:0:0:
36,192,66571,1,0,0:0:0:0:
182,192,66571,1,0,0:0:0:0:
109,192,66571,1,0,0:0:0:0:
329,192,66700,1,0,0:0:0:0:
402,192,66700,1,0,0:0:0:0:
475,192,66700,1,0,0:0:0:0:
109,192,66827,1,0,0:0:0:0:
36,192,66827,1,0,0:0:0:0:
182,192,66827,1,0,0:0:0:0:
256,192,66955,1,0,0:0:0:0:
329,192,66955,1,0,0:0:0:0:
402,192,66955,1,0,0:0:0:0:
182,192,67084,1,0,0:0:0:0:
109,192,67084,1,0,0:0:0:0:
36,192,67084,1,0,0:0:0:0:
182,192,67212,1,0,0:0:0:0:
256,192,67212,1,0,0:0:0:0:
329,192,67212,1,0,0:0:0:0:
256,192,67341,1,0,0:0:0:0:
329,192,67341,1,0,0:0:0:0:
402,192,67341,1,0,0:0:0:0:
109,192,67468,1,0,0:0:0:0:
36,192,67468,1,0,0:0:0:0:
182,192,67468,1,0,0:0:0:0:
182,192,67596,1,0,0:0:0:0:
256,192,67596,1,0,0:0:0:0:
109,192,67596,1,0,0:0:0:0:
329,192,67661,1,0,0:0:0:0:
402,192,67725,1,0,0:0:0:0:
475,192,67788,1,0,0:0:0:0:
182,192,67853,1,0,0:0:0:0:
256,192,67853,1,0,0:0:0:0:
329,192,67853,1,0,0:0:0:0:
109,192,67853,1,0,0:0:0:0:
36,192,67917,1,0,0:0:0:0:
402,192,67917,1,0,0:0:0:0:
329,192,67981,1,0,0:0:0:0:
182,192,67981,1,0,0:0:0:0:
109,192,68045,1,0,0:0:0:0:
256,192,68045,1,0,0:0:0:0:
36,192,68110,1,0,0:0:0:0:
182,192,68110,1,0,0:0:0:0:
329,192,68110,1,0,0:0:0:0:
402,192,68110,1,0,0:0:0:0:
475,192,68174,1,0,0:0:0:0:
256,192,68174,1,0,0:0:0:0:
182,192,68237,1,0,0:0:0:0:
402,192,68237,1,0,0:0:0:0:
109,192,68302,1,0,0:0:0:0:
329,192,68302,1,0,0:0:0:0:
256,192,68366,1,0,0:0:0:0:
402,192,68366,1,0,0:0:0:0:
475,192,68366,1,0,0:0:0:0:
182,192,68366,1,0,0:0:0:0:
36,192,68430,1,0,0:0:0:0:
329,192,68430,1,0,0:0:0:0:
109,192,68494,1,0,0:0:0:0:
256,192,68494,1,0,0:0:0:0:
182,192,68558,1,0,0:0:0:0:
36,192,68558,1,0,0:0:0:0:
256,192,68622,1,0,0:0:0:0:
329,192,68622,1,0,0:0:0:0:
402,192,68622,1,0,0:0:0:0:
475,192,68622,1,0,0:0:0:0:
109,192,68686,1,0,0:0:0:0:
182,192,68686,1,0,0:0:0:0:
256,192,68751,1,0,0:0:0:0:
402,192,68751,1,0,0:0:0:0:
475,192,68814,1,0,0:0:0:0:
329,192,68814,1,0,0:0:0:0:
256,192,68878,1,0,0:0:0:0:
182,192,68878,1,0,0:0:0:0:
109,192,68878,1,0,0:0:0:0:
36,192,68878,1,0,0:0:0:0:
329,192,68943,1,0,0:0:0:0:
402,192,68943,1,0,0:0:0:0:
182,192,69007,1,0,0:0:0:0:
36,192,69007,1,0,0:0:0:0:
109,192,69071,1,0,0:0:0:0:
256,192,69071,1,0,0:0:0:0:
329,192,69135,1,0,0:0:0:0:
402,192,69135,1,0,0:0:0:0:
475,192,69135,1,0,0:0:0:0:
182,192,69135,1,0,0:0:0:0:
36,192,69200,1,0,0:0:0:0:
256,192,69200,1,0,0:0:0:0:
329,192,69263,1,0,0:0:0:0:
182,192,69263,1,0,0:0:0:0:
402,192,69327,1,0,0:0:0:0:
475,192,69327,1,0,0:0:0:0:
182,192,69392,1,0,0:0:0:0:
109,192,69392,1,0,0:0:0:0:
36,192,69392,1,0,0:0:0:0:
256,192,69392,1,0,0:0:0:0:
329,192,69455,1,0,0:0:0:0:
475,192,69455,1,0,0:0:0:0:
256,192,69520,1,0,0:0:0:0:
109,192,69520,1,0,0:0:0:0:
36,192,69584,1,0,0:0:0:0:
182,192,69584,1,0,0:0:0:0:
256,192,69647,1,0,0:0:0:0:
329,192,69647,1,0,0:0:0:0:
402,192,69647,1,0,0:0:0:0:
475,192,69647,1,0,0:0:0:0:
109,192,69712,1,0,0:0:0:0:
182,192,69712,1,0,0:0:0:0:
256,192,69776,1,0,0:0:0:0:
402,192,69776,1,0,0:0:0:0:
36,192,69841,1,0,0:0:0:0:
182,192,69841,1,0,0:0:0:0:
329,192,69904,1,0,0:0:0:0:
402,192,69904,1,0,0:0:0:0:
475,192,69904,1,0,0:0:0:0:
109,192,69904,1,0,0:0:0:0:
256,192,69968,1,0,0:0:0:0:
36,192,69968,1,0,0:0:0:0:
182,192,70033,1,0,0:0:0:0:
329,192,70033,1,0,0:0:0:0:
402,192,70096,1,0,0:0:0:0:
475,192,70096,1,0,0:0:0:0:
256,192,70161,1,0,0:0:0:0:
36,192,70161,1,0,0:0:0:0:
109,192,70161,1,0,0:0:0:0:
182,192,70161,1,0,0:0:0:0:
329,192,70225,1,0,0:0:0:0:
475,192,70225,1,0,0:0:0:0:
182,192,70288,1,0,0:0:0:0:
36,192,70288,1,0,0:0:0:0:
109,192,70353,1,0,0:0:0:0:
256,192,70353,1,0,0:0:0:0:
182,192,70417,1,0,0:0:0:0:
329,192,70417,1,0,0:0:0:0:
402,192,70417,1,0,0:0:0:0:
475,192,70417,1,0,0:0:0:0:
36,192,70481,1,0,0:0:0:0:
256,192,70481,1,0,0:0:0:0:
182,192,70545,1,0,0:0:0:0:
329,192,70545,1,0,0:0:0:0:
402,192,70610,1,0,0:0:0:0:
475,192,70610,1,0,0:0:0:0:
182,192,70674,1,0,0:0:0:0:
36,192,70674,1,0,0:0:0:0:
256,192,70674,1,0,0:0:0:0:
329,192,70674,1,0,0:0:0:0:
109,192,70737,1,0,0:0:0:0:
402,192,70737,1,0,0:0:0:0:
329,192,70802,1,0,0:0:0:0:
182,192,70802,1,0,0:0:0:0:
109,192,70866,1,0,0:0:0:0:
36,192,70866,1,0,0:0:0:0:
256,192,70930,1,0,0:0:0:0:
329,192,70930,1,0,0:0:0:0:
475,192,70930,1,0,0:0:0:0:
182,192,70930,1,0,0:0:0:0:
109,192,70994,1,0,0:0:0:0:
402,192,70994,1,0,0:0:0:0:
182,192,71058,1,0,0:0:0:0:
36,192,71058,1,0,0:0:0:0:
256,192,71122,1,0,0:0:0:0:
329,192,71122,1,0,0:0:0:0:
402,192,71186,1,0,0:0:0:0:
475,192,71186,1,0,0:0:0:0:
36,192,71186,1,0,0:0:0:0:
109,192,71186,1,0,0:0:0:0:
182,192,71251,1,0,0:0:0:0:
329,192,71251,1,0,0:0:0:0:
256,192,71314,1,0,0:0:0:0:
402,192,71314,1,0,0:0:0:0:
182,192,71378,1,0,0:0:0:0:
36,192,71378,1,0,0:0:0:0:
109,192,71443,1,0,0:0:0:0:
256,192,71443,1,0,0:0:0:0:
329,192,71443,1,0,0:0:0:0:
402,192,71443,1,0,0:0:0:0:
475,192,71507,1,0,0:0:0:0:
182,192,71507,1,0,0:0:0:0:
256,192,71571,1,0,0:0:0:0:
402,192,71571,1,0,0:0:0:0:
329,192,71635,1,0,0:0:0:0:
475,192,71635,1,0,0:0:0:0:
182,192,71700,1,0,0:0:0:0:
109,192,71700,1,0,0:0:0:0:
36,192,71700,1,0,0:0:0:0:
256,192,71700,1,0,0:0:0:0:
402,192,71763,1,0,0:0:0:0:
475,192,71763,1,0,0:0:0:0:
109,192,71827,1,0,0:0:0:0:
36,192,71827,1,0,0:0:0:0:
182,192,71892,1,0,0:0:0:0:
256,192,71892,1,0,0:0:0:0:
109,192,71955,1,0,0:0:0:0:
36,192,71955,1,0,0:0:0:0:
329,192,71955,1,0,0:0:0:0:
402,192,71955,1,0,0:0:0:0:
475,192,72020,1,0,0:0:0:0:
182,192,72020,1,0,0:0:0:0:
329,192,72084,1,0,0:0:0:0:
109,192,72084,1,0,0:0:0:0:
36,192,72147,1,0,0:0:0:0:
256,192,72147,1,0,0:0:0:0:
329,192,72212,1,0,0:0:0:0:
402,192,72212,1,0,0:0:0:0:
475,192,72212,1,0,0:0:0:0:
182,192,72212,1,0,0:0:0:0:
109,192,72276,1,0,0:0:0:0:
36,192,72276,1,0,0:0:0:0:
475,192,72341,1,0,0:0:0:0:
329,192,72341,1,0,0:0:0:0:
256,192,72404,1,0,0:0:0:0:
402,192,72404,1,0,0:0:0:0:
329,192,72468,1,0,0:0:0:0:
475,192,72468,1,0,0:0:0:0:
182,192,72468,1,0,0:0:0:0:
109,192,72468,1,0,0:0:0:0:
36,192,72533,1,0,0:0:0:0:
256,192,72533,1,0,0:0:0:0:
329,192,72596,1,0,0:0:0:0:
402,192,72596,1,0,0:0:0:0:
182,192,72661,1,0,0:0:0:0:
109,192,72661,1,0,0:0:0:0:
256,192,72725,1,0,0:0:0:0:
329,192,72725,1,0,0:0:0:0:
402,192,72725,1,0,0:0:0:0:
475,192,72725,1,0,0:0:0:0:
109,192,72788,1,0,0:0:0:0:
36,192,72788,1,0,0:0:0:0:
182,192,72853,1,0,0:0:0:0:
256,192,72853,1,0,0:0:0:0:
329,192,72917,1,0,0:0:0:0:
475,192,72917,1,0,0:0:0:0:
402,192,72981,1,0,0:0:0:0:
256,192,72981,1,0,0:0:0:0:
109,192,72981,1,0,0:0:0:0:
36,192,72981,1,0,0:0:0:0:
182,192,73045,1,0,0:0:0:0:
329,192,73045,1,0,0:0:0:0:
256,192,73110,1,0,0:0:0:0:
109,192,73110,1,0,0:0:0:0:
36,192,73174,1,0,0:0:0:0:
182,192,73174,1,0,0:0:0:0:
402,192,73237,1,0,0:0:0:0:
475,192,73237,1,0,0:0:0:0:
256,192,73237,1,0,0:0:0:0:
329,192,73237,1,0,0:0:0:0:
36,192,73302,1,0,0:0:0:0:
182,192,73302,1,0,0:0:0:0:
256,192,73366,1,0,0:0:0:0:
109,192,73366,1,0,0:0:0:0:
329,192,73430,1,0,0:0:0:0:
182,192,73430,1,0,0:0:0:0:
36,192,73494,1,0,0:0:0:0:
256,192,73494,1,0,0:0:0:0:
475,192,73494,1,0,0:0:0:0:
402,192,73494,1,0,0:0:0:0:
329,192,73558,1,0,0:0:0:0:
182,192,73558,1,0,0:0:0:0:
36,192,73622,1,0,0:0:0:0:
109,192,73622,1,0,0:0:0:0:
182,192,73686,1,0,0:0:0:0:
256,192,73686,1,0,0:0:0:0:
329,192,73751,1,0,0:0:0:0:
475,192,73751,1,0,0:0:0:0:
36,192,73751,1,0,0:0:0:0:
402,192,73751,1,0,0:0:0:0:
182,192,73814,1,0,0:0:0:0:
109,192,73814,1,0,0:0:0:0:
256,192,73878,1,0,0:0:0:0:
329,192,73878,1,0,0:0:0:0:
36,192,73943,1,0,0:0:0:0:
182,192,73943,1,0,0:0:0:0:
256,192,74007,1,0,0:0:0:0:
329,192,74007,1,0,0:0:0:0:
402,192,74007,1,0,0:0:0:0:
475,192,74007,1,0,0:0:0:0:
182,192,74071,1,0,0:0:0:0:
109,192,74071,1,0,0:0:0:0:
256,192,74135,1,0,0:0:0:0:
402,192,74135,1,0,0:0:0:0:
329,192,74200,1,0,0:0:0:0:
475,192,74200,1,0,0:0:0:0:
256,192,74263,1,0,0:0:0:0:
182,192,74263,1,0,0:0:0:0:
109,192,74263,1,0,0:0:0:0:
36,192,74263,1,0,0:0:0:0:
329,192,74327,1,0,0:0:0:0:
475,192,74327,1,0,0:0:0:0:
36,192,74392,1,0,0:0:0:0:
182,192,74392,1,0,0:0:0:0:
109,192,74455,1,0,0:0:0:0:
256,192,74455,1,0,0:0:0:0:
329,192,74520,1,0,0:0:0:0:
182,192,74520,1,0,0:0:0:0:
402,192,74520,1,0,0:0:0:0:
475,192,74520,1,0,0:0:0:0:
36,192,74584,1,0,0:0:0:0:
109,192,74584,1,0,0:0:0:0:
329,192,74647,1,0,0:0:0:0:
256,192,74647,1,0,0:0:0:0:
182,192,74712,1,0,0:0:0:0:
109,192,74712,1,0,0:0:0:0:
329,192,74776,1,0,0:0:0:0:
402,192,74776,1,0,0:0:0:0:
475,192,74776,1,0,0:0:0:0:
36,192,74776,1,0,0:0:0:0:
256,192,74841,1,0,0:0:0:0:
109,192,74841,1,0,0:0:0:0:
182,192,74904,1,0,0:0:0:0:
329,192,74904,1,0,0:0:0:0:
36,192,74968,1,0,0:0:0:0:
109,192,74968,1,0,0:0:0:0:
182,192,75033,1,0,0:0:0:0:
329,192,75033,1,0,0:0:0:0:
402,192,75033,1,0,0:0:0:0:
475,192,75033,1,0,0:0:0:0:
256,192,75096,1,0,0:0:0:0:
36,192,75096,1,0,0:0:0:0:
109,192,75161,1,0,0:0:0:0:
182,192,75161,1,0,0:0:0:0:
256,192,75225,1,0,0:0:0:0:
329,192,75225,1,0,0:0:0:0:
402,192,75288,1,0,0:0:0:0:
475,192,75288,1,0,0:0:0:0:
36,192,75288,1,0,0:0:0:0:
109,192,75288,1,0,0:0:0:0:
182,192,75353,1,0,0:0:0:0:
329,192,75353,1,0,0:0:0:0:
256,192,75417,1,0,0:0:0:0:
36,192,75417,1,0,0:0:0:0:
109,192,75481,1,0,0:0:0:0:
182,192,75481,1,0,0:0:0:0:
256,192,75545,1,0,0:0:0:0:
329,192,75545,1,0,0:0:0:0:
402,192,75545,1,0,0:0:0:0:
475,192,75545,1,0,0:0:0:0:
36,192,75610,1,0,0:0:0:0:
182,192,75610,1,0,0:0:0:0:
256,192,75674,1,0,0:0:0:0:
402,192,75674,1,0,0:0:0:0:
329,192,75737,1,0,0:0:0:0:
475,192,75737,1,0,0:0:0:0:
256,192,75802,1,0,0:0:0:0:
109,192,75802,1,0,0:0:0:0:
36,192,75802,1,0,0:0:0:0:
182,192,75802,1,0,0:0:0:0:
329,192,75866,1,0,0:0:0:0:
402,192,75866,1,0,0:0:0:0:
36,192,75930,1,0,0:0:0:0:
109,192,75930,1,0,0:0:0:0:
402,192,75994,1,0,0:0:0:0:
475,192,75994,1,0,0:0:0:0:
256,192,76058,1,0,0:0:0:0:
109,192,76058,1,0,0:0:0:0:
36,192,76058,1,0,0:0:0:0:
182,192,76058,1,0,0:0:0:0:
329,192,76122,1,0,0:0:0:0:
475,192,76122,1,0,0:0:0:0:
402,192,76186,1,0,0:0:0:0:
109,192,76186,1,0,0:0:0:0:
256,192,76251,1,0,0:0:0:0:
182,192,76251,1,0,0:0:0:0:
329,192,76314,1,0,0:0:0:0:
402,192,76314,1,0,0:0:0:0:
475,192,76314,1,0,0:0:0:0:
36,192,76314,1,0,0:0:0:0:
182,192,76378,1,0,0:0:0:0:
109,192,76378,1,0,0:0:0:0:
256,192,76443,1,0,0:0:0:0:
402,192,76443,1,0,0:0:0:0:
329,192,76507,1,0,0:0:0:0:
475,192,76507,1,0,0:0:0:0:
256,192,76571,1,0,0:0:0:0:
182,192,76571,1,0,0:0:0:0:
109,192,76571,1,0,0:0:0:0:
36,192,76571,1,0,0:0:0:0:
329,192,76635,1,0,0:0:0:0:
402,192,76635,1,0,0:0:0:0:
182,192,76700,1,0,0:0:0:0:
36,192,76700,1,0,0:0:0:0:
256,192,76763,1,0,0:0:0:0:
329,192,76763,1,0,0:0:0:0:
402,192,76827,1,0,0:0:0:0:
475,192,76827,1,0,0:0:0:0:
109,192,76827,1,0,0:0:0:0:
36,192,76827,1,0,0:0:0:0:
182,192,76892,1,0,0:0:0:0:
329,192,76892,1,0,0:0:0:0:
36,192,76955,1,0,0:0:0:0:
256,192,76955,1,0,0:0:0:0:
329,192,77020,1,0,0:0:0:0:
402,192,77020,1,0,0:0:0:0:
475,192,77084,1,0,0:0:0:0:
182,192,77084,1,0,0:0:0:0:
256,192,77084,1,0,0:0:0:0:
36,192,77084,1,0,0:0:0:0:
109,192,77147,1,0,0:0:0:0:
329,192,77147,1,0,0:0:0:0:
256,192,77212,1,0,0:0:0:0:
182,192,77212,1,0,0:0:0:0:
329,192,77276,1,0,0:0:0:0:
402,192,77276,1,0,0:0:0:0:
475,192,77341,1,0,0:0:0:0:
182,192,77341,1,0,0:0:0:0:
109,192,77341,1,0,0:0:0:0:
36,192,77341,1,0,0:0:0:0:
256,192,77404,1,0,0:0:0:0:
329,192,77404,1,0,0:0:0:0:
182,192,77468,1,0,0:0:0:0:
36,192,77468,1,0,0:0:0:0:
109,192,77533,1,0,0:0:0:0:
256,192,77533,1,0,0:0:0:0:
329,192,77596,1,0,0:0:0:0:
402,192,77596,1,0,0:0:0:0:
475,192,77596,1,0,0:0:0:0:
36,192,77596,1,0,0:0:0:0:
182,192,77661,1,0,0:0:0:0:
256,192,77661,1,0,0:0:0:0:
329,192,77725,1,0,0:0:0:0:
475,192,77725,1,0,0:0:0:0:
402,192,77788,1,0,0:0:0:0:
36,192,77788,1,0,0:0:0:0:
182,192,77853,1,0,0:0:0:0:
256,192,77853,1,0,0:0:0:0:
329,192,77853,1,0,0:0:0:0:
109,192,77853,1,0,0:0:0:0:
36,192,77917,1,0,0:0:0:0:
402,192,77917,1,0,0:0:0:0:
329,192,77981,1,0,0:0:0:0:
182,192,77981,1,0,0:0:0:0:
109,192,78045,1,0,0:0:0:0:
256,192,78045,1,0,0:0:0:0:
36,192,78110,1,0,0:0:0:0:
182,192,78110,1,0,0:0:0:0:
329,192,78110,1,0,0:0:0:0:
402,192,78110,1,0,0:0:0:0:
475,192,78174,1,0,0:0:0:0:
256,192,78174,1,0,0:0:0:0:
182,192,78237,1,0,0:0:0:0:
402,192,78237,1,0,0:0:0:0:
109,192,78302,1,0,0:0:0:0:
329,192,78302,1,0,0:0:0:0:
256,192,78366,1,0,0:0:0:0:
402,192,78366,1,0,0:0:0:0:
475,192,78366,1,0,0:0:0:0:
182,192,78366,1,0,0:0:0:0:
36,192,78430,1,0,0:0:0:0:
109,192,78430,1,0,0:0:0:0:
182,192,78494,1,0,0:0:0:0:
402,192,78494,1,0,0:0:0:0:
329,192,78558,1,0,0:0:0:0:
256,192,78558,1,0,0:0:0:0:
402,192,78622,1,0,0:0:0:0:
36,192,78622,1,0,0:0:0:0:
109,192,78622,1,0,0:0:0:0:
475,192,78622,1,0,0:0:0:0:
256,192,78686,1,0,0:0:0:0:
182,192,78686,1,0,0:0:0:0:
329,192,78751,1,0,0:0:0:0:
402,192,78751,1,0,0:0:0:0:
475,192,78814,1,0,0:0:0:0:
36,192,78814,1,0,0:0:0:0:
256,192,78878,1,0,0:0:0:0:
182,192,78878,1,0,0:0:0:0:
329,192,78878,1,0,0:0:0:0:
109,192,78878,1,0,0:0:0:0:
475,192,78943,1,0,0:0:0:0:
402,192,78943,1,0,0:0:0:0:
182,192,79007,1,0,0:0:0:0:
36,192,79007,1,0,0:0:0:0:
109,192,79071,1,0,0:0:0:0:
256,192,79071,1,0,0:0:0:0:
329,192,79135,1,0,0:0:0:0:
402,192,79135,1,0,0:0:0:0:
475,192,79135,1,0,0:0:0:0:
182,192,79135,1,0,0:0:0:0:
36,192,79200,1,0,0:0:0:0:
256,192,79200,1,0,0:0:0:0:
329,192,79263,1,0,0:0:0:0:
182,192,79263,1,0,0:0:0:0:
402,192,79327,1,0,0:0:0:0:
475,192,79327,1,0,0:0:0:0:
182,192,79392,1,0,0:0:0:0:
109,192,79392,1,0,0:0:0:0:
36,192,79392,1,0,0:0:0:0:
256,192,79392,1,0,0:0:0:0:
329,192,79455,1,0,0:0:0:0:
475,192,79455,1,0,0:0:0:0:
256,192,79520,1,0,0:0:0:0:
109,192,79520,1,0,0:0:0:0:
36,192,79584,1,0,0:0:0:0:
182,192,79584,1,0,0:0:0:0:
256,192,79647,1,0,0:0:0:0:
329,192,79647,1,0,0:0:0:0:
402,192,79647,1,0,0:0:0:0:
475,192,79647,1,0,0:0:0:0:
109,192,79712,1,0,0:0:0:0:
182,192,79712,1,0,0:0:0:0:
256,192,79776,1,0,0:0:0:0:
402,192,79776,1,0,0:0:0:0:
36,192,79841,1,0,0:0:0:0:
182,192,79841,1,0,0:0:0:0:
329,192,79904,1,0,0:0:0:0:
402,192,79904,1,0,0:0:0:0:
475,192,79904,1,0,0:0:0:0:
109,192,79904,1,0,0:0:0:0:
256,192,79968,1,0,0:0:0:0:
36,192,79968,1,0,0:0:0:0:
182,192,80033,1,0,0:0:0:0:
329,192,80033,1,0,0:0:0:0:
402,192,80096,1,0,0:0:0:0:
475,192,80096,1,0,0:0:0:0:
256,192,80161,1,0,0:0:0:0:
36,192,80161,1,0,0:0:0:0:
109,192,80161,1,0,0:0:0:0:
182,192,80161,1,0,0:0:0:0:
329,192,80225,1,0,0:0:0:0:
475,192,80225,1,0,0:0:0:0:
256,192,80288,1,0,0:0:0:0:
36,192,80288,1,0,0:0:0:0:
109,192,80353,1,0,0:0:0:0:
182,192,80353,1,0,0:0:0:0:
256,192,80417,1,0,0:0:0:0:
329,192,80417,1,0,0:0:0:0:
402,192,80417,1,0,0:0:0:0:
475,192,80417,1,0,0:0:0:0:
109,192,80481,1,0,0:0:0:0:
36,192,80481,1,0,0:0:0:0:
256,192,80545,1,0,0:0:0:0:
329,192,80545,1,0,0:0:0:0:
402,192,80610,1,0,0:0:0:0:
475,192,80610,1,0,0:0:0:0:
182,192,80674,1,0,0:0:0:0:
36,192,80674,1,0,0:0:0:0:
256,192,80674,1,0,0:0:0:0:
329,192,80674,1,0,0:0:0:0:
109,192,80737,1,0,0:0:0:0:
402,192,80737,1,0,0:0:0:0:
329,192,80802,1,0,0:0:0:0:
182,192,80802,1,0,0:0:0:0:
109,192,80866,1,0,0:0:0:0:
36,192,80866,1,0,0:0:0:0:
256,192,80930,1,0,0:0:0:0:
329,192,80930,1,0,0:0:0:0:
475,192,80930,1,0,0:0:0:0:
182,192,80930,1,0,0:0:0:0:
109,192,80994,1,0,0:0:0:0:
402,192,80994,1,0,0:0:0:0:
182,192,81058,1,0,0:0:0:0:
36,192,81058,1,0,0:0:0:0:
256,192,81122,1,0,0:0:0:0:
329,192,81122,1,0,0:0:0:0:
402,192,81186,1,0,0:0:0:0:
475,192,81186,1,0,0:0:0:0:
36,192,81186,1,0,0:0:0:0:
109,192,81186,1,0,0:0:0:0:
182,192,81251,1,0,0:0:0:0:
329,192,81251,1,0,0:0:0:0:
256,192,81314,1,0,0:0:0:0:
402,192,81314,1,0,0:0:0:0:
182,192,81378,1,0,0:0:0:0:
36,192,81378,1,0,0:0:0:0:
109,192,81443,1,0,0:0:0:0:
256,192,81443,1,0,0:0:0:0:
329,192,81443,1,0,0:0:0:0:
402,192,81443,1,0,0:0:0:0:
475,192,81507,1,0,0:0:0:0:
182,192,81507,1,0,0:0:0:0:
256,192,81571,1,0,0:0:0:0:
402,192,81571,1,0,0:0:0:0:
329,192,81635,1,0,0:0:0:0:
475,192,81635,1,0,0:0:0:0:
182,192,81700,1,0,0:0:0:0:
109,192,81700,1,0,0:0:0:0:
36,192,81700,1,0,0:0:0:0:
256,192,81700,1,0,0:0:0:0:
402,192,81763,1,0,0:0:0:0:
475,192,81763,1,0,0:0:0:0:
109,192,81827,1,0,0:0:0:0:
36,192,81827,1,0,0:0:0:0:
182,192,81892,1,0,0:0:0:0:
256,192,81892,1,0,0:0:0:0:
109,192,81955,1,0,0:0:0:0:
36,192,81955,1,0,0:0:0:0:
329,192,81955,1,0,0:0:0:0:
402,192,81955,1,0,0:0:0:0:
475,192,82020,1,0,0:0:0:0:
182,192,82020,1,0,0:0:0:0:
329,192,82084,1,0,0:0:0:0:
109,192,82084,1,0,0:0:0:0:
36,192,82147,1,0,0:0:0:0:
256,192,82147,1,0,0:0:0:0:
329,192,82212,1,0,0:0:0:0:
402,192,82212,1,0,0:0:0:0:
475,192,82212,1,0,0:0:0:0:
182,192,82212,1,0,0:0:0:0:
109,192,82276,1,0,0:0:0:0:
36,192,82276,1,0,0:0:0:0:
475,192,82341,1,0,0:0:0:0:
329,192,82341,1,0,0:0:0:0:
256,192,82404,1,0,0:0:0:0:
402,192,82404,1,0,0:0:0:0:
329,192,82468,1,0,0:0:0:0:
475,192,82468,1,0,0:0:0:0:
182,192,82468,1,0,0:0:0:0:
109,192,82468,1,0,0:0:0:0:
36,192,82533,1,0,0:0:0:0:
256,192,82533,1,0,0:0:0:0:
329,192,82596,1,0,0:0:0:0:
402,192,82596,1,0,0:0:0:0:
182,192,82661,1,0,0:0:0:0:
109,192,82661,1,0,0:0:0:0:
256,192,82725,1,0,0:0:0:0:
329,192,82725,1,0,0:0:0:0:
402,192,82725,1,0,0:0:0:0:
475,192,82725,1,0,0:0:0:0:
36,192,82853,1,0,0:0:0:0:
109,192,82853,1,0,0:0:0:0:
182,192,82853,1,0,0:0:0:0:
329,192,82917,1,0,0:0:0:0:
402,192,82917,1,0,0:0:0:0:
475,192,82917,1,0,0:0:0:0:
36,192,82981,1,0,0:0:0:0:
109,192,82981,1,0,0:0:0:0:
329,192,83045,1,0,0:0:0:0:
256,192,83045,1,0,0:0:0:0:
402,192,83045,1,0,0:0:0:0:
182,192,83110,1,0,0:0:0:0:
109,192,83110,1,0,0:0:0:0:
256,192,83174,1,0,0:0:0:0:
329,192,83174,1,0,0:0:0:0:
402,192,83237,1,0,0:0:0:0:
475,192,83237,1,0,0:0:0:0:
182,192,83366,1,0,0:0:0:0:
109,192,83366,1,0,0:0:0:0:
36,192,83366,1,0,0:0:0:0:
256,192,83494,1,0,0:0:0:0:
329,192,83494,1,0,0:0:0:0:
402,192,83494,1,0,0:0:0:0:
475,192,83494,1,0,0:0:0:0:
256,192,83622,1,0,0:0:0:0:
182,192,83622,1,0,0:0:0:0:
109,192,83622,1,0,0:0:0:0:
36,192,83622,1,0,0:0:0:0:
36,192,83751,1,0,0:0:0:0:
256,192,83751,1,0,0:0:0:0:
329,192,83751,1,0,0:0:0:0:
402,192,83751,1,0,0:0:0:0:
182,192,83878,1,0,0:0:0:0:
109,192,83878,1,0,0:0:0:0:
36,192,83878,1,0,0:0:0:0:
329,192,83943,1,0,0:0:0:0:
475,192,83943,1,0,0:0:0:0:
402,192,83943,1,0,0:0:0:0:
36,192,84007,1,0,0:0:0:0:
109,192,84007,1,0,0:0:0:0:
182,192,84071,1,0,0:0:0:0:
256,192,84071,1,0,0:0:0:0:
329,192,84071,1,0,0:0:0:0:
402,192,84135,1,0,0:0:0:0:
475,192,84135,1,0,0:0:0:0:
36,192,84200,1,0,0:0:0:0:
182,192,84200,1,0,0:0:0:0:
109,192,84200,1,0,0:0:0:0:
256,192,84263,1,0,0:0:0:0:
329,192,84263,1,0,0:0:0:0:
402,192,84263,1,0,0:0:0:0:
36,192,84520,1,0,0:0:0:0:
109,192,84520,1,0,0:0:0:0:
256,192,84776,1,0,0:0:0:0:
329,192,84776,1,0,0:0:0:0:
402,192,84990,1,0,0:0:0:0:
475,192,84990,1,0,0:0:0:0:
109,192,85288,1,0,0:0:0:0:
182,192,85288,1,0,0:0:0:0:
329,192,85545,1,0,0:0:0:0:
402,192,85545,1,0,0:0:0:0:
109,192,85802,1,0,0:0:0:0:
182,192,85802,1,0,0:0:0:0:
329,192,86015,1,0,0:0:0:0:
256,192,86015,1,0,0:0:0:0:
402,192,86186,1,0,0:0:0:0:
475,192,86186,1,0,0:0:0:0:
109,192,86314,1,0,0:0:0:0:
36,192,86314,1,0,0:0:0:0:
256,192,86528,1,0,0:0:0:0:
329,192,86528,1,0,0:0:0:0:
182,192,86827,1,0,0:0:0:0:
109,192,86827,1,0,0:0:0:0:
402,192,87041,1,0,0:0:0:0:
475,192,87041,1,0,0:0:0:0:
256,192,87212,1,0,0:0:0:0:
182,192,87212,1,0,0:0:0:0:
109,192,87341,1,0,0:0:0:0:
36,192,87341,1,0,0:0:0:0:
182,192,87596,1,0,0:0:0:0:
109,192,87596,1,0,0:0:0:0:
256,192,87853,1,0,0:0:0:0:
329,192,87853,1,0,0:0:0:0:
402,192,88066,1,0,0:0:0:0:
475,192,88066,1,0,0:0:0:0:
109,192,88366,1,0,0:0:0:0:
182,192,88366,1,0,0:0:0:0:
329,192,88622,1,0,0:0:0:0:
402,192,88622,1,0,0:0:0:0:
109,192,88878,1,0,0:0:0:0:
182,192,88878,1,0,0:0:0:0:
329,192,89092,1,0,0:0:0:0:
256,192,89092,1,0,0:0:0:0:
402,192,89263,1,0,0:0:0:0:
475,192,89263,1,0,0:0:0:0:
109,192,89392,1,0,0:0:0:0:
36,192,89392,1,0,0:0:0:0:
256,192,89605,1,0,0:0:0:0:
329,192,89605,1,0,0:0:0:0:
182,192,89904,1,0,0:0:0:0:
109,192,89904,1,0,0:0:0:0:
402,192,90118,1,0,0:0:0:0:
475,192,90118,1,0,0:0:0:0:
256,192,90288,1,0,0:0:0:0:
182,192,90288,1,0,0:0:0:0:
109,192,90417,1,0,0:0:0:0:
36,192,90417,1,0,0:0:0:0:
329,192,90674,1,0,0:0:0:0:
402,192,90674,1,0,0:0:0:0:
182,192,90930,1,0,0:0:0:0:
256,192,90930,1,0,0:0:0:0:
36,192,91144,1,0,0:0:0:0:
109,192,91144,1,0,0:0:0:0:
182,192,91443,1,0,0:0:0:0:
109,192,91443,1,0,0:0:0:0:
402,192,91700,1,0,0:0:0:0:
329,192,91700,1,0,0:0:0:0:
182,192,91955,1,0,0:0:0:0:
109,192,91955,1,0,0:0:0:0:
256,192,92170,1,0,0:0:0:0:
329,192,92170,1,0,0:0:0:0:
475,192,92341,1,0,0:0:0:0:
402,192,92341,1,0,0:0:0:0:
36,192,92468,1,0,0:0:0:0:
109,192,92468,1,0,0:0:0:0:
329,192,92682,1,0,0:0:0:0:
256,192,92682,1,0,0:0:0:0:
109,192,92981,1,0,0:0:0:0:
182,192,92981,1,0,0:0:0:0:
475,192,93195,1,0,0:0:0:0:
402,192,93195,1,0,0:0:0:0:
182,192,93366,1,0,0:0:0:0:
256,192,93366,1,0,0:0:0:0:
36,192,93494,1,0,0:0:0:0:
109,192,93494,1,0,0:0:0:0:
402,192,93751,1,0,0:0:0:0:
475,192,93751,1,0,0:0:0:0:
256,192,94007,1,0,0:0:0:0:
329,192,94007,1,0,0:0:0:0:
402,192,94221,1,0,0:0:0:0:
475,192,94221,1,0,0:0:0:0:
109,192,94520,1,0,0:0:0:0:
182,192,94520,1,0,0:0:0:0:
329,192,94776,1,0,0:0:0:0:
402,192,94776,1,0,0:0:0:0:
109,192,95033,1,0,0:0:0:0:
36,192,95033,1,0,0:0:0:0:
329,192,95246,1,0,0:0:0:0:
256,192,95246,1,0,0:0:0:0:
402,192,95417,1,0,0:0:0:0:
475,192,95417,1,0,0:0:0:0:
109,192,95545,1,0,0:0:0:0:
36,192,95545,1,0,0:0:0:0:
256,192,95758,1,0,0:0:0:0:
329,192,95758,1,0,0:0:0:0:
182,192,96058,1,0,0:0:0:0:
109,192,96058,1,0,0:0:0:0:
402,192,96272,1,0,0:0:0:0:
475,192,96272,1,0,0:0:0:0:
256,192,96443,1,0,0:0:0:0:
182,192,96443,1,0,0:0:0:0:
109,192,96571,1,0,0:0:0:0:
36,192,96571,1,0,0:0:0:0:
475,192,96827,1,0,0:0:0:0:
402,192,96827,1,0,0:0:0:0:
256,192,97084,1,0,0:0:0:0:
329,192,97084,1,0,0:0:0:0:
402,192,97297,1,0,0:0:0:0:
475,192,97297,1,0,0:0:0:0:
109,192,97596,1,0,0:0:0:0:
182,192,97596,1,0,0:0:0:0:
329,192,97853,1,0,0:0:0:0:
402,192,97853,1,0,0:0:0:0:
109,192,98110,1,0,0:0:0:0:
182,192,98110,1,0,0:0:0:0:
329,192,98323,1,0,0:0:0:0:
256,192,98323,1,0,0:0:0:0:
402,192,98494,1,0,0:0:0:0:
475,192,98494,1,0,0:0:0:0:
109,192,98622,1,0,0:0:0:0:
36,192,98622,1,0,0:0:0:0:
256,192,98836,1,0,0:0:0:0:
329,192,98836,1,0,0:0:0:0:
182,192,99135,1,0,0:0:0:0:
109,192,99135,1,0,0:0:0:0:
402,192,99348,1,0,0:0:0:0:
475,192,99348,1,0,0:0:0:0:
256,192,99520,1,0,0:0:0:0:
182,192,99520,1,0,0:0:0:0:
109,192,99647,1,0,0:0:0:0:
36,192,99647,1,0,0:0:0:0:
329,192,99904,1,0,0:0:0:0:
402,192,99904,1,0,0:0:0:0:
182,192,100161,1,0,0:0:0:0:
256,192,100161,1,0,0:0:0:0:
36,192,100374,1,0,0:0:0:0:
109,192,100374,1,0,0:0:0:0:
182,192,100674,1,0,0:0:0:0:
109,192,100674,1,0,0:0:0:0:
36,192,100674,1,0,0:0:0:0:
256,192,100737,1,0,0:0:0:0:
329,192,100737,1,0,0:0:0:0:
36,192,100802,1,0,0:0:0:0:
109,192,100802,1,0,0:0:0:0:
182,192,100866,1,0,0:0:0:0:
256,192,100866,1,0,0:0:0:0:
329,192,100930,1,0,0:0:0:0:
402,192,100930,1,0,0:0:0:0:
475,192,100930,1,0,0:0:0:0:
36,192,100994,1,0,0:0:0:0:
109,192,100994,1,0,0:0:0:0:
182,192,101058,1,0,0:0:0:0:
256,192,101058,1,0,0:0:0:0:
329,192,101122,1,0,0:0:0:0:
402,192,101122,1,0,0:0:0:0:
256,192,101186,1,0,0:0:0:0:
475,192,101186,1,0,0:0:0:0:
182,192,101186,1,0,0:0:0:0:
109,192,101251,1,0,0:0:0:0:
36,192,101251,1,0,0:0:0:0:
329,192,101314,1,0,0:0:0:0:
402,192,101314,1,0,0:0:0:0:
182,192,101378,1,0,0:0:0:0:
256,192,101378,1,0,0:0:0:0:
36,192,101443,1,0,0:0:0:0:
109,192,101443,1,0,0:0:0:0:
475,192,101507,1,0,0:0:0:0:
402,192,101507,1,0,0:0:0:0:
329,192,101571,1,0,0:0:0:0:
256,192,101571,1,0,0:0:0:0:
109,192,101635,1,0,0:0:0:0:
182,192,101635,1,0,0:0:0:0:
256,192,101700,1,0,0:0:0:0:
329,192,101700,1,0,0:0:0:0:
475,192,101700,1,0,0:0:0:0:
36,192,101763,1,0,0:0:0:0:
109,192,101763,1,0,0:0:0:0:
182,192,101827,1,0,0:0:0:0:
256,192,101827,1,0,0:0:0:0:
329,192,101892,1,0,0:0:0:0:
402,192,101892,1,0,0:0:0:0:
182,192,101955,1,0,0:0:0:0:
109,192,101955,1,0,0:0:0:0:
36,192,101955,1,0,0:0:0:0:
475,192,102020,1,0,0:0:0:0:
402,192,102020,1,0,0:0:0:0:
329,192,102084,1,0,0:0:0:0:
256,192,102084,1,0,0:0:0:0:
182,192,102147,1,0,0:0:0:0:
109,192,102147,1,0,0:0:0:0:
36,192,102212,1,0,0:0:0:0:
256,192,102212,1,0,0:0:0:0:
329,192,102212,1,0,0:0:0:0:
402,192,102276,1,0,0:0:0:0:
475,192,102276,1,0,0:0:0:0:
182,192,102341,1,0,0:0:0:0:
109,192,102341,1,0,0:0:0:0:
256,192,102404,1,0,0:0:0:0:
329,192,102404,1,0,0:0:0:0:
402,192,102468,1,0,0:0:0:0:
475,192,102468,1,0,0:0:0:0:
36,192,102468,1,0,0:0:0:0:
109,192,102533,1,0,0:0:0:0:
182,192,102533,1,0,0:0:0:0:
256,192,102596,1,0,0:0:0:0:
329,192,102596,1,0,0:0:0:0:
402,192,102661,1,0,0:0:0:0:
475,192,102661,1,0,0:0:0:0:
256,192,102725,1,0,0:0:0:0:
182,192,102725,1,0,0:0:0:0:
109,192,102725,1,0,0:0:0:0:
36,192,102725,1,0,0:0:0:0:
329,192,102788,1,0,0:0:0:0:
475,192,102788,1,0,0:0:0:0:
256,192,102853,1,0,0:0:0:0:
109,192,102853,1,0,0:0:0:0:
36,192,102853,1,0,0:0:0:0:
182,192,102917,1,0,0:0:0:0:
329,192,102917,1,0,0:0:0:0:
402,192,102981,1,0,0:0:0:0:
475,192,102981,1,0,0:0:0:0:
109,192,102981,1,0,0:0:0:0:
36,192,102981,1,0,0:0:0:0:
256,192,103045,1,0,0:0:0:0:
329,192,103045,1,0,0:0:0:0:
475,192,103110,1,0,0:0:0:0:
182,192,103110,1,0,0:0:0:0:
36,192,103110,1,0,0:0:0:0:
109,192,103174,1,0,0:0:0:0:
256,192,103174,1,0,0:0:0:0:
329,192,103237,1,0,0:0:0:0:
402,192,103237,1,0,0:0:0:0:
475,192,103237,1,0,0:0:0:0:
182,192,103237,1,0,0:0:0:0:
36,192,103302,1,0,0:0:0:0:
109,192,103302,1,0,0:0:0:0:
182,192,103366,1,0,0:0:0:0:
329,192,103366,1,0,0:0:0:0:
256,192,103366,1,0,0:0:0:0:
402,192,103430,1,0,0:0:0:0:
475,192,103430,1,0,0:0:0:0:
109,192,103494,1,0,0:0:0:0:
36,192,103494,1,0,0:0:0:0:
329,192,103494,1,0,0:0:0:0:
256,192,103494,1,0,0:0:0:0:
402,192,103558,1,0,0:0:0:0:
475,192,103558,1,0,0:0:0:0:
182,192,103622,1,0,0:0:0:0:
109,192,103622,1,0,0:0:0:0:
329,192,103622,1,0,0:0:0:0:
36,192,103686,1,0,0:0:0:0:
256,192,103686,1,0,0:0:0:0:
329,192,103751,1,0,0:0:0:0:
402,192,103751,1,0,0:0:0:0:
475,192,103751,1,0,0:0:0:0:
182,192,103751,1,0,0:0:0:0:
109,192,103814,1,0,0:0:0:0:
36,192,103814,1,0,0:0:0:0:
182,192,103878,1,0,0:0:0:0:
329,192,103878,1,0,0:0:0:0:
402,192,103878,1,0,0:0:0:0:
475,192,103943,1,0,0:0:0:0:
256,192,103943,1,0,0:0:0:0:
109,192,104007,1,0,0:0:0:0:
182,192,104007,1,0,0:0:0:0:
36,192,104007,1,0,0:0:0:0:
329,192,104007,1,0,0:0:0:0:
402,192,104071,1,0,0:0:0:0:
475,192,104071,1,0,0:0:0:0:
109,192,104135,1,0,0:0:0:0:
36,192,104135,1,0,0:0:0:0:
256,192,104135,1,0,0:0:0:0:
329,192,104200,1,0,0:0:0:0:
182,192,104200,1,0,0:0:0:0:
475,192,104263,1,0,0:0:0:0:
36,192,104263,1,0,0:0:0:0:
109,192,104263,1,0,0:0:0:0:
402,192,104263,1,0,0:0:0:0:
256,192,104327,1,0,0:0:0:0:
329,192,104327,1,0,0:0:0:0:
402,192,104392,1,0,0:0:0:0:
182,192,104392,1,0,0:0:0:0:
475,192,104392,1,0,0:0:0:0:
109,192,104455,1,0,0:0:0:0:
36,192,104455,1,0,0:0:0:0:
256,192,104520,1,0,0:0:0:0:
329,192,104520,1,0,0:0:0:0:
402,192,104520,1,0,0:0:0:0:
475,192,104520,1,0,0:0:0:0:
182,192,104584,1,0,0:0:0:0:
36,192,104584,1,0,0:0:0:0:
109,192,104647,1,0,0:0:0:0:
256,192,104647,1,0,0:0:0:0:
329,192,104647,1,0,0:0:0:0:
402,192,104712,1,0,0:0:0:0:
475,192,104712,1,0,0:0:0:0:
182,192,104776,1,0,0:0:0:0:
36,192,104776,1,0,0:0:0:0:
109,192,104776,1,0,0:0:0:0:
256,192,104776,1,0,0:0:0:0:
329,192,104841,1,0,0:0:0:0:
475,192,104841,1,0,0:0:0:0:
402,192,104904,1,0,0:0:0:0:
36,192,104904,1,0,0:0:0:0:
109,192,104904,1,0,0:0:0:0:
182,192,104968,1,0,0:0:0:0:
256,192,104968,1,0,0:0:0:0:
329,192,105033,1,0,0:0:0:0:
402,192,105033,1,0,0:0:0:0:
475,192,105033,1,0,0:0:0:0:
36,192,105033,1,0,0:0:0:0:
109,192,105096,1,0,0:0:0:0:
182,192,105096,1,0,0:0:0:0:
256,192,105161,1,0,0:0:0:0:
402,192,105161,1,0,0:0:0:0:
475,192,105161,1,0,0:0:0:0:
329,192,105225,1,0,0:0:0:0:
36,192,105225,1,0,0:0:0:0:
182,192,105288,1,0,0:0:0:0:
109,192,105288,1,0,0:0:0:0:
475,192,105288,1,0,0:0:0:0:
256,192,105288,1,0,0:0:0:0:
329,192,105353,1,0,0:0:0:0:
402,192,105353,1,0,0:0:0:0:
256,192,105417,1,0,0:0:0:0:
475,192,105417,1,0,0:0:0:0:
36,192,105417,1,0,0:0:0:0:
109,192,105481,1,0,0:0:0:0:
182,192,105481,1,0,0:0:0:0:
475,192,105545,1,0,0:0:0:0:
329,192,105545,1,0,0:0:0:0:
402,192,105545,1,0,0:0:0:0:
36,192,105545,1,0,0:0:0:0:
256,192,105610,1,0,0:0:0:0:
182,192,105610,1,0,0:0:0:0:
329,192,105674,1,0,0:0:0:0:
36,192,105674,1,0,0:0:0:0:
402,192,105674,1,0,0:0:0:0:
475,192,105737,1,0,0:0:0:0:
182,192,105737,1,0,0:0:0:0:
36,192,105802,1,0,0:0:0:0:
109,192,105802,1,0,0:0:0:0:
329,192,105802,1,0,0:0:0:0:
402,192,105802,1,0,0:0:0:0:
256,192,105866,1,0,0:0:0:0:
475,192,105866,1,0,0:0:0:0:
182,192,105930,1,0,0:0:0:0:
36,192,105930,1,0,0:0:0:0:
109,192,105930,1,0,0:0:0:0:
256,192,105994,1,0,0:0:0:0:
329,192,105994,1,0,0:0:0:0:
402,192,106058,1,0,0:0:0:0:
475,192,106058,1,0,0:0:0:0:
109,192,106058,1,0,0:0:0:0:
36,192,106058,1,0,0:0:0:0:
182,192,106122,1,0,0:0:0:0:
329,192,106122,1,0,0:0:0:0:
256,192,106186,1,0,0:0:0:0:
402,192,106186,1,0,0:0:0:0:
475,192,106186,1,0,0:0:0:0:
109,192,106251,1,0,0:0:0:0:
36,192,106251,1,0,0:0:0:0:
182,192,106314,1,0,0:0:0:0:
329,192,106314,1,0,0:0:0:0:
402,192,106314,1,0,0:0:0:0:
475,192,106314,1,0,0:0:0:0:
109,192,106378,1,0,0:0:0:0:
36,192,106378,1,0,0:0:0:0:
182,192,106443,1,0,0:0:0:0:
475,192,106443,1,0,0:0:0:0:
402,192,106443,1,0,0:0:0:0:
329,192,106507,1,0,0:0:0:0:
256,192,106507,1,0,0:0:0:0:
109,192,106571,1,0,0:0:0:0:
36,192,106571,1,0,0:0:0:0:
182,192,106571,1,0,0:0:0:0:
402,192,106571,1,0,0:0:0:0:
475,192,106635,1,0,0:0:0:0:
329,192,106635,1,0,0:0:0:0:
36,192,106700,1,0,0:0:0:0:
109,192,106700,1,0,0:0:0:0:
256,192,106700,1,0,0:0:0:0:
329,192,106763,1,0,0:0:0:0:
402,192,106763,1,0,0:0:0:0:
182,192,106827,1,0,0:0:0:0:
256,192,106827,1,0,0:0:0:0:
475,192,106827,1,0,0:0:0:0:
109,192,106827,1,0,0:0:0:0:
36,192,106892,1,0,0:0:0:0:
329,192,106892,1,0,0:0:0:0:
109,192,106955,1,0,0:0:0:0:
475,192,106955,1,0,0:0:0:0:
402,192,106955,1,0,0:0:0:0:
182,192,107020,1,0,0:0:0:0:
256,192,107020,1,0,0:0:0:0:
36,192,107084,1,0,0:0:0:0:
329,192,107084,1,0,0:0:0:0:
109,192,107084,1,0,0:0:0:0:
402,192,107084,1,0,0:0:0:0:
475,192,107147,1,0,0:0:0:0:
182,192,107147,1,0,0:0:0:0:
256,192,107212,1,0,0:0:0:0:
402,192,107212,1,0,0:0:0:0:
329,192,107212,1,0,0:0:0:0:
109,192,107276,1,0,0:0:0:0:
36,192,107276,1,0,0:0:0:0:
256,192,107341,1,0,0:0:0:0:
329,192,107341,1,0,0:0:0:0:
402,192,107341,1,0,0:0:0:0:
475,192,107341,1,0,0:0:0:0:
109,192,107404,1,0,0:0:0:0:
182,192,107404,1,0,0:0:0:0:
329,192,107468,1,0,0:0:0:0:
475,192,107468,1,0,0:0:0:0:
36,192,107468,1,0,0:0:0:0:
256,192,107533,1,0,0:0:0:0:
402,192,107533,1,0,0:0:0:0:
475,192,107596,1,0,0:0:0:0:
109,192,107596,1,0,0:0:0:0:
36,192,107596,1,0,0:0:0:0:
182,192,107596,1,0,0:0:0:0:
256,192,107661,1,0,0:0:0:0:
329,192,107661,1,0,0:0:0:0:
402,192,107725,1,0,0:0:0:0:
475,192,107725,1,0,0:0:0:0:
36,192,107725,1,0,0:0:0:0:
109,192,107788,1,0,0:0:0:0:
182,192,107788,1,0,0:0:0:0:
256,192,107853,1,0,0:0:0:0:
329,192,107853,1,0,0:0:0:0:
36,192,107853,1,0,0:0:0:0:
402,192,107853,1,0,0:0:0:0:
475,192,107917,1,0,0:0:0:0:
109,192,107917,1,0,0:0:0:0:
182,192,107981,1,0,0:0:0:0:
256,192,107981,1,0,0:0:0:0:
402,192,107981,1,0,0:0:0:0:
329,192,108045,1,0,0:0:0:0:
475,192,108045,1,0,0:0:0:0:
182,192,108110,1,0,0:0:0:0:
109,192,108110,1,0,0:0:0:0:
36,192,108110,1,0,0:0:0:0:
256,192,108110,1,0,0:0:0:0:
329,192,108174,1,0,0:0:0:0:
475,192,108174,1,0,0:0:0:0:
256,192,108237,1,0,0:0:0:0:
109,192,108237,1,0,0:0:0:0:
36,192,108237,1,0,0:0:0:0:
182,192,108302,1,0,0:0:0:0:
402,192,108302,1,0,0:0:0:0:
329,192,108366,1,0,0:0:0:0:
256,192,108366,1,0,0:0:0:0:
109,192,108366,1,0,0:0:0:0:
36,192,108366,1,0,0:0:0:0:
402,192,108430,1,0,0:0:0:0:
475,192,108430,1,0,0:0:0:0:
182,192,108494,1,0,0:0:0:0:
329,192,108494,1,0,0:0:0:0:
256,192,108494,1,0,0:0:0:0:
109,192,108558,1,0,0:0:0:0:
36,192,108558,1,0,0:0:0:0:
329,192,108622,1,0,0:0:0:0:
182,192,108622,1,0,0:0:0:0:
402,192,108622,1,0,0:0:0:0:
475,192,108622,1,0,0:0:0:0:
109,192,108686,1,0,0:0:0:0:
256,192,108686,1,0,0:0:0:0:
329,192,108751,1,0,0:0:0:0:
402,192,108751,1,0,0:0:0:0:
36,192,108751,1,0,0:0:0:0:
475,192,108814,1,0,0:0:0:0:
256,192,108814,1,0,0:0:0:0:
182,192,108878,1,0,0:0:0:0:
109,192,108878,1,0,0:0:0:0:
36,192,108878,1,0,0:0:0:0:
402,192,108878,1,0,0:0:0:0:
329,192,108943,1,0,0:0:0:0:
475,192,108943,1,0,0:0:0:0:
256,192,109007,1,0,0:0:0:0:
36,192,109007,1,0,0:0:0:0:
109,192,109007,1,0,0:0:0:0:
182,192,109071,1,0,0:0:0:0:
329,192,109071,1,0,0:0:0:0:
109,192,109135,1,0,0:0:0:0:
36,192,109135,1,0,0:0:0:0:
402,192,109135,1,0,0:0:0:0:
475,192,109135,1,0,0:0:0:0:
256,192,109200,1,0,0:0:0:0:
329,192,109200,1,0,0:0:0:0:
182,192,109263,1,0,0:0:0:0:
475,192,109263,1,0,0:0:0:0:
402,192,109263,1,0,0:0:0:0:
109,192,109327,1,0,0:0:0:0:
36,192,109327,1,0,0:0:0:0:
256,192,109392,1,0,0:0:0:0:
329,192,109392,1,0,0:0:0:0:
402,192,109392,1,0,0:0:0:0:
475,192,109392,1,0,0:0:0:0:
109,192,109455,1,0,0:0:0:0:
36,192,109455,1,0,0:0:0:0:
329,192,109520,1,0,0:0:0:0:
182,192,109520,1,0,0:0:0:0:
402,192,109520,1,0,0:0:0:0:
256,192,109584,1,0,0:0:0:0:
36,192,109584,1,0,0:0:0:0:
109,192,109647,1,0,0:0:0:0:
182,192,109647,1,0,0:0:0:0:
402,192,109647,1,0,0:0:0:0:
475,192,109647,1,0,0:0:0:0:
256,192,109712,1,0,0:0:0:0:
329,192,109712,1,0,0:0:0:0:
36,192,109776,1,0,0:0:0:0:
109,192,109776,1,0,0:0:0:0:
402,192,109776,1,0,0:0:0:0:
475,192,109841,1,0,0:0:0:0:
329,192,109841,1,0,0:0:0:0:
256,192,109904,1,0,0:0:0:0:
182,192,109904,1,0,0:0:0:0:
109,192,109904,1,0,0:0:0:0:
36,192,109904,1,0,0:0:0:0:
329,192,109968,1,0,0:0:0:0:
402,192,109968,1,0,0:0:0:0:
475,192,110033,1,0,0:0:0:0:
182,192,110033,1,0,0:0:0:0:
36,192,110033,1,0,0:0:0:0:
256,192,110096,1,0,0:0:0:0:
329,192,110096,1,0,0:0:0:0:
402,192,110161,1,0,0:0:0:0:
475,192,110161,1,0,0:0:0:0:
109,192,110161,1,0,0:0:0:0:
36,192,110161,1,0,0:0:0:0:
182,192,110225,1,0,0:0:0:0:
329,192,110225,1,0,0:0:0:0:
256,192,110288,1,0,0:0:0:0:
402,192,110288,1,0,0:0:0:0:
475,192,110288,1,0,0:0:0:0:
182,192,110353,1,0,0:0:0:0:
36,192,110353,1,0,0:0:0:0:
109,192,110417,1,0,0:0:0:0:
256,192,110417,1,0,0:0:0:0:
329,192,110417,1,0,0:0:0:0:
402,192,110417,1,0,0:0:0:0:
475,192,110481,1,0,0:0:0:0:
182,192,110481,1,0,0:0:0:0:
36,192,110545,1,0,0:0:0:0:
109,192,110545,1,0,0:0:0:0:
256,192,110545,1,0,0:0:0:0:
329,192,110610,1,0,0:0:0:0:
402,192,110610,1,0,0:0:0:0:
182,192,110674,1,0,0:0:0:0:
109,192,110674,1,0,0:0:0:0:
36,192,110674,1,0,0:0:0:0:
475,192,110674,1,0,0:0:0:0:
256,192,110737,1,0,0:0:0:0:
329,192,110737,1,0,0:0:0:0:
402,192,110802,1,0,0:0:0:0:
475,192,110802,1,0,0:0:0:0:
36,192,110802,1,0,0:0:0:0:
109,192,110866,1,0,0:0:0:0:
182,192,110866,1,0,0:0:0:0:
256,192,110930,1,0,0:0:0:0:
329,192,110930,1,0,0:0:0:0:
402,192,110930,1,0,0:0:0:0:
36,192,110930,1,0,0:0:0:0:
475,192,110994,1,0,0:0:0:0:
109,192,110994,1,0,0:0:0:0:
182,192,111058,1,0,0:0:0:0:
402,192,111058,1,0,0:0:0:0:
329,192,111058,1,0,0:0:0:0:
256,192,111122,1,0,0:0:0:0:
36,192,111122,1,0,0:0:0:0:
109,192,111186,1,0,0:0:0:0:
182,192,111186,1,0,0:0:0:0:
475,192,111186,1,0,0:0:0:0:
402,192,111186,1,0,0:0:0:0:
329,192,111251,1,0,0:0:0:0:
36,192,111251,1,0,0:0:0:0:
256,192,111314,1,0,0:0:0:0:
402,192,111314,1,0,0:0:0:0:
475,192,111314,1,0,0:0:0:0:
182,192,111378,1,0,0:0:0:0:
36,192,111378,1,0,0:0:0:0:
109,192,111443,1,0,0:0:0:0:
256,192,111443,1,0,0:0:0:0:
329,192,111443,1,0,0:0:0:0:
402,192,111443,1,0,0:0:0:0:
475,192,111507,1,0,0:0:0:0:
182,192,111507,1,0,0:0:0:0:
36,192,111571,1,0,0:0:0:0:
109,192,111571,1,0,0:0:0:0:
329,192,111571,1,0,0:0:0:0:
475,192,111635,1,0,0:0:0:0:
402,192,111635,1,0,0:0:0:0:
256,192,111700,1,0,0:0:0:0:
182,192,111700,1,0,0:0:0:0:
36,192,111700,1,0,0:0:0:0:
109,192,111700,1,0,0:0:0:0:
329,192,111763,1,0,0:0:0:0:
402,192,111763,1,0,0:0:0:0:
36,192,111827,1,0,0:0:0:0:
109,192,111827,1,0,0:0:0:0:
256,192,111827,1,0,0:0:0:0:
329,192,111892,1,0,0:0:0:0:
182,192,111892,1,0,0:0:0:0:
402,192,111955,1,0,0:0:0:0:
475,192,111955,1,0,0:0:0:0:
109,192,111955,1,0,0:0:0:0:
36,192,111955,1,0,0:0:0:0:
256,192,112020,1,0,0:0:0:0:
329,192,112020,1,0,0:0:0:0:
182,192,112084,1,0,0:0:0:0:
402,192,112084,1,0,0:0:0:0:
475,192,112084,1,0,0:0:0:0:
109,192,112147,1,0,0:0:0:0:
36,192,112147,1,0,0:0:0:0:
182,192,112212,1,0,0:0:0:0:
256,192,112212,1,0,0:0:0:0:
329,192,112212,1,0,0:0:0:0:
402,192,112212,1,0,0:0:0:0:
475,192,112276,1,0,0:0:0:0:
36,192,112276,1,0,0:0:0:0:
109,192,112341,1,0,0:0:0:0:
182,192,112341,1,0,0:0:0:0:
256,192,112341,1,0,0:0:0:0:
329,192,112404,1,0,0:0:0:0:
475,192,112404,1,0,0:0:0:0:
402,192,112468,1,0,0:0:0:0:
182,192,112468,1,0,0:0:0:0:
109,192,112468,1,0,0:0:0:0:
36,192,112468,1,0,0:0:0:0:
256,192,112533,1,0,0:0:0:0:
329,192,112533,1,0,0:0:0:0:
475,192,112596,1,0,0:0:0:0:
109,192,112596,1,0,0:0:0:0:
36,192,112596,1,0,0:0:0:0:
402,192,112661,1,0,0:0:0:0:
182,192,112661,1,0,0:0:0:0:
109,192,112725,1,0,0:0:0:0:
36,192,112725,1,0,0:0:0:0:
329,192,112725,1,0,0:0:0:0:
256,192,112725,1,0,0:0:0:0:
402,192,112788,1,0,0:0:0:0:
475,192,112788,1,0,0:0:0:0:
182,192,112853,1,0,0:0:0:0:
36,192,112853,1,0,0:0:0:0:
256,192,112853,1,0,0:0:0:0:
329,192,112917,1,0,0:0:0:0:
475,192,112917,1,0,0:0:0:0:
182,192,112981,1,0,0:0:0:0:
109,192,112981,1,0,0:0:0:0:
36,192,112981,1,0,0:0:0:0:
256,192,112981,1,0,0:0:0:0:
402,192,113045,1,0,0:0:0:0:
475,192,113045,1,0,0:0:0:0:
109,192,113110,1,0,0:0:0:0:
36,192,113110,1,0,0:0:0:0:
329,192,113110,1,0,0:0:0:0:
256,192,113174,1,0,0:0:0:0:
182,192,113174,1,0,0:0:0:0:
109,192,113237,1,0,0:0:0:0:
36,192,113237,1,0,0:0:0:0:
402,192,113237,1,0,0:0:0:0:
475,192,113237,1,0,0:0:0:0:
329,192,113302,1,0,0:0:0:0:
182,192,113302,1,0,0:0:0:0:
256,192,113366,1,0,0:0:0:0:
109,192,113366,1,0,0:0:0:0:
36,192,113366,1,0,0:0:0:0:
329,192,113430,1,0,0:0:0:0:
475,192,113430,1,0,0:0:0:0:
402,192,113494,1,0,0:0:0:0:
182,192,113494,1,0,0:0:0:0:
109,192,113494,1,0,0:0:0:0:
36,192,113494,1,0,0:0:0:0:
256,192,113558,1,0,0:0:0:0:
329,192,113558,1,0,0:0:0:0:
109,192,113622,1,0,0:0:0:0:
475,192,113622,1,0,0:0:0:0:
36,192,113622,1,0,0:0:0:0:
329,192,113686,1,0,0:0:0:0:
182,192,113686,1,0,0:0:0:0:
109,192,113751,1,0,0:0:0:0:
36,192,113751,1,0,0:0:0:0:
475,192,113751,1,0,0:0:0:0:
402,192,113751,1,0,0:0:0:0:
256,192,113814,1,0,0:0:0:0:
329,192,113814,1,0,0:0:0:0:
402,192,113878,1,0,0:0:0:0:
182,192,113878,1,0,0:0:0:0:
109,192,113878,1,0,0:0:0:0:
36,192,113943,1,0,0:0:0:0:
475,192,113943,1,0,0:0:0:0:
256,192,114007,1,0,0:0:0:0:
329,192,114007,1,0,0:0:0:0:
402,192,114007,1,0,0:0:0:0:
109,192,114007,1,0,0:0:0:0:
36,192,114071,1,0,0:0:0:0:
182,192,114071,1,0,0:0:0:0:
256,192,114135,1,0,0:0:0:0:
475,192,114135,1,0,0:0:0:0:
329,192,114200,1,0,0:0:0:0:
402,192,114200,1,0,0:0:0:0:
182,192,114263,1,0,0:0:0:0:
36,192,114263,1,0,0:0:0:0:
109,192,114263,1,0,0:0:0:0:
256,192,114263,1,0,0:0:0:0:
329,192,114327,1,0,0:0:0:0:
475,192,114327,1,0,0:0:0:0:
402,192,114392,1,0,0:0:0:0:
182,192,114392,1,0,0:0:0:0:
36,192,114392,1,0,0:0:0:0:
109,192,114455,1,0,0:0:0:0:
256,192,114455,1,0,0:0:0:0:
329,192,114520,1,0,0:0:0:0:
402,192,114520,1,0,0:0:0:0:
475,192,114520,1,0,0:0:0:0:
182,192,114520,1,0,0:0:0:0:
36,192,114584,1,0,0:0:0:0:
109,192,114584,1,0,0:0:0:0:
182,192,114647,1,0,0:0:0:0:
329,192,114647,1,0,0:0:0:0:
402,192,114647,1,0,0:0:0:0:
475,192,114712,1,0,0:0:0:0:
256,192,114712,1,0,0:0:0:0:
182,192,114776,1,0,0:0:0:0:
109,192,114776,1,0,0:0:0:0:
36,192,114776,1,0,0:0:0:0:
329,192,114776,1,0,0:0:0:0:
402,192,114841,1,0,0:0:0:0:
475,192,114841,1,0,0:0:0:0:
256,192,114904,1,0,0:0:0:0:
109,192,114904,1,0,0:0:0:0:
36,192,114904,1,0,0:0:0:0:
329,192,114968,1,0,0:0:0:0:
182,192,114968,1,0,0:0:0:0:
402,192,115033,1,0,0:0:0:0:
109,192,115033,1,0,0:0:0:0:
36,192,115033,1,0,0:0:0:0:
475,192,115033,1,0,0:0:0:0:
256,192,115096,1,0,0:0:0:0:
329,192,115096,1,0,0:0:0:0:
36,192,115161,1,0,0:0:0:0:
402,192,115161,1,0,0:0:0:0:
109,192,115161,1,0,0:0:0:0:
256,192,115225,1,0,0:0:0:0:
182,192,115225,1,0,0:0:0:0:
329,192,115288,1,0,0:0:0:0:
402,192,115288,1,0,0:0:0:0:
475,192,115288,1,0,0:0:0:0:
36,192,115288,1,0,0:0:0:0:
109,192,115353,1,0,0:0:0:0:
256,192,115353,1,0,0:0:0:0:
329,192,115417,1,0,0:0:0:0:
182,192,115417,1,0,0:0:0:0:
402,192,115417,1,0,0:0:0:0:
36,192,115481,1,0,0:0:0:0:
109,192,115481,1,0,0:0:0:0:
256,192,115545,1,0,0:0:0:0:
182,192,115545,1,0,0:0:0:0:
402,192,115545,1,0,0:0:0:0:
329,192,115545,1,0,0:0:0:0:
475,192,115610,1,0,0:0:0:0:
109,192,115610,1,0,0:0:0:0:
36,192,115674,1,0,0:0:0:0:
182,192,115674,1,0,0:0:0:0:
329,192,115674,1,0,0:0:0:0:
256,192,115737,1,0,0:0:0:0:
402,192,115737,1,0,0:0:0:0:
329,192,115802,1,0,0:0:0:0:
475,192,115802,1,0,0:0:0:0:
109,192,115802,1,0,0:0:0:0:
36,192,115802,1,0,0:0:0:0:
182,192,115866,1,0,0:0:0:0:
256,192,115866,1,0,0:0:0:0:
329,192,115930,1,0,0:0:0:0:
109,192,115930,1,0,0:0:0:0:
402,192,115930,1,0,0:0:0:0:
182,192,115994,1,0,0:0:0:0:
36,192,115994,1,0,0:0:0:0:
256,192,116058,1,0,0:0:0:0:
329,192,116058,1,0,0:0:0:0:
475,192,116058,1,0,0:0:0:0:
402,192,116058,1,0,0:0:0:0:
109,192,116122,1,0,0:0:0:0:
36,192,116122,1,0,0:0:0:0:
182,192,116186,1,0,0:0:0:0:
475,192,116186,1,0,0:0:0:0:
329,192,116186,1,0,0:0:0:0:
256,192,116251,1,0,0:0:0:0:
402,192,116251,1,0,0:0:0:0:
329,192,116314,1,0,0:0:0:0:
182,192,116314,1,0,0:0:0:0:
109,192,116314,1,0,0:0:0:0:
36,192,116314,1,0,0:0:0:0:
256,192,116378,1,0,0:0:0:0:
475,192,116378,1,0,0:0:0:0:
402,192,116443,1,0,0:0:0:0:
329,192,116443,1,0,0:0:0:0:
36,192,116443,1,0,0:0:0:0:
109,192,116507,1,0,0:0:0:0:
182,192,116507,1,0,0:0:0:0:
256,192,116571,1,0,0:0:0:0:
329,192,116571,1,0,0:0:0:0:
402,192,116571,1,0,0:0:0:0:
475,192,116571,1,0,0:0:0:0:
36,192,116635,1,0,0:0:0:0:
109,192,116635,1,0,0:0:0:0:
182,192,116700,1,0,0:0:0:0:
329,192,116700,1,0,0:0:0:0:
402,192,116700,1,0,0:0:0:0:
475,192,116763,1,0,0:0:0:0:
256,192,116763,1,0,0:0:0:0:
182,192,116827,1,0,0:0:0:0:
109,192,116827,1,0,0:0:0:0:
36,192,116827,1,0,0:0:0:0:
329,192,116827,1,0,0:0:0:0:
402,192,116892,1,0,0:0:0:0:
475,192,116892,1,0,0:0:0:0:
256,192,116955,1,0,0:0:0:0:
36,192,116955,1,0,0:0:0:0:
109,192,116955,1,0,0:0:0:0:
329,192,117020,1,0,0:0:0:0:
402,192,117020,1,0,0:0:0:0:
36,192,117084,1,0,0:0:0:0:
109,192,117084,1,0,0:0:0:0:
182,192,117084,1,0,0:0:0:0:
256,192,117084,1,0,0:0:0:0:
329,192,117126,1,0,0:0:0:0:
475,192,117170,1,0,0:0:0:0:
182,192,117180,1,0,0:0:0:0:
402,192,117212,1,0,0:0:0:0:
36,192,117212,1,0,0:0:0:0:
256,192,117212,1,0,0:0:0:0:
329,192,117244,1,0,0:0:0:0:
182,192,117255,1,0,0:0:0:0:
256,192,117297,1,0,0:0:0:0:
109,192,117297,1,0,0:0:0:0:
36,192,117341,1,0,0:0:0:0:
109,192,117596,1,0,0:0:0:0:
36,192,117596,1,0,0:0:0:0:
182,192,117640,1,0,0:0:0:0:
475,192,117640,1,0,0:0:0:0:
256,192,117682,1,0,0:0:0:0:
402,192,117682,1,0,0:0:0:0:
329,192,117725,1,0,0:0:0:0:
36,192,117725,1,0,0:0:0:0:
402,192,117757,1,0,0:0:0:0:
109,192,117767,1,0,0:0:0:0:
475,192,117788,1,0,0:0:0:0:
182,192,117811,1,0,0:0:0:0:
329,192,117821,1,0,0:0:0:0:
256,192,117853,1,0,0:0:0:0:
402,192,117853,1,0,0:0:0:0:
109,192,118110,1,0,0:0:0:0:
182,192,118110,1,0,0:0:0:0:
36,192,118110,1,0,0:0:0:0:
475,192,118152,1,0,0:0:0:0:
256,192,118152,1,0,0:0:0:0:
402,192,118195,1,0,0:0:0:0:
182,192,118195,1,0,0:0:0:0:
329,192,118237,1,0,0:0:0:0:
109,192,118237,1,0,0:0:0:0:
256,192,118281,1,0,0:0:0:0:
36,192,118281,1,0,0:0:0:0:
182,192,118323,1,0,0:0:0:0:
329,192,118323,1,0,0:0:0:0:
109,192,118366,1,0,0:0:0:0:
402,192,118366,1,0,0:0:0:0:
182,192,118622,1,0,0:0:0:0:
36,192,118622,1,0,0:0:0:0:
109,192,118622,1,0,0:0:0:0:
475,192,118622,1,0,0:0:0:0:
256,192,118665,1,0,0:0:0:0:
402,192,118665,1,0,0:0:0:0:
329,192,118707,1,0,0:0:0:0:
402,192,118751,1,0,0:0:0:0:
475,192,118751,1,0,0:0:0:0:
182,192,118751,1,0,0:0:0:0:
256,192,118793,1,0,0:0:0:0:
109,192,118793,1,0,0:0:0:0:
329,192,118836,1,0,0:0:0:0:
36,192,118836,1,0,0:0:0:0:
402,192,118878,1,0,0:0:0:0:
182,192,118878,1,0,0:0:0:0:
402,192,119007,1,0,0:0:0:0:
475,192,119007,1,0,0:0:0:0:
109,192,119135,1,0,0:0:0:0:
182,192,119135,1,0,0:0:0:0:
36,192,119135,1,0,0:0:0:0:
256,192,119135,1,0,0:0:0:0:
329,192,119200,1,0,0:0:0:0:
475,192,119200,1,0,0:0:0:0:
256,192,119263,1,0,0:0:0:0:
109,192,119263,1,0,0:0:0:0:
36,192,119263,1,0,0:0:0:0:
182,192,119327,1,0,0:0:0:0:
329,192,119327,1,0,0:0:0:0:
109,192,119392,1,0,0:0:0:0:
36,192,119392,1,0,0:0:0:0:
475,192,119392,1,0,0:0:0:0:
402,192,119392,1,0,0:0:0:0:
256,192,119455,1,0,0:0:0:0:
182,192,119455,1,0,0:0:0:0:
329,192,119520,1,0,0:0:0:0:
475,192,119520,1,0,0:0:0:0:
402,192,119520,1,0,0:0:0:0:
109,192,119584,1,0,0:0:0:0:
36,192,119584,1,0,0:0:0:0:
182,192,119647,1,0,0:0:0:0:
256,192,119647,1,0,0:0:0:0:
329,192,119647,1,0,0:0:0:0:
475,192,119647,1,0,0:0:0:0:
402,192,119712,1,0,0:0:0:0:
36,192,119712,1,0,0:0:0:0:
109,192,119776,1,0,0:0:0:0:
182,192,119776,1,0,0:0:0:0:
329,192,119776,1,0,0:0:0:0:
402,192,119841,1,0,0:0:0:0:
475,192,119841,1,0,0:0:0:0:
256,192,119904,1,0,0:0:0:0:
182,192,119904,1,0,0:0:0:0:
109,192,119904,1,0,0:0:0:0:
36,192,119904,1,0,0:0:0:0:
329,192,119968,1,0,0:0:0:0:
475,192,119968,1,0,0:0:0:0:
36,192,120033,1,0,0:0:0:0:
182,192,120033,1,0,0:0:0:0:
256,192,120033,1,0,0:0:0:0:
329,192,120096,1,0,0:0:0:0:
402,192,120096,1,0,0:0:0:0:
182,192,120161,1,0,0:0:0:0:
109,192,120161,1,0,0:0:0:0:
36,192,120161,1,0,0:0:0:0:
475,192,120161,1,0,0:0:0:0:
256,192,120225,1,0,0:0:0:0:
402,192,120225,1,0,0:0:0:0:
329,192,120288,1,0,0:0:0:0:
182,192,120288,1,0,0:0:0:0:
36,192,120288,1,0,0:0:0:0:
109,192,120353,1,0,0:0:0:0:
256,192,120353,1,0,0:0:0:0:
329,192,120417,1,0,0:0:0:0:
402,192,120417,1,0,0:0:0:0:
475,192,120417,1,0,0:0:0:0:
182,192,120417,1,0,0:0:0:0:
109,192,120481,1,0,0:0:0:0:
36,192,120481,1,0,0:0:0:0:
182,192,120545,1,0,0:0:0:0:
329,192,120545,1,0,0:0:0:0:
475,192,120545,1,0,0:0:0:0:
402,192,120610,1,0,0:0:0:0:
256,192,120610,1,0,0:0:0:0:
182,192,120674,1,0,0:0:0:0:
109,192,120674,1,0,0:0:0:0:
36,192,120674,1,0,0:0:0:0:
329,192,120674,1,0,0:0:0:0:
402,192,120737,1,0,0:0:0:0:
475,192,120737,1,0,0:0:0:0:
329,192,120802,1,0,0:0:0:0:
36,192,120802,1,0,0:0:0:0:
109,192,120802,1,0,0:0:0:0:
256,192,120866,1,0,0:0:0:0:
182,192,120866,1,0,0:0:0:0:
402,192,120930,1,0,0:0:0:0:
109,192,120930,1,0,0:0:0:0:
475,192,120930,1,0,0:0:0:0:
36,192,120930,1,0,0:0:0:0:
182,192,120994,1,0,0:0:0:0:
329,192,120994,1,0,0:0:0:0:
256,192,121058,1,0,0:0:0:0:
402,192,121058,1,0,0:0:0:0:
475,192,121058,1,0,0:0:0:0:
109,192,121122,1,0,0:0:0:0:
36,192,121122,1,0,0:0:0:0:
182,192,121186,1,0,0:0:0:0:
256,192,121186,1,0,0:0:0:0:
329,192,121186,1,0,0:0:0:0:
475,192,121186,1,0,0:0:0:0:
402,192,121251,1,0,0:0:0:0:
36,192,121251,1,0,0:0:0:0:
475,192,121314,1,0,0:0:0:0:
182,192,121314,1,0,0:0:0:0:
109,192,121314,1,0,0:0:0:0:
329,192,121378,1,0,0:0:0:0:
402,192,121378,1,0,0:0:0:0:
256,192,121443,1,0,0:0:0:0:
182,192,121443,1,0,0:0:0:0:
36,192,121443,1,0,0:0:0:0:
109,192,121443,1,0,0:0:0:0:
329,192,121507,1,0,0:0:0:0:
475,192,121507,1,0,0:0:0:0:
109,192,121571,1,0,0:0:0:0:
36,192,121571,1,0,0:0:0:0:
256,192,121571,1,0,0:0:0:0:
329,192,121635,1,0,0:0:0:0:
182,192,121635,1,0,0:0:0:0:
109,192,121700,1,0,0:0:0:0:
402,192,121700,1,0,0:0:0:0:
475,192,121700,1,0,0:0:0:0:
36,192,121700,1,0,0:0:0:0:
182,192,121763,1,0,0:0:0:0:
329,192,121763,1,0,0:0:0:0:
36,192,121827,1,0,0:0:0:0:
109,192,121827,1,0,0:0:0:0:
256,192,121827,1,0,0:0:0:0:
329,192,121892,1,0,0:0:0:0:
475,192,121892,1,0,0:0:0:0:
402,192,121955,1,0,0:0:0:0:
109,192,121955,1,0,0:0:0:0:
182,192,121955,1,0,0:0:0:0:
36,192,121955,1,0,0:0:0:0:
329,192,122020,1,0,0:0:0:0:
256,192,122020,1,0,0:0:0:0:
36,192,122084,1,0,0:0:0:0:
475,192,122084,1,0,0:0:0:0:
402,192,122084,1,0,0:0:0:0:
182,192,122147,1,0,0:0:0:0:
109,192,122147,1,0,0:0:0:0:
475,192,122212,1,0,0:0:0:0:
256,192,122212,1,0,0:0:0:0:
329,192,122212,1,0,0:0:0:0:
402,192,122212,1,0,0:0:0:0:
36,192,122276,1,0,0:0:0:0:
109,192,122276,1,0,0:0:0:0:
182,192,122341,1,0,0:0:0:0:
329,192,122341,1,0,0:0:0:0:
402,192,122404,1,0,0:0:0:0:
475,192,122404,1,0,0:0:0:0:
36,192,122468,1,0,0:0:0:0:
256,192,122468,1,0,0:0:0:0:
182,192,122468,1,0,0:0:0:0:
109,192,122468,1,0,0:0:0:0:
329,192,122533,1,0,0:0:0:0:
475,192,122533,1,0,0:0:0:0:
402,192,122596,1,0,0:0:0:0:
256,192,122596,1,0,0:0:0:0:
182,192,122596,1,0,0:0:0:0:
109,192,122661,1,0,0:0:0:0:
36,192,122661,1,0,0:0:0:0:
256,192,122725,1,0,0:0:0:0:
329,192,122725,1,0,0:0:0:0:
402,192,122725,1,0,0:0:0:0:
475,192,122725,1,0,0:0:0:0:
109,192,122788,1,0,0:0:0:0:
36,192,122788,1,0,0:0:0:0:
256,192,122853,1,0,0:0:0:0:
475,192,122853,1,0,0:0:0:0:
182,192,122853,1,0,0:0:0:0:
329,192,122917,1,0,0:0:0:0:
402,192,122917,1,0,0:0:0:0:
109,192,122981,1,0,0:0:0:0:
36,192,122981,1,0,0:0:0:0:
475,192,122981,1,0,0:0:0:0:
182,192,122981,1,0,0:0:0:0:
256,192,123045,1,0,0:0:0:0:
402,192,123045,1,0,0:0:0:0:
329,192,123110,1,0,0:0:0:0:
475,192,123110,1,0,0:0:0:0:
182,192,123110,1,0,0:0:0:0:
109,192,123174,1,0,0:0:0:0:
36,192,123174,1,0,0:0:0:0:
256,192,123237,1,0,0:0:0:0:
329,192,123237,1,0,0:0:0:0:
182,192,123237,1,0,0:0:0:0:
475,192,123237,1,0,0:0:0:0:
109,192,123302,1,0,0:0:0:0:
36,192,123302,1,0,0:0:0:0:
182,192,123366,1,0,0:0:0:0:
475,192,123366,1,0,0:0:0:0:
402,192,123366,1,0,0:0:0:0:
256,192,123430,1,0,0:0:0:0:
329,192,123430,1,0,0:0:0:0:
109,192,123494,1,0,0:0:0:0:
36,192,123494,1,0,0:0:0:0:
402,192,123494,1,0,0:0:0:0:
475,192,123494,1,0,0:0:0:0:
182,192,123558,1,0,0:0:0:0:
256,192,123558,1,0,0:0:0:0:
329,192,123622,1,0,0:0:0:0:
475,192,123622,1,0,0:0:0:0:
36,192,123622,1,0,0:0:0:0:
109,192,123686,1,0,0:0:0:0:
182,192,123686,1,0,0:0:0:0:
256,192,123751,1,0,0:0:0:0:
329,192,123751,1,0,0:0:0:0:
475,192,123751,1,0,0:0:0:0:
402,192,123751,1,0,0:0:0:0:
109,192,123814,1,0,0:0:0:0:
36,192,123814,1,0,0:0:0:0:
182,192,123878,1,0,0:0:0:0:
402,192,123878,1,0,0:0:0:0:
475,192,123878,1,0,0:0:0:0:
256,192,123943,1,0,0:0:0:0:
329,192,123943,1,0,0:0:0:0:
109,192,124007,1,0,0:0:0:0:
36,192,124007,1,0,0:0:0:0:
402,192,124007,1,0,0:0:0:0:
475,192,124007,1,0,0:0:0:0:
182,192,124071,1,0,0:0:0:0:
329,192,124071,1,0,0:0:0:0:
256,192,124135,1,0,0:0:0:0:
109,192,124135,1,0,0:0:0:0:
36,192,124135,1,0,0:0:0:0:
402,192,124200,1,0,0:0:0:0:
475,192,124200,1,0,0:0:0:0:
329,192,124263,1,0,0:0:0:0:
182,192,124263,1,0,0:0:0:0:
109,192,124263,1,0,0:0:0:0:
36,192,124263,1,0,0:0:0:0:
256,192,124327,1,0,0:0:0:0:
402,192,124327,1,0,0:0:0:0:
36,192,124392,1,0,0:0:0:0:
182,192,124392,1,0,0:0:0:0:
475,192,124392,1,0,0:0:0:0:
109,192,124455,1,0,0:0:0:0:
256,192,124455,1,0,0:0:0:0:
329,192,124520,1,0,0:0:0:0:
402,192,124520,1,0,0:0:0:0:
475,192,124520,1,0,0:0:0:0:
182,192,124520,1,0,0:0:0:0:
36,192,124584,1,0,0:0:0:0:
109,192,124584,1,0,0:0:0:0:
256,192,124647,1,0,0:0:0:0:
402,192,124647,1,0,0:0:0:0:
475,192,124647,1,0,0:0:0:0:
182,192,124712,1,0,0:0:0:0:
109,192,124712,1,0,0:0:0:0:
36,192,124776,1,0,0:0:0:0:
256,192,124776,1,0,0:0:0:0:
329,192,124776,1,0,0:0:0:0:
402,192,124776,1,0,0:0:0:0:
475,192,124841,1,0,0:0:0:0:
182,192,124841,1,0,0:0:0:0:
109,192,124904,1,0,0:0:0:0:
36,192,124904,1,0,0:0:0:0:
256,192,124904,1,0,0:0:0:0:
329,192,124968,1,0,0:0:0:0:
402,192,124968,1,0,0:0:0:0:
475,192,125033,1,0,0:0:0:0:
256,192,125033,1,0,0:0:0:0:
182,192,125033,1,0,0:0:0:0:
109,192,125033,1,0,0:0:0:0:
36,192,125096,1,0,0:0:0:0:
329,192,125096,1,0,0:0:0:0:
402,192,125161,1,0,0:0:0:0:
475,192,125161,1,0,0:0:0:0:
109,192,125161,1,0,0:0:0:0:
256,192,125225,1,0,0:0:0:0:
182,192,125225,1,0,0:0:0:0:
329,192,125288,1,0,0:0:0:0:
402,192,125288,1,0,0:0:0:0:
475,192,125288,1,0,0:0:0:0:
109,192,125288,1,0,0:0:0:0:
36,192,125353,1,0,0:0:0:0:
182,192,125353,1,0,0:0:0:0:
256,192,125417,1,0,0:0:0:0:
329,192,125417,1,0,0:0:0:0:
475,192,125417,1,0,0:0:0:0:
182,192,125481,1,0,0:0:0:0:
109,192,125481,1,0,0:0:0:0:
36,192,125545,1,0,0:0:0:0:
256,192,125545,1,0,0:0:0:0:
329,192,125545,1,0,0:0:0:0:
402,192,125545,1,0,0:0:0:0:
475,192,125610,1,0,0:0:0:0:
109,192,125610,1,0,0:0:0:0:
182,192,125674,1,0,0:0:0:0:
329,192,125674,1,0,0:0:0:0:
402,192,125674,1,0,0:0:0:0:
475,192,125737,1,0,0:0:0:0:
256,192,125737,1,0,0:0:0:0:
182,192,125802,1,0,0:0:0:0:
36,192,125802,1,0,0:0:0:0:
109,192,125802,1,0,0:0:0:0:
329,192,125802,1,0,0:0:0:0:
475,192,125866,1,0,0:0:0:0:
402,192,125866,1,0,0:0:0:0:
182,192,125930,1,0,0:0:0:0:
36,192,125930,1,0,0:0:0:0:
256,192,125930,1,0,0:0:0:0:
402,192,125994,1,0,0:0:0:0:
475,192,125994,1,0,0:0:0:0:
182,192,126058,1,0,0:0:0:0:
36,192,126058,1,0,0:0:0:0:
109,192,126058,1,0,0:0:0:0:
256,192,126058,1,0,0:0:0:0:
329,192,126122,1,0,0:0:0:0:
402,192,126122,1,0,0:0:0:0:
475,192,126186,1,0,0:0:0:0:
256,192,126186,1,0,0:0:0:0:
36,192,126186,1,0,0:0:0:0:
182,192,126251,1,0,0:0:0:0:
109,192,126251,1,0,0:0:0:0:
402,192,126314,1,0,0:0:0:0:
475,192,126314,1,0,0:0:0:0:
329,192,126314,1,0,0:0:0:0:
256,192,126314,1,0,0:0:0:0:
36,192,126443,1,0,0:0:0:0:
475,192,126443,1,0,0:0:0:0:
109,192,126443,1,0,0:0:0:0:
402,192,126443,1,0,0:0:0:0:
256,192,126571,1,0,0:0:0:0:
182,192,126571,1,0,0:0:0:0:
109,192,126571,1,0,0:0:0:0:
36,192,126571,1,0,0:0:0:0:
182,192,126700,1,0,0:0:0:0:
109,192,126700,1,0,0:0:0:0:
329,192,126700,1,0,0:0:0:0:
402,192,126700,1,0,0:0:0:0:
256,192,126827,1,0,0:0:0:0:
329,192,126827,1,0,0:0:0:0:
402,192,126827,1,0,0:0:0:0:
475,192,126827,1,0,0:0:0:0:
182,192,126955,1,0,0:0:0:0:
256,192,126955,1,0,0:0:0:0:
109,192,126955,1,0,0:0:0:0:
36,192,126955,1,0,0:0:0:0:
109,192,127084,1,0,0:0:0:0:
475,192,127084,1,0,0:0:0:0:
402,192,127084,1,0,0:0:0:0:
182,192,127084,1,0,0:0:0:0:
256,192,127212,1,0,0:0:0:0:
329,192,127212,1,0,0:0:0:0:
402,192,127212,1,0,0:0:0:0:
475,192,127212,1,0,0:0:0:0:
256,192,127341,1,0,0:0:0:0:
109,192,127341,1,0,0:0:0:0:
36,192,127341,1,0,0:0:0:0:
182,192,127341,1,0,0:0:0:0:
329,192,127404,1,0,0:0:0:0:
475,192,127404,1,0,0:0:0:0:
402,192,127468,1,0,0:0:0:0:
109,192,127468,1,0,0:0:0:0:
36,192,127468,1,0,0:0:0:0:
182,192,127533,1,0,0:0:0:0:
256,192,127533,1,0,0:0:0:0:
402,192,127596,1,0,0:0:0:0:
475,192,127596,1,0,0:0:0:0:
109,192,127596,1,0,0:0:0:0:
36,192,127596,1,0,0:0:0:0:
256,192,127661,1,0,0:0:0:0:
329,192,127661,1,0,0:0:0:0:
402,192,127725,1,0,0:0:0:0:
182,192,127725,1,0,0:0:0:0:
475,192,127725,1,0,0:0:0:0:
109,192,127788,1,0,0:0:0:0:
36,192,127788,1,0,0:0:0:0:
256,192,127853,1,0,0:0:0:0:
329,192,127853,1,0,0:0:0:0:
402,192,127853,1,0,0:0:0:0:
475,192,127853,1,0,0:0:0:0:
182,192,127917,1,0,0:0:0:0:
36,192,127917,1,0,0:0:0:0:
109,192,127981,1,0,0:0:0:0:
256,192,127981,1,0,0:0:0:0:
329,192,127981,1,0,0:0:0:0:
402,192,128045,1,0,0:0:0:0:
475,192,128045,1,0,0:0:0:0:
182,192,128110,1,0,0:0:0:0:
109,192,128110,1,0,0:0:0:0:
36,192,128110,1,0,0:0:0:0:
256,192,128110,1,0,0:0:0:0:
329,192,128174,1,0,0:0:0:0:
475,192,128174,1,0,0:0:0:0:
109,192,128237,1,0,0:0:0:0:
36,192,128237,1,0,0:0:0:0:
256,192,128237,1,0,0:0:0:0:
182,192,128302,1,0,0:0:0:0:
329,192,128302,1,0,0:0:0:0:
402,192,128366,1,0,0:0:0:0:
475,192,128366,1,0,0:0:0:0:
109,192,128366,1,0,0:0:0:0:
36,192,128366,1,0,0:0:0:0:
182,192,128430,1,0,0:0:0:0:
329,192,128430,1,0,0:0:0:0:
402,192,128494,1,0,0:0:0:0:
475,192,128494,1,0,0:0:0:0:
256,192,128494,1,0,0:0:0:0:
109,192,128558,1,0,0:0:0:0:
36,192,128558,1,0,0:0:0:0:
402,192,128622,1,0,0:0:0:0:
475,192,128622,1,0,0:0:0:0:
329,192,128622,1,0,0:0:0:0:
256,192,128622,1,0,0:0:0:0:
182,192,128686,1,0,0:0:0:0:
36,192,128686,1,0,0:0:0:0:
329,192,128751,1,0,0:0:0:0:
475,192,128751,1,0,0:0:0:0:
109,192,128751,1,0,0:0:0:0:
256,192,128814,1,0,0:0:0:0:
402,192,128814,1,0,0:0:0:0:
182,192,128878,1,0,0:0:0:0:
109,192,128878,1,0,0:0:0:0:
36,192,128878,1,0,0:0:0:0:
329,192,128878,1,0,0:0:0:0:
402,192,128943,1,0,0:0:0:0:
475,192,128943,1,0,0:0:0:0:
256,192,129007,1,0,0:0:0:0:
36,192,129007,1,0,0:0:0:0:
109,192,129007,1,0,0:0:0:0:
329,192,129071,1,0,0:0:0:0:
402,192,129071,1,0,0:0:0:0:
475,192,129135,1,0,0:0:0:0:
182,192,129135,1,0,0:0:0:0:
109,192,129135,1,0,0:0:0:0:
36,192,129135,1,0,0:0:0:0:
256,192,129200,1,0,0:0:0:0:
402,192,129200,1,0,0:0:0:0:
329,192,129263,1,0,0:0:0:0:
182,192,129263,1,0,0:0:0:0:
475,192,129263,1,0,0:0:0:0:
36,192,129327,1,0,0:0:0:0:
109,192,129327,1,0,0:0:0:0:
256,192,129392,1,0,0:0:0:0:
329,192,129392,1,0,0:0:0:0:
402,192,129392,1,0,0:0:0:0:
475,192,129392,1,0,0:0:0:0:
182,192,129455,1,0,0:0:0:0:
109,192,129455,1,0,0:0:0:0:
36,192,129520,1,0,0:0:0:0:
256,192,129520,1,0,0:0:0:0:
329,192,129520,1,0,0:0:0:0:
402,192,129584,1,0,0:0:0:0:
475,192,129584,1,0,0:0:0:0:
109,192,129647,1,0,0:0:0:0:
36,192,129647,1,0,0:0:0:0:
182,192,129647,1,0,0:0:0:0:
256,192,129647,1,0,0:0:0:0:
329,192,129712,1,0,0:0:0:0:
475,192,129712,1,0,0:0:0:0:
402,192,129776,1,0,0:0:0:0:
109,192,129776,1,0,0:0:0:0:
36,192,129776,1,0,0:0:0:0:
182,192,129841,1,0,0:0:0:0:
256,192,129841,1,0,0:0:0:0:
329,192,129904,1,0,0:0:0:0:
402,192,129904,1,0,0:0:0:0:
475,192,129904,1,0,0:0:0:0:
36,192,129904,1,0,0:0:0:0:
109,192,129968,1,0,0:0:0:0:
182,192,129968,1,0,0:0:0:0:
256,192,130033,1,0,0:0:0:0:
329,192,130033,1,0,0:0:0:0:
475,192,130033,1,0,0:0:0:0:
109,192,130096,1,0,0:0:0:0:
182,192,130096,1,0,0:0:0:0:
36,192,130161,1,0,0:0:0:0:
475,192,130161,1,0,0:0:0:0:
402,192,130161,1,0,0:0:0:0:
329,192,130161,1,0,0:0:0:0:
256,192,130225,1,0,0:0:0:0:
182,192,130225,1,0,0:0:0:0:
109,192,130288,1,0,0:0:0:0:
36,192,130288,1,0,0:0:0:0:
475,192,130288,1,0,0:0:0:0:
182,192,130353,1,0,0:0:0:0:
329,192,130353,1,0,0:0:0:0:
109,192,130417,1,0,0:0:0:0:
36,192,130417,1,0,0:0:0:0:
402,192,130417,1,0,0:0:0:0:
475,192,130417,1,0,0:0:0:0:
256,192,130481,1,0,0:0:0:0:
329,192,130481,1,0,0:0:0:0:
36,192,130545,1,0,0:0:0:0:
402,192,130545,1,0,0:0:0:0:
109,192,130545,1,0,0:0:0:0:
182,192,130610,1,0,0:0:0:0:
256,192,130610,1,0,0:0:0:0:
329,192,130674,1,0,0:0:0:0:
402,192,130674,1,0,0:0:0:0:
475,192,130674,1,0,0:0:0:0:
109,192,130674,1,0,0:0:0:0:
36,192,130737,1,0,0:0:0:0:
182,192,130737,1,0,0:0:0:0:
256,192,130802,1,0,0:0:0:0:
329,192,130802,1,0,0:0:0:0:
475,192,130802,1,0,0:0:0:0:
109,192,130866,1,0,0:0:0:0:
36,192,130866,1,0,0:0:0:0:
182,192,130930,1,0,0:0:0:0:
256,192,130930,1,0,0:0:0:0:
329,192,130930,1,0,0:0:0:0:
402,192,130930,1,0,0:0:0:0:
475,192,130994,1,0,0:0:0:0:
109,192,130994,1,0,0:0:0:0:
36,192,131058,1,0,0:0:0:0:
182,192,131058,1,0,0:0:0:0:
329,192,131058,1,0,0:0:0:0:
402,192,131122,1,0,0:0:0:0:
475,192,131122,1,0,0:0:0:0:
256,192,131186,1,0,0:0:0:0:
109,192,131186,1,0,0:0:0:0:
36,192,131186,1,0,0:0:0:0:
329,192,131186,1,0,0:0:0:0:
402,192,131251,1,0,0:0:0:0:
475,192,131251,1,0,0:0:0:0:
182,192,131314,1,0,0:0:0:0:
36,192,131314,1,0,0:0:0:0:
256,192,131314,1,0,0:0:0:0:
329,192,131378,1,0,0:0:0:0:
402,192,131378,1,0,0:0:0:0:
256,192,131443,1,0,0:0:0:0:
182,192,131443,1,0,0:0:0:0:
109,192,131443,1,0,0:0:0:0:
36,192,131443,1,0,0:0:0:0:
329,192,131507,1,0,0:0:0:0:
475,192,131507,1,0,0:0:0:0:
402,192,131571,1,0,0:0:0:0:
256,192,131571,1,0,0:0:0:0:
182,192,131635,1,0,0:0:0:0:
36,192,131635,1,0,0:0:0:0:
109,192,131700,1,0,0:0:0:0:
256,192,131700,1,0,0:0:0:0:
329,192,131700,1,0,0:0:0:0:
402,192,131700,1,0,0:0:0:0:
475,192,131763,1,0,0:0:0:0:
182,192,131763,1,0,0:0:0:0:
109,192,131827,1,0,0:0:0:0:
36,192,131827,1,0,0:0:0:0:
256,192,131892,1,0,0:0:0:0:
402,192,131892,1,0,0:0:0:0:
329,192,131955,1,0,0:0:0:0:
475,192,131955,1,0,0:0:0:0:
182,192,131955,1,0,0:0:0:0:
109,192,131955,1,0,0:0:0:0:
36,192,132020,1,0,0:0:0:0:
256,192,132020,1,0,0:0:0:0:
329,192,132084,1,0,0:0:0:0:
402,192,132084,1,0,0:0:0:0:
109,192,132147,1,0,0:0:0:0:
36,192,132147,1,0,0:0:0:0:
182,192,132212,1,0,0:0:0:0:
256,192,132212,1,0,0:0:0:0:
329,192,132212,1,0,0:0:0:0:
475,192,132212,1,0,0:0:0:0:
402,192,132276,1,0,0:0:0:0:
109,192,132276,1,0,0:0:0:0:
36,192,132341,1,0,0:0:0:0:
182,192,132341,1,0,0:0:0:0:
256,192,132404,1,0,0:0:0:0:
329,192,132404,1,0,0:0:0:0:
109,192,132468,1,0,0:0:0:0:
36,192,132468,1,0,0:0:0:0:
402,192,132468,1,0,0:0:0:0:
475,192,132468,1,0,0:0:0:0:
182,192,132533,1,0,0:0:0:0:
329,192,132533,1,0,0:0:0:0:
256,192,132596,1,0,0:0:0:0:
109,192,132596,1,0,0:0:0:0:
36,192,132661,1,0,0:0:0:0:
182,192,132661,1,0,0:0:0:0:
256,192,132725,1,0,0:0:0:0:
329,192,132725,1,0,0:0:0:0:
402,192,132725,1,0,0:0:0:0:
475,192,132725,1,0,0:0:0:0:
182,192,132788,1,0,0:0:0:0:
109,192,132788,1,0,0:0:0:0:
256,192,132853,1,0,0:0:0:0:
402,192,132853,1,0,0:0:0:0:
329,192,132917,1,0,0:0:0:0:
475,192,132917,1,0,0:0:0:0:
256,192,132981,1,0,0:0:0:0:
182,192,132981,1,0,0:0:0:0:
109,192,132981,1,0,0:0:0:0:
36,192,132981,1,0,0:0:0:0:
329,192,133045,1,0,0:0:0:0:
475,192,133045,1,0,0:0:0:0:
182,192,133110,1,0,0:0:0:0:
36,192,133110,1,0,0:0:0:0:
109,192,133174,1,0,0:0:0:0:
256,192,133174,1,0,0:0:0:0:
329,192,133237,1,0,0:0:0:0:
36,192,133237,1,0,0:0:0:0:
402,192,133237,1,0,0:0:0:0:
475,192,133237,1,0,0:0:0:0:
182,192,133302,1,0,0:0:0:0:
256,192,133302,1,0,0:0:0:0:
329,192,133366,1,0,0:0:0:0:
475,192,133366,1,0,0:0:0:0:
109,192,133430,1,0,0:0:0:0:
36,192,133430,1,0,0:0:0:0:
256,192,133494,1,0,0:0:0:0:
329,192,133494,1,0,0:0:0:0:
402,192,133494,1,0,0:0:0:0:
475,192,133494,1,0,0:0:0:0:
109,192,133558,1,0,0:0:0:0:
182,192,133558,1,0,0:0:0:0:
256,192,133622,1,0,0:0:0:0:
329,192,133686,1,0,0:0:0:0:
475,192,133751,1,0,0:0:0:0:
36,192,133751,1,0,0:0:0:0:
109,192,133751,1,0,0:0:0:0:
402,192,133751,1,0,0:0:0:0:
182,192,133814,1,0,0:0:0:0:
256,192,133814,1,0,0:0:0:0:
329,192,133878,1,0,0:0:0:0:
402,192,133943,1,0,0:0:0:0:
109,192,134007,1,0,0:0:0:0:
36,192,134007,1,0,0:0:0:0:
182,192,134007,1,0,0:0:0:0:
256,192,134007,1,0,0:0:0:0:
475,192,134071,1,0,0:0:0:0:
329,192,134071,1,0,0:0:0:0:
109,192,134135,1,0,0:0:0:0:
182,192,134200,1,0,0:0:0:0:
329,192,134263,1,0,0:0:0:0:
402,192,134263,1,0,0:0:0:0:
475,192,134263,1,0,0:0:0:0:
256,192,134263,1,0,0:0:0:0:
36,192,134327,1,0,0:0:0:0:
109,192,134327,1,0,0:0:0:0:
182,192,134392,1,0,0:0:0:0:
256,192,134455,1,0,0:0:0:0:
402,192,134520,1,0,0:0:0:0:
109,192,134520,1,0,0:0:0:0:
36,192,134520,1,0,0:0:0:0:
329,192,134520,1,0,0:0:0:0:
475,192,134584,1,0,0:0:0:0:
256,192,134584,1,0,0:0:0:0:
182,192,134647,1,0,0:0:0:0:
109,192,134712,1,0,0:0:0:0:
256,192,134776,1,0,0:0:0:0:
36,192,134776,1,0,0:0:0:0:
329,192,134776,1,0,0:0:0:0:
402,192,134776,1,0,0:0:0:0:
182,192,134904,1,0,0:0:0:0:
109,192,134904,1,0,0:0:0:0:
329,192,134904,1,0,0:0:0:0:
402,192,134904,1,0,0:0:0:0:
109,192,135033,1,0,0:0:0:0:
36,192,135033,1,0,0:0:0:0:
182,192,135033,1,0,0:0:0:0:
256,192,135161,1,0,0:0:0:0:
329,192,135161,1,0,0:0:0:0:
402,192,135161,1,0,0:0:0:0:
475,192,135161,1,0,0:0:0:0:
182,192,135288,1,0,0:0:0:0:
109,192,135288,1,0,0:0:0:0:
36,192,135288,1,0,0:0:0:0:
182,192,135417,1,0,0:0:0:0:
256,192,135417,1,0,0:0:0:0:
329,192,135417,1,0,0:0:0:0:
402,192,135417,1,0,0:0:0:0:
256,192,135545,1,0,0:0:0:0:
109,192,135545,1,0,0:0:0:0:
36,192,135545,1,0,0:0:0:0:
182,192,135545,1,0,0:0:0:0:
475,192,135802,1,0,0:0:0:0:
256,192,136058,1,0,0:0:0:0:
182,192,136314,1,0,0:0:0:0:
36,192,136571,1,0,0:0:0:0:
329,192,136827,1,0,0:0:0:0:
475,192,137084,1,0,0:0:0:0:
256,192,137341,1,0,0:0:0:0:
109,192,137596,1,0,0:0:0:0:
402,192,137853,1,0,0:0:0:0:
182,192,138110,1,0,0:0:0:0:
475,192,138366,1,0,0:0:0:0:
329,192,138622,1,0,0:0:0:0:
182,192,138878,1,0,0:0:0:0:
36,192,139135,1,0,0:0:0:0:
329,192,139392,1,0,0:0:0:0:
475,192,139647,1,0,0:0:0:0:
402,192,139654,1,0,0:0:0:0:
329,192,139661,1,0,0:0:0:0:
109,192,139904,1,0,0:0:0:0:
256,192,140161,1,0,0:0:0:0:
329,192,140417,1,0,0:0:0:0:
402,192,140422,1,0,0:0:0:0:
475,192,140427,1,0,0:0:0:0:
109,192,140674,1,0,0:0:0:0:
256,192,140930,1,0,0:0:0:0:
329,192,141186,1,0,0:0:0:0:
475,192,141443,1,0,0:0:0:0:
182,192,141700,1,0,0:0:0:0:
109,192,141955,1,0,0:0:0:0:
402,192,142212,1,0,0:0:0:0:
475,192,142468,1,0,0:0:0:0:
182,192,142725,1,0,0:0:0:0:
36,192,142981,1,0,0:0:0:0:
182,192,143237,1,0,0:0:0:0:
329,192,143494,1,0,0:0:0:0:
256,192,143751,1,0,0:0:0:0:
182,192,143757,1,0,0:0:0:0:
109,192,143763,1,0,0:0:0:0:
402,192,144007,1,0,0:0:0:0:
329,192,144263,1,0,0:0:0:0:
182,192,144520,1,0,0:0:0:0:
36,192,144776,1,0,0:0:0:0:
256,192,145033,1,0,0:0:0:0:
329,192,145288,1,0,0:0:0:0:
402,192,145545,1,0,0:0:0:0:
182,192,145802,1,0,0:0:0:0:
256,192,146058,1,0,0:0:0:0:
36,192,146314,1,0,0:0:0:0:
182,192,146571,1,0,0:0:0:0:
329,192,146827,1,0,0:0:0:0:
402,192,147084,1,0,0:0:0:0:
329,192,147341,1,0,0:0:0:0:
182,192,147596,1,0,0:0:0:0:
36,192,147853,1,0,0:0:0:0:
182,192,148110,1,0,0:0:0:0:
402,192,148366,1,0,0:0:0:0:
256,192,148622,1,0,0:0:0:0:
109,192,148878,1,0,0:0:0:0:
36,192,149135,1,0,0:0:0:0:
256,192,149392,1,0,0:0:0:0:
402,192,149647,1,0,0:0:0:0:
109,192,149904,1,0,0:0:0:0:
402,192,150161,1,0,0:0:0:0:
475,192,150417,1,0,0:0:0:0:
256,192,150674,1,0,0:0:0:0:
36,192,150930,1,0,0:0:0:0:
109,192,150934,1,0,0:0:0:0:
182,192,150941,1,0,0:0:0:0:
256,192,150947,1,0,0:0:0:0:
329,192,151186,1,0,0:0:0:0:
475,192,151443,1,0,0:0:0:0:
256,192,151700,1,0,0:0:0:0:
182,192,151955,1,0,0:0:0:0:
109,192,151963,1,0,0:0:0:0:
36,192,151967,1,0,0:0:0:0:
256,192,152212,1,0,0:0:0:0:
329,192,152468,1,0,0:0:0:0:
402,192,152725,1,0,0:0:0:0:
182,192,152981,1,0,0:0:0:0:
109,192,153237,1,0,0:0:0:0:
36,192,153494,1,0,0:0:0:0:
256,192,153751,1,0,0:0:0:0:
329,192,154007,1,0,0:0:0:0:
475,192,154263,1,0,0:0:0:0:
256,192,154520,1,0,0:0:0:0:
36,192,154776,1,0,0:0:0:0:
109,192,155033,1,0,0:0:0:0:
329,192,155288,1,0,0:0:0:0:
402,192,155545,1,0,0:0:0:0:
475,192,155802,1,0,0:0:0:0:
402,192,155806,1,0,0:0:0:0:
329,192,155810,1,0,0:0:0:0:
109,192,156058,1,0,0:0:0:0:
182,192,156314,1,0,0:0:0:0:
329,192,156571,1,0,0:0:0:0:
402,192,156827,1,0,0:0:0:0:
475,192,157084,1,0,0:0:0:0:
182,192,157341,1,0,0:0:0:0:
182,192,157596,1,0,0:0:0:0:
36,192,157853,1,0,0:0:0:0:
256,192,158110,1,0,0:0:0:0:
329,192,158366,1,0,0:0:0:0:
402,192,158622,1,0,0:0:0:0:
475,192,158878,1,0,0:0:0:0:
182,192,159135,1,0,0:0:0:0:
256,192,159392,1,0,0:0:0:0:
329,192,159647,1,0,0:0:0:0:
475,192,159904,1,0,0:0:0:0:
402,192,160161,1,0,0:0:0:0:
256,192,160417,1,0,0:0:0:0:
182,192,160674,1,0,0:0:0:0:
109,192,160930,1,0,0:0:0:0:
36,192,161186,1,0,0:0:0:0:
256,192,161443,1,0,0:0:0:0:
329,192,161700,1,0,0:0:0:0:
475,192,161955,1,0,0:0:0:0:
329,192,162212,1,0,0:0:0:0:
256,192,162596,1,0,0:0:0:0:
182,192,162981,1,0,0:0:0:0:
329,192,163366,1,0,0:0:0:0:
109,192,163751,1,0,0:0:0:0:
256,192,163878,1,0,0:0:0:0:
329,192,163886,1,0,0:0:0:0:
402,192,163892,1,0,0:0:0:0:
109,192,164263,1,0,0:0:0:0:
256,192,164776,1,0,0:0:0:0:
256,192,165417,1,0,0:0:0:0:
329,192,165545,1,0,0:0:0:0:
109,192,166058,1,0,0:0:0:0:
36,192,175545,5,0,0:0:0:0:
109,192,175545,1,0,0:0:0:0:
182,192,175545,1,0,0:0:0:0:
329,192,175545,1,0,0:0:0:0:
402,192,175545,1,0,0:0:0:0:
475,192,175545,1,0,0:0:0:0:
256,192,175674,1,0,0:0:0:0:
182,192,175674,1,0,0:0:0:0:
329,192,175674,1,0,0:0:0:0:
475,192,175674,1,0,0:0:0:0:
109,192,175674,1,0,0:0:0:0:
109,192,175802,1,0,0:0:0:0:
36,192,175802,1,0,0:0:0:0:
182,192,175802,1,0,0:0:0:0:
329,192,175802,1,0,0:0:0:0:
256,192,175802,1,0,0:0:0:0:
402,192,175802,1,0,0:0:0:0:
36,192,175930,1,0,0:0:0:0:
256,192,175930,1,0,0:0:0:0:
329,192,175930,1,0,0:0:0:0:
402,192,175930,1,0,0:0:0:0:
475,192,175930,1,0,0:0:0:0:
182,192,176058,1,0,0:0:0:0:
109,192,176058,1,0,0:0:0:0:
36,192,176058,1,0,0:0:0:0:
256,192,176058,1,0,0:0:0:0:
329,192,176058,1,0,0:0:0:0:
475,192,176058,1,0,0:0:0:0:
475,192,176186,1,0,0:0:0:0:
182,192,176186,1,0,0:0:0:0:
109,192,176186,1,0,0:0:0:0:
36,192,176186,1,0,0:0:0:0:
402,192,176186,1,0,0:0:0:0:
256,192,176314,1,0,0:0:0:0:
182,192,176314,1,0,0:0:0:0:
475,192,176314,1,0,0:0:0:0:
109,192,176314,1,0,0:0:0:0:
329,192,176314,1,0,0:0:0:0:
402,192,176314,1,0,0:0:0:0:
182,192,176443,1,0,0:0:0:0:
36,192,176443,1,0,0:0:0:0:
256,192,176443,1,0,0:0:0:0:
329,192,176443,1,0,0:0:0:0:
402,192,176443,1,0,0:0:0:0:
182,192,176571,1,0,0:0:0:0:
109,192,176571,1,0,0:0:0:0:
36,192,176571,1,0,0:0:0:0:
329,192,176571,1,0,0:0:0:0:
402,192,176571,1,0,0:0:0:0:
475,192,176571,1,0,0:0:0:0:
256,192,176700,1,0,0:0:0:0:
182,192,176700,1,0,0:0:0:0:
109,192,176700,1,0,0:0:0:0:
36,192,176700,1,0,0:0:0:0:
402,192,176700,1,0,0:0:0:0:
329,192,176827,1,0,0:0:0:0:
475,192,176827,1,0,0:0:0:0:
256,192,176827,1,0,0:0:0:0:
182,192,176827,1,0,0:0:0:0:
109,192,176827,1,0,0:0:0:0:
36,192,176827,1,0,0:0:0:0:
109,192,176955,1,0,0:0:0:0:
256,192,176955,1,0,0:0:0:0:
329,192,176955,1,0,0:0:0:0:
402,192,176955,1,0,0:0:0:0:
475,192,176955,1,0,0:0:0:0:
329,192,177084,1,0,0:0:0:0:
36,192,177084,1,0,0:0:0:0:
402,192,177084,1,0,0:0:0:0:
475,192,177084,1,0,0:0:0:0:
109,192,177126,1,0,0:0:0:0:
182,192,177170,1,0,0:0:0:0:
256,192,177212,1,0,0:0:0:0:
329,192,177212,1,0,0:0:0:0:
402,192,177212,1,0,0:0:0:0:
475,192,177212,1,0,0:0:0:0:
182,192,177341,1,0,0:0:0:0:
109,192,177341,1,0,0:0:0:0:
36,192,177341,1,0,0:0:0:0:
329,192,177341,1,0,0:0:0:0:
402,192,177341,1,0,0:0:0:0:
475,192,177341,1,0,0:0:0:0:
182,192,177468,1,0,0:0:0:0:
109,192,177468,1,0,0:0:0:0:
36,192,177468,1,0,0:0:0:0:
475,192,177468,1,0,0:0:0:0:
329,192,177468,1,0,0:0:0:0:
256,192,177596,1,0,0:0:0:0:
182,192,177596,1,0,0:0:0:0:
109,192,177596,1,0,0:0:0:0:
329,192,177596,1,0,0:0:0:0:
402,192,177596,1,0,0:0:0:0:
475,192,177596,1,0,0:0:0:0:
182,192,177725,1,0,0:0:0:0:
109,192,177725,1,0,0:0:0:0:
36,192,177725,1,0,0:0:0:0:
402,192,177725,1,0,0:0:0:0:
329,192,177725,1,0,0:0:0:0:
256,192,177853,1,0,0:0:0:0:
182,192,177853,1,0,0:0:0:0:
36,192,177853,1,0,0:0:0:0:
329,192,177853,1,0,0:0:0:0:
109,192,177853,1,0,0:0:0:0:
475,192,177853,1,0,0:0:0:0:
329,192,177981,1,0,0:0:0:0:
402,192,177981,1,0,0:0:0:0:
475,192,177981,1,0,0:0:0:0:
109,192,177981,1,0,0:0:0:0:
36,192,177981,1,0,0:0:0:0:
182,192,178110,1,0,0:0:0:0:
109,192,178110,1,0,0:0:0:0:
329,192,178110,1,0,0:0:0:0:
256,192,178110,1,0,0:0:0:0:
402,192,178110,1,0,0:0:0:0:
475,192,178110,1,0,0:0:0:0:
36,192,178237,1,0,0:0:0:0:
256,192,178237,1,0,0:0:0:0:
182,192,178237,1,0,0:0:0:0:
402,192,178237,1,0,0:0:0:0:
475,192,178237,1,0,0:0:0:0:
182,192,178366,1,0,0:0:0:0:
109,192,178366,1,0,0:0:0:0:
36,192,178366,1,0,0:0:0:0:
402,192,178366,1,0,0:0:0:0:
329,192,178366,1,0,0:0:0:0:
256,192,178366,1,0,0:0:0:0:
402,192,178494,1,0,0:0:0:0:
329,192,178494,1,0,0:0:0:0:
109,192,178494,1,0,0:0:0:0:
36,192,178494,1,0,0:0:0:0:
475,192,178494,1,0,0:0:0:0:
36,192,178622,5,0,0:0:0:0:
329,192,178622,1,0,0:0:0:0:
109,192,178622,1,0,0:0:0:0:
182,192,178622,1,0,0:0:0:0:
402,192,178622,1,0,0:0:0:0:
475,192,178622,1,0,0:0:0:0:
256,192,178751,1,0,0:0:0:0:
182,192,178751,1,0,0:0:0:0:
329,192,178751,1,0,0:0:0:0:
475,192,178751,1,0,0:0:0:0:
109,192,178751,1,0,0:0:0:0:
109,192,178878,1,0,0:0:0:0:
36,192,178878,1,0,0:0:0:0:
182,192,178878,1,0,0:0:0:0:
329,192,178878,1,0,0:0:0:0:
256,192,178878,1,0,0:0:0:0:
402,192,178878,1,0,0:0:0:0:
36,192,179007,1,0,0:0:0:0:
256,192,179007,1,0,0:0:0:0:
329,192,179007,1,0,0:0:0:0:
402,192,179007,1,0,0:0:0:0:
475,192,179007,1,0,0:0:0:0:
182,192,179135,1,0,0:0:0:0:
109,192,179135,1,0,0:0:0:0:
475,192,179135,1,0,0:0:0:0:
36,192,179135,1,0,0:0:0:0:
402,192,179177,1,0,0:0:0:0:
329,192,179221,1,0,0:0:0:0:
182,192,179263,1,0,0:0:0:0:
109,192,179263,1,0,0:0:0:0:
36,192,179263,1,0,0:0:0:0:
256,192,179263,1,0,0:0:0:0:
256,192,179392,1,0,0:0:0:0:
182,192,179392,1,0,0:0:0:0:
475,192,179392,1,0,0:0:0:0:
109,192,179392,1,0,0:0:0:0:
329,192,179392,1,0,0:0:0:0:
402,192,179392,1,0,0:0:0:0:
182,192,179520,1,0,0:0:0:0:
36,192,179520,1,0,0:0:0:0:
256,192,179520,1,0,0:0:0:0:
329,192,179520,1,0,0:0:0:0:
402,192,179520,1,0,0:0:0:0:
182,192,179647,1,0,0:0:0:0:
109,192,179647,1,0,0:0:0:0:
36,192,179647,1,0,0:0:0:0:
329,192,179647,1,0,0:0:0:0:
402,192,179647,1,0,0:0:0:0:
475,192,179647,1,0,0:0:0:0:
256,192,179776,1,0,0:0:0:0:
182,192,179776,1,0,0:0:0:0:
109,192,179776,1,0,0:0:0:0:
36,192,179776,1,0,0:0:0:0:
402,192,179776,1,0,0:0:0:0:
329,192,179904,1,0,0:0:0:0:
475,192,179904,1,0,0:0:0:0:
256,192,179904,1,0,0:0:0:0:
182,192,179904,1,0,0:0:0:0:
109,192,179904,1,0,0:0:0:0:
36,192,179904,1,0,0:0:0:0:
109,192,180033,1,0,0:0:0:0:
256,192,180033,1,0,0:0:0:0:
329,192,180033,1,0,0:0:0:0:
402,192,180033,1,0,0:0:0:0:
475,192,180033,1,0,0:0:0:0:
329,192,180161,1,0,0:0:0:0:
256,192,180161,1,0,0:0:0:0:
402,192,180161,1,0,0:0:0:0:
475,192,180161,1,0,0:0:0:0:
109,192,180161,1,0,0:0:0:0:
36,192,180161,1,0,0:0:0:0:
256,192,180288,1,0,0:0:0:0:
182,192,180288,1,0,0:0:0:0:
402,192,180288,1,0,0:0:0:0:
329,192,180288,1,0,0:0:0:0:
36,192,180288,1,0,0:0:0:0:
182,192,180417,1,0,0:0:0:0:
109,192,180417,1,0,0:0:0:0:
36,192,180417,1,0,0:0:0:0:
329,192,180417,1,0,0:0:0:0:
402,192,180417,1,0,0:0:0:0:
475,192,180417,1,0,0:0:0:0:
182,192,180545,1,0,0:0:0:0:
109,192,180545,1,0,0:0:0:0:
36,192,180545,1,0,0:0:0:0:
475,192,180545,1,0,0:0:0:0:
329,192,180545,1,0,0:0:0:0:
256,192,180674,1,0,0:0:0:0:
182,192,180674,1,0,0:0:0:0:
109,192,180674,1,0,0:0:0:0:
329,192,180674,1,0,0:0:0:0:
402,192,180674,1,0,0:0:0:0:
475,192,180674,1,0,0:0:0:0:
182,192,180802,1,0,0:0:0:0:
109,192,180802,1,0,0:0:0:0:
36,192,180802,1,0,0:0:0:0:
402,192,180802,1,0,0:0:0:0:
329,192,180802,1,0,0:0:0:0:
256,192,180930,1,0,0:0:0:0:
182,192,180930,1,0,0:0:0:0:
36,192,180930,1,0,0:0:0:0:
329,192,180930,1,0,0:0:0:0:
109,192,180930,1,0,0:0:0:0:
475,192,180930,1,0,0:0:0:0:
329,192,181058,1,0,0:0:0:0:
402,192,181058,1,0,0:0:0:0:
475,192,181058,1,0,0:0:0:0:
109,192,181058,1,0,0:0:0:0:
36,192,181058,1,0,0:0:0:0:
329,192,181186,1,0,0:0:0:0:
402,192,181186,1,0,0:0:0:0:
475,192,181186,1,0,0:0:0:0:
36,192,181186,1,0,0:0:0:0:
109,192,181230,1,0,0:0:0:0:
182,192,181272,1,0,0:0:0:0:
402,192,181314,1,0,0:0:0:0:
475,192,181314,1,0,0:0:0:0:
256,192,181314,1,0,0:0:0:0:
329,192,181314,1,0,0:0:0:0:
182,192,181443,1,0,0:0:0:0:
109,192,181443,1,0,0:0:0:0:
36,192,181443,1,0,0:0:0:0:
402,192,181443,1,0,0:0:0:0:
329,192,181443,1,0,0:0:0:0:
256,192,181443,1,0,0:0:0:0:
402,192,181571,1,0,0:0:0:0:
329,192,181571,1,0,0:0:0:0:
109,192,181571,1,0,0:0:0:0:
36,192,181571,1,0,0:0:0:0:
475,192,181571,1,0,0:0:0:0:
36,192,181700,5,0,0:0:0:0:
402,192,181700,1,0,0:0:0:0:
475,192,181700,1,0,0:0:0:0:
329,192,181700,1,0,0:0:0:0:
109,192,181700,1,0,0:0:0:0:
182,192,181700,1,0,0:0:0:0:
475,192,181827,1,0,0:0:0:0:
109,192,181827,1,0,0:0:0:0:
329,192,181827,1,0,0:0:0:0:
256,192,181827,1,0,0:0:0:0:
182,192,181827,1,0,0:0:0:0:
329,192,181955,1,0,0:0:0:0:
256,192,181955,1,0,0:0:0:0:
402,192,181955,1,0,0:0:0:0:
109,192,181955,1,0,0:0:0:0:
36,192,181955,1,0,0:0:0:0:
182,192,181955,1,0,0:0:0:0:
402,192,182084,1,0,0:0:0:0:
475,192,182084,1,0,0:0:0:0:
329,192,182084,1,0,0:0:0:0:
36,192,182084,1,0,0:0:0:0:
256,192,182084,1,0,0:0:0:0:
256,192,182212,1,0,0:0:0:0:
329,192,182212,1,0,0:0:0:0:
475,192,182212,1,0,0:0:0:0:
182,192,182212,1,0,0:0:0:0:
109,192,182212,1,0,0:0:0:0:
36,192,182212,1,0,0:0:0:0:
36,192,182341,1,0,0:0:0:0:
402,192,182341,1,0,0:0:0:0:
109,192,182341,1,0,0:0:0:0:
475,192,182341,1,0,0:0:0:0:
182,192,182341,1,0,0:0:0:0:
109,192,182468,5,0,0:0:0:0:
329,192,182468,1,0,0:0:0:0:
402,192,182468,1,0,0:0:0:0:
256,192,182468,1,0,0:0:0:0:
182,192,182468,1,0,0:0:0:0:
475,192,182468,1,0,0:0:0:0:
329,192,182596,1,0,0:0:0:0:
402,192,182596,1,0,0:0:0:0:
256,192,182596,1,0,0:0:0:0:
182,192,182596,1,0,0:0:0:0:
36,192,182596,1,0,0:0:0:0:
182,192,182725,1,0,0:0:0:0:
109,192,182725,1,0,0:0:0:0:
36,192,182725,1,0,0:0:0:0:
256,192,182767,1,0,0:0:0:0:
329,192,182811,1,0,0:0:0:0:
36,192,182853,1,0,0:0:0:0:
402,192,182853,1,0,0:0:0:0:
109,192,182853,1,0,0:0:0:0:
475,192,182853,1,0,0:0:0:0:
182,192,182981,1,0,0:0:0:0:
109,192,182981,1,0,0:0:0:0:
36,192,182981,1,0,0:0:0:0:
329,192,182981,1,0,0:0:0:0:
475,192,182981,1,0,0:0:0:0:
256,192,182981,1,0,0:0:0:0:
402,192,183110,1,0,0:0:0:0:
475,192,183110,1,0,0:0:0:0:
329,192,183110,1,0,0:0:0:0:
109,192,183110,1,0,0:0:0:0:
256,192,183110,1,0,0:0:0:0:
402,192,183237,1,0,0:0:0:0:
36,192,183237,1,0,0:0:0:0:
329,192,183237,1,0,0:0:0:0:
256,192,183237,1,0,0:0:0:0:
182,192,183237,1,0,0:0:0:0:
475,192,183237,1,0,0:0:0:0:
36,192,183366,1,0,0:0:0:0:
109,192,183366,1,0,0:0:0:0:
256,192,183366,1,0,0:0:0:0:
329,192,183366,1,0,0:0:0:0:
329,192,183494,1,0,0:0:0:0:
402,192,183494,1,0,0:0:0:0:
475,192,183494,1,0,0:0:0:0:
182,192,183494,1,0,0:0:0:0:
109,192,183494,1,0,0:0:0:0:
36,192,183494,1,0,0:0:0:0:
475,192,183622,1,0,0:0:0:0:
329,192,183622,1,0,0:0:0:0:
36,192,183622,1,0,0:0:0:0:
182,192,183622,1,0,0:0:0:0:
109,192,183622,1,0,0:0:0:0:
36,192,183751,1,0,0:0:0:0:
329,192,183783,1,0,0:0:0:0:
109,192,183793,1,0,0:0:0:0:
402,192,183814,1,0,0:0:0:0:
475,192,183878,1,0,0:0:0:0:
256,192,183878,1,0,0:0:0:0:
36,192,183911,1,0,0:0:0:0:
182,192,183922,1,0,0:0:0:0:
329,192,183964,1,0,0:0:0:0:
402,192,184007,1,0,0:0:0:0:
109,192,184007,1,0,0:0:0:0:
182,192,184050,1,0,0:0:0:0:
475,192,184092,1,0,0:0:0:0:
36,192,184092,1,0,0:0:0:0:
256,192,184135,1,0,0:0:0:0:
329,192,184177,1,0,0:0:0:0:
109,192,184177,1,0,0:0:0:0:
36,192,184221,1,0,0:0:0:0:
475,192,184221,1,0,0:0:0:0:
256,192,184263,1,0,0:0:0:0:
182,192,184306,1,0,0:0:0:0:
36,192,184348,1,0,0:0:0:0:
329,192,184348,1,0,0:0:0:0:
109,192,184392,1,0,0:0:0:0:
402,192,184392,1,0,0:0:0:0:
256,192,184434,1,0,0:0:0:0:
329,192,184477,1,0,0:0:0:0:
475,192,184520,1,0,0:0:0:0:
109,192,184520,1,0,0:0:0:0:
36,192,184563,1,0,0:0:0:0:
256,192,184605,1,0,0:0:0:0:
329,192,184647,1,0,0:0:0:0:
475,192,184647,1,0,0:0:0:0:
182,192,184691,1,0,0:0:0:0:
109,192,184733,1,0,0:0:0:0:
402,192,184776,1,0,0:0:0:0:
256,192,184776,1,0,0:0:0:0:
475,192,184818,1,0,0:0:0:0:
36,192,184818,1,0,0:0:0:0:
109,192,184862,1,0,0:0:0:0:
256,192,184904,1,0,0:0:0:0:
402,192,184947,1,0,0:0:0:0:
182,192,184947,1,0,0:0:0:0:
475,192,184990,1,0,0:0:0:0:
36,192,184990,1,0,0:0:0:0:
109,192,185033,1,0,0:0:0:0:
256,192,185075,1,0,0:0:0:0:
402,192,185118,1,0,0:0:0:0:
36,192,185118,1,0,0:0:0:0:
475,192,185161,1,0,0:0:0:0:
182,192,185161,1,0,0:0:0:0:
256,192,185203,1,0,0:0:0:0:
109,192,185246,1,0,0:0:0:0:
36,192,185288,1,0,0:0:0:0:
329,192,185288,1,0,0:0:0:0:
475,192,185332,1,0,0:0:0:0:
256,192,185374,1,0,0:0:0:0:
36,192,185417,1,0,0:0:0:0:
329,192,185460,1,0,0:0:0:0:
109,192,185460,1,0,0:0:0:0:
402,192,185503,1,0,0:0:0:0:
182,192,185545,1,0,0:0:0:0:
109,192,185588,1,0,0:0:0:0:
402,192,185588,1,0,0:0:0:0:
475,192,185631,1,0,0:0:0:0:
256,192,185631,1,0,0:0:0:0:
109,192,185716,1,0,0:0:0:0:
36,192,185758,1,0,0:0:0:0:
256,192,185758,1,0,0:0:0:0:
329,192,185802,1,0,0:0:0:0:
475,192,185802,1,0,0:0:0:0:
182,192,185844,1,0,0:0:0:0:
36,192,185887,1,0,0:0:0:0:
256,192,185930,1,0,0:0:0:0:
475,192,185930,1,0,0:0:0:0:
329,192,185973,1,0,0:0:0:0:
36,192,186015,1,0,0:0:0:0:
182,192,186058,1,0,0:0:0:0:
402,192,186058,1,0,0:0:0:0:
256,192,186144,1,0,0:0:0:0:
475,192,186144,1,0,0:0:0:0:
109,192,186186,1,0,0:0:0:0:
329,192,186230,1,0,0:0:0:0:
402,192,186272,1,0,0:0:0:0:
182,192,186272,1,0,0:0:0:0:
36,192,186314,1,0,0:0:0:0:
256,192,186314,1,0,0:0:0:0:
475,192,186357,1,0,0:0:0:0:
402,192,186400,1,0,0:0:0:0:
182,192,186400,1,0,0:0:0:0:
36,192,186443,1,0,0:0:0:0:
109,192,186485,1,0,0:0:0:0:
256,192,186528,1,0,0:0:0:0:
402,192,186571,1,0,0:0:0:0:
36,192,186571,1,0,0:0:0:0:
182,192,186614,1,0,0:0:0:0:
109,192,186656,1,0,0:0:0:0:
475,192,186656,1,0,0:0:0:0:
402,192,186700,1,0,0:0:0:0:
256,192,186700,1,0,0:0:0:0:
109,192,186785,1,0,0:0:0:0:
329,192,186870,1,0,0:0:0:0:
475,192,186870,1,0,0:0:0:0:
109,192,186913,1,0,0:0:0:0:
36,192,186955,1,0,0:0:0:0:
256,192,186955,1,0,0:0:0:0:
329,192,186998,1,0,0:0:0:0:
475,192,186998,1,0,0:0:0:0:
182,192,187041,1,0,0:0:0:0:
36,192,187084,1,0,0:0:0:0:
402,192,187084,1,0,0:0:0:0:
256,192,187126,1,0,0:0:0:0:
329,192,187170,1,0,0:0:0:0:
109,192,187212,1,0,0:0:0:0:
36,192,187255,1,0,0:0:0:0:
256,192,187255,1,0,0:0:0:0:
402,192,187297,1,0,0:0:0:0:
475,192,187341,1,0,0:0:0:0:
182,192,187341,1,0,0:0:0:0:
109,192,187383,1,0,0:0:0:0:
256,192,187425,1,0,0:0:0:0:
402,192,187425,1,0,0:0:0:0:
109,192,187511,1,0,0:0:0:0:
182,192,187554,1,0,0:0:0:0:
402,192,187596,1,0,0:0:0:0:
475,192,187596,1,0,0:0:0:0:
256,192,187640,1,0,0:0:0:0:
36,192,187682,1,0,0:0:0:0:
109,192,187725,1,0,0:0:0:0:
402,192,187725,1,0,0:0:0:0:
475,192,187767,1,0,0:0:0:0:
329,192,187767,1,0,0:0:0:0:
182,192,187811,1,0,0:0:0:0:
109,192,187853,1,0,0:0:0:0:
329,192,187896,1,0,0:0:0:0:
475,192,187938,1,0,0:0:0:0:
182,192,187981,1,0,0:0:0:0:
36,192,188024,1,0,0:0:0:0:
402,192,188024,1,0,0:0:0:0:
256,192,188066,1,0,0:0:0:0:
329,192,188110,1,0,0:0:0:0:
475,192,188110,1,0,0:0:0:0:
109,192,188152,1,0,0:0:0:0:
36,192,188195,1,0,0:0:0:0:
182,192,188237,1,0,0:0:0:0:
256,192,188281,1,0,0:0:0:0:
402,192,188323,1,0,0:0:0:0:
475,192,188366,1,0,0:0:0:0:
109,192,188366,1,0,0:0:0:0:
36,192,188408,1,0,0:0:0:0:
256,192,188408,1,0,0:0:0:0:
329,192,188452,1,0,0:0:0:0:
475,192,188494,1,0,0:0:0:0:
182,192,188494,1,0,0:0:0:0:
402,192,188536,1,0,0:0:0:0:
36,192,188580,1,0,0:0:0:0:
256,192,188580,1,0,0:0:0:0:
109,192,188622,1,0,0:0:0:0:
329,192,188622,1,0,0:0:0:0:
475,192,188665,1,0,0:0:0:0:
182,192,188707,1,0,0:0:0:0:
36,192,188751,1,0,0:0:0:0:
329,192,188793,1,0,0:0:0:0:
402,192,188836,1,0,0:0:0:0:
182,192,188836,1,0,0:0:0:0:
36,192,188878,1,0,0:0:0:0:
109,192,188922,1,0,0:0:0:0:
329,192,188922,1,0,0:0:0:0:
475,192,188964,1,0,0:0:0:0:
402,192,189007,1,0,0:0:0:0:
256,192,189007,1,0,0:0:0:0:
182,192,189050,1,0,0:0:0:0:
36,192,189092,1,0,0:0:0:0:
329,192,189092,1,0,0:0:0:0:
109,192,189135,1,0,0:0:0:0:
475,192,189177,1,0,0:0:0:0:
402,192,189221,1,0,0:0:0:0:
256,192,189221,1,0,0:0:0:0:
182,192,189263,1,0,0:0:0:0:
36,192,189263,1,0,0:0:0:0:
329,192,189306,1,0,0:0:0:0:
475,192,189348,1,0,0:0:0:0:
109,192,189348,1,0,0:0:0:0:
402,192,189392,1,0,0:0:0:0:
256,192,189392,1,0,0:0:0:0:
182,192,189434,1,0,0:0:0:0:
36,192,189477,1,0,0:0:0:0:
109,192,189520,1,0,0:0:0:0:
329,192,189520,1,0,0:0:0:0:
475,192,189563,1,0,0:0:0:0:
256,192,189563,1,0,0:0:0:0:
402,192,189605,1,0,0:0:0:0:
36,192,189605,1,0,0:0:0:0:
182,192,189647,1,0,0:0:0:0:
256,192,189691,1,0,0:0:0:0:
475,192,189733,1,0,0:0:0:0:
109,192,189733,1,0,0:0:0:0:
402,192,189776,1,0,0:0:0:0:
36,192,189776,1,0,0:0:0:0:
182,192,189818,1,0,0:0:0:0:
256,192,189862,1,0,0:0:0:0:
475,192,189862,1,0,0:0:0:0:
36,192,189904,1,0,0:0:0:0:
329,192,189947,1,0,0:0:0:0:
182,192,189990,1,0,0:0:0:0:
402,192,189990,1,0,0:0:0:0:
109,192,190033,1,0,0:0:0:0:
475,192,190075,1,0,0:0:0:0:
329,192,190075,1,0,0:0:0:0:
182,192,190118,1,0,0:0:0:0:
36,192,190161,1,0,0:0:0:0:
256,192,190203,1,0,0:0:0:0:
329,192,190246,1,0,0:0:0:0:
475,192,190246,1,0,0:0:0:0:
182,192,190288,1,0,0:0:0:0:
109,192,190332,1,0,0:0:0:0:
329,192,190374,1,0,0:0:0:0:
475,192,190417,1,0,0:0:0:0:
36,192,190417,1,0,0:0:0:0:
109,192,190460,1,0,0:0:0:0:
256,192,190503,1,0,0:0:0:0:
402,192,190503,1,0,0:0:0:0:
329,192,190545,1,0,0:0:0:0:
475,192,190588,1,0,0:0:0:0:
109,192,190588,1,0,0:0:0:0:
36,192,190631,1,0,0:0:0:0:
256,192,190674,1,0,0:0:0:0:
402,192,190674,1,0,0:0:0:0:
109,192,190716,1,0,0:0:0:0:
329,192,190758,1,0,0:0:0:0:
402,192,190802,1,0,0:0:0:0:
182,192,190802,1,0,0:0:0:0:
36,192,190844,1,0,0:0:0:0:
256,192,190887,1,0,0:0:0:0:
475,192,190887,1,0,0:0:0:0:
329,192,190930,1,0,0:0:0:0:
109,192,190930,1,0,0:0:0:0:
182,192,190973,1,0,0:0:0:0:
36,192,191015,1,0,0:0:0:0:
475,192,191015,1,0,0:0:0:0:
329,192,191058,1,0,0:0:0:0:
402,192,191101,1,0,0:0:0:0:
182,192,191101,1,0,0:0:0:0:
36,192,191144,1,0,0:0:0:0:
109,192,191186,1,0,0:0:0:0:
256,192,191186,1,0,0:0:0:0:
402,192,191230,1,0,0:0:0:0:
329,192,191272,1,0,0:0:0:0:
182,192,191314,1,0,0:0:0:0:
109,192,191357,1,0,0:0:0:0:
402,192,191357,1,0,0:0:0:0:
329,192,191400,1,0,0:0:0:0:
36,192,191443,1,0,0:0:0:0:
109,192,191485,1,0,0:0:0:0:
402,192,191485,1,0,0:0:0:0:
182,192,191528,1,0,0:0:0:0:
475,192,191528,1,0,0:0:0:0:
329,192,191571,1,0,0:0:0:0:
256,192,191614,1,0,0:0:0:0:
109,192,191614,1,0,0:0:0:0:
36,192,191656,1,0,0:0:0:0:
182,192,191700,1,0,0:0:0:0:
475,192,191700,1,0,0:0:0:0:
402,192,191742,1,0,0:0:0:0:
109,192,191742,1,0,0:0:0:0:
329,192,191785,1,0,0:0:0:0:
36,192,191827,1,0,0:0:0:0:
109,192,191870,1,0,0:0:0:0:
402,192,191870,1,0,0:0:0:0:
36,192,191955,1,0,0:0:0:0:
402,192,191955,1,0,0:0:0:0:
182,192,191955,1,0,0:0:0:0:
329,192,191955,1,0,0:0:0:0:
109,192,192020,1,0,0:0:0:0:
256,192,192020,1,0,0:0:0:0:
182,192,192084,1,0,0:0:0:0:
329,192,192084,1,0,0:0:0:0:
256,192,192147,1,0,0:0:0:0:
402,192,192147,1,0,0:0:0:0:
329,192,192212,1,0,0:0:0:0:
182,192,192212,1,0,0:0:0:0:
109,192,192212,1,0,0:0:0:0:
36,192,192212,1,0,0:0:0:0:
475,192,192212,1,0,0:0:0:0:
256,192,192276,1,0,0:0:0:0:
402,192,192276,1,0,0:0:0:0:
182,192,192341,1,0,0:0:0:0:
329,192,192341,1,0,0:0:0:0:
109,192,192404,1,0,0:0:0:0:
256,192,192404,1,0,0:0:0:0:
182,192,192468,1,0,0:0:0:0:
36,192,192468,1,0,0:0:0:0:
402,192,192468,1,0,0:0:0:0:
329,192,192468,1,0,0:0:0:0:
256,192,192533,1,0,0:0:0:0:
475,192,192533,1,0,0:0:0:0:
182,192,192596,1,0,0:0:0:0:
36,192,192596,1,0,0:0:0:0:
329,192,192596,1,0,0:0:0:0:
109,192,192661,1,0,0:0:0:0:
256,192,192661,1,0,0:0:0:0:
329,192,192725,1,0,0:0:0:0:
402,192,192725,1,0,0:0:0:0:
475,192,192725,1,0,0:0:0:0:
182,192,192725,1,0,0:0:0:0:
109,192,192788,1,0,0:0:0:0:
256,192,192788,1,0,0:0:0:0:
182,192,192853,1,0,0:0:0:0:
402,192,192853,1,0,0:0:0:0:
329,192,192853,1,0,0:0:0:0:
36,192,192917,1,0,0:0:0:0:
109,192,192917,1,0,0:0:0:0:
182,192,192981,1,0,0:0:0:0:
256,192,192981,1,0,0:0:0:0:
329,192,192981,1,0,0:0:0:0:
475,192,192981,1,0,0:0:0:0:
109,192,193045,1,0,0:0:0:0:
402,192,193045,1,0,0:0:0:0:
182,192,193110,1,0,0:0:0:0:
36,192,193110,1,0,0:0:0:0:
329,192,193110,1,0,0:0:0:0:
109,192,193174,1,0,0:0:0:0:
256,192,193174,1,0,0:0:0:0:
182,192,193237,1,0,0:0:0:0:
329,192,193237,1,0,0:0:0:0:
402,192,193237,1,0,0:0:0:0:
475,192,193237,1,0,0:0:0:0:
36,192,193302,1,0,0:0:0:0:
109,192,193302,1,0,0:0:0:0:
182,192,193366,1,0,0:0:0:0:
475,192,193366,1,0,0:0:0:0:
402,192,193366,1,0,0:0:0:0:
256,192,193430,1,0,0:0:0:0:
109,192,193430,1,0,0:0:0:0:
329,192,193494,1,0,0:0:0:0:
402,192,193494,1,0,0:0:0:0:
475,192,193494,1,0,0:0:0:0:
36,192,193494,1,0,0:0:0:0:
182,192,193558,1,0,0:0:0:0:
256,192,193558,1,0,0:0:0:0:
475,192,193622,1,0,0:0:0:0:
36,192,193622,1,0,0:0:0:0:
109,192,193622,1,0,0:0:0:0:
402,192,193686,1,0,0:0:0:0:
329,192,193686,1,0,0:0:0:0:
36,192,193751,1,0,0:0:0:0:
256,192,193751,1,0,0:0:0:0:
109,192,193751,1,0,0:0:0:0:
182,192,193751,1,0,0:0:0:0:
402,192,193814,1,0,0:0:0:0:
475,192,193814,1,0,0:0:0:0:
109,192,193878,1,0,0:0:0:0:
36,192,193878,1,0,0:0:0:0:
329,192,193878,1,0,0:0:0:0:
256,192,193943,1,0,0:0:0:0:
402,192,193943,1,0,0:0:0:0:
329,192,194007,1,0,0:0:0:0:
182,192,194007,1,0,0:0:0:0:
475,192,194007,1,0,0:0:0:0:
109,192,194007,1,0,0:0:0:0:
402,192,194071,1,0,0:0:0:0:
256,192,194071,1,0,0:0:0:0:
329,192,194135,1,0,0:0:0:0:
182,192,194135,1,0,0:0:0:0:
109,192,194200,1,0,0:0:0:0:
256,192,194200,1,0,0:0:0:0:
182,192,194263,1,0,0:0:0:0:
329,192,194263,1,0,0:0:0:0:
402,192,194263,1,0,0:0:0:0:
36,192,194263,1,0,0:0:0:0:
256,192,194327,1,0,0:0:0:0:
109,192,194327,1,0,0:0:0:0:
182,192,194392,1,0,0:0:0:0:
329,192,194392,1,0,0:0:0:0:
256,192,194455,1,0,0:0:0:0:
402,192,194455,1,0,0:0:0:0:
329,192,194520,1,0,0:0:0:0:
109,192,194520,1,0,0:0:0:0:
36,192,194520,1,0,0:0:0:0:
182,192,194520,1,0,0:0:0:0:
402,192,194584,1,0,0:0:0:0:
475,192,194584,1,0,0:0:0:0:
329,192,194647,1,0,0:0:0:0:
36,192,194647,1,0,0:0:0:0:
182,192,194647,1,0,0:0:0:0:
109,192,194712,1,0,0:0:0:0:
256,192,194712,1,0,0:0:0:0:
182,192,194776,1,0,0:0:0:0:
475,192,194776,1,0,0:0:0:0:
329,192,194776,1,0,0:0:0:0:
402,192,194776,1,0,0:0:0:0:
36,192,194841,1,0,0:0:0:0:
256,192,194841,1,0,0:0:0:0:
109,192,194904,1,0,0:0:0:0:
329,192,194904,1,0,0:0:0:0:
475,192,194904,1,0,0:0:0:0:
402,192,194968,1,0,0:0:0:0:
182,192,194968,1,0,0:0:0:0:
256,192,195033,1,0,0:0:0:0:
329,192,195033,1,0,0:0:0:0:
475,192,195033,1,0,0:0:0:0:
36,192,195033,1,0,0:0:0:0:
109,192,195096,1,0,0:0:0:0:
182,192,195096,1,0,0:0:0:0:
256,192,195161,1,0,0:0:0:0:
36,192,195161,1,0,0:0:0:0:
402,192,195161,1,0,0:0:0:0:
329,192,195225,1,0,0:0:0:0:
182,192,195225,1,0,0:0:0:0:
402,192,195288,1,0,0:0:0:0:
475,192,195288,1,0,0:0:0:0:
256,192,195288,1,0,0:0:0:0:
109,192,195288,1,0,0:0:0:0:
36,192,195353,1,0,0:0:0:0:
182,192,195353,1,0,0:0:0:0:
256,192,195417,1,0,0:0:0:0:
329,192,195417,1,0,0:0:0:0:
475,192,195417,1,0,0:0:0:0:
109,192,195481,1,0,0:0:0:0:
36,192,195481,1,0,0:0:0:0:
182,192,195545,1,0,0:0:0:0:
402,192,195545,1,0,0:0:0:0:
329,192,195545,1,0,0:0:0:0:
475,192,195545,1,0,0:0:0:0:
256,192,195610,1,0,0:0:0:0:
109,192,195610,1,0,0:0:0:0:
36,192,195674,1,0,0:0:0:0:
182,192,195674,1,0,0:0:0:0:
329,192,195674,1,0,0:0:0:0:
402,192,195737,1,0,0:0:0:0:
256,192,195737,1,0,0:0:0:0:
329,192,195802,1,0,0:0:0:0:
475,192,195802,1,0,0:0:0:0:
36,192,195802,1,0,0:0:0:0:
109,192,195802,1,0,0:0:0:0:
182,192,195866,1,0,0:0:0:0:
256,192,195866,1,0,0:0:0:0:
109,192,195930,1,0,0:0:0:0:
402,192,195930,1,0,0:0:0:0:
475,192,195930,1,0,0:0:0:0:
329,192,195994,1,0,0:0:0:0:
256,192,195994,1,0,0:0:0:0:
402,192,196058,1,0,0:0:0:0:
475,192,196058,1,0,0:0:0:0:
36,192,196058,1,0,0:0:0:0:
182,192,196058,1,0,0:0:0:0:
256,192,196122,1,0,0:0:0:0:
109,192,196122,1,0,0:0:0:0:
329,192,196186,1,0,0:0:0:0:
182,192,196186,1,0,0:0:0:0:
256,192,196251,1,0,0:0:0:0:
402,192,196251,1,0,0:0:0:0:
329,192,196314,1,0,0:0:0:0:
36,192,196314,1,0,0:0:0:0:
109,192,196314,1,0,0:0:0:0:
475,192,196314,1,0,0:0:0:0:
256,192,196378,1,0,0:0:0:0:
402,192,196378,1,0,0:0:0:0:
329,192,196443,1,0,0:0:0:0:
182,192,196443,1,0,0:0:0:0:
109,192,196507,1,0,0:0:0:0:
256,192,196507,1,0,0:0:0:0:
36,192,196571,1,0,0:0:0:0:
182,192,196571,1,0,0:0:0:0:
329,192,196571,1,0,0:0:0:0:
402,192,196571,1,0,0:0:0:0:
256,192,196635,1,0,0:0:0:0:
475,192,196635,1,0,0:0:0:0:
329,192,196700,1,0,0:0:0:0:
182,192,196700,1,0,0:0:0:0:
109,192,196700,1,0,0:0:0:0:
36,192,196763,1,0,0:0:0:0:
256,192,196763,1,0,0:0:0:0:
329,192,196827,1,0,0:0:0:0:
402,192,196827,1,0,0:0:0:0:
475,192,196827,1,0,0:0:0:0:
182,192,196827,1,0,0:0:0:0:
36,192,196892,1,0,0:0:0:0:
109,192,196892,1,0,0:0:0:0:
182,192,196955,1,0,0:0:0:0:
256,192,196955,1,0,0:0:0:0:
475,192,196955,1,0,0:0:0:0:
329,192,197020,1,0,0:0:0:0:
36,192,197020,1,0,0:0:0:0:
109,192,197084,1,0,0:0:0:0:
182,192,197084,1,0,0:0:0:0:
402,192,197084,1,0,0:0:0:0:
475,192,197084,1,0,0:0:0:0:
256,192,197147,1,0,0:0:0:0:
36,192,197147,1,0,0:0:0:0:
109,192,197212,1,0,0:0:0:0:
329,192,197212,1,0,0:0:0:0:
475,192,197212,1,0,0:0:0:0:
402,192,197276,1,0,0:0:0:0:
182,192,197276,1,0,0:0:0:0:
36,192,197341,1,0,0:0:0:0:
109,192,197341,1,0,0:0:0:0:
256,192,197341,1,0,0:0:0:0:
329,192,197341,1,0,0:0:0:0:
402,192,197404,1,0,0:0:0:0:
475,192,197404,1,0,0:0:0:0:
182,192,197468,1,0,0:0:0:0:
36,192,197468,1,0,0:0:0:0:
256,192,197468,1,0,0:0:0:0:
329,192,197533,1,0,0:0:0:0:
109,192,197533,1,0,0:0:0:0:
182,192,197596,1,0,0:0:0:0:
256,192,197596,1,0,0:0:0:0:
475,192,197596,1,0,0:0:0:0:
402,192,197596,1,0,0:0:0:0:
36,192,197661,1,0,0:0:0:0:
109,192,197661,1,0,0:0:0:0:
182,192,197725,1,0,0:0:0:0:
329,192,197725,1,0,0:0:0:0:
475,192,197725,1,0,0:0:0:0:
402,192,197788,1,0,0:0:0:0:
256,192,197788,1,0,0:0:0:0:
182,192,197853,1,0,0:0:0:0:
109,192,197853,1,0,0:0:0:0:
36,192,197853,1,0,0:0:0:0:
329,192,197853,1,0,0:0:0:0:
256,192,197917,1,0,0:0:0:0:
475,192,197917,1,0,0:0:0:0:
36,192,197981,1,0,0:0:0:0:
329,192,197981,1,0,0:0:0:0:
402,192,197981,1,0,0:0:0:0:
109,192,198045,1,0,0:0:0:0:
256,192,198045,1,0,0:0:0:0:
36,192,198110,1,0,0:0:0:0:
475,192,198110,1,0,0:0:0:0:
182,192,198110,1,0,0:0:0:0:
329,192,198110,1,0,0:0:0:0:
109,192,198174,1,0,0:0:0:0:
256,192,198174,1,0,0:0:0:0:
182,192,198237,1,0,0:0:0:0:
329,192,198237,1,0,0:0:0:0:
256,192,198302,1,0,0:0:0:0:
402,192,198302,1,0,0:0:0:0:
329,192,198366,1,0,0:0:0:0:
182,192,198366,1,0,0:0:0:0:
109,192,198366,1,0,0:0:0:0:
36,192,198366,1,0,0:0:0:0:
475,192,198366,1,0,0:0:0:0:
256,192,198430,1,0,0:0:0:0:
402,192,198430,1,0,0:0:0:0:
182,192,198494,1,0,0:0:0:0:
329,192,198494,1,0,0:0:0:0:
109,192,198558,1,0,0:0:0:0:
256,192,198558,1,0,0:0:0:0:
182,192,198622,1,0,0:0:0:0:
36,192,198622,1,0,0:0:0:0:
402,192,198622,1,0,0:0:0:0:
329,192,198622,1,0,0:0:0:0:
256,192,198686,1,0,0:0:0:0:
475,192,198686,1,0,0:0:0:0:
182,192,198751,1,0,0:0:0:0:
36,192,198751,1,0,0:0:0:0:
329,192,198751,1,0,0:0:0:0:
109,192,198814,1,0,0:0:0:0:
256,192,198814,1,0,0:0:0:0:
329,192,198878,1,0,0:0:0:0:
402,192,198878,1,0,0:0:0:0:
475,192,198878,1,0,0:0:0:0:
182,192,198878,1,0,0:0:0:0:
109,192,198943,1,0,0:0:0:0:
256,192,198943,1,0,0:0:0:0:
182,192,199007,1,0,0:0:0:0:
402,192,199007,1,0,0:0:0:0:
329,192,199007,1,0,0:0:0:0:
36,192,199071,1,0,0:0:0:0:
109,192,199071,1,0,0:0:0:0:
182,192,199135,1,0,0:0:0:0:
256,192,199135,1,0,0:0:0:0:
329,192,199135,1,0,0:0:0:0:
475,192,199135,1,0,0:0:0:0:
109,192,199200,1,0,0:0:0:0:
402,192,199200,1,0,0:0:0:0:
182,192,199263,1,0,0:0:0:0:
329,192,199263,1,0,0:0:0:0:
256,192,199327,1,0,0:0:0:0:
36,192,199392,1,0,0:0:0:0:
329,192,199392,1,0,0:0:0:0:
402,192,199392,1,0,0:0:0:0:
475,192,199392,1,0,0:0:0:0:
109,192,199455,1,0,0:0:0:0:
256,192,199520,1,0,0:0:0:0:
182,192,199584,1,0,0:0:0:0:
109,192,199584,1,0,0:0:0:0:
329,192,199647,1,0,0:0:0:0:
402,192,199647,1,0,0:0:0:0:
475,192,199647,1,0,0:0:0:0:
36,192,199647,1,0,0:0:0:0:
182,192,199712,1,0,0:0:0:0:
256,192,199712,1,0,0:0:0:0:
475,192,199776,1,0,0:0:0:0:
36,192,199776,1,0,0:0:0:0:
109,192,199776,1,0,0:0:0:0:
402,192,199841,1,0,0:0:0:0:
329,192,199841,1,0,0:0:0:0:
36,192,199904,1,0,0:0:0:0:
256,192,199904,1,0,0:0:0:0:
109,192,199904,1,0,0:0:0:0:
182,192,199904,1,0,0:0:0:0:
402,192,199968,1,0,0:0:0:0:
475,192,199968,1,0,0:0:0:0:
109,192,200033,1,0,0:0:0:0:
36,192,200033,1,0,0:0:0:0:
329,192,200033,1,0,0:0:0:0:
256,192,200096,1,0,0:0:0:0:
402,192,200096,1,0,0:0:0:0:
329,192,200161,1,0,0:0:0:0:
182,192,200161,1,0,0:0:0:0:
475,192,200161,1,0,0:0:0:0:
109,192,200161,1,0,0:0:0:0:
402,192,200225,1,0,0:0:0:0:
256,192,200225,1,0,0:0:0:0:
329,192,200288,1,0,0:0:0:0:
182,192,200288,1,0,0:0:0:0:
109,192,200353,1,0,0:0:0:0:
256,192,200353,1,0,0:0:0:0:
182,192,200417,1,0,0:0:0:0:
329,192,200417,1,0,0:0:0:0:
402,192,200417,1,0,0:0:0:0:
36,192,200417,1,0,0:0:0:0:
256,192,200481,1,0,0:0:0:0:
109,192,200481,1,0,0:0:0:0:
182,192,200545,1,0,0:0:0:0:
329,192,200545,1,0,0:0:0:0:
256,192,200610,1,0,0:0:0:0:
402,192,200610,1,0,0:0:0:0:
329,192,200674,1,0,0:0:0:0:
109,192,200674,1,0,0:0:0:0:
36,192,200674,1,0,0:0:0:0:
182,192,200674,1,0,0:0:0:0:
402,192,200737,1,0,0:0:0:0:
475,192,200737,1,0,0:0:0:0:
329,192,200802,1,0,0:0:0:0:
36,192,200802,1,0,0:0:0:0:
182,192,200802,1,0,0:0:0:0:
109,192,200866,1,0,0:0:0:0:
256,192,200866,1,0,0:0:0:0:
182,192,200930,1,0,0:0:0:0:
475,192,200930,1,0,0:0:0:0:
329,192,200930,1,0,0:0:0:0:
402,192,200930,1,0,0:0:0:0:
36,192,200994,1,0,0:0:0:0:
256,192,200994,1,0,0:0:0:0:
109,192,201058,1,0,0:0:0:0:
329,192,201058,1,0,0:0:0:0:
475,192,201058,1,0,0:0:0:0:
402,192,201122,1,0,0:0:0:0:
182,192,201122,1,0,0:0:0:0:
256,192,201186,1,0,0:0:0:0:
329,192,201186,1,0,0:0:0:0:
475,192,201186,1,0,0:0:0:0:
36,192,201186,1,0,0:0:0:0:
109,192,201251,1,0,0:0:0:0:
182,192,201251,1,0,0:0:0:0:
256,192,201314,1,0,0:0:0:0:
36,192,201314,1,0,0:0:0:0:
402,192,201314,1,0,0:0:0:0:
329,192,201378,1,0,0:0:0:0:
182,192,201378,1,0,0:0:0:0:
402,192,201443,1,0,0:0:0:0:
475,192,201443,1,0,0:0:0:0:
256,192,201443,1,0,0:0:0:0:
109,192,201443,1,0,0:0:0:0:
36,192,201507,1,0,0:0:0:0:
182,192,201507,1,0,0:0:0:0:
256,192,201571,1,0,0:0:0:0:
329,192,201571,1,0,0:0:0:0:
475,192,201571,1,0,0:0:0:0:
109,192,201635,1,0,0:0:0:0:
36,192,201635,1,0,0:0:0:0:
329,192,201700,1,0,0:0:0:0:
402,192,201700,1,0,0:0:0:0:
256,192,201700,1,0,0:0:0:0:
182,192,201700,1,0,0:0:0:0:
36,192,201763,1,0,0:0:0:0:
109,192,201763,1,0,0:0:0:0:
475,192,201827,1,0,0:0:0:0:
329,192,201827,1,0,0:0:0:0:
256,192,201827,1,0,0:0:0:0:
109,192,201892,1,0,0:0:0:0:
182,192,201892,1,0,0:0:0:0:
256,192,201955,1,0,0:0:0:0:
475,192,201955,1,0,0:0:0:0:
36,192,201955,1,0,0:0:0:0:
402,192,201955,1,0,0:0:0:0:
182,192,202020,1,0,0:0:0:0:
329,192,202020,1,0,0:0:0:0:
109,192,202084,1,0,0:0:0:0:
402,192,202084,1,0,0:0:0:0:
475,192,202084,1,0,0:0:0:0:
329,192,202147,1,0,0:0:0:0:
256,192,202147,1,0,0:0:0:0:
402,192,202212,1,0,0:0:0:0:
475,192,202212,1,0,0:0:0:0:
36,192,202212,1,0,0:0:0:0:
182,192,202212,1,0,0:0:0:0:
256,192,202276,1,0,0:0:0:0:
109,192,202276,1,0,0:0:0:0:
329,192,202341,1,0,0:0:0:0:
182,192,202341,1,0,0:0:0:0:
256,192,202404,1,0,0:0:0:0:
402,192,202404,1,0,0:0:0:0:
329,192,202468,1,0,0:0:0:0:
36,192,202468,1,0,0:0:0:0:
109,192,202468,1,0,0:0:0:0:
475,192,202468,1,0,0:0:0:0:
256,192,202533,1,0,0:0:0:0:
402,192,202533,1,0,0:0:0:0:
329,192,202596,1,0,0:0:0:0:
182,192,202596,1,0,0:0:0:0:
109,192,202661,1,0,0:0:0:0:
256,192,202661,1,0,0:0:0:0:
36,192,202725,1,0,0:0:0:0:
182,192,202725,1,0,0:0:0:0:
329,192,202725,1,0,0:0:0:0:
402,192,202725,1,0,0:0:0:0:
475,192,202788,1,0,0:0:0:0:
256,192,202788,1,0,0:0:0:0:
182,192,202853,1,0,0:0:0:0:
109,192,202853,1,0,0:0:0:0:
402,192,202853,1,0,0:0:0:0:
256,192,202917,1,0,0:0:0:0:
36,192,202917,1,0,0:0:0:0:
329,192,202981,1,0,0:0:0:0:
402,192,202981,1,0,0:0:0:0:
475,192,202981,1,0,0:0:0:0:
182,192,202981,1,0,0:0:0:0:
109,192,203045,1,0,0:0:0:0:
36,192,203045,1,0,0:0:0:0:
182,192,203110,1,0,0:0:0:0:
475,192,203110,1,0,0:0:0:0:
329,192,203110,1,0,0:0:0:0:
109,192,203174,1,0,0:0:0:0:
256,192,203174,1,0,0:0:0:0:
36,192,203237,1,0,0:0:0:0:
182,192,203237,1,0,0:0:0:0:
329,192,203237,1,0,0:0:0:0:
402,192,203237,1,0,0:0:0:0:
475,192,203302,1,0,0:0:0:0:
256,192,203302,1,0,0:0:0:0:
109,192,203366,1,0,0:0:0:0:
329,192,203366,1,0,0:0:0:0:
402,192,203366,1,0,0:0:0:0:
182,192,203430,1,0,0:0:0:0:
36,192,203430,1,0,0:0:0:0:
256,192,203494,1,0,0:0:0:0:
329,192,203494,1,0,0:0:0:0:
402,192,203494,1,0,0:0:0:0:
475,192,203494,1,0,0:0:0:0:
109,192,203558,1,0,0:0:0:0:
182,192,203558,1,0,0:0:0:0:
36,192,203622,1,0,0:0:0:0:
329,192,203622,1,0,0:0:0:0:
475,192,203622,1,0,0:0:0:0:
256,192,203686,1,0,0:0:0:0:
182,192,203686,1,0,0:0:0:0:
109,192,203751,1,0,0:0:0:0:
36,192,203751,1,0,0:0:0:0:
402,192,203751,1,0,0:0:0:0:
475,192,203751,1,0,0:0:0:0:
256,192,203814,1,0,0:0:0:0:
329,192,203814,1,0,0:0:0:0:
182,192,203878,1,0,0:0:0:0:
475,192,203878,1,0,0:0:0:0:
402,192,203878,1,0,0:0:0:0:
329,192,203943,1,0,0:0:0:0:
109,192,203943,1,0,0:0:0:0:
256,192,204007,1,0,0:0:0:0:
402,192,204007,1,0,0:0:0:0:
36,192,204007,1,0,0:0:0:0:
182,192,204007,1,0,0:0:0:0:
329,192,204071,1,0,0:0:0:0:
475,192,204071,1,0,0:0:0:0:
182,192,204135,1,0,0:0:0:0:
109,192,204135,1,0,0:0:0:0:
36,192,204135,1,0,0:0:0:0:
256,192,204200,1,0,0:0:0:0:
402,192,204200,1,0,0:0:0:0:
36,192,204263,1,0,0:0:0:0:
475,192,204263,1,0,0:0:0:0:
182,192,204263,1,0,0:0:0:0:
329,192,204263,1,0,0:0:0:0:
109,192,204327,1,0,0:0:0:0:
256,192,204327,1,0,0:0:0:0:
182,192,204392,1,0,0:0:0:0:
329,192,204392,1,0,0:0:0:0:
256,192,204455,1,0,0:0:0:0:
402,192,204455,1,0,0:0:0:0:
329,192,204520,1,0,0:0:0:0:
182,192,204520,1,0,0:0:0:0:
109,192,204520,1,0,0:0:0:0:
36,192,204520,1,0,0:0:0:0:
475,192,204520,1,0,0:0:0:0:
256,192,204584,1,0,0:0:0:0:
402,192,204584,1,0,0:0:0:0:
182,192,204647,1,0,0:0:0:0:
329,192,204647,1,0,0:0:0:0:
109,192,204712,1,0,0:0:0:0:
256,192,204712,1,0,0:0:0:0:
182,192,204776,1,0,0:0:0:0:
36,192,204776,1,0,0:0:0:0:
402,192,204776,1,0,0:0:0:0:
329,192,204776,1,0,0:0:0:0:
256,192,204841,1,0,0:0:0:0:
475,192,204841,1,0,0:0:0:0:
182,192,204904,1,0,0:0:0:0:
36,192,204904,1,0,0:0:0:0:
329,192,204904,1,0,0:0:0:0:
109,192,204968,1,0,0:0:0:0:
256,192,204968,1,0,0:0:0:0:
329,192,205033,1,0,0:0:0:0:
402,192,205033,1,0,0:0:0:0:
475,192,205033,1,0,0:0:0:0:
182,192,205033,1,0,0:0:0:0:
109,192,205096,1,0,0:0:0:0:
256,192,205096,1,0,0:0:0:0:
182,192,205161,1,0,0:0:0:0:
402,192,205161,1,0,0:0:0:0:
329,192,205161,1,0,0:0:0:0:
36,192,205225,1,0,0:0:0:0:
109,192,205225,1,0,0:0:0:0:
182,192,205288,1,0,0:0:0:0:
256,192,205288,1,0,0:0:0:0:
329,192,205288,1,0,0:0:0:0:
475,192,205288,1,0,0:0:0:0:
109,192,205353,1,0,0:0:0:0:
402,192,205353,1,0,0:0:0:0:
182,192,205417,1,0,0:0:0:0:
329,192,205417,1,0,0:0:0:0:
475,192,205417,1,0,0:0:0:0:
109,192,205481,1,0,0:0:0:0:
36,192,205481,1,0,0:0:0:0:
256,192,205545,1,0,0:0:0:0:
182,192,205545,1,0,0:0:0:0:
402,192,205545,1,0,0:0:0:0:
475,192,205545,1,0,0:0:0:0:
109,192,205610,1,0,0:0:0:0:
36,192,205610,1,0,0:0:0:0:
182,192,205674,1,0,0:0:0:0:
402,192,205674,1,0,0:0:0:0:
329,192,205674,1,0,0:0:0:0:
256,192,205737,1,0,0:0:0:0:
109,192,205737,1,0,0:0:0:0:
329,192,205802,1,0,0:0:0:0:
402,192,205802,1,0,0:0:0:0:
475,192,205802,1,0,0:0:0:0:
36,192,205802,1,0,0:0:0:0:
182,192,205866,1,0,0:0:0:0:
256,192,205866,1,0,0:0:0:0:
475,192,205930,1,0,0:0:0:0:
36,192,205930,1,0,0:0:0:0:
109,192,205930,1,0,0:0:0:0:
402,192,205994,1,0,0:0:0:0:
329,192,205994,1,0,0:0:0:0:
36,192,206058,1,0,0:0:0:0:
256,192,206058,1,0,0:0:0:0:
109,192,206058,1,0,0:0:0:0:
182,192,206058,1,0,0:0:0:0:
402,192,206122,1,0,0:0:0:0:
475,192,206122,1,0,0:0:0:0:
109,192,206186,1,0,0:0:0:0:
36,192,206186,1,0,0:0:0:0:
329,192,206186,1,0,0:0:0:0:
256,192,206251,1,0,0:0:0:0:
402,192,206251,1,0,0:0:0:0:
329,192,206314,1,0,0:0:0:0:
182,192,206314,1,0,0:0:0:0:
475,192,206314,1,0,0:0:0:0:
109,192,206314,1,0,0:0:0:0:
402,192,206378,1,0,0:0:0:0:
256,192,206378,1,0,0:0:0:0:
329,192,206443,1,0,0:0:0:0:
182,192,206443,1,0,0:0:0:0:
109,192,206507,1,0,0:0:0:0:
256,192,206507,1,0,0:0:0:0:
182,192,206571,1,0,0:0:0:0:
329,192,206571,1,0,0:0:0:0:
402,192,206571,1,0,0:0:0:0:
36,192,206571,1,0,0:0:0:0:
256,192,206635,1,0,0:0:0:0:
109,192,206635,1,0,0:0:0:0:
182,192,206700,1,0,0:0:0:0:
329,192,206700,1,0,0:0:0:0:
256,192,206763,1,0,0:0:0:0:
402,192,206763,1,0,0:0:0:0:
329,192,206827,1,0,0:0:0:0:
109,192,206827,1,0,0:0:0:0:
36,192,206827,1,0,0:0:0:0:
182,192,206827,1,0,0:0:0:0:
402,192,206892,1,0,0:0:0:0:
475,192,206892,1,0,0:0:0:0:
329,192,206955,1,0,0:0:0:0:
36,192,206955,1,0,0:0:0:0:
182,192,206955,1,0,0:0:0:0:
109,192,207020,1,0,0:0:0:0:
256,192,207020,1,0,0:0:0:0:
182,192,207084,1,0,0:0:0:0:
475,192,207084,1,0,0:0:0:0:
329,192,207084,1,0,0:0:0:0:
402,192,207084,1,0,0:0:0:0:
36,192,207147,1,0,0:0:0:0:
256,192,207147,1,0,0:0:0:0:
109,192,207212,1,0,0:0:0:0:
329,192,207212,1,0,0:0:0:0:
475,192,207212,1,0,0:0:0:0:
402,192,207276,1,0,0:0:0:0:
182,192,207276,1,0,0:0:0:0:
256,192,207341,1,0,0:0:0:0:
109,192,207341,1,0,0:0:0:0:
36,192,207341,1,0,0:0:0:0:
329,192,207341,1,0,0:0:0:0:
402,192,207404,1,0,0:0:0:0:
475,192,207404,1,0,0:0:0:0:
256,192,207468,1,0,0:0:0:0:
109,192,207468,1,0,0:0:0:0:
36,192,207468,1,0,0:0:0:0:
182,192,207533,1,0,0:0:0:0:
329,192,207533,1,0,0:0:0:0:
402,192,207596,1,0,0:0:0:0:
475,192,207596,1,0,0:0:0:0:
109,192,207596,1,0,0:0:0:0:
36,192,207596,1,0,0:0:0:0:
256,192,207661,1,0,0:0:0:0:
182,192,207661,1,0,0:0:0:0:
109,192,207725,1,0,0:0:0:0:
329,192,207725,1,0,0:0:0:0:
36,192,207725,1,0,0:0:0:0:
256,192,207788,1,0,0:0:0:0:
402,192,207788,1,0,0:0:0:0:
475,192,207853,1,0,0:0:0:0:
329,192,207853,1,0,0:0:0:0:
182,192,207853,1,0,0:0:0:0:
109,192,207853,1,0,0:0:0:0:
36,192,207917,1,0,0:0:0:0:
256,192,207917,1,0,0:0:0:0:
329,192,207981,1,0,0:0:0:0:
475,192,207981,1,0,0:0:0:0:
109,192,208045,1,0,0:0:0:0:
36,192,208045,1,0,0:0:0:0:
182,192,208110,1,0,0:0:0:0:
329,192,208110,1,0,0:0:0:0:
402,192,208110,1,0,0:0:0:0:
475,192,208110,1,0,0:0:0:0:
256,192,208174,1,0,0:0:0:0:
109,192,208174,1,0,0:0:0:0:
402,192,208237,1,0,0:0:0:0:
329,192,208237,1,0,0:0:0:0:
36,192,208302,1,0,0:0:0:0:
109,192,208302,1,0,0:0:0:0:
256,192,208366,1,0,0:0:0:0:
329,192,208366,1,0,0:0:0:0:
402,192,208366,1,0,0:0:0:0:
475,192,208366,1,0,0:0:0:0:
182,192,208430,1,0,0:0:0:0:
109,192,208430,1,0,0:0:0:0:
329,192,208494,1,0,0:0:0:0:
256,192,208494,1,0,0:0:0:0:
475,192,208558,1,0,0:0:0:0:
402,192,208558,1,0,0:0:0:0:
182,192,208622,1,0,0:0:0:0:
109,192,208622,1,0,0:0:0:0:
36,192,208622,1,0,0:0:0:0:
329,192,208622,1,0,0:0:0:0:
402,192,208686,1,0,0:0:0:0:
475,192,208686,1,0,0:0:0:0:
109,192,208751,1,0,0:0:0:0:
256,192,208751,1,0,0:0:0:0:
182,192,208814,1,0,0:0:0:0:
329,192,208814,1,0,0:0:0:0:
109,192,208878,1,0,0:0:0:0:
36,192,208878,1,0,0:0:0:0:
402,192,208878,1,0,0:0:0:0:
475,192,208878,1,0,0:0:0:0:
256,192,208943,1,0,0:0:0:0:
329,192,208943,1,0,0:0:0:0:
182,192,209007,1,0,0:0:0:0:
36,192,209007,1,0,0:0:0:0:
109,192,209071,1,0,0:0:0:0:
256,192,209071,1,0,0:0:0:0:
329,192,209135,1,0,0:0:0:0:
402,192,209135,1,0,0:0:0:0:
475,192,209135,1,0,0:0:0:0:
36,192,209135,1,0,0:0:0:0:
182,192,209200,1,0,0:0:0:0:
256,192,209200,1,0,0:0:0:0:
109,192,209263,1,0,0:0:0:0:
36,192,209263,1,0,0:0:0:0:
256,192,209327,1,0,0:0:0:0:
329,192,209327,1,0,0:0:0:0:
36,192,209392,1,0,0:0:0:0:
109,192,209392,1,0,0:0:0:0:
402,192,209392,1,0,0:0:0:0:
475,192,209392,1,0,0:0:0:0:
109,192,209520,1,0,0:0:0:0:
182,192,209520,1,0,0:0:0:0:
256,192,209520,1,0,0:0:0:0:
329,192,209647,1,0,0:0:0:0:
402,192,209647,1,0,0:0:0:0:
475,192,209647,1,0,0:0:0:0:
36,192,209776,1,0,0:0:0:0:
182,192,209776,1,0,0:0:0:0:
109,192,209776,1,0,0:0:0:0:
475,192,209904,1,0,0:0:0:0:
402,192,209904,1,0,0:0:0:0:
329,192,209904,1,0,0:0:0:0:
329,192,210033,1,0,0:0:0:0:
256,192,210033,1,0,0:0:0:0:
182,192,210033,1,0,0:0:0:0:
36,192,210161,1,0,0:0:0:0:
182,192,210161,1,0,0:0:0:0:
109,192,210161,1,0,0:0:0:0:
329,192,210288,1,0,0:0:0:0:
402,192,210288,1,0,0:0:0:0:
475,192,210288,1,0,0:0:0:0:
109,192,210417,1,0,0:0:0:0:
36,192,210417,1,0,0:0:0:0:
182,192,210417,1,0,0:0:0:0:
256,192,210545,1,0,0:0:0:0:
329,192,210545,1,0,0:0:0:0:
402,192,210545,1,0,0:0:0:0:
182,192,210674,1,0,0:0:0:0:
109,192,210674,1,0,0:0:0:0:
36,192,210674,1,0,0:0:0:0:
182,192,210802,1,0,0:0:0:0:
256,192,210802,1,0,0:0:0:0:
329,192,210802,1,0,0:0:0:0:
256,192,210930,1,0,0:0:0:0:
329,192,210930,1,0,0:0:0:0:
402,192,210930,1,0,0:0:0:0:
109,192,211058,1,0,0:0:0:0:
36,192,211058,1,0,0:0:0:0:
182,192,211058,1,0,0:0:0:0:
182,192,211186,1,0,0:0:0:0:
256,192,211186,1,0,0:0:0:0:
109,192,211186,1,0,0:0:0:0:
329,192,211251,1,0,0:0:0:0:
402,192,211314,1,0,0:0:0:0:
475,192,211378,1,0,0:0:0:0:
182,192,211443,1,0,0:0:0:0:
256,192,211443,1,0,0:0:0:0:
329,192,211443,1,0,0:0:0:0:
109,192,211443,1,0,0:0:0:0:
36,192,211507,1,0,0:0:0:0:
402,192,211507,1,0,0:0:0:0:
329,192,211571,1,0,0:0:0:0:
182,192,211571,1,0,0:0:0:0:
109,192,211635,1,0,0:0:0:0:
256,192,211635,1,0,0:0:0:0:
36,192,211700,1,0,0:0:0:0:
182,192,211700,1,0,0:0:0:0:
329,192,211700,1,0,0:0:0:0:
402,192,211700,1,0,0:0:0:0:
475,192,211763,1,0,0:0:0:0:
256,192,211763,1,0,0:0:0:0:
182,192,211827,1,0,0:0:0:0:
402,192,211827,1,0,0:0:0:0:
109,192,211892,1,0,0:0:0:0:
329,192,211892,1,0,0:0:0:0:
256,192,211955,1,0,0:0:0:0:
402,192,211955,1,0,0:0:0:0:
475,192,211955,1,0,0:0:0:0:
182,192,211955,1,0,0:0:0:0:
36,192,212020,1,0,0:0:0:0:
329,192,212020,1,0,0:0:0:0:
109,192,212084,1,0,0:0:0:0:
256,192,212084,1,0,0:0:0:0:
182,192,212147,1,0,0:0:0:0:
36,192,212147,1,0,0:0:0:0:
256,192,212212,1,0,0:0:0:0:
329,192,212212,1,0,0:0:0:0:
402,192,212212,1,0,0:0:0:0:
475,192,212212,1,0,0:0:0:0:
109,192,212276,1,0,0:0:0:0:
182,192,212276,1,0,0:0:0:0:
256,192,212341,1,0,0:0:0:0:
402,192,212341,1,0,0:0:0:0:
475,192,212404,1,0,0:0:0:0:
329,192,212404,1,0,0:0:0:0:
256,192,212468,1,0,0:0:0:0:
182,192,212468,1,0,0:0:0:0:
109,192,212468,1,0,0:0:0:0:
36,192,212468,1,0,0:0:0:0:
329,192,212533,1,0,0:0:0:0:
402,192,212533,1,0,0:0:0:0:
182,192,212596,1,0,0:0:0:0:
36,192,212596,1,0,0:0:0:0:
109,192,212661,1,0,0:0:0:0:
256,192,212661,1,0,0:0:0:0:
329,192,212725,1,0,0:0:0:0:
402,192,212725,1,0,0:0:0:0:
475,192,212725,1,0,0:0:0:0:
182,192,212725,1,0,0:0:0:0:
36,192,212788,1,0,0:0:0:0:
256,192,212788,1,0,0:0:0:0:
329,192,212853,1,0,0:0:0:0:
182,192,212853,1,0,0:0:0:0:
402,192,212917,1,0,0:0:0:0:
475,192,212917,1,0,0:0:0:0:
182,192,212981,1,0,0:0:0:0:
109,192,212981,1,0,0:0:0:0:
36,192,212981,1,0,0:0:0:0:
256,192,212981,1,0,0:0:0:0:
329,192,213045,1,0,0:0:0:0:
475,192,213045,1,0,0:0:0:0:
256,192,213110,1,0,0:0:0:0:
109,192,213110,1,0,0:0:0:0:
36,192,213174,1,0,0:0:0:0:
182,192,213174,1,0,0:0:0:0:
256,192,213237,1,0,0:0:0:0:
329,192,213237,1,0,0:0:0:0:
402,192,213237,1,0,0:0:0:0:
475,192,213237,1,0,0:0:0:0:
109,192,213302,1,0,0:0:0:0:
182,192,213302,1,0,0:0:0:0:
256,192,213366,1,0,0:0:0:0:
402,192,213366,1,0,0:0:0:0:
36,192,213430,1,0,0:0:0:0:
182,192,213430,1,0,0:0:0:0:
329,192,213494,1,0,0:0:0:0:
402,192,213494,1,0,0:0:0:0:
475,192,213494,1,0,0:0:0:0:
109,192,213494,1,0,0:0:0:0:
256,192,213558,1,0,0:0:0:0:
36,192,213558,1,0,0:0:0:0:
182,192,213622,1,0,0:0:0:0:
329,192,213622,1,0,0:0:0:0:
402,192,213686,1,0,0:0:0:0:
475,192,213686,1,0,0:0:0:0:
256,192,213751,1,0,0:0:0:0:
36,192,213751,1,0,0:0:0:0:
109,192,213751,1,0,0:0:0:0:
182,192,213751,1,0,0:0:0:0:
329,192,213814,1,0,0:0:0:0:
475,192,213814,1,0,0:0:0:0:
182,192,213878,1,0,0:0:0:0:
36,192,213878,1,0,0:0:0:0:
109,192,213943,1,0,0:0:0:0:
256,192,213943,1,0,0:0:0:0:
182,192,214007,1,0,0:0:0:0:
329,192,214007,1,0,0:0:0:0:
402,192,214007,1,0,0:0:0:0:
475,192,214007,1,0,0:0:0:0:
36,192,214071,1,0,0:0:0:0:
256,192,214071,1,0,0:0:0:0:
182,192,214135,1,0,0:0:0:0:
329,192,214135,1,0,0:0:0:0:
402,192,214200,1,0,0:0:0:0:
475,192,214200,1,0,0:0:0:0:
182,192,214263,1,0,0:0:0:0:
36,192,214263,1,0,0:0:0:0:
256,192,214263,1,0,0:0:0:0:
329,192,214263,1,0,0:0:0:0:
109,192,214327,1,0,0:0:0:0:
402,192,214327,1,0,0:0:0:0:
329,192,214392,1,0,0:0:0:0:
182,192,214392,1,0,0:0:0:0:
109,192,214455,1,0,0:0:0:0:
36,192,214455,1,0,0:0:0:0:
256,192,214520,1,0,0:0:0:0:
329,192,214520,1,0,0:0:0:0:
475,192,214520,1,0,0:0:0:0:
182,192,214520,1,0,0:0:0:0:
109,192,214584,1,0,0:0:0:0:
402,192,214584,1,0,0:0:0:0:
182,192,214647,1,0,0:0:0:0:
36,192,214647,1,0,0:0:0:0:
256,192,214712,1,0,0:0:0:0:
329,192,214712,1,0,0:0:0:0:
402,192,214776,1,0,0:0:0:0:
475,192,214776,1,0,0:0:0:0:
36,192,214776,1,0,0:0:0:0:
109,192,214776,1,0,0:0:0:0:
182,192,214841,1,0,0:0:0:0:
329,192,214841,1,0,0:0:0:0:
256,192,214904,1,0,0:0:0:0:
402,192,214904,1,0,0:0:0:0:
182,192,214968,1,0,0:0:0:0:
36,192,214968,1,0,0:0:0:0:
109,192,215033,1,0,0:0:0:0:
256,192,215033,1,0,0:0:0:0:
329,192,215033,1,0,0:0:0:0:
402,192,215033,1,0,0:0:0:0:
475,192,215096,1,0,0:0:0:0:
182,192,215096,1,0,0:0:0:0:
256,192,215161,1,0,0:0:0:0:
402,192,215161,1,0,0:0:0:0:
329,192,215225,1,0,0:0:0:0:
475,192,215225,1,0,0:0:0:0:
182,192,215288,1,0,0:0:0:0:
109,192,215288,1,0,0:0:0:0:
36,192,215288,1,0,0:0:0:0:
256,192,215288,1,0,0:0:0:0:
402,192,215353,1,0,0:0:0:0:
475,192,215353,1,0,0:0:0:0:
109,192,215417,1,0,0:0:0:0:
36,192,215417,1,0,0:0:0:0:
182,192,215481,1,0,0:0:0:0:
256,192,215481,1,0,0:0:0:0:
109,192,215545,1,0,0:0:0:0:
36,192,215545,1,0,0:0:0:0:
329,192,215545,1,0,0:0:0:0:
402,192,215545,1,0,0:0:0:0:
475,192,215610,1,0,0:0:0:0:
182,192,215610,1,0,0:0:0:0:
329,192,215674,1,0,0:0:0:0:
109,192,215674,1,0,0:0:0:0:
36,192,215737,1,0,0:0:0:0:
256,192,215737,1,0,0:0:0:0:
329,192,215802,1,0,0:0:0:0:
402,192,215802,1,0,0:0:0:0:
475,192,215802,1,0,0:0:0:0:
182,192,215802,1,0,0:0:0:0:
109,192,215866,1,0,0:0:0:0:
36,192,215866,1,0,0:0:0:0:
475,192,215930,1,0,0:0:0:0:
329,192,215930,1,0,0:0:0:0:
256,192,215994,1,0,0:0:0:0:
402,192,215994,1,0,0:0:0:0:
329,192,216058,1,0,0:0:0:0:
475,192,216058,1,0,0:0:0:0:
182,192,216058,1,0,0:0:0:0:
109,192,216058,1,0,0:0:0:0:
36,192,216122,1,0,0:0:0:0:
256,192,216122,1,0,0:0:0:0:
329,192,216186,1,0,0:0:0:0:
402,192,216186,1,0,0:0:0:0:
182,192,216251,1,0,0:0:0:0:
109,192,216251,1,0,0:0:0:0:
256,192,216314,1,0,0:0:0:0:
329,192,216314,1,0,0:0:0:0:
402,192,216314,1,0,0:0:0:0:
475,192,216314,1,0,0:0:0:0:
109,192,216378,1,0,0:0:0:0:
36,192,216378,1,0,0:0:0:0:
182,192,216443,1,0,0:0:0:0:
256,192,216443,1,0,0:0:0:0:
329,192,216507,1,0,0:0:0:0:
475,192,216507,1,0,0:0:0:0:
402,192,216571,1,0,0:0:0:0:
256,192,216571,1,0,0:0:0:0:
109,192,216571,1,0,0:0:0:0:
36,192,216571,1,0,0:0:0:0:
182,192,216635,1,0,0:0:0:0:
329,192,216635,1,0,0:0:0:0:
256,192,216700,1,0,0:0:0:0:
109,192,216700,1,0,0:0:0:0:
36,192,216763,1,0,0:0:0:0:
182,192,216763,1,0,0:0:0:0:
402,192,216827,1,0,0:0:0:0:
475,192,216827,1,0,0:0:0:0:
256,192,216827,1,0,0:0:0:0:
329,192,216827,1,0,0:0:0:0:
36,192,216892,1,0,0:0:0:0:
182,192,216892,1,0,0:0:0:0:
256,192,216955,1,0,0:0:0:0:
109,192,216955,1,0,0:0:0:0:
329,192,217020,1,0,0:0:0:0:
182,192,217020,1,0,0:0:0:0:
36,192,217084,1,0,0:0:0:0:
256,192,217084,1,0,0:0:0:0:
475,192,217084,1,0,0:0:0:0:
402,192,217084,1,0,0:0:0:0:
329,192,217147,1,0,0:0:0:0:
182,192,217147,1,0,0:0:0:0:
36,192,217212,1,0,0:0:0:0:
109,192,217212,1,0,0:0:0:0:
182,192,217276,1,0,0:0:0:0:
256,192,217276,1,0,0:0:0:0:
329,192,217341,1,0,0:0:0:0:
475,192,217341,1,0,0:0:0:0:
36,192,217341,1,0,0:0:0:0:
402,192,217341,1,0,0:0:0:0:
182,192,217404,1,0,0:0:0:0:
109,192,217404,1,0,0:0:0:0:
256,192,217468,1,0,0:0:0:0:
329,192,217468,1,0,0:0:0:0:
36,192,217533,1,0,0:0:0:0:
182,192,217533,1,0,0:0:0:0:
256,192,217596,1,0,0:0:0:0:
329,192,217596,1,0,0:0:0:0:
402,192,217596,1,0,0:0:0:0:
475,192,217596,1,0,0:0:0:0:
182,192,217661,1,0,0:0:0:0:
109,192,217661,1,0,0:0:0:0:
256,192,217725,1,0,0:0:0:0:
402,192,217725,1,0,0:0:0:0:
329,192,217788,1,0,0:0:0:0:
475,192,217788,1,0,0:0:0:0:
256,192,217853,1,0,0:0:0:0:
182,192,217853,1,0,0:0:0:0:
109,192,217853,1,0,0:0:0:0:
36,192,217853,1,0,0:0:0:0:
329,192,217917,1,0,0:0:0:0:
475,192,217917,1,0,0:0:0:0:
36,192,217981,1,0,0:0:0:0:
182,192,217981,1,0,0:0:0:0:
109,192,218045,1,0,0:0:0:0:
256,192,218045,1,0,0:0:0:0:
329,192,218110,1,0,0:0:0:0:
182,192,218110,1,0,0:0:0:0:
402,192,218110,1,0,0:0:0:0:
475,192,218110,1,0,0:0:0:0:
36,192,218174,1,0,0:0:0:0:
109,192,218174,1,0,0:0:0:0:
329,192,218237,1,0,0:0:0:0:
256,192,218237,1,0,0:0:0:0:
182,192,218302,1,0,0:0:0:0:
109,192,218302,1,0,0:0:0:0:
329,192,218366,1,0,0:0:0:0:
402,192,218366,1,0,0:0:0:0:
475,192,218366,1,0,0:0:0:0:
36,192,218366,1,0,0:0:0:0:
256,192,218430,1,0,0:0:0:0:
109,192,218430,1,0,0:0:0:0:
182,192,218494,1,0,0:0:0:0:
329,192,218494,1,0,0:0:0:0:
36,192,218558,1,0,0:0:0:0:
109,192,218558,1,0,0:0:0:0:
182,192,218622,1,0,0:0:0:0:
329,192,218622,1,0,0:0:0:0:
402,192,218622,1,0,0:0:0:0:
475,192,218622,1,0,0:0:0:0:
256,192,218686,1,0,0:0:0:0:
36,192,218686,1,0,0:0:0:0:
109,192,218751,1,0,0:0:0:0:
182,192,218751,1,0,0:0:0:0:
256,192,218814,1,0,0:0:0:0:
329,192,218814,1,0,0:0:0:0:
402,192,218878,1,0,0:0:0:0:
475,192,218878,1,0,0:0:0:0:
36,192,218878,1,0,0:0:0:0:
109,192,218878,1,0,0:0:0:0:
182,192,218943,1,0,0:0:0:0:
329,192,218943,1,0,0:0:0:0:
256,192,219007,1,0,0:0:0:0:
36,192,219007,1,0,0:0:0:0:
109,192,219071,1,0,0:0:0:0:
182,192,219071,1,0,0:0:0:0:
256,192,219135,1,0,0:0:0:0:
329,192,219135,1,0,0:0:0:0:
402,192,219135,1,0,0:0:0:0:
475,192,219135,1,0,0:0:0:0:
36,192,219200,1,0,0:0:0:0:
182,192,219200,1,0,0:0:0:0:
256,192,219263,1,0,0:0:0:0:
402,192,219263,1,0,0:0:0:0:
329,192,219327,1,0,0:0:0:0:
475,192,219327,1,0,0:0:0:0:
256,192,219392,1,0,0:0:0:0:
109,192,219392,1,0,0:0:0:0:
36,192,219392,1,0,0:0:0:0:
182,192,219392,1,0,0:0:0:0:
329,192,219455,1,0,0:0:0:0:
402,192,219455,1,0,0:0:0:0:
36,192,219520,1,0,0:0:0:0:
109,192,219520,1,0,0:0:0:0:
402,192,219584,1,0,0:0:0:0:
475,192,219584,1,0,0:0:0:0:
256,192,219647,1,0,0:0:0:0:
109,192,219647,1,0,0:0:0:0:
36,192,219647,1,0,0:0:0:0:
182,192,219647,1,0,0:0:0:0:
329,192,219712,1,0,0:0:0:0:
475,192,219712,1,0,0:0:0:0:
402,192,219776,1,0,0:0:0:0:
109,192,219776,1,0,0:0:0:0:
256,192,219841,1,0,0:0:0:0:
182,192,219841,1,0,0:0:0:0:
329,192,219904,1,0,0:0:0:0:
402,192,219904,1,0,0:0:0:0:
475,192,219904,1,0,0:0:0:0:
36,192,219904,1,0,0:0:0:0:
182,192,219968,1,0,0:0:0:0:
109,192,219968,1,0,0:0:0:0:
256,192,220033,1,0,0:0:0:0:
402,192,220033,1,0,0:0:0:0:
329,192,220096,1,0,0:0:0:0:
475,192,220096,1,0,0:0:0:0:
256,192,220161,1,0,0:0:0:0:
182,192,220161,1,0,0:0:0:0:
109,192,220161,1,0,0:0:0:0:
36,192,220161,1,0,0:0:0:0:
329,192,220225,1,0,0:0:0:0:
402,192,220225,1,0,0:0:0:0:
182,192,220288,1,0,0:0:0:0:
36,192,220288,1,0,0:0:0:0:
256,192,220353,1,0,0:0:0:0:
329,192,220353,1,0,0:0:0:0:
402,192,220417,1,0,0:0:0:0:
475,192,220417,1,0,0:0:0:0:
109,192,220417,1,0,0:0:0:0:
36,192,220417,1,0,0:0:0:0:
182,192,220481,1,0,0:0:0:0:
329,192,220481,1,0,0:0:0:0:
36,192,220545,1,0,0:0:0:0:
256,192,220545,1,0,0:0:0:0:
329,192,220610,1,0,0:0:0:0:
402,192,220610,1,0,0:0:0:0:
475,192,220674,1,0,0:0:0:0:
182,192,220674,1,0,0:0:0:0:
256,192,220674,1,0,0:0:0:0:
36,192,220674,1,0,0:0:0:0:
109,192,220737,1,0,0:0:0:0:
329,192,220737,1,0,0:0:0:0:
256,192,220802,1,0,0:0:0:0:
182,192,220802,1,0,0:0:0:0:
329,192,220866,1,0,0:0:0:0:
402,192,220866,1,0,0:0:0:0:
475,192,220930,1,0,0:0:0:0:
182,192,220930,1,0,0:0:0:0:
109,192,220930,1,0,0:0:0:0:
36,192,220930,1,0,0:0:0:0:
256,192,220994,1,0,0:0:0:0:
329,192,220994,1,0,0:0:0:0:
182,192,221058,1,0,0:0:0:0:
36,192,221058,1,0,0:0:0:0:
109,192,221122,1,0,0:0:0:0:
256,192,221122,1,0,0:0:0:0:
329,192,221186,1,0,0:0:0:0:
402,192,221186,1,0,0:0:0:0:
475,192,221186,1,0,0:0:0:0:
36,192,221186,1,0,0:0:0:0:
182,192,221251,1,0,0:0:0:0:
256,192,221251,1,0,0:0:0:0:
329,192,221314,1,0,0:0:0:0:
475,192,221314,1,0,0:0:0:0:
402,192,221378,1,0,0:0:0:0:
36,192,221378,1,0,0:0:0:0:
182,192,221443,1,0,0:0:0:0:
256,192,221443,1,0,0:0:0:0:
329,192,221443,1,0,0:0:0:0:
109,192,221443,1,0,0:0:0:0:
36,192,221507,1,0,0:0:0:0:
402,192,221507,1,0,0:0:0:0:
329,192,221571,1,0,0:0:0:0:
182,192,221571,1,0,0:0:0:0:
109,192,221635,1,0,0:0:0:0:
256,192,221635,1,0,0:0:0:0:
36,192,221700,1,0,0:0:0:0:
182,192,221700,1,0,0:0:0:0:
329,192,221700,1,0,0:0:0:0:
402,192,221700,1,0,0:0:0:0:
475,192,221763,1,0,0:0:0:0:
256,192,221763,1,0,0:0:0:0:
182,192,221827,1,0,0:0:0:0:
402,192,221827,1,0,0:0:0:0:
109,192,221892,1,0,0:0:0:0:
329,192,221892,1,0,0:0:0:0:
256,192,221955,1,0,0:0:0:0:
402,192,221955,1,0,0:0:0:0:
475,192,221955,1,0,0:0:0:0:
182,192,221955,1,0,0:0:0:0:
36,192,222020,1,0,0:0:0:0:
109,192,222020,1,0,0:0:0:0:
182,192,222084,1,0,0:0:0:0:
402,192,222084,1,0,0:0:0:0:
329,192,222147,1,0,0:0:0:0:
256,192,222147,1,0,0:0:0:0:
402,192,222212,1,0,0:0:0:0:
36,192,222212,1,0,0:0:0:0:
109,192,222212,1,0,0:0:0:0:
475,192,222212,1,0,0:0:0:0:
256,192,222276,1,0,0:0:0:0:
182,192,222276,1,0,0:0:0:0:
329,192,222341,1,0,0:0:0:0:
402,192,222341,1,0,0:0:0:0:
475,192,222404,1,0,0:0:0:0:
36,192,222404,1,0,0:0:0:0:
256,192,222468,1,0,0:0:0:0:
182,192,222468,1,0,0:0:0:0:
329,192,222468,1,0,0:0:0:0:
109,192,222468,1,0,0:0:0:0:
475,192,222533,1,0,0:0:0:0:
402,192,222533,1,0,0:0:0:0:
182,192,222596,1,0,0:0:0:0:
36,192,222596,1,0,0:0:0:0:
109,192,222661,1,0,0:0:0:0:
256,192,222661,1,0,0:0:0:0:
329,192,222725,1,0,0:0:0:0:
402,192,222725,1,0,0:0:0:0:
475,192,222725,1,0,0:0:0:0:
182,192,222725,1,0,0:0:0:0:
36,192,222788,1,0,0:0:0:0:
256,192,222788,1,0,0:0:0:0:
329,192,222853,1,0,0:0:0:0:
182,192,222853,1,0,0:0:0:0:
402,192,222917,1,0,0:0:0:0:
475,192,222917,1,0,0:0:0:0:
182,192,222981,1,0,0:0:0:0:
109,192,222981,1,0,0:0:0:0:
36,192,222981,1,0,0:0:0:0:
256,192,222981,1,0,0:0:0:0:
329,192,223045,1,0,0:0:0:0:
475,192,223045,1,0,0:0:0:0:
256,192,223110,1,0,0:0:0:0:
109,192,223110,1,0,0:0:0:0:
36,192,223174,1,0,0:0:0:0:
182,192,223174,1,0,0:0:0:0:
256,192,223237,1,0,0:0:0:0:
329,192,223237,1,0,0:0:0:0:
402,192,223237,1,0,0:0:0:0:
475,192,223237,1,0,0:0:0:0:
109,192,223302,1,0,0:0:0:0:
182,192,223302,1,0,0:0:0:0:
256,192,223366,1,0,0:0:0:0:
402,192,223366,1,0,0:0:0:0:
36,192,223430,1,0,0:0:0:0:
182,192,223430,1,0,0:0:0:0:
329,192,223494,1,0,0:0:0:0:
402,192,223494,1,0,0:0:0:0:
475,192,223494,1,0,0:0:0:0:
109,192,223494,1,0,0:0:0:0:
256,192,223558,1,0,0:0:0:0:
36,192,223558,1,0,0:0:0:0:
182,192,223622,1,0,0:0:0:0:
329,192,223622,1,0,0:0:0:0:
402,192,223686,1,0,0:0:0:0:
475,192,223686,1,0,0:0:0:0:
256,192,223751,1,0,0:0:0:0:
36,192,223751,1,0,0:0:0:0:
109,192,223751,1,0,0:0:0:0:
182,192,223751,1,0,0:0:0:0:
329,192,223814,1,0,0:0:0:0:
475,192,223814,1,0,0:0:0:0:
256,192,223878,1,0,0:0:0:0:
36,192,223878,1,0,0:0:0:0:
109,192,223943,1,0,0:0:0:0:
182,192,223943,1,0,0:0:0:0:
256,192,224007,1,0,0:0:0:0:
329,192,224007,1,0,0:0:0:0:
402,192,224007,1,0,0:0:0:0:
475,192,224007,1,0,0:0:0:0:
109,192,224071,1,0,0:0:0:0:
36,192,224071,1,0,0:0:0:0:
256,192,224135,1,0,0:0:0:0:
329,192,224135,1,0,0:0:0:0:
402,192,224200,1,0,0:0:0:0:
475,192,224200,1,0,0:0:0:0:
182,192,224263,1,0,0:0:0:0:
36,192,224263,1,0,0:0:0:0:
256,192,224263,1,0,0:0:0:0:
329,192,224263,1,0,0:0:0:0:
109,192,224327,1,0,0:0:0:0:
402,192,224327,1,0,0:0:0:0:
329,192,224392,1,0,0:0:0:0:
182,192,224392,1,0,0:0:0:0:
109,192,224455,1,0,0:0:0:0:
36,192,224455,1,0,0:0:0:0:
256,192,224520,1,0,0:0:0:0:
329,192,224520,1,0,0:0:0:0:
475,192,224520,1,0,0:0:0:0:
182,192,224520,1,0,0:0:0:0:
109,192,224584,1,0,0:0:0:0:
402,192,224584,1,0,0:0:0:0:
182,192,224647,1,0,0:0:0:0:
36,192,224647,1,0,0:0:0:0:
256,192,224712,1,0,0:0:0:0:
329,192,224712,1,0,0:0:0:0:
402,192,224776,1,0,0:0:0:0:
475,192,224776,1,0,0:0:0:0:
36,192,224776,1,0,0:0:0:0:
109,192,224776,1,0,0:0:0:0:
182,192,224841,1,0,0:0:0:0:
329,192,224841,1,0,0:0:0:0:
256,192,224904,1,0,0:0:0:0:
402,192,224904,1,0,0:0:0:0:
182,192,224968,1,0,0:0:0:0:
36,192,224968,1,0,0:0:0:0:
109,192,225033,1,0,0:0:0:0:
256,192,225033,1,0,0:0:0:0:
329,192,225033,1,0,0:0:0:0:
402,192,225033,1,0,0:0:0:0:
475,192,225096,1,0,0:0:0:0:
182,192,225096,1,0,0:0:0:0:
256,192,225161,1,0,0:0:0:0:
402,192,225161,1,0,0:0:0:0:
329,192,225225,1,0,0:0:0:0:
475,192,225225,1,0,0:0:0:0:
182,192,225288,1,0,0:0:0:0:
109,192,225288,1,0,0:0:0:0:
36,192,225288,1,0,0:0:0:0:
256,192,225288,1,0,0:0:0:0:
402,192,225353,1,0,0:0:0:0:
475,192,225353,1,0,0:0:0:0:
109,192,225417,1,0,0:0:0:0:
36,192,225417,1,0,0:0:0:0:
182,192,225481,1,0,0:0:0:0:
256,192,225481,1,0,0:0:0:0:
109,192,225545,1,0,0:0:0:0:
36,192,225545,1,0,0:0:0:0:
329,192,225545,1,0,0:0:0:0:
402,192,225545,1,0,0:0:0:0:
475,192,225610,1,0,0:0:0:0:
182,192,225610,1,0,0:0:0:0:
329,192,225674,1,0,0:0:0:0:
109,192,225674,1,0,0:0:0:0:
36,192,225737,1,0,0:0:0:0:
256,192,225737,1,0,0:0:0:0:
329,192,225802,1,0,0:0:0:0:
402,192,225802,1,0,0:0:0:0:
475,192,225802,1,0,0:0:0:0:
182,192,225802,1,0,0:0:0:0:
109,192,225866,1,0,0:0:0:0:
36,192,225866,1,0,0:0:0:0:
475,192,225930,1,0,0:0:0:0:
329,192,225930,1,0,0:0:0:0:
256,192,225994,1,0,0:0:0:0:
402,192,225994,1,0,0:0:0:0:
329,192,226058,1,0,0:0:0:0:
475,192,226058,1,0,0:0:0:0:
182,192,226058,1,0,0:0:0:0:
109,192,226058,1,0,0:0:0:0:
36,192,226122,1,0,0:0:0:0:
256,192,226122,1,0,0:0:0:0:
329,192,226186,1,0,0:0:0:0:
402,192,226186,1,0,0:0:0:0:
182,192,226251,1,0,0:0:0:0:
109,192,226251,1,0,0:0:0:0:
256,192,226314,1,0,0:0:0:0:
329,192,226314,1,0,0:0:0:0:
402,192,226314,1,0,0:0:0:0:
475,192,226314,1,0,0:0:0:0:
36,192,226443,1,0,0:0:0:0:
109,192,226443,1,0,0:0:0:0:
182,192,226443,1,0,0:0:0:0:
329,192,226507,1,0,0:0:0:0:
402,192,226507,1,0,0:0:0:0:
475,192,226507,1,0,0:0:0:0:
36,192,226571,1,0,0:0:0:0:
109,192,226571,1,0,0:0:0:0:
329,192,226635,1,0,0:0:0:0:
256,192,226635,1,0,0:0:0:0:
402,192,226635,1,0,0:0:0:0:
182,192,226700,1,0,0:0:0:0:
109,192,226700,1,0,0:0:0:0:
36,192,226700,1,0,0:0:0:0:
256,192,226763,1,0,0:0:0:0:
329,192,226763,1,0,0:0:0:0:
402,192,226827,1,0,0:0:0:0:
475,192,226827,1,0,0:0:0:0:
182,192,226955,1,0,0:0:0:0:
109,192,226955,1,0,0:0:0:0:
36,192,226955,1,0,0:0:0:0:
256,192,227084,1,0,0:0:0:0:
329,192,227084,1,0,0:0:0:0:
402,192,227084,1,0,0:0:0:0:
475,192,227084,1,0,0:0:0:0:
256,192,227212,1,0,0:0:0:0:
182,192,227212,1,0,0:0:0:0:
109,192,227212,1,0,0:0:0:0:
36,192,227212,1,0,0:0:0:0:
36,192,227341,1,0,0:0:0:0:
256,192,227341,1,0,0:0:0:0:
329,192,227341,1,0,0:0:0:0:
402,192,227341,1,0,0:0:0:0:
182,192,227468,1,0,0:0:0:0:
109,192,227468,1,0,0:0:0:0:
36,192,227468,1,0,0:0:0:0:
329,192,227533,1,0,0:0:0:0:
475,192,227533,1,0,0:0:0:0:
402,192,227533,1,0,0:0:0:0:
36,192,227596,1,0,0:0:0:0:
109,192,227596,1,0,0:0:0:0:
182,192,227661,1,0,0:0:0:0:
256,192,227661,1,0,0:0:0:0:
329,192,227661,1,0,0:0:0:0:
402,192,227725,1,0,0:0:0:0:
475,192,227725,1,0,0:0:0:0:
36,192,227788,1,0,0:0:0:0:
109,192,227788,1,0,0:0:0:0:
329,192,227853,1,0,0:0:0:0:
475,192,227853,1,0,0:0:0:0:
256,192,227853,1,0,0:0:0:0:
402,192,227853,1,0,0:0:0:0:
182,192,227917,1,0,0:0:0:0:
36,192,227917,1,0,0:0:0:0:
109,192,227981,1,0,0:0:0:0:
402,192,227981,1,0,0:0:0:0:
256,192,227981,1,0,0:0:0:0:
182,192,228045,1,0,0:0:0:0:
329,192,228045,1,0,0:0:0:0:
402,192,228110,1,0,0:0:0:0:
475,192,228110,1,0,0:0:0:0:
109,192,228110,1,0,0:0:0:0:
36,192,228110,1,0,0:0:0:0:
256,192,228174,1,0,0:0:0:0:
329,192,228174,1,0,0:0:0:0:
475,192,228237,1,0,0:0:0:0:
182,192,228237,1,0,0:0:0:0:
36,192,228237,1,0,0:0:0:0:
109,192,228302,1,0,0:0:0:0:
256,192,228302,1,0,0:0:0:0:
329,192,228366,1,0,0:0:0:0:
402,192,228366,1,0,0:0:0:0:
475,192,228366,1,0,0:0:0:0:
182,192,228366,1,0,0:0:0:0:
36,192,228430,1,0,0:0:0:0:
109,192,228430,1,0,0:0:0:0:
182,192,228494,1,0,0:0:0:0:
329,192,228494,1,0,0:0:0:0:
256,192,228494,1,0,0:0:0:0:
402,192,228558,1,0,0:0:0:0:
475,192,228558,1,0,0:0:0:0:
109,192,228622,1,0,0:0:0:0:
36,192,228622,1,0,0:0:0:0:
329,192,228622,1,0,0:0:0:0:
256,192,228622,1,0,0:0:0:0:
402,192,228686,1,0,0:0:0:0:
475,192,228686,1,0,0:0:0:0:
182,192,228751,1,0,0:0:0:0:
109,192,228751,1,0,0:0:0:0:
329,192,228751,1,0,0:0:0:0:
36,192,228814,1,0,0:0:0:0:
256,192,228814,1,0,0:0:0:0:
329,192,228878,1,0,0:0:0:0:
402,192,228878,1,0,0:0:0:0:
475,192,228878,1,0,0:0:0:0:
182,192,228878,1,0,0:0:0:0:
109,192,228943,1,0,0:0:0:0:
36,192,228943,1,0,0:0:0:0:
182,192,229007,1,0,0:0:0:0:
329,192,229007,1,0,0:0:0:0:
402,192,229007,1,0,0:0:0:0:
475,192,229071,1,0,0:0:0:0:
256,192,229071,1,0,0:0:0:0:
109,192,229135,1,0,0:0:0:0:
182,192,229135,1,0,0:0:0:0:
36,192,229135,1,0,0:0:0:0:
329,192,229135,1,0,0:0:0:0:
402,192,229200,1,0,0:0:0:0:
475,192,229200,1,0,0:0:0:0:
109,192,229263,1,0,0:0:0:0:
36,192,229263,1,0,0:0:0:0:
256,192,229263,1,0,0:0:0:0:
329,192,229327,1,0,0:0:0:0:
182,192,229327,1,0,0:0:0:0:
475,192,229392,1,0,0:0:0:0:
36,192,229392,1,0,0:0:0:0:
109,192,229392,1,0,0:0:0:0:
402,192,229392,1,0,0:0:0:0:
256,192,229455,1,0,0:0:0:0:
329,192,229455,1,0,0:0:0:0:
402,192,229520,1,0,0:0:0:0:
182,192,229520,1,0,0:0:0:0:
475,192,229520,1,0,0:0:0:0:
109,192,229584,1,0,0:0:0:0:
36,192,229584,1,0,0:0:0:0:
256,192,229647,1,0,0:0:0:0:
329,192,229647,1,0,0:0:0:0:
402,192,229647,1,0,0:0:0:0:
475,192,229647,1,0,0:0:0:0:
182,192,229712,1,0,0:0:0:0:
36,192,229712,1,0,0:0:0:0:
109,192,229776,1,0,0:0:0:0:
256,192,229776,1,0,0:0:0:0:
329,192,229776,1,0,0:0:0:0:
402,192,229841,1,0,0:0:0:0:
475,192,229841,1,0,0:0:0:0:
182,192,229904,1,0,0:0:0:0:
36,192,229904,1,0,0:0:0:0:
109,192,229904,1,0,0:0:0:0:
256,192,229904,1,0,0:0:0:0:
329,192,229968,1,0,0:0:0:0:
475,192,229968,1,0,0:0:0:0:
402,192,230033,1,0,0:0:0:0:
36,192,230033,1,0,0:0:0:0:
109,192,230033,1,0,0:0:0:0:
182,192,230096,1,0,0:0:0:0:
256,192,230096,1,0,0:0:0:0:
329,192,230161,1,0,0:0:0:0:
402,192,230161,1,0,0:0:0:0:
475,192,230161,1,0,0:0:0:0:
36,192,230161,1,0,0:0:0:0:
109,192,230225,1,0,0:0:0:0:
182,192,230225,1,0,0:0:0:0:
256,192,230288,1,0,0:0:0:0:
402,192,230288,1,0,0:0:0:0:
475,192,230288,1,0,0:0:0:0:
329,192,230353,1,0,0:0:0:0:
36,192,230353,1,0,0:0:0:0:
182,192,230417,1,0,0:0:0:0:
109,192,230417,1,0,0:0:0:0:
475,192,230417,1,0,0:0:0:0:
256,192,230417,1,0,0:0:0:0:
329,192,230481,1,0,0:0:0:0:
402,192,230481,1,0,0:0:0:0:
256,192,230545,1,0,0:0:0:0:
475,192,230545,1,0,0:0:0:0:
36,192,230545,1,0,0:0:0:0:
109,192,230610,1,0,0:0:0:0:
182,192,230610,1,0,0:0:0:0:
475,192,230674,1,0,0:0:0:0:
329,192,230674,1,0,0:0:0:0:
402,192,230674,1,0,0:0:0:0:
36,192,230674,1,0,0:0:0:0:
256,192,230737,1,0,0:0:0:0:
182,192,230737,1,0,0:0:0:0:
329,192,230802,1,0,0:0:0:0:
36,192,230802,1,0,0:0:0:0:
402,192,230802,1,0,0:0:0:0:
475,192,230866,1,0,0:0:0:0:
182,192,230866,1,0,0:0:0:0:
36,192,230930,1,0,0:0:0:0:
109,192,230930,1,0,0:0:0:0:
329,192,230930,1,0,0:0:0:0:
402,192,230930,1,0,0:0:0:0:
256,192,230994,1,0,0:0:0:0:
475,192,230994,1,0,0:0:0:0:
182,192,231058,1,0,0:0:0:0:
36,192,231058,1,0,0:0:0:0:
109,192,231058,1,0,0:0:0:0:
256,192,231122,1,0,0:0:0:0:
329,192,231122,1,0,0:0:0:0:
402,192,231186,1,0,0:0:0:0:
475,192,231186,1,0,0:0:0:0:
109,192,231186,1,0,0:0:0:0:
36,192,231186,1,0,0:0:0:0:
182,192,231251,1,0,0:0:0:0:
329,192,231251,1,0,0:0:0:0:
256,192,231314,1,0,0:0:0:0:
402,192,231314,1,0,0:0:0:0:
475,192,231314,1,0,0:0:0:0:
109,192,231378,1,0,0:0:0:0:
36,192,231378,1,0,0:0:0:0:
182,192,231443,1,0,0:0:0:0:
329,192,231443,1,0,0:0:0:0:
402,192,231443,1,0,0:0:0:0:
475,192,231443,1,0,0:0:0:0:
109,192,231507,1,0,0:0:0:0:
36,192,231507,1,0,0:0:0:0:
182,192,231571,1,0,0:0:0:0:
475,192,231571,1,0,0:0:0:0:
402,192,231571,1,0,0:0:0:0:
329,192,231635,1,0,0:0:0:0:
256,192,231635,1,0,0:0:0:0:
109,192,231700,1,0,0:0:0:0:
36,192,231700,1,0,0:0:0:0:
182,192,231700,1,0,0:0:0:0:
402,192,231700,1,0,0:0:0:0:
475,192,231763,1,0,0:0:0:0:
329,192,231763,1,0,0:0:0:0:
36,192,231827,1,0,0:0:0:0:
109,192,231827,1,0,0:0:0:0:
256,192,231827,1,0,0:0:0:0:
329,192,231892,1,0,0:0:0:0:
402,192,231892,1,0,0:0:0:0:
182,192,231955,1,0,0:0:0:0:
256,192,231955,1,0,0:0:0:0:
475,192,231955,1,0,0:0:0:0:
109,192,231955,1,0,0:0:0:0:
36,192,232020,1,0,0:0:0:0:
329,192,232020,1,0,0:0:0:0:
109,192,232084,1,0,0:0:0:0:
475,192,232084,1,0,0:0:0:0:
402,192,232084,1,0,0:0:0:0:
182,192,232147,1,0,0:0:0:0:
256,192,232147,1,0,0:0:0:0:
36,192,232212,1,0,0:0:0:0:
329,192,232212,1,0,0:0:0:0:
109,192,232212,1,0,0:0:0:0:
402,192,232212,1,0,0:0:0:0:
475,192,232276,1,0,0:0:0:0:
182,192,232276,1,0,0:0:0:0:
256,192,232341,1,0,0:0:0:0:
402,192,232341,1,0,0:0:0:0:
329,192,232341,1,0,0:0:0:0:
109,192,232404,1,0,0:0:0:0:
36,192,232404,1,0,0:0:0:0:
256,192,232468,1,0,0:0:0:0:
329,192,232468,1,0,0:0:0:0:
402,192,232468,1,0,0:0:0:0:
475,192,232468,1,0,0:0:0:0:
109,192,232533,1,0,0:0:0:0:
182,192,232533,1,0,0:0:0:0:
329,192,232596,1,0,0:0:0:0:
475,192,232596,1,0,0:0:0:0:
36,192,232596,1,0,0:0:0:0:
256,192,232661,1,0,0:0:0:0:
402,192,232661,1,0,0:0:0:0:
475,192,232725,1,0,0:0:0:0:
109,192,232725,1,0,0:0:0:0:
36,192,232725,1,0,0:0:0:0:
182,192,232725,1,0,0:0:0:0:
256,192,232788,1,0,0:0:0:0:
329,192,232788,1,0,0:0:0:0:
402,192,232853,1,0,0:0:0:0:
475,192,232853,1,0,0:0:0:0:
36,192,232853,1,0,0:0:0:0:
109,192,232917,1,0,0:0:0:0:
182,192,232917,1,0,0:0:0:0:
256,192,232981,1,0,0:0:0:0:
329,192,232981,1,0,0:0:0:0:
36,192,232981,1,0,0:0:0:0:
402,192,232981,1,0,0:0:0:0:
475,192,233045,1,0,0:0:0:0:
109,192,233045,1,0,0:0:0:0:
182,192,233110,1,0,0:0:0:0:
256,192,233110,1,0,0:0:0:0:
402,192,233110,1,0,0:0:0:0:
329,192,233174,1,0,0:0:0:0:
475,192,233174,1,0,0:0:0:0:
182,192,233237,1,0,0:0:0:0:
109,192,233237,1,0,0:0:0:0:
36,192,233237,1,0,0:0:0:0:
256,192,233237,1,0,0:0:0:0:
329,192,233302,1,0,0:0:0:0:
475,192,233302,1,0,0:0:0:0:
256,192,233366,1,0,0:0:0:0:
109,192,233366,1,0,0:0:0:0:
36,192,233366,1,0,0:0:0:0:
182,192,233430,1,0,0:0:0:0:
402,192,233430,1,0,0:0:0:0:
329,192,233494,1,0,0:0:0:0:
256,192,233494,1,0,0:0:0:0:
109,192,233494,1,0,0:0:0:0:
36,192,233494,1,0,0:0:0:0:
402,192,233558,1,0,0:0:0:0:
475,192,233558,1,0,0:0:0:0:
182,192,233622,1,0,0:0:0:0:
329,192,233622,1,0,0:0:0:0:
256,192,233622,1,0,0:0:0:0:
109,192,233686,1,0,0:0:0:0:
36,192,233686,1,0,0:0:0:0:
329,192,233751,1,0,0:0:0:0:
182,192,233751,1,0,0:0:0:0:
402,192,233751,1,0,0:0:0:0:
475,192,233751,1,0,0:0:0:0:
109,192,233814,1,0,0:0:0:0:
256,192,233814,1,0,0:0:0:0:
329,192,233878,1,0,0:0:0:0:
402,192,233878,1,0,0:0:0:0:
36,192,233878,1,0,0:0:0:0:
475,192,233943,1,0,0:0:0:0:
256,192,233943,1,0,0:0:0:0:
182,192,234007,1,0,0:0:0:0:
109,192,234007,1,0,0:0:0:0:
36,192,234007,1,0,0:0:0:0:
402,192,234007,1,0,0:0:0:0:
329,192,234071,1,0,0:0:0:0:
475,192,234071,1,0,0:0:0:0:
256,192,234135,1,0,0:0:0:0:
36,192,234135,1,0,0:0:0:0:
109,192,234135,1,0,0:0:0:0:
182,192,234200,1,0,0:0:0:0:
329,192,234200,1,0,0:0:0:0:
109,192,234263,1,0,0:0:0:0:
36,192,234263,1,0,0:0:0:0:
402,192,234263,1,0,0:0:0:0:
475,192,234263,1,0,0:0:0:0:
256,192,234327,1,0,0:0:0:0:
329,192,234327,1,0,0:0:0:0:
182,192,234392,1,0,0:0:0:0:
475,192,234392,1,0,0:0:0:0:
402,192,234392,1,0,0:0:0:0:
109,192,234455,1,0,0:0:0:0:
36,192,234455,1,0,0:0:0:0:
256,192,234520,1,0,0:0:0:0:
329,192,234520,1,0,0:0:0:0:
402,192,234520,1,0,0:0:0:0:
475,192,234520,1,0,0:0:0:0:
109,192,234584,1,0,0:0:0:0:
36,192,234584,1,0,0:0:0:0:
329,192,234647,1,0,0:0:0:0:
182,192,234647,1,0,0:0:0:0:
402,192,234647,1,0,0:0:0:0:
256,192,234712,1,0,0:0:0:0:
36,192,234712,1,0,0:0:0:0:
109,192,234776,1,0,0:0:0:0:
182,192,234776,1,0,0:0:0:0:
402,192,234776,1,0,0:0:0:0:
475,192,234776,1,0,0:0:0:0:
256,192,234841,1,0,0:0:0:0:
329,192,234841,1,0,0:0:0:0:
36,192,234904,1,0,0:0:0:0:
109,192,234904,1,0,0:0:0:0:
402,192,234904,1,0,0:0:0:0:
475,192,234968,1,0,0:0:0:0:
329,192,234968,1,0,0:0:0:0:
256,192,235033,1,0,0:0:0:0:
182,192,235033,1,0,0:0:0:0:
109,192,235033,1,0,0:0:0:0:
36,192,235033,1,0,0:0:0:0:
329,192,235096,1,0,0:0:0:0:
402,192,235096,1,0,0:0:0:0:
475,192,235161,1,0,0:0:0:0:
182,192,235161,1,0,0:0:0:0:
36,192,235161,1,0,0:0:0:0:
256,192,235225,1,0,0:0:0:0:
329,192,235225,1,0,0:0:0:0:
402,192,235288,1,0,0:0:0:0:
475,192,235288,1,0,0:0:0:0:
109,192,235288,1,0,0:0:0:0:
36,192,235288,1,0,0:0:0:0:
182,192,235353,1,0,0:0:0:0:
329,192,235353,1,0,0:0:0:0:
256,192,235417,1,0,0:0:0:0:
402,192,235417,1,0,0:0:0:0:
475,192,235417,1,0,0:0:0:0:
182,192,235481,1,0,0:0:0:0:
36,192,235481,1,0,0:0:0:0:
109,192,235545,1,0,0:0:0:0:
256,192,235545,1,0,0:0:0:0:
329,192,235545,1,0,0:0:0:0:
402,192,235545,1,0,0:0:0:0:
475,192,235610,1,0,0:0:0:0:
182,192,235610,1,0,0:0:0:0:
36,192,235674,1,0,0:0:0:0:
109,192,235674,1,0,0:0:0:0:
256,192,235674,1,0,0:0:0:0:
329,192,235737,1,0,0:0:0:0:
402,192,235737,1,0,0:0:0:0:
182,192,235802,1,0,0:0:0:0:
109,192,235802,1,0,0:0:0:0:
36,192,235802,1,0,0:0:0:0:
475,192,235802,1,0,0:0:0:0:
256,192,235866,1,0,0:0:0:0:
329,192,235866,1,0,0:0:0:0:
402,192,235930,1,0,0:0:0:0:
475,192,235930,1,0,0:0:0:0:
36,192,235930,1,0,0:0:0:0:
109,192,235994,1,0,0:0:0:0:
182,192,235994,1,0,0:0:0:0:
256,192,236058,1,0,0:0:0:0:
329,192,236058,1,0,0:0:0:0:
402,192,236058,1,0,0:0:0:0:
36,192,236058,1,0,0:0:0:0:
475,192,236122,1,0,0:0:0:0:
109,192,236122,1,0,0:0:0:0:
182,192,236186,1,0,0:0:0:0:
402,192,236186,1,0,0:0:0:0:
329,192,236186,1,0,0:0:0:0:
256,192,236251,1,0,0:0:0:0:
36,192,236251,1,0,0:0:0:0:
109,192,236314,1,0,0:0:0:0:
182,192,236314,1,0,0:0:0:0:
475,192,236314,1,0,0:0:0:0:
402,192,236314,1,0,0:0:0:0:
329,192,236378,1,0,0:0:0:0:
36,192,236378,1,0,0:0:0:0:
256,192,236443,1,0,0:0:0:0:
402,192,236443,1,0,0:0:0:0:
475,192,236443,1,0,0:0:0:0:
182,192,236507,1,0,0:0:0:0:
36,192,236507,1,0,0:0:0:0:
109,192,236571,1,0,0:0:0:0:
256,192,236571,1,0,0:0:0:0:
329,192,236571,1,0,0:0:0:0:
402,192,236571,1,0,0:0:0:0:
475,192,236635,1,0,0:0:0:0:
182,192,236635,1,0,0:0:0:0:
36,192,236700,1,0,0:0:0:0:
109,192,236700,1,0,0:0:0:0:
329,192,236700,1,0,0:0:0:0:
475,192,236763,1,0,0:0:0:0:
402,192,236763,1,0,0:0:0:0:
256,192,236827,1,0,0:0:0:0:
182,192,236827,1,0,0:0:0:0:
36,192,236827,1,0,0:0:0:0:
109,192,236827,1,0,0:0:0:0:
329,192,236892,1,0,0:0:0:0:
402,192,236892,1,0,0:0:0:0:
36,192,236955,1,0,0:0:0:0:
109,192,236955,1,0,0:0:0:0:
256,192,236955,1,0,0:0:0:0:
329,192,237020,1,0,0:0:0:0:
182,192,237020,1,0,0:0:0:0:
402,192,237084,1,0,0:0:0:0:
475,192,237084,1,0,0:0:0:0:
109,192,237084,1,0,0:0:0:0:
36,192,237084,1,0,0:0:0:0:
256,192,237147,1,0,0:0:0:0:
329,192,237147,1,0,0:0:0:0:
182,192,237212,1,0,0:0:0:0:
402,192,237212,1,0,0:0:0:0:
475,192,237212,1,0,0:0:0:0:
109,192,237276,1,0,0:0:0:0:
36,192,237276,1,0,0:0:0:0:
182,192,237341,1,0,0:0:0:0:
256,192,237341,1,0,0:0:0:0:
329,192,237341,1,0,0:0:0:0:
402,192,237341,1,0,0:0:0:0:
475,192,237404,1,0,0:0:0:0:
36,192,237404,1,0,0:0:0:0:
109,192,237468,1,0,0:0:0:0:
182,192,237468,1,0,0:0:0:0:
256,192,237468,1,0,0:0:0:0:
329,192,237533,1,0,0:0:0:0:
475,192,237533,1,0,0:0:0:0:
402,192,237596,1,0,0:0:0:0:
182,192,237596,1,0,0:0:0:0:
109,192,237596,1,0,0:0:0:0:
36,192,237596,1,0,0:0:0:0:
256,192,237661,1,0,0:0:0:0:
329,192,237661,1,0,0:0:0:0:
475,192,237725,1,0,0:0:0:0:
109,192,237725,1,0,0:0:0:0:
36,192,237725,1,0,0:0:0:0:
402,192,237788,1,0,0:0:0:0:
182,192,237788,1,0,0:0:0:0:
109,192,237853,1,0,0:0:0:0:
36,192,237853,1,0,0:0:0:0:
329,192,237853,1,0,0:0:0:0:
256,192,237853,1,0,0:0:0:0:
402,192,237917,1,0,0:0:0:0:
475,192,237917,1,0,0:0:0:0:
182,192,237981,1,0,0:0:0:0:
36,192,237981,1,0,0:0:0:0:
256,192,237981,1,0,0:0:0:0:
329,192,238045,1,0,0:0:0:0:
475,192,238045,1,0,0:0:0:0:
182,192,238110,1,0,0:0:0:0:
109,192,238110,1,0,0:0:0:0:
36,192,238110,1,0,0:0:0:0:
256,192,238110,1,0,0:0:0:0:
402,192,238174,1,0,0:0:0:0:
475,192,238174,1,0,0:0:0:0:
109,192,238237,1,0,0:0:0:0:
36,192,238237,1,0,0:0:0:0:
329,192,238237,1,0,0:0:0:0:
256,192,238302,1,0,0:0:0:0:
182,192,238302,1,0,0:0:0:0:
109,192,238366,1,0,0:0:0:0:
36,192,238366,1,0,0:0:0:0:
402,192,238366,1,0,0:0:0:0:
475,192,238366,1,0,0:0:0:0:
329,192,238430,1,0,0:0:0:0:
182,192,238430,1,0,0:0:0:0:
256,192,238494,1,0,0:0:0:0:
109,192,238494,1,0,0:0:0:0:
36,192,238494,1,0,0:0:0:0:
329,192,238558,1,0,0:0:0:0:
475,192,238558,1,0,0:0:0:0:
402,192,238622,1,0,0:0:0:0:
182,192,238622,1,0,0:0:0:0:
109,192,238622,1,0,0:0:0:0:
36,192,238622,1,0,0:0:0:0:
256,192,238686,1,0,0:0:0:0:
329,192,238686,1,0,0:0:0:0:
109,192,238751,1,0,0:0:0:0:
475,192,238751,1,0,0:0:0:0:
36,192,238751,1,0,0:0:0:0:
329,192,238814,1,0,0:0:0:0:
182,192,238814,1,0,0:0:0:0:
109,192,238878,1,0,0:0:0:0:
36,192,238878,1,0,0:0:0:0:
475,192,238878,1,0,0:0:0:0:
402,192,238878,1,0,0:0:0:0:
256,192,238943,1,0,0:0:0:0:
329,192,238943,1,0,0:0:0:0:
402,192,239007,1,0,0:0:0:0:
182,192,239007,1,0,0:0:0:0:
109,192,239007,1,0,0:0:0:0:
36,192,239071,1,0,0:0:0:0:
475,192,239071,1,0,0:0:0:0:
256,192,239135,1,0,0:0:0:0:
329,192,239135,1,0,0:0:0:0:
402,192,239135,1,0,0:0:0:0:
109,192,239135,1,0,0:0:0:0:
36,192,239200,1,0,0:0:0:0:
182,192,239200,1,0,0:0:0:0:
256,192,239263,1,0,0:0:0:0:
475,192,239263,1,0,0:0:0:0:
329,192,239327,1,0,0:0:0:0:
402,192,239327,1,0,0:0:0:0:
182,192,239392,1,0,0:0:0:0:
36,192,239392,1,0,0:0:0:0:
109,192,239392,1,0,0:0:0:0:
256,192,239392,1,0,0:0:0:0:
329,192,239455,1,0,0:0:0:0:
475,192,239455,1,0,0:0:0:0:
402,192,239520,1,0,0:0:0:0:
182,192,239520,1,0,0:0:0:0:
36,192,239520,1,0,0:0:0:0:
109,192,239584,1,0,0:0:0:0:
256,192,239584,1,0,0:0:0:0:
329,192,239647,1,0,0:0:0:0:
402,192,239647,1,0,0:0:0:0:
475,192,239647,1,0,0:0:0:0:
182,192,239647,1,0,0:0:0:0:
36,192,239712,1,0,0:0:0:0:
109,192,239712,1,0,0:0:0:0:
182,192,239776,1,0,0:0:0:0:
329,192,239776,1,0,0:0:0:0:
402,192,239776,1,0,0:0:0:0:
475,192,239841,1,0,0:0:0:0:
256,192,239841,1,0,0:0:0:0:
182,192,239904,1,0,0:0:0:0:
109,192,239904,1,0,0:0:0:0:
36,192,239904,1,0,0:0:0:0:
329,192,239904,1,0,0:0:0:0:
402,192,239968,1,0,0:0:0:0:
475,192,239968,1,0,0:0:0:0:
256,192,240033,1,0,0:0:0:0:
109,192,240033,1,0,0:0:0:0:
36,192,240033,1,0,0:0:0:0:
329,192,240096,1,0,0:0:0:0:
182,192,240096,1,0,0:0:0:0:
402,192,240161,1,0,0:0:0:0:
109,192,240161,1,0,0:0:0:0:
36,192,240161,1,0,0:0:0:0:
475,192,240161,1,0,0:0:0:0:
256,192,240225,1,0,0:0:0:0:
329,192,240225,1,0,0:0:0:0:
36,192,240288,1,0,0:0:0:0:
402,192,240288,1,0,0:0:0:0:
109,192,240288,1,0,0:0:0:0:
256,192,240353,1,0,0:0:0:0:
182,192,240353,1,0,0:0:0:0:
329,192,240417,1,0,0:0:0:0:
402,192,240417,1,0,0:0:0:0:
475,192,240417,1,0,0:0:0:0:
36,192,240417,1,0,0:0:0:0:
109,192,240481,1,0,0:0:0:0:
256,192,240481,1,0,0:0:0:0:
329,192,240545,1,0,0:0:0:0:
182,192,240545,1,0,0:0:0:0:
402,192,240545,1,0,0:0:0:0:
36,192,240610,1,0,0:0:0:0:
109,192,240610,1,0,0:0:0:0:
256,192,240674,1,0,0:0:0:0:
182,192,240674,1,0,0:0:0:0:
402,192,240674,1,0,0:0:0:0:
329,192,240674,1,0,0:0:0:0:
475,192,240737,1,0,0:0:0:0:
109,192,240737,1,0,0:0:0:0:
36,192,240802,1,0,0:0:0:0:
182,192,240802,1,0,0:0:0:0:
329,192,240802,1,0,0:0:0:0:
256,192,240866,1,0,0:0:0:0:
402,192,240866,1,0,0:0:0:0:
329,192,240930,1,0,0:0:0:0:
475,192,240930,1,0,0:0:0:0:
109,192,240930,1,0,0:0:0:0:
36,192,240930,1,0,0:0:0:0:
182,192,240994,1,0,0:0:0:0:
256,192,240994,1,0,0:0:0:0:
329,192,241058,1,0,0:0:0:0:
109,192,241058,1,0,0:0:0:0:
402,192,241058,1,0,0:0:0:0:
182,192,241122,1,0,0:0:0:0:
36,192,241122,1,0,0:0:0:0:
256,192,241186,1,0,0:0:0:0:
329,192,241186,1,0,0:0:0:0:
475,192,241186,1,0,0:0:0:0:
402,192,241186,1,0,0:0:0:0:
109,192,241251,1,0,0:0:0:0:
36,192,241251,1,0,0:0:0:0:
182,192,241314,1,0,0:0:0:0:
475,192,241314,1,0,0:0:0:0:
329,192,241314,1,0,0:0:0:0:
256,192,241378,1,0,0:0:0:0:
402,192,241378,1,0,0:0:0:0:
329,192,241443,1,0,0:0:0:0:
182,192,241443,1,0,0:0:0:0:
109,192,241443,1,0,0:0:0:0:
36,192,241443,1,0,0:0:0:0:
256,192,241507,1,0,0:0:0:0:
475,192,241507,1,0,0:0:0:0:
402,192,241571,1,0,0:0:0:0:
329,192,241571,1,0,0:0:0:0:
36,192,241571,1,0,0:0:0:0:
109,192,241635,1,0,0:0:0:0:
182,192,241635,1,0,0:0:0:0:
256,192,241700,1,0,0:0:0:0:
329,192,241700,1,0,0:0:0:0:
402,192,241700,1,0,0:0:0:0:
475,192,241700,1,0,0:0:0:0:
36,192,241763,1,0,0:0:0:0:
109,192,241763,1,0,0:0:0:0:
182,192,241827,1,0,0:0:0:0:
329,192,241827,1,0,0:0:0:0:
402,192,241827,1,0,0:0:0:0:
475,192,241892,1,0,0:0:0:0:
256,192,241892,1,0,0:0:0:0:
182,192,241955,1,0,0:0:0:0:
109,192,241955,1,0,0:0:0:0:
36,192,241955,1,0,0:0:0:0:
329,192,241955,1,0,0:0:0:0:
402,192,242020,1,0,0:0:0:0:
475,192,242020,1,0,0:0:0:0:
256,192,242084,1,0,0:0:0:0:
36,192,242084,1,0,0:0:0:0:
109,192,242084,1,0,0:0:0:0:
329,192,242147,1,0,0:0:0:0:
402,192,242147,1,0,0:0:0:0:
36,192,242212,1,0,0:0:0:0:
109,192,242212,1,0,0:0:0:0:
182,192,242212,1,0,0:0:0:0:
256,192,242212,1,0,0:0:0:0:
329,192,242255,1,0,0:0:0:0:
475,192,242276,1,0,0:0:0:0:
182,192,242308,1,0,0:0:0:0:
402,192,242308,1,0,0:0:0:0:
36,192,242341,1,0,0:0:0:0:
256,192,242341,1,0,0:0:0:0:
329,192,242372,1,0,0:0:0:0:
109,192,242372,1,0,0:0:0:0:
182,192,242404,1,0,0:0:0:0:
256,192,242425,1,0,0:0:0:0:
36,192,242468,1,0,0:0:0:0:
109,192,242725,1,0,0:0:0:0:
36,192,242725,1,0,0:0:0:0:
182,192,242767,1,0,0:0:0:0:
475,192,242767,1,0,0:0:0:0:
256,192,242811,1,0,0:0:0:0:
402,192,242811,1,0,0:0:0:0:
329,192,242853,1,0,0:0:0:0:
36,192,242853,1,0,0:0:0:0:
402,192,242885,1,0,0:0:0:0:
109,192,242896,1,0,0:0:0:0:
475,192,242917,1,0,0:0:0:0:
182,192,242938,1,0,0:0:0:0:
329,192,242950,1,0,0:0:0:0:
256,192,242981,1,0,0:0:0:0:
402,192,242981,1,0,0:0:0:0:
402,192,243237,1,0,0:0:0:0:
329,192,243237,1,0,0:0:0:0:
475,192,243237,1,0,0:0:0:0:
36,192,243281,1,0,0:0:0:0:
109,192,243281,1,0,0:0:0:0:
475,192,243323,1,0,0:0:0:0:
182,192,243323,1,0,0:0:0:0:
402,192,243366,1,0,0:0:0:0:
256,192,243366,1,0,0:0:0:0:
329,192,243408,1,0,0:0:0:0:
182,192,243408,1,0,0:0:0:0:
109,192,243452,1,0,0:0:0:0:
36,192,243494,1,0,0:0:0:0:
182,192,243751,1,0,0:0:0:0:
36,192,243751,1,0,0:0:0:0:
109,192,243751,1,0,0:0:0:0:
475,192,243751,1,0,0:0:0:0:
256,192,243793,1,0,0:0:0:0:
402,192,243793,1,0,0:0:0:0:
329,192,243836,1,0,0:0:0:0:
402,192,243878,1,0,0:0:0:0:
475,192,243878,1,0,0:0:0:0:
182,192,243878,1,0,0:0:0:0:
256,192,243922,1,0,0:0:0:0:
109,192,243922,1,0,0:0:0:0:
329,192,243964,1,0,0:0:0:0:
36,192,243964,1,0,0:0:0:0:
402,192,244007,1,0,0:0:0:0:
182,192,244007,1,0,0:0:0:0:
402,192,244135,1,0,0:0:0:0:
475,192,244135,1,0,0:0:0:0:
109,192,244263,1,0,0:0:0:0:
182,192,244263,1,0,0:0:0:0:
36,192,244263,1,0,0:0:0:0:
256,192,244263,1,0,0:0:0:0:
329,192,244327,1,0,0:0:0:0:
475,192,244327,1,0,0:0:0:0:
256,192,244392,1,0,0:0:0:0:
109,192,244392,1,0,0:0:0:0:
36,192,244392,1,0,0:0:0:0:
182,192,244455,1,0,0:0:0:0:
329,192,244455,1,0,0:0:0:0:
109,192,244520,1,0,0:0:0:0:
36,192,244520,1,0,0:0:0:0:
475,192,244520,1,0,0:0:0:0:
402,192,244520,1,0,0:0:0:0:
256,192,244584,1,0,0:0:0:0:
182,192,244584,1,0,0:0:0:0:
329,192,244647,1,0,0:0:0:0:
475,192,244647,1,0,0:0:0:0:
402,192,244647,1,0,0:0:0:0:
109,192,244712,1,0,0:0:0:0:
36,192,244712,1,0,0:0:0:0:
182,192,244776,1,0,0:0:0:0:
256,192,244776,1,0,0:0:0:0:
329,192,244776,1,0,0:0:0:0:
475,192,244776,1,0,0:0:0:0:
402,192,244841,1,0,0:0:0:0:
36,192,244841,1,0,0:0:0:0:
109,192,244904,1,0,0:0:0:0:
182,192,244904,1,0,0:0:0:0:
329,192,244904,1,0,0:0:0:0:
402,192,244968,1,0,0:0:0:0:
475,192,244968,1,0,0:0:0:0:
256,192,245033,1,0,0:0:0:0:
182,192,245033,1,0,0:0:0:0:
109,192,245033,1,0,0:0:0:0:
36,192,245033,1,0,0:0:0:0:
329,192,245096,1,0,0:0:0:0:
475,192,245096,1,0,0:0:0:0:
36,192,245161,1,0,0:0:0:0:
182,192,245161,1,0,0:0:0:0:
256,192,245161,1,0,0:0:0:0:
329,192,245225,1,0,0:0:0:0:
402,192,245225,1,0,0:0:0:0:
182,192,245288,1,0,0:0:0:0:
109,192,245288,1,0,0:0:0:0:
36,192,245288,1,0,0:0:0:0:
475,192,245288,1,0,0:0:0:0:
256,192,245353,1,0,0:0:0:0:
402,192,245353,1,0,0:0:0:0:
329,192,245417,1,0,0:0:0:0:
182,192,245417,1,0,0:0:0:0:
36,192,245417,1,0,0:0:0:0:
109,192,245481,1,0,0:0:0:0:
256,192,245481,1,0,0:0:0:0:
329,192,245545,1,0,0:0:0:0:
402,192,245545,1,0,0:0:0:0:
475,192,245545,1,0,0:0:0:0:
182,192,245545,1,0,0:0:0:0:
109,192,245610,1,0,0:0:0:0:
36,192,245610,1,0,0:0:0:0:
182,192,245674,1,0,0:0:0:0:
329,192,245674,1,0,0:0:0:0:
475,192,245674,1,0,0:0:0:0:
402,192,245737,1,0,0:0:0:0:
256,192,245737,1,0,0:0:0:0:
182,192,245802,1,0,0:0:0:0:
109,192,245802,1,0,0:0:0:0:
36,192,245802,1,0,0:0:0:0:
329,192,245802,1,0,0:0:0:0:
402,192,245866,1,0,0:0:0:0:
475,192,245866,1,0,0:0:0:0:
329,192,245930,1,0,0:0:0:0:
36,192,245930,1,0,0:0:0:0:
109,192,245930,1,0,0:0:0:0:
256,192,245994,1,0,0:0:0:0:
182,192,245994,1,0,0:0:0:0:
402,192,246058,1,0,0:0:0:0:
109,192,246058,1,0,0:0:0:0:
475,192,246058,1,0,0:0:0:0:
36,192,246058,1,0,0:0:0:0:
182,192,246122,1,0,0:0:0:0:
329,192,246122,1,0,0:0:0:0:
256,192,246186,1,0,0:0:0:0:
402,192,246186,1,0,0:0:0:0:
475,192,246186,1,0,0:0:0:0:
109,192,246251,1,0,0:0:0:0:
36,192,246251,1,0,0:0:0:0:
182,192,246314,1,0,0:0:0:0:
256,192,246314,1,0,0:0:0:0:
329,192,246314,1,0,0:0:0:0:
475,192,246314,1,0,0:0:0:0:
402,192,246378,1,0,0:0:0:0:
36,192,246378,1,0,0:0:0:0:
475,192,246443,1,0,0:0:0:0:
182,192,246443,1,0,0:0:0:0:
109,192,246443,1,0,0:0:0:0:
329,192,246507,1,0,0:0:0:0:
402,192,246507,1,0,0:0:0:0:
256,192,246571,1,0,0:0:0:0:
182,192,246571,1,0,0:0:0:0:
36,192,246571,1,0,0:0:0:0:
109,192,246571,1,0,0:0:0:0:
329,192,246635,1,0,0:0:0:0:
475,192,246635,1,0,0:0:0:0:
109,192,246700,1,0,0:0:0:0:
36,192,246700,1,0,0:0:0:0:
256,192,246700,1,0,0:0:0:0:
329,192,246763,1,0,0:0:0:0:
182,192,246763,1,0,0:0:0:0:
109,192,246827,1,0,0:0:0:0:
402,192,246827,1,0,0:0:0:0:
475,192,246827,1,0,0:0:0:0:
36,192,246827,1,0,0:0:0:0:
182,192,246892,1,0,0:0:0:0:
329,192,246892,1,0,0:0:0:0:
36,192,246955,1,0,0:0:0:0:
109,192,246955,1,0,0:0:0:0:
256,192,246955,1,0,0:0:0:0:
329,192,247020,1,0,0:0:0:0:
475,192,247020,1,0,0:0:0:0:
402,192,247084,1,0,0:0:0:0:
109,192,247084,1,0,0:0:0:0:
182,192,247084,1,0,0:0:0:0:
36,192,247084,1,0,0:0:0:0:
329,192,247147,1,0,0:0:0:0:
256,192,247147,1,0,0:0:0:0:
36,192,247212,1,0,0:0:0:0:
475,192,247212,1,0,0:0:0:0:
402,192,247212,1,0,0:0:0:0:
182,192,247276,1,0,0:0:0:0:
109,192,247276,1,0,0:0:0:0:
475,192,247341,1,0,0:0:0:0:
256,192,247341,1,0,0:0:0:0:
329,192,247341,1,0,0:0:0:0:
402,192,247341,1,0,0:0:0:0:
36,192,247404,1,0,0:0:0:0:
109,192,247404,1,0,0:0:0:0:
182,192,247468,1,0,0:0:0:0:
329,192,247468,1,0,0:0:0:0:
402,192,247533,1,0,0:0:0:0:
475,192,247533,1,0,0:0:0:0:
36,192,247596,1,0,0:0:0:0:
256,192,247596,1,0,0:0:0:0:
182,192,247596,1,0,0:0:0:0:
109,192,247596,1,0,0:0:0:0:
329,192,247661,1,0,0:0:0:0:
475,192,247661,1,0,0:0:0:0:
402,192,247725,1,0,0:0:0:0:
256,192,247725,1,0,0:0:0:0:
182,192,247725,1,0,0:0:0:0:
109,192,247788,1,0,0:0:0:0:
36,192,247788,1,0,0:0:0:0:
256,192,247853,1,0,0:0:0:0:
329,192,247853,1,0,0:0:0:0:
402,192,247853,1,0,0:0:0:0:
475,192,247853,1,0,0:0:0:0:
109,192,247917,1,0,0:0:0:0:
36,192,247917,1,0,0:0:0:0:
256,192,247981,1,0,0:0:0:0:
475,192,247981,1,0,0:0:0:0:
182,192,247981,1,0,0:0:0:0:
329,192,248045,1,0,0:0:0:0:
402,192,248045,1,0,0:0:0:0:
109,192,248110,1,0,0:0:0:0:
36,192,248110,1,0,0:0:0:0:
475,192,248110,1,0,0:0:0:0:
182,192,248110,1,0,0:0:0:0:
256,192,248174,1,0,0:0:0:0:
402,192,248174,1,0,0:0:0:0:
329,192,248237,1,0,0:0:0:0:
475,192,248237,1,0,0:0:0:0:
182,192,248237,1,0,0:0:0:0:
109,192,248302,1,0,0:0:0:0:
36,192,248302,1,0,0:0:0:0:
256,192,248366,1,0,0:0:0:0:
329,192,248366,1,0,0:0:0:0:
182,192,248366,1,0,0:0:0:0:
475,192,248366,1,0,0:0:0:0:
109,192,248430,1,0,0:0:0:0:
36,192,248430,1,0,0:0:0:0:
182,192,248494,1,0,0:0:0:0:
475,192,248494,1,0,0:0:0:0:
402,192,248494,1,0,0:0:0:0:
256,192,248558,1,0,0:0:0:0:
329,192,248558,1,0,0:0:0:0:
109,192,248622,1,0,0:0:0:0:
36,192,248622,1,0,0:0:0:0:
402,192,248622,1,0,0:0:0:0:
475,192,248622,1,0,0:0:0:0:
182,192,248686,1,0,0:0:0:0:
256,192,248686,1,0,0:0:0:0:
329,192,248751,1,0,0:0:0:0:
475,192,248751,1,0,0:0:0:0:
36,192,248751,1,0,0:0:0:0:
109,192,248814,1,0,0:0:0:0:
182,192,248814,1,0,0:0:0:0:
256,192,248878,1,0,0:0:0:0:
329,192,248878,1,0,0:0:0:0:
475,192,248878,1,0,0:0:0:0:
402,192,248878,1,0,0:0:0:0:
109,192,248943,1,0,0:0:0:0:
36,192,248943,1,0,0:0:0:0:
182,192,249007,1,0,0:0:0:0:
402,192,249007,1,0,0:0:0:0:
475,192,249007,1,0,0:0:0:0:
256,192,249071,1,0,0:0:0:0:
329,192,249071,1,0,0:0:0:0:
109,192,249135,1,0,0:0:0:0:
36,192,249135,1,0,0:0:0:0:
402,192,249135,1,0,0:0:0:0:
475,192,249135,1,0,0:0:0:0:
182,192,249200,1,0,0:0:0:0:
329,192,249200,1,0,0:0:0:0:
256,192,249263,1,0,0:0:0:0:
109,192,249263,1,0,0:0:0:0:
36,192,249263,1,0,0:0:0:0:
402,192,249327,1,0,0:0:0:0:
475,192,249327,1,0,0:0:0:0:
329,192,249392,1,0,0:0:0:0:
182,192,249392,1,0,0:0:0:0:
109,192,249392,1,0,0:0:0:0:
36,192,249392,1,0,0:0:0:0:
256,192,249455,1,0,0:0:0:0:
402,192,249455,1,0,0:0:0:0:
36,192,249520,1,0,0:0:0:0:
182,192,249520,1,0,0:0:0:0:
475,192,249520,1,0,0:0:0:0:
109,192,249584,1,0,0:0:0:0:
256,192,249584,1,0,0:0:0:0:
329,192,249647,1,0,0:0:0:0:
402,192,249647,1,0,0:0:0:0:
475,192,249647,1,0,0:0:0:0:
182,192,249647,1,0,0:0:0:0:
36,192,249712,1,0,0:0:0:0:
109,192,249712,1,0,0:0:0:0:
256,192,249776,1,0,0:0:0:0:
402,192,249776,1,0,0:0:0:0:
475,192,249776,1,0,0:0:0:0:
182,192,249841,1,0,0:0:0:0:
109,192,249841,1,0,0:0:0:0:
36,192,249904,1,0,0:0:0:0:
256,192,249904,1,0,0:0:0:0:
329,192,249904,1,0,0:0:0:0:
402,192,249904,1,0,0:0:0:0:
475,192,249968,1,0,0:0:0:0:
182,192,249968,1,0,0:0:0:0:
109,192,250033,1,0,0:0:0:0:
36,192,250033,1,0,0:0:0:0:
256,192,250033,1,0,0:0:0:0:
329,192,250096,1,0,0:0:0:0:
402,192,250096,1,0,0:0:0:0:
475,192,250161,1,0,0:0:0:0:
256,192,250161,1,0,0:0:0:0:
182,192,250161,1,0,0:0:0:0:
109,192,250161,1,0,0:0:0:0:
36,192,250225,1,0,0:0:0:0:
329,192,250225,1,0,0:0:0:0:
402,192,250288,1,0,0:0:0:0:
475,192,250288,1,0,0:0:0:0:
109,192,250288,1,0,0:0:0:0:
256,192,250353,1,0,0:0:0:0:
182,192,250353,1,0,0:0:0:0:
329,192,250417,1,0,0:0:0:0:
402,192,250417,1,0,0:0:0:0:
475,192,250417,1,0,0:0:0:0:
109,192,250417,1,0,0:0:0:0:
36,192,250481,1,0,0:0:0:0:
182,192,250481,1,0,0:0:0:0:
256,192,250545,1,0,0:0:0:0:
329,192,250545,1,0,0:0:0:0:
475,192,250545,1,0,0:0:0:0:
182,192,250610,1,0,0:0:0:0:
109,192,250610,1,0,0:0:0:0:
36,192,250674,1,0,0:0:0:0:
256,192,250674,1,0,0:0:0:0:
329,192,250674,1,0,0:0:0:0:
402,192,250674,1,0,0:0:0:0:
475,192,250737,1,0,0:0:0:0:
109,192,250737,1,0,0:0:0:0:
182,192,250802,1,0,0:0:0:0:
329,192,250802,1,0,0:0:0:0:
402,192,250802,1,0,0:0:0:0:
475,192,250866,1,0,0:0:0:0:
256,192,250866,1,0,0:0:0:0:
182,192,250930,1,0,0:0:0:0:
36,192,250930,1,0,0:0:0:0:
109,192,250930,1,0,0:0:0:0:
329,192,250930,1,0,0:0:0:0:
475,192,250994,1,0,0:0:0:0:
402,192,250994,1,0,0:0:0:0:
182,192,251058,1,0,0:0:0:0:
36,192,251058,1,0,0:0:0:0:
256,192,251058,1,0,0:0:0:0:
402,192,251122,1,0,0:0:0:0:
475,192,251122,1,0,0:0:0:0:
182,192,251186,1,0,0:0:0:0:
36,192,251186,1,0,0:0:0:0:
109,192,251186,1,0,0:0:0:0:
256,192,251186,1,0,0:0:0:0:
329,192,251251,1,0,0:0:0:0:
402,192,251251,1,0,0:0:0:0:
475,192,251314,1,0,0:0:0:0:
256,192,251314,1,0,0:0:0:0:
36,192,251314,1,0,0:0:0:0:
182,192,251378,1,0,0:0:0:0:
109,192,251378,1,0,0:0:0:0:
402,192,251443,1,0,0:0:0:0:
475,192,251443,1,0,0:0:0:0:
329,192,251443,1,0,0:0:0:0:
256,192,251443,1,0,0:0:0:0:
36,192,251571,1,0,0:0:0:0:
475,192,251571,1,0,0:0:0:0:
109,192,251571,1,0,0:0:0:0:
402,192,251571,1,0,0:0:0:0:
256,192,251700,1,0,0:0:0:0:
182,192,251700,1,0,0:0:0:0:
109,192,251700,1,0,0:0:0:0:
36,192,251700,1,0,0:0:0:0:
182,192,251827,1,0,0:0:0:0:
109,192,251827,1,0,0:0:0:0:
329,192,251827,1,0,0:0:0:0:
402,192,251827,1,0,0:0:0:0:
256,192,251955,1,0,0:0:0:0:
329,192,251955,1,0,0:0:0:0:
402,192,251955,1,0,0:0:0:0:
475,192,251955,1,0,0:0:0:0:
182,192,252084,1,0,0:0:0:0:
256,192,252084,1,0,0:0:0:0:
109,192,252084,1,0,0:0:0:0:
36,192,252084,1,0,0:0:0:0:
109,192,252212,1,0,0:0:0:0:
475,192,252212,1,0,0:0:0:0:
402,192,252212,1,0,0:0:0:0:
182,192,252212,1,0,0:0:0:0:
256,192,252341,1,0,0:0:0:0:
329,192,252341,1,0,0:0:0:0:
402,192,252341,1,0,0:0:0:0:
475,192,252341,1,0,0:0:0:0:
256,192,252468,1,0,0:0:0:0:
109,192,252468,1,0,0:0:0:0:
36,192,252468,1,0,0:0:0:0:
182,192,252468,1,0,0:0:0:0:
329,192,252533,1,0,0:0:0:0:
475,192,252533,1,0,0:0:0:0:
402,192,252596,1,0,0:0:0:0:
109,192,252596,1,0,0:0:0:0:
36,192,252596,1,0,0:0:0:0:
182,192,252661,1,0,0:0:0:0:
256,192,252661,1,0,0:0:0:0:
402,192,252725,1,0,0:0:0:0:
475,192,252725,1,0,0:0:0:0:
109,192,252725,1,0,0:0:0:0:
36,192,252725,1,0,0:0:0:0:
256,192,252788,1,0,0:0:0:0:
329,192,252788,1,0,0:0:0:0:
402,192,252853,1,0,0:0:0:0:
182,192,252853,1,0,0:0:0:0:
475,192,252853,1,0,0:0:0:0:
109,192,252917,1,0,0:0:0:0:
36,192,252917,1,0,0:0:0:0:
256,192,252981,1,0,0:0:0:0:
329,192,252981,1,0,0:0:0:0:
402,192,252981,1,0,0:0:0:0:
475,192,252981,1,0,0:0:0:0:
182,192,253045,1,0,0:0:0:0:
36,192,253045,1,0,0:0:0:0:
109,192,253110,1,0,0:0:0:0:
256,192,253110,1,0,0:0:0:0:
329,192,253110,1,0,0:0:0:0:
402,192,253174,1,0,0:0:0:0:
475,192,253174,1,0,0:0:0:0:
182,192,253237,1,0,0:0:0:0:
109,192,253237,1,0,0:0:0:0:
36,192,253237,1,0,0:0:0:0:
256,192,253237,1,0,0:0:0:0:
329,192,253302,1,0,0:0:0:0:
475,192,253302,1,0,0:0:0:0:
109,192,253366,1,0,0:0:0:0:
36,192,253366,1,0,0:0:0:0:
256,192,253366,1,0,0:0:0:0:
182,192,253430,1,0,0:0:0:0:
329,192,253430,1,0,0:0:0:0:
402,192,253494,1,0,0:0:0:0:
475,192,253494,1,0,0:0:0:0:
109,192,253494,1,0,0:0:0:0:
36,192,253494,1,0,0:0:0:0:
182,192,253558,1,0,0:0:0:0:
329,192,253558,1,0,0:0:0:0:
402,192,253622,1,0,0:0:0:0:
475,192,253622,1,0,0:0:0:0:
256,192,253622,1,0,0:0:0:0:
109,192,253686,1,0,0:0:0:0:
36,192,253686,1,0,0:0:0:0:
402,192,253751,1,0,0:0:0:0:
475,192,253751,1,0,0:0:0:0:
329,192,253751,1,0,0:0:0:0:
256,192,253751,1,0,0:0:0:0:
182,192,253814,1,0,0:0:0:0:
36,192,253814,1,0,0:0:0:0:
329,192,253878,1,0,0:0:0:0:
475,192,253878,1,0,0:0:0:0:
109,192,253878,1,0,0:0:0:0:
256,192,253943,1,0,0:0:0:0:
402,192,253943,1,0,0:0:0:0:
182,192,254007,1,0,0:0:0:0:
109,192,254007,1,0,0:0:0:0:
36,192,254007,1,0,0:0:0:0:
329,192,254007,1,0,0:0:0:0:
402,192,254071,1,0,0:0:0:0:
475,192,254071,1,0,0:0:0:0:
256,192,254135,1,0,0:0:0:0:
36,192,254135,1,0,0:0:0:0:
109,192,254135,1,0,0:0:0:0:
329,192,254200,1,0,0:0:0:0:
402,192,254200,1,0,0:0:0:0:
475,192,254263,1,0,0:0:0:0:
182,192,254263,1,0,0:0:0:0:
109,192,254263,1,0,0:0:0:0:
36,192,254263,1,0,0:0:0:0:
256,192,254327,1,0,0:0:0:0:
402,192,254327,1,0,0:0:0:0:
329,192,254392,1,0,0:0:0:0:
182,192,254392,1,0,0:0:0:0:
475,192,254392,1,0,0:0:0:0:
36,192,254455,1,0,0:0:0:0:
109,192,254455,1,0,0:0:0:0:
256,192,254520,1,0,0:0:0:0:
329,192,254520,1,0,0:0:0:0:
402,192,254520,1,0,0:0:0:0:
475,192,254520,1,0,0:0:0:0:
182,192,254584,1,0,0:0:0:0:
36,192,254584,1,0,0:0:0:0:
109,192,254647,1,0,0:0:0:0:
256,192,254647,1,0,0:0:0:0:
329,192,254647,1,0,0:0:0:0:
402,192,254712,1,0,0:0:0:0:
475,192,254712,1,0,0:0:0:0:
256,192,254776,1,0,0:0:0:0:
182,192,254776,1,0,0:0:0:0:
109,192,254776,1,0,0:0:0:0:
36,192,254776,1,0,0:0:0:0:
329,192,254841,1,0,0:0:0:0:
402,192,254841,1,0,0:0:0:0:
182,192,254904,1,0,0:0:0:0:
36,192,254904,1,0,0:0:0:0:
256,192,254904,1,0,0:0:0:0:
329,192,254968,1,0,0:0:0:0:
475,192,254968,1,0,0:0:0:0:
402,192,255033,1,0,0:0:0:0:
182,192,255033,1,0,0:0:0:0:
109,192,255033,1,0,0:0:0:0:
36,192,255033,1,0,0:0:0:0:
256,192,255096,1,0,0:0:0:0:
329,192,255096,1,0,0:0:0:0:
109,192,255161,1,0,0:0:0:0:
475,192,255161,1,0,0:0:0:0:
36,192,255161,1,0,0:0:0:0:
329,192,255225,1,0,0:0:0:0:
182,192,255225,1,0,0:0:0:0:
109,192,255288,1,0,0:0:0:0:
36,192,255288,1,0,0:0:0:0:
475,192,255288,1,0,0:0:0:0:
402,192,255288,1,0,0:0:0:0:
256,192,255353,1,0,0:0:0:0:
329,192,255353,1,0,0:0:0:0:
402,192,255417,1,0,0:0:0:0:
182,192,255417,1,0,0:0:0:0:
109,192,255417,1,0,0:0:0:0:
36,192,255481,1,0,0:0:0:0:
475,192,255481,1,0,0:0:0:0:
256,192,255545,1,0,0:0:0:0:
329,192,255545,1,0,0:0:0:0:
402,192,255545,1,0,0:0:0:0:
109,192,255545,1,0,0:0:0:0:
36,192,255610,1,0,0:0:0:0:
182,192,255610,1,0,0:0:0:0:
256,192,255674,1,0,0:0:0:0:
475,192,255674,1,0,0:0:0:0:
329,192,255737,1,0,0:0:0:0:
402,192,255737,1,0,0:0:0:0:
182,192,255802,1,0,0:0:0:0:
36,192,255802,1,0,0:0:0:0:
109,192,255802,1,0,0:0:0:0:
256,192,255802,1,0,0:0:0:0:
329,192,255866,1,0,0:0:0:0:
475,192,255866,1,0,0:0:0:0:
402,192,255930,1,0,0:0:0:0:
182,192,255930,1,0,0:0:0:0:
36,192,255930,1,0,0:0:0:0:
109,192,255994,1,0,0:0:0:0:
256,192,255994,1,0,0:0:0:0:
329,192,256058,1,0,0:0:0:0:
402,192,256058,1,0,0:0:0:0:
475,192,256058,1,0,0:0:0:0:
182,192,256058,1,0,0:0:0:0:
36,192,256122,1,0,0:0:0:0:
109,192,256122,1,0,0:0:0:0:
182,192,256186,1,0,0:0:0:0:
329,192,256186,1,0,0:0:0:0:
402,192,256186,1,0,0:0:0:0:
475,192,256251,1,0,0:0:0:0:
256,192,256251,1,0,0:0:0:0:
182,192,256314,1,0,0:0:0:0:
109,192,256314,1,0,0:0:0:0:
36,192,256314,1,0,0:0:0:0:
329,192,256314,1,0,0:0:0:0:
402,192,256378,1,0,0:0:0:0:
475,192,256378,1,0,0:0:0:0:
256,192,256443,1,0,0:0:0:0:
109,192,256443,1,0,0:0:0:0:
36,192,256443,1,0,0:0:0:0:
329,192,256507,1,0,0:0:0:0:
182,192,256507,1,0,0:0:0:0:
402,192,256571,1,0,0:0:0:0:
109,192,256571,1,0,0:0:0:0:
36,192,256571,1,0,0:0:0:0:
475,192,256571,1,0,0:0:0:0:
256,192,256635,1,0,0:0:0:0:
329,192,256635,1,0,0:0:0:0:
36,192,256700,1,0,0:0:0:0:
402,192,256700,1,0,0:0:0:0:
109,192,256700,1,0,0:0:0:0:
256,192,256763,1,0,0:0:0:0:
182,192,256763,1,0,0:0:0:0:
329,192,256827,1,0,0:0:0:0:
402,192,256827,1,0,0:0:0:0:
475,192,256827,1,0,0:0:0:0:
36,192,256827,1,0,0:0:0:0:
109,192,256892,1,0,0:0:0:0:
256,192,256892,1,0,0:0:0:0:
329,192,256955,1,0,0:0:0:0:
182,192,256955,1,0,0:0:0:0:
402,192,256955,1,0,0:0:0:0:
36,192,257020,1,0,0:0:0:0:
109,192,257020,1,0,0:0:0:0:
256,192,257084,1,0,0:0:0:0:
182,192,257084,1,0,0:0:0:0:
402,192,257084,1,0,0:0:0:0:
329,192,257084,1,0,0:0:0:0:
475,192,257147,1,0,0:0:0:0:
109,192,257147,1,0,0:0:0:0:
36,192,257212,1,0,0:0:0:0:
182,192,257212,1,0,0:0:0:0:
329,192,257212,1,0,0:0:0:0:
256,192,257276,1,0,0:0:0:0:
402,192,257276,1,0,0:0:0:0:
329,192,257341,1,0,0:0:0:0:
475,192,257341,1,0,0:0:0:0:
109,192,257341,1,0,0:0:0:0:
36,192,257341,1,0,0:0:0:0:
182,192,257404,1,0,0:0:0:0:
256,192,257404,1,0,0:0:0:0:
329,192,257468,1,0,0:0:0:0:
109,192,257468,1,0,0:0:0:0:
402,192,257468,1,0,0:0:0:0:
182,192,257533,1,0,0:0:0:0:
36,192,257533,1,0,0:0:0:0:
256,192,257596,1,0,0:0:0:0:
329,192,257596,1,0,0:0:0:0:
475,192,257596,1,0,0:0:0:0:
402,192,257596,1,0,0:0:0:0:
109,192,257661,1,0,0:0:0:0:
36,192,257661,1,0,0:0:0:0:
182,192,257725,1,0,0:0:0:0:
475,192,257725,1,0,0:0:0:0:
329,192,257725,1,0,0:0:0:0:
256,192,257788,1,0,0:0:0:0:
402,192,257788,1,0,0:0:0:0:
329,192,257853,1,0,0:0:0:0:
182,192,257853,1,0,0:0:0:0:
109,192,257853,1,0,0:0:0:0:
36,192,257853,1,0,0:0:0:0:
256,192,257917,1,0,0:0:0:0:
475,192,257917,1,0,0:0:0:0:
402,192,257981,1,0,0:0:0:0:
329,192,257981,1,0,0:0:0:0:
36,192,257981,1,0,0:0:0:0:
109,192,258045,1,0,0:0:0:0:
182,192,258045,1,0,0:0:0:0:
256,192,258110,1,0,0:0:0:0:
329,192,258110,1,0,0:0:0:0:
402,192,258110,1,0,0:0:0:0:
475,192,258110,1,0,0:0:0:0:
36,192,258174,1,0,0:0:0:0:
109,192,258174,1,0,0:0:0:0:
182,192,258237,1,0,0:0:0:0:
329,192,258237,1,0,0:0:0:0:
402,192,258237,1,0,0:0:0:0:
475,192,258302,1,0,0:0:0:0:
256,192,258302,1,0,0:0:0:0:
182,192,258366,1,0,0:0:0:0:
109,192,258366,1,0,0:0:0:0:
36,192,258366,1,0,0:0:0:0:
329,192,258366,1,0,0:0:0:0:
402,192,258430,1,0,0:0:0:0:
475,192,258430,1,0,0:0:0:0:
256,192,258494,1,0,0:0:0:0:
36,192,258494,1,0,0:0:0:0:
109,192,258494,1,0,0:0:0:0:
329,192,258558,1,0,0:0:0:0:
402,192,258558,1,0,0:0:0:0:
36,192,258622,1,0,0:0:0:0:
109,192,258622,1,0,0:0:0:0:
182,192,258622,1,0,0:0:0:0:
256,192,258622,1,0,0:0:0:0:
475,192,258665,1,0,0:0:0:0:
402,192,258707,1,0,0:0:0:0:
182,192,258707,1,0,0:0:0:0:
256,192,258751,1,0,0:0:0:0:
109,192,258751,1,0,0:0:0:0:
329,192,258793,1,0,0:0:0:0:
36,192,258793,1,0,0:0:0:0:
402,192,258836,1,0,0:0:0:0:
182,192,258836,1,0,0:0:0:0:
109,192,258878,1,0,0:0:0:0:
109,192,259135,1,0,0:0:0:0:
36,192,259135,1,0,0:0:0:0:
182,192,259177,1,0,0:0:0:0:
475,192,259177,1,0,0:0:0:0:
256,192,259221,1,0,0:0:0:0:
402,192,259221,1,0,0:0:0:0:
329,192,259263,1,0,0:0:0:0:
36,192,259263,1,0,0:0:0:0:
402,192,259295,1,0,0:0:0:0:
109,192,259306,1,0,0:0:0:0:
475,192,259327,1,0,0:0:0:0:
182,192,259348,1,0,0:0:0:0:
329,192,259360,1,0,0:0:0:0:
256,192,259392,1,0,0:0:0:0:
402,192,259392,1,0,0:0:0:0:
402,192,259647,1,0,0:0:0:0:
329,192,259647,1,0,0:0:0:0:
475,192,259647,1,0,0:0:0:0:
36,192,259691,1,0,0:0:0:0:
109,192,259691,1,0,0:0:0:0:
475,192,259733,1,0,0:0:0:0:
182,192,259733,1,0,0:0:0:0:
402,192,259776,1,0,0:0:0:0:
256,192,259776,1,0,0:0:0:0:
329,192,259818,1,0,0:0:0:0:
182,192,259818,1,0,0:0:0:0:
109,192,259862,1,0,0:0:0:0:
36,192,259904,1,0,0:0:0:0:
182,192,260161,1,0,0:0:0:0:
36,192,260161,1,0,0:0:0:0:
109,192,260161,1,0,0:0:0:0:
475,192,260161,1,0,0:0:0:0:
256,192,260203,1,0,0:0:0:0:
402,192,260203,1,0,0:0:0:0:
329,192,260246,1,0,0:0:0:0:
402,192,260288,1,0,0:0:0:0:
475,192,260288,1,0,0:0:0:0:
182,192,260288,1,0,0:0:0:0:
256,192,260332,1,0,0:0:0:0:
109,192,260332,1,0,0:0:0:0:
329,192,260374,1,0,0:0:0:0:
36,192,260374,1,0,0:0:0:0:
402,192,260417,1,0,0:0:0:0:
182,192,260417,1,0,0:0:0:0:
402,192,260545,1,0,0:0:0:0:
475,192,260545,1,0,0:0:0:0:
109,192,260674,1,0,0:0:0:0:
182,192,260674,1,0,0:0:0:0:
36,192,260674,1,0,0:0:0:0:
256,192,260674,1,0,0:0:0:0:
329,192,260737,1,0,0:0:0:0:
475,192,260737,1,0,0:0:0:0:
256,192,260802,1,0,0:0:0:0:
109,192,260802,1,0,0:0:0:0:
36,192,260802,1,0,0:0:0:0:
182,192,260866,1,0,0:0:0:0:
329,192,260866,1,0,0:0:0:0:
109,192,260930,1,0,0:0:0:0:
36,192,260930,1,0,0:0:0:0:
475,192,260930,1,0,0:0:0:0:
402,192,260930,1,0,0:0:0:0:
256,192,260994,1,0,0:0:0:0:
182,192,260994,1,0,0:0:0:0:
329,192,261058,1,0,0:0:0:0:
475,192,261058,1,0,0:0:0:0:
402,192,261058,1,0,0:0:0:0:
109,192,261122,1,0,0:0:0:0:
36,192,261122,1,0,0:0:0:0:
182,192,261186,1,0,0:0:0:0:
256,192,261186,1,0,0:0:0:0:
329,192,261186,1,0,0:0:0:0:
475,192,261186,1,0,0:0:0:0:
402,192,261251,1,0,0:0:0:0:
36,192,261251,1,0,0:0:0:0:
109,192,261314,1,0,0:0:0:0:
182,192,261314,1,0,0:0:0:0:
329,192,261314,1,0,0:0:0:0:
402,192,261378,1,0,0:0:0:0:
475,192,261378,1,0,0:0:0:0:
256,192,261443,1,0,0:0:0:0:
182,192,261443,1,0,0:0:0:0:
109,192,261443,1,0,0:0:0:0:
36,192,261443,1,0,0:0:0:0:
329,192,261507,1,0,0:0:0:0:
475,192,261507,1,0,0:0:0:0:
36,192,261571,1,0,0:0:0:0:
182,192,261571,1,0,0:0:0:0:
256,192,261571,1,0,0:0:0:0:
329,192,261635,1,0,0:0:0:0:
402,192,261635,1,0,0:0:0:0:
182,192,261700,1,0,0:0:0:0:
109,192,261700,1,0,0:0:0:0:
36,192,261700,1,0,0:0:0:0:
475,192,261700,1,0,0:0:0:0:
256,192,261763,1,0,0:0:0:0:
402,192,261763,1,0,0:0:0:0:
329,192,261827,1,0,0:0:0:0:
182,192,261827,1,0,0:0:0:0:
36,192,261827,1,0,0:0:0:0:
109,192,261892,1,0,0:0:0:0:
256,192,261892,1,0,0:0:0:0:
329,192,261955,1,0,0:0:0:0:
402,192,261955,1,0,0:0:0:0:
475,192,261955,1,0,0:0:0:0:
182,192,261955,1,0,0:0:0:0:
109,192,262020,1,0,0:0:0:0:
36,192,262020,1,0,0:0:0:0:
182,192,262084,1,0,0:0:0:0:
329,192,262084,1,0,0:0:0:0:
475,192,262084,1,0,0:0:0:0:
402,192,262147,1,0,0:0:0:0:
256,192,262147,1,0,0:0:0:0:
182,192,262212,1,0,0:0:0:0:
109,192,262212,1,0,0:0:0:0:
36,192,262212,1,0,0:0:0:0:
329,192,262212,1,0,0:0:0:0:
402,192,262276,1,0,0:0:0:0:
475,192,262276,1,0,0:0:0:0:
329,192,262341,1,0,0:0:0:0:
36,192,262341,1,0,0:0:0:0:
109,192,262341,1,0,0:0:0:0:
256,192,262404,1,0,0:0:0:0:
182,192,262404,1,0,0:0:0:0:
402,192,262468,1,0,0:0:0:0:
109,192,262468,1,0,0:0:0:0:
475,192,262468,1,0,0:0:0:0:
36,192,262468,1,0,0:0:0:0:
182,192,262533,1,0,0:0:0:0:
329,192,262533,1,0,0:0:0:0:
256,192,262596,1,0,0:0:0:0:
402,192,262596,1,0,0:0:0:0:
475,192,262596,1,0,0:0:0:0:
109,192,262661,1,0,0:0:0:0:
36,192,262661,1,0,0:0:0:0:
182,192,262725,1,0,0:0:0:0:
256,192,262725,1,0,0:0:0:0:
329,192,262725,1,0,0:0:0:0:
475,192,262725,1,0,0:0:0:0:
402,192,262788,1,0,0:0:0:0:
36,192,262788,1,0,0:0:0:0:
475,192,262853,1,0,0:0:0:0:
182,192,262853,1,0,0:0:0:0:
109,192,262853,1,0,0:0:0:0:
329,192,262917,1,0,0:0:0:0:
402,192,262917,1,0,0:0:0:0:
256,192,262981,1,0,0:0:0:0:
182,192,262981,1,0,0:0:0:0:
36,192,262981,1,0,0:0:0:0:
109,192,262981,1,0,0:0:0:0:
329,192,263045,1,0,0:0:0:0:
475,192,263045,1,0,0:0:0:0:
109,192,263110,1,0,0:0:0:0:
36,192,263110,1,0,0:0:0:0:
256,192,263110,1,0,0:0:0:0:
329,192,263174,1,0,0:0:0:0:
182,192,263174,1,0,0:0:0:0:
109,192,263237,1,0,0:0:0:0:
402,192,263237,1,0,0:0:0:0:
475,192,263237,1,0,0:0:0:0:
36,192,263237,1,0,0:0:0:0:
182,192,263302,1,0,0:0:0:0:
329,192,263302,1,0,0:0:0:0:
36,192,263366,1,0,0:0:0:0:
109,192,263366,1,0,0:0:0:0:
256,192,263366,1,0,0:0:0:0:
329,192,263430,1,0,0:0:0:0:
475,192,263430,1,0,0:0:0:0:
402,192,263494,1,0,0:0:0:0:
109,192,263494,1,0,0:0:0:0:
182,192,263494,1,0,0:0:0:0:
36,192,263494,1,0,0:0:0:0:
329,192,263558,1,0,0:0:0:0:
256,192,263558,1,0,0:0:0:0:
36,192,263622,1,0,0:0:0:0:
475,192,263622,1,0,0:0:0:0:
402,192,263622,1,0,0:0:0:0:
182,192,263686,1,0,0:0:0:0:
109,192,263686,1,0,0:0:0:0:
475,192,263751,1,0,0:0:0:0:
256,192,263751,1,0,0:0:0:0:
329,192,263751,1,0,0:0:0:0:
402,192,263751,1,0,0:0:0:0:
36,192,263814,1,0,0:0:0:0:
109,192,263814,1,0,0:0:0:0:
182,192,263878,1,0,0:0:0:0:
329,192,263878,1,0,0:0:0:0:
402,192,263943,1,0,0:0:0:0:
475,192,263943,1,0,0:0:0:0:
36,192,264007,1,0,0:0:0:0:
256,192,264007,1,0,0:0:0:0:
182,192,264007,1,0,0:0:0:0:
109,192,264007,1,0,0:0:0:0:
329,192,264071,1,0,0:0:0:0:
475,192,264071,1,0,0:0:0:0:
402,192,264135,1,0,0:0:0:0:
256,192,264135,1,0,0:0:0:0:
182,192,264135,1,0,0:0:0:0:
109,192,264200,1,0,0:0:0:0:
36,192,264200,1,0,0:0:0:0:
256,192,264263,1,0,0:0:0:0:
329,192,264263,1,0,0:0:0:0:
402,192,264263,1,0,0:0:0:0:
475,192,264263,1,0,0:0:0:0:
109,192,264327,1,0,0:0:0:0:
36,192,264327,1,0,0:0:0:0:
256,192,264392,1,0,0:0:0:0:
475,192,264392,1,0,0:0:0:0:
182,192,264392,1,0,0:0:0:0:
329,192,264455,1,0,0:0:0:0:
402,192,264455,1,0,0:0:0:0:
109,192,264520,1,0,0:0:0:0:
36,192,264520,1,0,0:0:0:0:
475,192,264520,1,0,0:0:0:0:
182,192,264520,1,0,0:0:0:0:
256,192,264584,1,0,0:0:0:0:
402,192,264584,1,0,0:0:0:0:
329,192,264647,1,0,0:0:0:0:
475,192,264647,1,0,0:0:0:0:
182,192,264647,1,0,0:0:0:0:
109,192,264712,1,0,0:0:0:0:
36,192,264712,1,0,0:0:0:0:
256,192,264776,1,0,0:0:0:0:
329,192,264776,1,0,0:0:0:0:
182,192,264776,1,0,0:0:0:0:
475,192,264776,1,0,0:0:0:0:
109,192,264841,1,0,0:0:0:0:
36,192,264841,1,0,0:0:0:0:
182,192,264904,1,0,0:0:0:0:
475,192,264904,1,0,0:0:0:0:
402,192,264904,1,0,0:0:0:0:
256,192,264968,1,0,0:0:0:0:
329,192,264968,1,0,0:0:0:0:
109,192,265033,1,0,0:0:0:0:
36,192,265033,1,0,0:0:0:0:
402,192,265033,1,0,0:0:0:0:
475,192,265033,1,0,0:0:0:0:
182,192,265096,1,0,0:0:0:0:
256,192,265096,1,0,0:0:0:0:
329,192,265161,1,0,0:0:0:0:
475,192,265161,1,0,0:0:0:0:
36,192,265161,1,0,0:0:0:0:
109,192,265225,1,0,0:0:0:0:
182,192,265225,1,0,0:0:0:0:
256,192,265288,1,0,0:0:0:0:
329,192,265288,1,0,0:0:0:0:
475,192,265288,1,0,0:0:0:0:
402,192,265288,1,0,0:0:0:0:
109,192,265353,1,0,0:0:0:0:
36,192,265353,1,0,0:0:0:0:
182,192,265417,1,0,0:0:0:0:
402,192,265417,1,0,0:0:0:0:
475,192,265417,1,0,0:0:0:0:
256,192,265481,1,0,0:0:0:0:
329,192,265481,1,0,0:0:0:0:
109,192,265545,1,0,0:0:0:0:
36,192,265545,1,0,0:0:0:0:
402,192,265545,1,0,0:0:0:0:
475,192,265545,1,0,0:0:0:0:
182,192,265610,1,0,0:0:0:0:
329,192,265610,1,0,0:0:0:0:
256,192,265674,1,0,0:0:0:0:
109,192,265674,1,0,0:0:0:0:
36,192,265674,1,0,0:0:0:0:
402,192,265737,1,0,0:0:0:0:
475,192,265737,1,0,0:0:0:0:
329,192,265802,1,0,0:0:0:0:
182,192,265802,1,0,0:0:0:0:
109,192,265802,1,0,0:0:0:0:
36,192,265802,1,0,0:0:0:0:
256,192,265866,1,0,0:0:0:0:
402,192,265866,1,0,0:0:0:0:
36,192,265930,1,0,0:0:0:0:
182,192,265930,1,0,0:0:0:0:
475,192,265930,1,0,0:0:0:0:
109,192,265994,1,0,0:0:0:0:
256,192,265994,1,0,0:0:0:0:
329,192,266058,1,0,0:0:0:0:
402,192,266058,1,0,0:0:0:0:
475,192,266058,1,0,0:0:0:0:
182,192,266058,1,0,0:0:0:0:
36,192,266122,1,0,0:0:0:0:
109,192,266122,1,0,0:0:0:0:
256,192,266186,1,0,0:0:0:0:
402,192,266186,1,0,0:0:0:0:
475,192,266186,1,0,0:0:0:0:
182,192,266251,1,0,0:0:0:0:
109,192,266251,1,0,0:0:0:0:
36,192,266314,1,0,0:0:0:0:
256,192,266314,1,0,0:0:0:0:
329,192,266314,1,0,0:0:0:0:
402,192,266314,1,0,0:0:0:0:
475,192,266378,1,0,0:0:0:0:
182,192,266378,1,0,0:0:0:0:
109,192,266443,1,0,0:0:0:0:
36,192,266443,1,0,0:0:0:0:
256,192,266443,1,0,0:0:0:0:
329,192,266507,1,0,0:0:0:0:
402,192,266507,1,0,0:0:0:0:
475,192,266571,1,0,0:0:0:0:
256,192,266571,1,0,0:0:0:0:
182,192,266571,1,0,0:0:0:0:
109,192,266571,1,0,0:0:0:0:
36,192,266635,1,0,0:0:0:0:
329,192,266635,1,0,0:0:0:0:
402,192,266700,1,0,0:0:0:0:
475,192,266700,1,0,0:0:0:0:
109,192,266700,1,0,0:0:0:0:
256,192,266763,1,0,0:0:0:0:
182,192,266763,1,0,0:0:0:0:
329,192,266827,1,0,0:0:0:0:
402,192,266827,1,0,0:0:0:0:
475,192,266827,1,0,0:0:0:0:
109,192,266827,1,0,0:0:0:0:
36,192,266892,1,0,0:0:0:0:
182,192,266892,1,0,0:0:0:0:
256,192,266955,1,0,0:0:0:0:
329,192,266955,1,0,0:0:0:0:
475,192,266955,1,0,0:0:0:0:
182,192,267020,1,0,0:0:0:0:
109,192,267020,1,0,0:0:0:0:
36,192,267084,1,0,0:0:0:0:
256,192,267084,1,0,0:0:0:0:
329,192,267084,1,0,0:0:0:0:
402,192,267084,1,0,0:0:0:0:
475,192,267147,1,0,0:0:0:0:
109,192,267147,1,0,0:0:0:0:
182,192,267212,1,0,0:0:0:0:
329,192,267212,1,0,0:0:0:0:
402,192,267212,1,0,0:0:0:0:
475,192,267276,1,0,0:0:0:0:
256,192,267276,1,0,0:0:0:0:
182,192,267341,1,0,0:0:0:0:
36,192,267341,1,0,0:0:0:0:
109,192,267341,1,0,0:0:0:0:
329,192,267341,1,0,0:0:0:0:
475,192,267404,1,0,0:0:0:0:
402,192,267404,1,0,0:0:0:0:
182,192,267468,1,0,0:0:0:0:
36,192,267468,1,0,0:0:0:0:
256,192,267468,1,0,0:0:0:0:
402,192,267533,1,0,0:0:0:0:
475,192,267533,1,0,0:0:0:0:
182,192,267596,1,0,0:0:0:0:
36,192,267596,1,0,0:0:0:0:
109,192,267596,1,0,0:0:0:0:
256,192,267596,1,0,0:0:0:0:
329,192,267661,1,0,0:0:0:0:
402,192,267661,1,0,0:0:0:0:
475,192,267725,1,0,0:0:0:0:
256,192,267725,1,0,0:0:0:0:
36,192,267725,1,0,0:0:0:0:
182,192,267788,1,0,0:0:0:0:
109,192,267788,1,0,0:0:0:0:
402,192,267853,1,0,0:0:0:0:
475,192,267853,1,0,0:0:0:0:
329,192,267853,1,0,0:0:0:0:
256,192,267853,1,0,0:0:0:0:
36,192,267981,1,0,0:0:0:0:
475,192,267981,1,0,0:0:0:0:
109,192,267981,1,0,0:0:0:0:
402,192,267981,1,0,0:0:0:0:
256,192,268110,1,0,0:0:0:0:
182,192,268110,1,0,0:0:0:0:
109,192,268110,1,0,0:0:0:0:
36,192,268110,1,0,0:0:0:0:
182,192,268237,1,0,0:0:0:0:
109,192,268237,1,0,0:0:0:0:
329,192,268237,1,0,0:0:0:0:
402,192,268237,1,0,0:0:0:0:
256,192,268366,1,0,0:0:0:0:
329,192,268366,1,0,0:0:0:0:
402,192,268366,1,0,0:0:0:0:
475,192,268366,1,0,0:0:0:0:
182,192,268494,1,0,0:0:0:0:
256,192,268494,1,0,0:0:0:0:
109,192,268494,1,0,0:0:0:0:
36,192,268494,1,0,0:0:0:0:
109,192,268622,1,0,0:0:0:0:
475,192,268622,1,0,0:0:0:0:
402,192,268622,1,0,0:0:0:0:
182,192,268622,1,0,0:0:0:0:
256,192,268751,1,0,0:0:0:0:
329,192,268751,1,0,0:0:0:0:
402,192,268751,1,0,0:0:0:0:
475,192,268751,1,0,0:0:0:0:
256,192,268878,1,0,0:0:0:0:
109,192,268878,1,0,0:0:0:0:
36,192,268878,1,0,0:0:0:0:
182,192,268878,1,0,0:0:0:0:
329,192,268943,1,0,0:0:0:0:
475,192,268943,1,0,0:0:0:0:
402,192,269007,1,0,0:0:0:0:
109,192,269007,1,0,0:0:0:0:
36,192,269007,1,0,0:0:0:0:
182,192,269071,1,0,0:0:0:0:
256,192,269071,1,0,0:0:0:0:
402,192,269135,1,0,0:0:0:0:
475,192,269135,1,0,0:0:0:0:
109,192,269135,1,0,0:0:0:0:
36,192,269135,1,0,0:0:0:0:
256,192,269200,1,0,0:0:0:0:
329,192,269200,1,0,0:0:0:0:
402,192,269263,1,0,0:0:0:0:
182,192,269263,1,0,0:0:0:0:
475,192,269263,1,0,0:0:0:0:
109,192,269327,1,0,0:0:0:0:
36,192,269327,1,0,0:0:0:0:
256,192,269392,1,0,0:0:0:0:
329,192,269392,1,0,0:0:0:0:
402,192,269392,1,0,0:0:0:0:
475,192,269392,1,0,0:0:0:0:
182,192,269455,1,0,0:0:0:0:
36,192,269455,1,0,0:0:0:0:
109,192,269520,1,0,0:0:0:0:
256,192,269520,1,0,0:0:0:0:
329,192,269520,1,0,0:0:0:0:
402,192,269584,1,0,0:0:0:0:
475,192,269584,1,0,0:0:0:0:
182,192,269647,1,0,0:0:0:0:
109,192,269647,1,0,0:0:0:0:
36,192,269647,1,0,0:0:0:0:
256,192,269647,1,0,0:0:0:0:
329,192,269712,1,0,0:0:0:0:
475,192,269712,1,0,0:0:0:0:
109,192,269776,1,0,0:0:0:0:
36,192,269776,1,0,0:0:0:0:
256,192,269776,1,0,0:0:0:0:
182,192,269841,1,0,0:0:0:0:
329,192,269841,1,0,0:0:0:0:
402,192,269904,1,0,0:0:0:0:
475,192,269904,1,0,0:0:0:0:
109,192,269904,1,0,0:0:0:0:
36,192,269904,1,0,0:0:0:0:
182,192,269968,1,0,0:0:0:0:
329,192,269968,1,0,0:0:0:0:
402,192,270033,1,0,0:0:0:0:
475,192,270033,1,0,0:0:0:0:
256,192,270033,1,0,0:0:0:0:
109,192,270096,1,0,0:0:0:0:
36,192,270096,1,0,0:0:0:0:
402,192,270161,1,0,0:0:0:0:
475,192,270161,1,0,0:0:0:0:
329,192,270161,1,0,0:0:0:0:
256,192,270161,1,0,0:0:0:0:
182,192,270225,1,0,0:0:0:0:
36,192,270225,1,0,0:0:0:0:
329,192,270288,1,0,0:0:0:0:
475,192,270288,1,0,0:0:0:0:
109,192,270288,1,0,0:0:0:0:
256,192,270353,1,0,0:0:0:0:
402,192,270353,1,0,0:0:0:0:
182,192,270417,1,0,0:0:0:0:
109,192,270417,1,0,0:0:0:0:
36,192,270417,1,0,0:0:0:0:
329,192,270417,1,0,0:0:0:0:
402,192,270481,1,0,0:0:0:0:
475,192,270481,1,0,0:0:0:0:
256,192,270545,1,0,0:0:0:0:
36,192,270545,1,0,0:0:0:0:
109,192,270545,1,0,0:0:0:0:
329,192,270610,1,0,0:0:0:0:
402,192,270610,1,0,0:0:0:0:
475,192,270674,1,0,0:0:0:0:
182,192,270674,1,0,0:0:0:0:
109,192,270674,1,0,0:0:0:0:
36,192,270674,1,0,0:0:0:0:
256,192,270737,1,0,0:0:0:0:
402,192,270737,1,0,0:0:0:0:
329,192,270802,1,0,0:0:0:0:
182,192,270802,1,0,0:0:0:0:
475,192,270802,1,0,0:0:0:0:
36,192,270866,1,0,0:0:0:0:
109,192,270866,1,0,0:0:0:0:
256,192,270930,1,0,0:0:0:0:
329,192,270930,1,0,0:0:0:0:
402,192,270930,1,0,0:0:0:0:
475,192,270930,1,0,0:0:0:0:
182,192,270994,1,0,0:0:0:0:
36,192,270994,1,0,0:0:0:0:
109,192,271058,1,0,0:0:0:0:
256,192,271058,1,0,0:0:0:0:
329,192,271058,1,0,0:0:0:0:
402,192,271122,1,0,0:0:0:0:
475,192,271122,1,0,0:0:0:0:
256,192,271186,1,0,0:0:0:0:
182,192,271186,1,0,0:0:0:0:
109,192,271186,1,0,0:0:0:0:
36,192,271186,1,0,0:0:0:0:
329,192,271251,1,0,0:0:0:0:
402,192,271251,1,0,0:0:0:0:
182,192,271314,1,0,0:0:0:0:
36,192,271314,1,0,0:0:0:0:
256,192,271314,1,0,0:0:0:0:
402,192,271378,1,0,0:0:0:0:
475,192,271378,1,0,0:0:0:0:
329,192,271443,1,0,0:0:0:0:
182,192,271443,1,0,0:0:0:0:
109,192,271443,1,0,0:0:0:0:
36,192,271443,1,0,0:0:0:0:
256,192,271507,1,0,0:0:0:0:
402,192,271507,1,0,0:0:0:0:
475,192,271571,1,0,0:0:0:0:
109,192,271571,1,0,0:0:0:0:
36,192,271571,1,0,0:0:0:0:
402,192,271635,1,0,0:0:0:0:
182,192,271635,1,0,0:0:0:0:
109,192,271700,1,0,0:0:0:0:
36,192,271700,1,0,0:0:0:0:
329,192,271700,1,0,0:0:0:0:
256,192,271700,1,0,0:0:0:0:
402,192,271763,1,0,0:0:0:0:
475,192,271763,1,0,0:0:0:0:
182,192,271827,1,0,0:0:0:0:
36,192,271827,1,0,0:0:0:0:
256,192,271827,1,0,0:0:0:0:
329,192,271892,1,0,0:0:0:0:
475,192,271892,1,0,0:0:0:0:
182,192,271955,1,0,0:0:0:0:
109,192,271955,1,0,0:0:0:0:
36,192,271955,1,0,0:0:0:0:
256,192,271955,1,0,0:0:0:0:
402,192,272020,1,0,0:0:0:0:
475,192,272020,1,0,0:0:0:0:
109,192,272084,1,0,0:0:0:0:
36,192,272084,1,0,0:0:0:0:
329,192,272084,1,0,0:0:0:0:
256,192,272147,1,0,0:0:0:0:
182,192,272147,1,0,0:0:0:0:
109,192,272212,1,0,0:0:0:0:
36,192,272212,1,0,0:0:0:0:
402,192,272212,1,0,0:0:0:0:
475,192,272212,1,0,0:0:0:0:
329,192,272276,1,0,0:0:0:0:
182,192,272276,1,0,0:0:0:0:
256,192,272341,1,0,0:0:0:0:
109,192,272341,1,0,0:0:0:0:
36,192,272341,1,0,0:0:0:0:
329,192,272404,1,0,0:0:0:0:
475,192,272404,1,0,0:0:0:0:
402,192,272468,1,0,0:0:0:0:
182,192,272468,1,0,0:0:0:0:
109,192,272468,1,0,0:0:0:0:
36,192,272468,1,0,0:0:0:0:
256,192,272533,1,0,0:0:0:0:
329,192,272533,1,0,0:0:0:0:
109,192,272596,1,0,0:0:0:0:
475,192,272596,1,0,0:0:0:0:
36,192,272596,1,0,0:0:0:0:
329,192,272661,1,0,0:0:0:0:
182,192,272661,1,0,0:0:0:0:
109,192,272725,1,0,0:0:0:0:
36,192,272725,1,0,0:0:0:0:
475,192,272725,1,0,0:0:0:0:
402,192,272725,1,0,0:0:0:0:
256,192,272788,1,0,0:0:0:0:
329,192,272788,1,0,0:0:0:0:
402,192,272853,1,0,0:0:0:0:
182,192,272853,1,0,0:0:0:0:
109,192,272853,1,0,0:0:0:0:
36,192,272917,1,0,0:0:0:0:
475,192,272917,1,0,0:0:0:0:
256,192,272981,1,0,0:0:0:0:
329,192,272981,1,0,0:0:0:0:
402,192,272981,1,0,0:0:0:0:
109,192,272981,1,0,0:0:0:0:
36,192,273045,1,0,0:0:0:0:
182,192,273045,1,0,0:0:0:0:
256,192,273110,1,0,0:0:0:0:
475,192,273110,1,0,0:0:0:0:
329,192,273174,1,0,0:0:0:0:
402,192,273174,1,0,0:0:0:0:
182,192,273237,1,0,0:0:0:0:
36,192,273237,1,0,0:0:0:0:
109,192,273237,1,0,0:0:0:0:
256,192,273237,1,0,0:0:0:0:
329,192,273302,1,0,0:0:0:0:
475,192,273302,1,0,0:0:0:0:
402,192,273366,1,0,0:0:0:0:
182,192,273366,1,0,0:0:0:0:
36,192,273366,1,0,0:0:0:0:
109,192,273430,1,0,0:0:0:0:
256,192,273430,1,0,0:0:0:0:
329,192,273494,1,0,0:0:0:0:
402,192,273494,1,0,0:0:0:0:
475,192,273494,1,0,0:0:0:0:
182,192,273494,1,0,0:0:0:0:
36,192,273558,1,0,0:0:0:0:
109,192,273558,1,0,0:0:0:0:
182,192,273622,1,0,0:0:0:0:
402,192,273622,1,0,0:0:0:0:
475,192,273622,1,0,0:0:0:0:
329,192,273686,1,0,0:0:0:0:
256,192,273686,1,0,0:0:0:0:
475,192,273751,5,0,0:0:0:0:
36,192,273751,1,0,0:0:0:0:
109,192,273751,1,0,0:0:0:0:
402,192,273751,1,0,0:0:0:0:
329,192,273814,1,0,0:0:0:0:
182,192,273814,1,0,0:0:0:0:
256,192,273878,1,0,0:0:0:0:
402,192,273878,1,0,0:0:0:0:
475,192,273878,1,0,0:0:0:0:
109,192,273943,1,0,0:0:0:0:
36,192,273943,1,0,0:0:0:0:
182,192,274007,1,0,0:0:0:0:
475,192,274007,1,0,0:0:0:0:
402,192,274007,1,0,0:0:0:0:
256,192,274007,1,0,0:0:0:0:
109,192,274071,1,0,0:0:0:0:
36,192,274135,1,0,0:0:0:0:
182,192,274135,1,0,0:0:0:0:
329,192,274135,1,0,0:0:0:0:
256,192,274200,1,0,0:0:0:0:
402,192,274200,1,0,0:0:0:0:
329,192,274263,1,0,0:0:0:0:
475,192,274263,1,0,0:0:0:0:
182,192,274263,1,0,0:0:0:0:
109,192,274263,1,0,0:0:0:0:
36,192,274327,1,0,0:0:0:0:
256,192,274327,1,0,0:0:0:0:
329,192,274392,1,0,0:0:0:0:
475,192,274392,1,0,0:0:0:0:
182,192,274392,1,0,0:0:0:0:
109,192,274455,1,0,0:0:0:0:
36,192,274455,1,0,0:0:0:0:
256,192,274520,1,0,0:0:0:0:
329,192,274520,1,0,0:0:0:0:
402,192,274520,1,0,0:0:0:0:
475,192,274520,1,0,0:0:0:0:
182,192,274584,1,0,0:0:0:0:
36,192,274584,1,0,0:0:0:0:
109,192,274647,1,0,0:0:0:0:
256,192,274647,1,0,0:0:0:0:
402,192,274647,1,0,0:0:0:0:
329,192,274712,1,0,0:0:0:0:
475,192,274712,1,0,0:0:0:0:
256,192,274776,1,0,0:0:0:0:
182,192,274776,1,0,0:0:0:0:
109,192,274776,1,0,0:0:0:0:
36,192,274776,1,0,0:0:0:0:
329,192,274841,1,0,0:0:0:0:
475,192,274841,1,0,0:0:0:0:
256,192,274904,1,0,0:0:0:0:
109,192,274904,1,0,0:0:0:0:
402,192,274904,1,0,0:0:0:0:
182,192,274968,1,0,0:0:0:0:
36,192,274968,1,0,0:0:0:0:
109,192,275033,1,0,0:0:0:0:
256,192,275033,1,0,0:0:0:0:
402,192,275033,1,0,0:0:0:0:
329,192,275033,1,0,0:0:0:0:
475,192,275096,1,0,0:0:0:0:
182,192,275096,1,0,0:0:0:0:
109,192,275161,1,0,0:0:0:0:
36,192,275161,1,0,0:0:0:0:
256,192,275161,1,0,0:0:0:0:
329,192,275225,1,0,0:0:0:0:
475,192,275225,1,0,0:0:0:0:
402,192,275288,1,0,0:0:0:0:
256,192,275288,1,0,0:0:0:0:
182,192,275288,1,0,0:0:0:0:
109,192,275288,1,0,0:0:0:0:
36,192,275353,1,0,0:0:0:0:
329,192,275353,1,0,0:0:0:0:
256,192,275417,1,0,0:0:0:0:
109,192,275417,1,0,0:0:0:0:
475,192,275417,1,0,0:0:0:0:
182,192,275481,1,0,0:0:0:0:
36,192,275481,1,0,0:0:0:0:
256,192,275545,1,0,0:0:0:0:
329,192,275545,1,0,0:0:0:0:
475,192,275545,1,0,0:0:0:0:
402,192,275545,1,0,0:0:0:0:
182,192,275610,1,0,0:0:0:0:
36,192,275610,1,0,0:0:0:0:
109,192,275674,1,0,0:0:0:0:
329,192,275674,1,0,0:0:0:0:
475,192,275674,1,0,0:0:0:0:
256,192,275737,1,0,0:0:0:0:
402,192,275737,1,0,0:0:0:0:
329,192,275802,1,0,0:0:0:0:
182,192,275802,1,0,0:0:0:0:
109,192,275802,1,0,0:0:0:0:
36,192,275802,1,0,0:0:0:0:
256,192,275866,1,0,0:0:0:0:
475,192,275866,1,0,0:0:0:0:
182,192,275930,1,0,0:0:0:0:
36,192,275930,1,0,0:0:0:0:
402,192,275930,1,0,0:0:0:0:
256,192,275994,1,0,0:0:0:0:
109,192,275994,1,0,0:0:0:0:
36,192,276058,1,0,0:0:0:0:
329,192,276058,1,0,0:0:0:0:
475,192,276058,1,0,0:0:0:0:
402,192,276058,1,0,0:0:0:0:
256,192,276122,1,0,0:0:0:0:
109,192,276122,1,0,0:0:0:0:
182,192,276186,1,0,0:0:0:0:
329,192,276186,1,0,0:0:0:0:
402,192,276186,1,0,0:0:0:0:
475,192,276251,1,0,0:0:0:0:
256,192,276251,1,0,0:0:0:0:
109,192,276314,1,0,0:0:0:0:
36,192,276314,1,0,0:0:0:0:
182,192,276314,1,0,0:0:0:0:
402,192,276314,1,0,0:0:0:0:
256,192,276378,1,0,0:0:0:0:
475,192,276378,1,0,0:0:0:0:
329,192,276443,1,0,0:0:0:0:
109,192,276443,1,0,0:0:0:0:
36,192,276443,1,0,0:0:0:0:
182,192,276507,1,0,0:0:0:0:
402,192,276507,1,0,0:0:0:0:
256,192,276571,1,0,0:0:0:0:
329,192,276571,1,0,0:0:0:0:
475,192,276571,1,0,0:0:0:0:
109,192,276571,1,0,0:0:0:0:
182,192,276635,1,0,0:0:0:0:
36,192,276635,1,0,0:0:0:0:
109,192,276700,1,0,0:0:0:0:
329,192,276700,1,0,0:0:0:0:
402,192,276700,1,0,0:0:0:0:
475,192,276763,1,0,0:0:0:0:
256,192,276763,1,0,0:0:0:0:
182,192,276827,1,0,0:0:0:0:
109,192,276827,1,0,0:0:0:0:
36,192,276827,1,0,0:0:0:0:
329,192,276827,1,0,0:0:0:0:
402,192,276892,1,0,0:0:0:0:
475,192,276892,1,0,0:0:0:0:
36,192,276955,1,0,0:0:0:0:
329,192,276955,1,0,0:0:0:0:
182,192,276955,1,0,0:0:0:0:
256,192,277020,1,0,0:0:0:0:
109,192,277020,1,0,0:0:0:0:
36,192,277084,1,0,0:0:0:0:
182,192,277084,1,0,0:0:0:0:
329,192,277084,1,0,0:0:0:0:
402,192,277084,1,0,0:0:0:0:
475,192,277147,1,0,0:0:0:0:
256,192,277147,1,0,0:0:0:0:
182,192,277212,1,0,0:0:0:0:
109,192,277212,1,0,0:0:0:0:
402,192,277212,1,0,0:0:0:0:
329,192,277276,1,0,0:0:0:0:
36,192,277276,1,0,0:0:0:0:
109,192,277341,1,0,0:0:0:0:
182,192,277341,1,0,0:0:0:0:
256,192,277341,1,0,0:0:0:0:
475,192,277341,1,0,0:0:0:0:
402,192,277404,1,0,0:0:0:0:
329,192,277404,1,0,0:0:0:0:
182,192,277468,1,0,0:0:0:0:
36,192,277468,1,0,0:0:0:0:
256,192,277468,1,0,0:0:0:0:
109,192,277533,1,0,0:0:0:0:
329,192,277533,1,0,0:0:0:0:
182,192,277596,1,0,0:0:0:0:
36,192,277596,1,0,0:0:0:0:
256,192,277596,1,0,0:0:0:0:
402,192,277596,1,0,0:0:0:0:
475,192,277661,1,0,0:0:0:0:
329,192,277661,1,0,0:0:0:0:
182,192,277725,1,0,0:0:0:0:
109,192,277725,1,0,0:0:0:0:
402,192,277725,1,0,0:0:0:0:
256,192,277788,1,0,0:0:0:0:
36,192,277788,1,0,0:0:0:0:
329,192,277853,1,0,0:0:0:0:
475,192,277853,1,0,0:0:0:0:
402,192,277853,1,0,0:0:0:0:
182,192,277853,1,0,0:0:0:0:
36,192,277917,1,0,0:0:0:0:
256,192,277917,1,0,0:0:0:0:
109,192,277981,1,0,0:0:0:0:
329,192,277981,1,0,0:0:0:0:
475,192,277981,1,0,0:0:0:0:
402,192,278045,1,0,0:0:0:0:
256,192,278045,1,0,0:0:0:0:
182,192,278110,1,0,0:0:0:0:
109,192,278110,1,0,0:0:0:0:
36,192,278110,1,0,0:0:0:0:
329,192,278110,1,0,0:0:0:0:
182,192,278237,1,0,0:0:0:0:
109,192,278237,1,0,0:0:0:0:
256,192,278237,1,0,0:0:0:0:
475,192,278302,1,0,0:0:0:0:
402,192,278302,1,0,0:0:0:0:
329,192,278302,1,0,0:0:0:0:
36,192,278366,1,0,0:0:0:0:
182,192,278366,1,0,0:0:0:0:
109,192,278366,1,0,0:0:0:0:
256,192,278366,1,0,0:0:0:0:
109,192,278494,1,0,0:0:0:0:
36,192,278494,1,0,0:0:0:0:
402,192,278494,1,0,0:0:0:0:
475,192,278494,1,0,0:0:0:0:
182,192,278622,1,0,0:0:0:0:
256,192,278622,1,0,0:0:0:0:
329,192,278622,1,0,0:0:0:0:
402,192,278622,1,0,0:0:0:0:
182,192,278751,1,0,0:0:0:0:
109,192,278751,1,0,0:0:0:0:
36,192,278751,1,0,0:0:0:0:
475,192,278878,1,0,0:0:0:0:
402,192,278878,1,0,0:0:0:0:
329,192,278878,1,0,0:0:0:0:
256,192,278878,1,0,0:0:0:0:
182,192,279007,1,0,0:0:0:0:
36,192,279007,1,0,0:0:0:0:
109,192,279007,1,0,0:0:0:0:
256,192,279135,1,0,0:0:0:0:
329,192,279135,1,0,0:0:0:0:
475,192,279135,1,0,0:0:0:0:
402,192,279135,1,0,0:0:0:0:
182,192,279200,1,0,0:0:0:0:
36,192,279200,1,0,0:0:0:0:
109,192,279263,1,0,0:0:0:0:
329,192,279263,1,0,0:0:0:0:
475,192,279263,1,0,0:0:0:0:
256,192,279327,1,0,0:0:0:0:
402,192,279327,1,0,0:0:0:0:
329,192,279392,1,0,0:0:0:0:
182,192,279392,1,0,0:0:0:0:
109,192,279392,1,0,0:0:0:0:
36,192,279392,1,0,0:0:0:0:
256,192,279455,1,0,0:0:0:0:
475,192,279455,1,0,0:0:0:0:
182,192,279520,1,0,0:0:0:0:
36,192,279520,1,0,0:0:0:0:
402,192,279520,1,0,0:0:0:0:
256,192,279584,1,0,0:0:0:0:
109,192,279584,1,0,0:0:0:0:
36,192,279647,1,0,0:0:0:0:
329,192,279647,1,0,0:0:0:0:
475,192,279647,1,0,0:0:0:0:
402,192,279647,1,0,0:0:0:0:
256,192,279712,1,0,0:0:0:0:
109,192,279712,1,0,0:0:0:0:
182,192,279776,1,0,0:0:0:0:
329,192,279776,1,0,0:0:0:0:
402,192,279776,1,0,0:0:0:0:
475,192,279841,1,0,0:0:0:0:
256,192,279841,1,0,0:0:0:0:
109,192,279904,1,0,0:0:0:0:
36,192,279904,1,0,0:0:0:0:
182,192,279904,1,0,0:0:0:0:
402,192,279904,1,0,0:0:0:0:
256,192,279968,1,0,0:0:0:0:
475,192,279968,1,0,0:0:0:0:
329,192,280033,1,0,0:0:0:0:
109,192,280033,1,0,0:0:0:0:
36,192,280033,1,0,0:0:0:0:
182,192,280096,1,0,0:0:0:0:
402,192,280096,1,0,0:0:0:0:
256,192,280161,1,0,0:0:0:0:
329,192,280161,1,0,0:0:0:0:
475,192,280161,1,0,0:0:0:0:
109,192,280161,1,0,0:0:0:0:
182,192,280225,1,0,0:0:0:0:
36,192,280225,1,0,0:0:0:0:
109,192,280288,1,0,0:0:0:0:
329,192,280288,1,0,0:0:0:0:
402,192,280288,1,0,0:0:0:0:
475,192,280353,1,0,0:0:0:0:
256,192,280353,1,0,0:0:0:0:
182,192,280417,1,0,0:0:0:0:
109,192,280417,1,0,0:0:0:0:
36,192,280417,1,0,0:0:0:0:
329,192,280417,1,0,0:0:0:0:
402,192,280481,1,0,0:0:0:0:
475,192,280481,1,0,0:0:0:0:
36,192,280545,1,0,0:0:0:0:
329,192,280545,1,0,0:0:0:0:
182,192,280545,1,0,0:0:0:0:
256,192,280610,1,0,0:0:0:0:
109,192,280610,1,0,0:0:0:0:
36,192,280674,1,0,0:0:0:0:
182,192,280674,1,0,0:0:0:0:
329,192,280674,1,0,0:0:0:0:
402,192,280674,1,0,0:0:0:0:
475,192,280737,1,0,0:0:0:0:
256,192,280737,1,0,0:0:0:0:
182,192,280802,1,0,0:0:0:0:
109,192,280802,1,0,0:0:0:0:
402,192,280802,1,0,0:0:0:0:
329,192,280866,1,0,0:0:0:0:
36,192,280866,1,0,0:0:0:0:
109,192,280930,1,0,0:0:0:0:
182,192,280930,1,0,0:0:0:0:
256,192,280930,1,0,0:0:0:0:
475,192,280930,1,0,0:0:0:0:
402,192,280994,1,0,0:0:0:0:
329,192,280994,1,0,0:0:0:0:
182,192,281058,1,0,0:0:0:0:
36,192,281058,1,0,0:0:0:0:
256,192,281058,1,0,0:0:0:0:
109,192,281122,1,0,0:0:0:0:
329,192,281122,1,0,0:0:0:0:
182,192,281186,1,0,0:0:0:0:
36,192,281186,1,0,0:0:0:0:
256,192,281186,1,0,0:0:0:0:
402,192,281186,1,0,0:0:0:0:
475,192,281251,1,0,0:0:0:0:
329,192,281251,1,0,0:0:0:0:
182,192,281314,1,0,0:0:0:0:
109,192,281314,1,0,0:0:0:0:
402,192,281314,1,0,0:0:0:0:
256,192,281378,1,0,0:0:0:0:
36,192,281378,1,0,0:0:0:0:
329,192,281443,1,0,0:0:0:0:
475,192,281443,1,0,0:0:0:0:
402,192,281443,1,0,0:0:0:0:
182,192,281443,1,0,0:0:0:0:
36,192,281507,1,0,0:0:0:0:
256,192,281507,1,0,0:0:0:0:
109,192,281571,1,0,0:0:0:0:
329,192,281571,1,0,0:0:0:0:
475,192,281571,1,0,0:0:0:0:
402,192,281635,1,0,0:0:0:0:
256,192,281635,1,0,0:0:0:0:
182,192,281700,1,0,0:0:0:0:
109,192,281700,1,0,0:0:0:0:
36,192,281700,1,0,0:0:0:0:
329,192,281700,1,0,0:0:0:0:
475,192,281763,1,0,0:0:0:0:
256,192,281763,1,0,0:0:0:0:
182,192,281827,1,0,0:0:0:0:
36,192,281827,1,0,0:0:0:0:
329,192,281827,1,0,0:0:0:0:
109,192,281892,1,0,0:0:0:0:
256,192,281892,1,0,0:0:0:0:
36,192,281955,1,0,0:0:0:0:
182,192,281955,1,0,0:0:0:0:
329,192,281955,1,0,0:0:0:0:
402,192,281955,1,0,0:0:0:0:
475,192,282020,1,0,0:0:0:0:
256,192,282020,1,0,0:0:0:0:
109,192,282084,1,0,0:0:0:0:
329,192,282084,1,0,0:0:0:0:
36,192,282084,1,0,0:0:0:0:
182,192,282147,1,0,0:0:0:0:
402,192,282147,1,0,0:0:0:0:
256,192,282212,1,0,0:0:0:0:
36,192,282212,1,0,0:0:0:0:
109,192,282212,1,0,0:0:0:0:
329,192,282212,1,0,0:0:0:0:
402,192,282276,1,0,0:0:0:0:
475,192,282276,1,0,0:0:0:0:
256,192,282341,1,0,0:0:0:0:
109,192,282341,1,0,0:0:0:0:
329,192,282341,1,0,0:0:0:0:
182,192,282404,1,0,0:0:0:0:
36,192,282404,1,0,0:0:0:0:
329,192,282468,1,0,0:0:0:0:
402,192,282468,1,0,0:0:0:0:
475,192,282468,1,0,0:0:0:0:
256,192,282468,1,0,0:0:0:0:
109,192,282533,1,0,0:0:0:0:
36,192,282533,1,0,0:0:0:0:
182,192,282596,1,0,0:0:0:0:
402,192,282596,1,0,0:0:0:0:
329,192,282596,1,0,0:0:0:0:
475,192,282661,1,0,0:0:0:0:
256,192,282661,1,0,0:0:0:0:
182,192,282725,1,0,0:0:0:0:
109,192,282725,1,0,0:0:0:0:
36,192,282725,1,0,0:0:0:0:
329,192,282725,1,0,0:0:0:0:
402,192,282788,1,0,0:0:0:0:
475,192,282788,1,0,0:0:0:0:
329,192,282853,1,0,0:0:0:0:
36,192,282853,1,0,0:0:0:0:
109,192,282853,1,0,0:0:0:0:
182,192,282917,1,0,0:0:0:0:
256,192,282917,1,0,0:0:0:0:
109,192,282981,1,0,0:0:0:0:
36,192,282981,1,0,0:0:0:0:
402,192,282981,1,0,0:0:0:0:
475,192,282981,1,0,0:0:0:0:
182,192,283045,1,0,0:0:0:0:
329,192,283045,1,0,0:0:0:0:
256,192,283110,1,0,0:0:0:0:
475,192,283110,1,0,0:0:0:0:
109,192,283110,1,0,0:0:0:0:
329,192,283174,1,0,0:0:0:0:
402,192,283174,1,0,0:0:0:0:
109,192,283237,1,0,0:0:0:0:
36,192,283237,1,0,0:0:0:0:
182,192,283237,1,0,0:0:0:0:
256,192,283237,1,0,0:0:0:0:
402,192,283302,1,0,0:0:0:0:
475,192,283302,1,0,0:0:0:0:
329,192,283366,1,0,0:0:0:0:
109,192,283366,1,0,0:0:0:0:
36,192,283366,1,0,0:0:0:0:
182,192,283430,1,0,0:0:0:0:
402,192,283430,1,0,0:0:0:0:
256,192,283494,1,0,0:0:0:0:
329,192,283494,1,0,0:0:0:0:
475,192,283494,1,0,0:0:0:0:
109,192,283494,1,0,0:0:0:0:
182,192,283558,1,0,0:0:0:0:
36,192,283558,1,0,0:0:0:0:
109,192,283622,1,0,0:0:0:0:
329,192,283622,1,0,0:0:0:0:
402,192,283622,1,0,0:0:0:0:
475,192,283686,1,0,0:0:0:0:
256,192,283686,1,0,0:0:0:0:
182,192,283751,1,0,0:0:0:0:
109,192,283751,1,0,0:0:0:0:
36,192,283751,1,0,0:0:0:0:
329,192,283751,1,0,0:0:0:0:
402,192,283814,1,0,0:0:0:0:
475,192,283814,1,0,0:0:0:0:
36,192,283878,1,0,0:0:0:0:
329,192,283878,1,0,0:0:0:0:
182,192,283878,1,0,0:0:0:0:
256,192,283943,1,0,0:0:0:0:
109,192,283943,1,0,0:0:0:0:
36,192,284007,1,0,0:0:0:0:
182,192,284007,1,0,0:0:0:0:
329,192,284007,1,0,0:0:0:0:
402,192,284007,1,0,0:0:0:0:
475,192,284071,1,0,0:0:0:0:
256,192,284071,1,0,0:0:0:0:
182,192,284135,1,0,0:0:0:0:
109,192,284135,1,0,0:0:0:0:
402,192,284135,1,0,0:0:0:0:
329,192,284200,1,0,0:0:0:0:
36,192,284200,1,0,0:0:0:0:
109,192,284263,1,0,0:0:0:0:
182,192,284263,1,0,0:0:0:0:
256,192,284263,1,0,0:0:0:0:
475,192,284263,1,0,0:0:0:0:
402,192,284327,1,0,0:0:0:0:
329,192,284327,1,0,0:0:0:0:
182,192,284392,1,0,0:0:0:0:
36,192,284392,1,0,0:0:0:0:
256,192,284392,1,0,0:0:0:0:
109,192,284455,1,0,0:0:0:0:
329,192,284455,1,0,0:0:0:0:
182,192,284520,1,0,0:0:0:0:
36,192,284520,1,0,0:0:0:0:
256,192,284520,1,0,0:0:0:0:
402,192,284520,1,0,0:0:0:0:
475,192,284584,1,0,0:0:0:0:
329,192,284584,1,0,0:0:0:0:
182,192,284647,1,0,0:0:0:0:
109,192,284647,1,0,0:0:0:0:
402,192,284647,1,0,0:0:0:0:
256,192,284712,1,0,0:0:0:0:
36,192,284712,1,0,0:0:0:0:
329,192,284776,1,0,0:0:0:0:
475,192,284776,1,0,0:0:0:0:
402,192,284776,1,0,0:0:0:0:
182,192,284776,1,0,0:0:0:0:
36,192,284841,1,0,0:0:0:0:
256,192,284841,1,0,0:0:0:0:
109,192,284904,1,0,0:0:0:0:
329,192,284904,1,0,0:0:0:0:
475,192,284904,1,0,0:0:0:0:
402,192,284968,1,0,0:0:0:0:
256,192,284968,1,0,0:0:0:0:
182,192,285033,1,0,0:0:0:0:
109,192,285033,1,0,0:0:0:0:
36,192,285033,1,0,0:0:0:0:
329,192,285033,1,0,0:0:0:0:
475,192,285096,1,0,0:0:0:0:
256,192,285096,1,0,0:0:0:0:
182,192,285161,1,0,0:0:0:0:
36,192,285161,1,0,0:0:0:0:
329,192,285161,1,0,0:0:0:0:
109,192,285225,1,0,0:0:0:0:
256,192,285225,1,0,0:0:0:0:
36,192,285288,1,0,0:0:0:0:
182,192,285288,1,0,0:0:0:0:
329,192,285288,1,0,0:0:0:0:
402,192,285288,1,0,0:0:0:0:
475,192,285353,1,0,0:0:0:0:
256,192,285353,1,0,0:0:0:0:
109,192,285417,1,0,0:0:0:0:
329,192,285417,1,0,0:0:0:0:
36,192,285417,1,0,0:0:0:0:
182,192,285481,1,0,0:0:0:0:
402,192,285481,1,0,0:0:0:0:
256,192,285545,1,0,0:0:0:0:
36,192,285545,1,0,0:0:0:0:
109,192,285545,1,0,0:0:0:0:
329,192,285545,1,0,0:0:0:0:
402,192,285610,1,0,0:0:0:0:
475,192,285610,1,0,0:0:0:0:
256,192,285674,1,0,0:0:0:0:
109,192,285674,1,0,0:0:0:0:
329,192,285674,1,0,0:0:0:0:
182,192,285737,1,0,0:0:0:0:
36,192,285737,1,0,0:0:0:0:
329,192,285802,1,0,0:0:0:0:
402,192,285802,1,0,0:0:0:0:
475,192,285802,1,0,0:0:0:0:
256,192,285802,1,0,0:0:0:0:
109,192,285866,1,0,0:0:0:0:
36,192,285866,1,0,0:0:0:0:
182,192,285930,1,0,0:0:0:0:
402,192,285930,1,0,0:0:0:0:
329,192,285930,1,0,0:0:0:0:
475,192,285994,1,0,0:0:0:0:
256,192,285994,1,0,0:0:0:0:
182,192,286058,1,0,0:0:0:0:
109,192,286058,1,0,0:0:0:0:
36,192,286058,1,0,0:0:0:0:
329,192,286058,1,0,0:0:0:0:
402,192,286122,1,0,0:0:0:0:
475,192,286122,1,0,0:0:0:0:
256,192,286186,1,0,0:0:0:0:
36,192,286186,1,0,0:0:0:0:
109,192,286186,1,0,0:0:0:0:
329,192,286251,1,0,0:0:0:0:
475,192,286251,1,0,0:0:0:0:
256,192,286314,1,0,0:0:0:0:
36,192,286314,1,0,0:0:0:0:
109,192,286314,1,0,0:0:0:0:
182,192,286314,1,0,0:0:0:0:
402,192,286378,1,0,0:0:0:0:
475,192,286378,1,0,0:0:0:0:
256,192,286443,1,0,0:0:0:0:
109,192,286443,1,0,0:0:0:0:
329,192,286443,1,0,0:0:0:0:
182,192,286507,1,0,0:0:0:0:
36,192,286507,1,0,0:0:0:0:
329,192,286571,1,0,0:0:0:0:
402,192,286571,1,0,0:0:0:0:
475,192,286571,1,0,0:0:0:0:
256,192,286571,1,0,0:0:0:0:
109,192,286635,1,0,0:0:0:0:
36,192,286635,1,0,0:0:0:0:
182,192,286700,1,0,0:0:0:0:
402,192,286700,1,0,0:0:0:0:
329,192,286700,1,0,0:0:0:0:
475,192,286763,1,0,0:0:0:0:
256,192,286763,1,0,0:0:0:0:
182,192,286827,1,0,0:0:0:0:
109,192,286827,1,0,0:0:0:0:
36,192,286827,1,0,0:0:0:0:
329,192,286827,1,0,0:0:0:0:
402,192,286892,1,0,0:0:0:0:
475,192,286892,1,0,0:0:0:0:
256,192,286955,1,0,0:0:0:0:
36,192,286955,1,0,0:0:0:0:
109,192,286955,1,0,0:0:0:0:
182,192,287020,1,0,0:0:0:0:
329,192,287020,1,0,0:0:0:0:
109,192,287084,1,0,0:0:0:0:
36,192,287084,1,0,0:0:0:0:
402,192,287084,1,0,0:0:0:0:
475,192,287084,1,0,0:0:0:0:
256,192,287147,1,0,0:0:0:0:
329,192,287147,1,0,0:0:0:0:
402,192,287212,1,0,0:0:0:0:
475,192,287212,1,0,0:0:0:0:
182,192,287212,1,0,0:0:0:0:
36,192,287276,1,0,0:0:0:0:
256,192,287276,1,0,0:0:0:0:
182,192,287341,1,0,0:0:0:0:
109,192,287341,1,0,0:0:0:0:
329,192,287341,1,0,0:0:0:0:
402,192,287341,1,0,0:0:0:0:
36,192,287404,1,0,0:0:0:0:
256,192,287404,1,0,0:0:0:0:
109,192,287468,1,0,0:0:0:0:
402,192,287468,1,0,0:0:0:0:
475,192,287468,1,0,0:0:0:0:
182,192,287533,1,0,0:0:0:0:
36,192,287533,1,0,0:0:0:0:
256,192,287596,1,0,0:0:0:0:
329,192,287596,1,0,0:0:0:0:
475,192,287596,1,0,0:0:0:0:
402,192,287596,1,0,0:0:0:0:
182,192,287661,1,0,0:0:0:0:
36,192,287661,1,0,0:0:0:0:
109,192,287725,1,0,0:0:0:0:
329,192,287725,1,0,0:0:0:0:
475,192,287725,1,0,0:0:0:0:
402,192,287788,1,0,0:0:0:0:
256,192,287788,1,0,0:0:0:0:
182,192,287853,1,0,0:0:0:0:
36,192,287853,1,0,0:0:0:0:
109,192,287853,1,0,0:0:0:0:
329,192,287853,1,0,0:0:0:0:
256,192,287917,1,0,0:0:0:0:
475,192,287917,1,0,0:0:0:0:
329,192,287981,1,0,0:0:0:0:
109,192,287981,1,0,0:0:0:0:
36,192,287981,1,0,0:0:0:0:
182,192,288045,1,0,0:0:0:0:
402,192,288045,1,0,0:0:0:0:
256,192,288110,1,0,0:0:0:0:
329,192,288110,1,0,0:0:0:0:
475,192,288110,1,0,0:0:0:0:
109,192,288110,1,0,0:0:0:0:
36,192,288174,1,0,0:0:0:0:
182,192,288174,1,0,0:0:0:0:
256,192,288237,1,0,0:0:0:0:
402,192,288237,1,0,0:0:0:0:
475,192,288237,1,0,0:0:0:0:
182,192,288302,1,0,0:0:0:0:
109,192,288302,1,0,0:0:0:0:
36,192,288366,1,0,0:0:0:0:
256,192,288366,1,0,0:0:0:0:
329,192,288366,1,0,0:0:0:0:
475,192,288366,1,0,0:0:0:0:
402,192,288430,1,0,0:0:0:0:
182,192,288430,1,0,0:0:0:0:
109,192,288494,1,0,0:0:0:0:
36,192,288494,1,0,0:0:0:0:
256,192,288494,1,0,0:0:0:0:
329,192,288558,1,0,0:0:0:0:
475,192,288558,1,0,0:0:0:0:
182,192,288622,1,0,0:0:0:0:
109,192,288622,1,0,0:0:0:0:
402,192,288622,1,0,0:0:0:0:
36,192,288622,1,0,0:0:0:0:
256,192,288686,1,0,0:0:0:0:
475,192,288686,1,0,0:0:0:0:
36,192,288751,1,0,0:0:0:0:
329,192,288751,1,0,0:0:0:0:
402,192,288751,1,0,0:0:0:0:
109,192,288814,1,0,0:0:0:0:
182,192,288814,1,0,0:0:0:0:
256,192,288878,1,0,0:0:0:0:
329,192,288878,1,0,0:0:0:0:
475,192,288878,1,0,0:0:0:0:
402,192,288878,1,0,0:0:0:0:
36,192,288943,1,0,0:0:0:0:
182,192,288943,1,0,0:0:0:0:
109,192,289007,1,0,0:0:0:0:
329,192,289007,1,0,0:0:0:0:
475,192,289007,1,0,0:0:0:0:
402,192,289071,1,0,0:0:0:0:
256,192,289071,1,0,0:0:0:0:
182,192,289135,1,0,0:0:0:0:
109,192,289135,1,0,0:0:0:0:
329,192,289135,1,0,0:0:0:0:
475,192,289135,1,0,0:0:0:0:
36,192,289200,1,0,0:0:0:0:
256,192,289200,1,0,0:0:0:0:
329,192,289263,1,0,0:0:0:0:
182,192,289263,1,0,0:0:0:0:
475,192,289263,1,0,0:0:0:0:
109,192,289327,1,0,0:0:0:0:
36,192,289327,1,0,0:0:0:0:
182,192,289392,1,0,0:0:0:0:
329,192,289392,1,0,0:0:0:0:
402,192,289392,1,0,0:0:0:0:
475,192,289392,1,0,0:0:0:0:
256,192,289455,1,0,0:0:0:0:
109,192,289455,1,0,0:0:0:0:
36,192,289520,1,0,0:0:0:0:
182,192,289520,1,0,0:0:0:0:
475,192,289520,1,0,0:0:0:0:
402,192,289584,1,0,0:0:0:0:
329,192,289584,1,0,0:0:0:0:
256,192,289647,1,0,0:0:0:0:
182,192,289647,1,0,0:0:0:0:
109,192,289647,1,0,0:0:0:0:
36,192,289647,1,0,0:0:0:0:
475,192,289712,1,0,0:0:0:0:
329,192,289712,1,0,0:0:0:0:
402,192,289776,1,0,0:0:0:0:
182,192,289776,1,0,0:0:0:0:
36,192,289776,1,0,0:0:0:0:
109,192,289841,1,0,0:0:0:0:
256,192,289841,1,0,0:0:0:0:
182,192,289904,1,0,0:0:0:0:
329,192,289904,1,0,0:0:0:0:
402,192,289904,1,0,0:0:0:0:
475,192,289904,1,0,0:0:0:0:
36,192,289968,1,0,0:0:0:0:
109,192,289968,1,0,0:0:0:0:
182,192,290033,1,0,0:0:0:0:
329,192,290033,1,0,0:0:0:0:
475,192,290033,1,0,0:0:0:0:
256,192,290096,1,0,0:0:0:0:
109,192,290096,1,0,0:0:0:0:
36,192,290161,1,0,0:0:0:0:
182,192,290161,1,0,0:0:0:0:
329,192,290161,1,0,0:0:0:0:
402,192,290161,1,0,0:0:0:0:
475,192,290225,1,0,0:0:0:0:
109,192,290225,1,0,0:0:0:0:
256,192,290288,1,0,0:0:0:0:
329,192,290288,1,0,0:0:0:0:
182,192,290288,1,0,0:0:0:0:
36,192,290353,1,0,0:0:0:0:
109,192,290353,1,0,0:0:0:0:
256,192,290417,1,0,0:0:0:0:
402,192,290417,1,0,0:0:0:0:
475,192,290417,1,0,0:0:0:0:
182,192,290417,1,0,0:0:0:0:
36,192,290481,1,0,0:0:0:0:
329,192,290481,1,0,0:0:0:0:
182,192,290545,1,0,0:0:0:0:
109,192,290545,1,0,0:0:0:0:
256,192,290545,1,0,0:0:0:0:
329,192,290610,1,0,0:0:0:0:
475,192,290610,1,0,0:0:0:0:
36,192,290674,1,0,0:0:0:0:
256,192,290674,1,0,0:0:0:0:
182,192,290674,1,0,0:0:0:0:
109,192,290674,1,0,0:0:0:0:
402,192,290737,1,0,0:0:0:0:
475,192,290737,1,0,0:0:0:0:
329,192,290802,1,0,0:0:0:0:
109,192,290802,1,0,0:0:0:0:
36,192,290802,1,0,0:0:0:0:
182,192,290866,1,0,0:0:0:0:
402,192,290866,1,0,0:0:0:0:
329,192,290930,1,0,0:0:0:0:
256,192,290930,1,0,0:0:0:0:
109,192,290930,1,0,0:0:0:0:
36,192,290930,1,0,0:0:0:0:
475,192,290994,1,0,0:0:0:0:
402,192,290994,1,0,0:0:0:0:
182,192,291058,1,0,0:0:0:0:
36,192,291058,1,0,0:0:0:0:
256,192,291058,1,0,0:0:0:0:
329,192,291122,1,0,0:0:0:0:
109,192,291122,1,0,0:0:0:0:
402,192,291186,1,0,0:0:0:0:
475,192,291186,1,0,0:0:0:0:
256,192,291186,1,0,0:0:0:0:
182,192,291186,1,0,0:0:0:0:
36,192,291251,1,0,0:0:0:0:
109,192,291251,1,0,0:0:0:0:
182,192,291314,1,0,0:0:0:0:
329,192,291314,1,0,0:0:0:0:
402,192,291314,1,0,0:0:0:0:
256,192,291378,1,0,0:0:0:0:
109,192,291378,1,0,0:0:0:0:
36,192,291443,1,0,0:0:0:0:
182,192,291443,1,0,0:0:0:0:
402,192,291443,1,0,0:0:0:0:
329,192,291443,1,0,0:0:0:0:
475,192,291507,1,0,0:0:0:0:
256,192,291507,1,0,0:0:0:0:
182,192,291571,1,0,0:0:0:0:
329,192,291571,1,0,0:0:0:0:
402,192,291571,1,0,0:0:0:0:
109,192,291635,1,0,0:0:0:0:
36,192,291635,1,0,0:0:0:0:
329,192,291700,1,0,0:0:0:0:
475,192,291700,1,0,0:0:0:0:
182,192,291700,1,0,0:0:0:0:
256,192,291700,1,0,0:0:0:0:
36,192,291763,1,0,0:0:0:0:
402,192,291763,1,0,0:0:0:0:
182,192,291827,1,0,0:0:0:0:
109,192,291827,1,0,0:0:0:0:
329,192,291827,1,0,0:0:0:0:
256,192,291892,1,0,0:0:0:0:
402,192,291892,1,0,0:0:0:0:
182,192,291955,1,0,0:0:0:0:
36,192,291955,1,0,0:0:0:0:
109,192,291955,1,0,0:0:0:0:
329,192,291955,1,0,0:0:0:0:
402,192,292020,1,0,0:0:0:0:
475,192,292020,1,0,0:0:0:0:
256,192,292084,1,0,0:0:0:0:
109,192,292084,1,0,0:0:0:0:
36,192,292084,1,0,0:0:0:0:
182,192,292147,1,0,0:0:0:0:
329,192,292147,1,0,0:0:0:0:
402,192,292212,1,0,0:0:0:0:
475,192,292212,1,0,0:0:0:0:
256,192,292212,1,0,0:0:0:0:
109,192,292212,1,0,0:0:0:0:
36,192,292276,1,0,0:0:0:0:
182,192,292276,1,0,0:0:0:0:
256,192,292341,1,0,0:0:0:0:
475,192,292341,1,0,0:0:0:0:
329,192,292341,1,0,0:0:0:0:
402,192,292404,1,0,0:0:0:0:
109,192,292404,1,0,0:0:0:0:
182,192,292468,1,0,0:0:0:0:
36,192,292468,1,0,0:0:0:0:
256,192,292468,1,0,0:0:0:0:
329,192,292468,1,0,0:0:0:0:
475,192,292533,1,0,0:0:0:0:
402,192,292533,1,0,0:0:0:0:
109,192,292596,1,0,0:0:0:0:
329,192,292596,1,0,0:0:0:0:
36,192,292596,1,0,0:0:0:0:
182,192,292661,1,0,0:0:0:0:
402,192,292661,1,0,0:0:0:0:
256,192,292725,1,0,0:0:0:0:
109,192,292725,1,0,0:0:0:0:
36,192,292725,1,0,0:0:0:0:
329,192,292725,1,0,0:0:0:0:
402,192,292788,1,0,0:0:0:0:
475,192,292788,1,0,0:0:0:0:
329,192,292853,1,0,0:0:0:0:
182,192,292853,1,0,0:0:0:0:
36,192,292853,1,0,0:0:0:0:
109,192,292917,1,0,0:0:0:0:
256,192,292917,1,0,0:0:0:0:
182,192,292981,1,0,0:0:0:0:
402,192,292981,1,0,0:0:0:0:
475,192,292981,1,0,0:0:0:0:
329,192,292981,1,0,0:0:0:0:
36,192,293045,1,0,0:0:0:0:
109,192,293045,1,0,0:0:0:0:
182,192,293110,1,0,0:0:0:0:
402,192,293110,1,0,0:0:0:0:
256,192,293110,1,0,0:0:0:0:
329,192,293174,1,0,0:0:0:0:
475,192,293174,1,0,0:0:0:0:
182,192,293237,1,0,0:0:0:0:
109,192,293237,1,0,0:0:0:0:
36,192,293237,1,0,0:0:0:0:
256,192,293237,1,0,0:0:0:0:
329,192,293302,1,0,0:0:0:0:
402,192,293302,1,0,0:0:0:0:
475,192,293366,1,0,0:0:0:0:
182,192,293366,1,0,0:0:0:0:
36,192,293366,1,0,0:0:0:0:
109,192,293430,1,0,0:0:0:0:
256,192,293430,1,0,0:0:0:0:
329,192,293494,1,0,0:0:0:0:
402,192,293494,1,0,0:0:0:0:
475,192,293494,1,0,0:0:0:0:
182,192,293494,1,0,0:0:0:0:
109,192,293558,1,0,0:0:0:0:
36,192,293558,1,0,0:0:0:0:
182,192,293622,1,0,0:0:0:0:
329,192,293622,1,0,0:0:0:0:
402,192,293622,1,0,0:0:0:0:
475,192,293686,1,0,0:0:0:0:
256,192,293686,1,0,0:0:0:0:
109,192,293751,1,0,0:0:0:0:
182,192,293751,1,0,0:0:0:0:
36,192,293751,1,0,0:0:0:0:
329,192,293751,1,0,0:0:0:0:
402,192,293814,1,0,0:0:0:0:
475,192,293814,1,0,0:0:0:0:
109,192,293878,1,0,0:0:0:0:
36,192,293878,1,0,0:0:0:0:
256,192,293878,1,0,0:0:0:0:
329,192,293943,1,0,0:0:0:0:
182,192,293943,1,0,0:0:0:0:
475,192,294007,1,0,0:0:0:0:
36,192,294007,1,0,0:0:0:0:
109,192,294007,1,0,0:0:0:0:
402,192,294007,1,0,0:0:0:0:
256,192,294071,1,0,0:0:0:0:
329,192,294071,1,0,0:0:0:0:
402,192,294135,1,0,0:0:0:0:
182,192,294135,1,0,0:0:0:0:
475,192,294135,1,0,0:0:0:0:
109,192,294200,1,0,0:0:0:0:
36,192,294200,1,0,0:0:0:0:
256,192,294263,1,0,0:0:0:0:
329,192,294263,1,0,0:0:0:0:
402,192,294263,1,0,0:0:0:0:
475,192,294263,1,0,0:0:0:0:
182,192,294327,1,0,0:0:0:0:
36,192,294327,1,0,0:0:0:0:
109,192,294392,1,0,0:0:0:0:
256,192,294392,1,0,0:0:0:0:
329,192,294392,1,0,0:0:0:0:
402,192,294455,1,0,0:0:0:0:
475,192,294455,1,0,0:0:0:0:
182,192,294520,1,0,0:0:0:0:
36,192,294520,1,0,0:0:0:0:
109,192,294520,1,0,0:0:0:0:
256,192,294520,1,0,0:0:0:0:
329,192,294584,1,0,0:0:0:0:
475,192,294584,1,0,0:0:0:0:
402,192,294647,1,0,0:0:0:0:
36,192,294647,1,0,0:0:0:0:
109,192,294647,1,0,0:0:0:0:
182,192,294712,1,0,0:0:0:0:
256,192,294712,1,0,0:0:0:0:
329,192,294776,1,0,0:0:0:0:
402,192,294776,1,0,0:0:0:0:
475,192,294776,1,0,0:0:0:0:
36,192,294776,1,0,0:0:0:0:
109,192,294841,1,0,0:0:0:0:
182,192,294841,1,0,0:0:0:0:
256,192,294904,1,0,0:0:0:0:
402,192,294904,1,0,0:0:0:0:
475,192,294904,1,0,0:0:0:0:
329,192,294968,1,0,0:0:0:0:
36,192,294968,1,0,0:0:0:0:
182,192,295033,1,0,0:0:0:0:
109,192,295033,1,0,0:0:0:0:
475,192,295033,1,0,0:0:0:0:
256,192,295033,1,0,0:0:0:0:
329,192,295096,1,0,0:0:0:0:
402,192,295096,1,0,0:0:0:0:
256,192,295161,1,0,0:0:0:0:
475,192,295161,1,0,0:0:0:0:
36,192,295161,1,0,0:0:0:0:
109,192,295225,1,0,0:0:0:0:
182,192,295225,1,0,0:0:0:0:
475,192,295288,1,0,0:0:0:0:
329,192,295288,1,0,0:0:0:0:
402,192,295288,1,0,0:0:0:0:
36,192,295288,1,0,0:0:0:0:
256,192,295353,1,0,0:0:0:0:
182,192,295353,1,0,0:0:0:0:
475,192,295417,1,0,0:0:0:0:
36,192,295417,1,0,0:0:0:0:
402,192,295417,1,0,0:0:0:0:
329,192,295481,1,0,0:0:0:0:
256,192,295481,1,0,0:0:0:0:
182,192,295545,1,0,0:0:0:0:
109,192,295545,1,0,0:0:0:0:
36,192,295545,1,0,0:0:0:0:
402,192,295545,1,0,0:0:0:0:
182,192,296058,1,0,0:0:0:0:
256,192,296058,1,0,0:0:0:0:
402,192,296058,1,0,0:0:0:0:
329,192,296058,1,0,0:0:0:0:
475,192,296058,1,0,0:0:0:0:
182,192,296314,1,0,0:0:0:0:
109,192,296314,1,0,0:0:0:0:
36,192,296314,1,0,0:0:0:0:
256,192,296571,1,0,0:0:0:0:
329,192,296571,1,0,0:0:0:0:
402,192,296571,1,0,0:0:0:0:
475,192,296571,1,0,0:0:0:0:
182,192,296827,1,0,0:0:0:0:
109,192,296827,1,0,0:0:0:0:
36,192,296827,1,0,0:0:0:0:
182,192,297084,1,0,0:0:0:0:
256,192,297084,1,0,0:0:0:0:
329,192,297084,1,0,0:0:0:0:
402,192,297084,1,0,0:0:0:0:
256,192,297341,1,0,0:0:0:0:
182,192,297341,1,0,0:0:0:0:
109,192,297341,1,0,0:0:0:0:
36,192,297341,1,0,0:0:0:0:
329,192,297425,1,0,0:0:0:0:
402,192,297425,1,0,0:0:0:0:
475,192,297425,1,0,0:0:0:0:
109,192,297596,1,0,0:0:0:0:
36,192,297596,1,0,0:0:0:0:
182,192,297596,1,0,0:0:0:0:
256,192,297596,1,0,0:0:0:0:
182,192,297853,1,0,0:0:0:0:
329,192,297853,1,0,0:0:0:0:
256,192,297853,1,0,0:0:0:0:
402,192,297853,1,0,0:0:0:0:
182,192,298110,1,0,0:0:0:0:
109,192,298110,1,0,0:0:0:0:
36,192,298110,1,0,0:0:0:0:
256,192,298110,1,0,0:0:0:0:
475,192,298366,1,0,0:0:0:0:
256,192,298366,1,0,0:0:0:0:
329,192,298366,1,0,0:0:0:0:
402,192,298366,1,0,0:0:0:0:
36,192,298494,1,0,0:0:0:0:
109,192,298494,1,0,0:0:0:0:
182,192,298494,1,0,0:0:0:0:
182,192,298622,1,0,0:0:0:0:
256,192,298622,1,0,0:0:0:0:
329,192,298622,1,0,0:0:0:0:
402,192,298622,1,0,0:0:0:0:
109,192,298878,1,0,0:0:0:0:
36,192,298878,1,0,0:0:0:0:
402,192,298878,1,0,0:0:0:0:
475,192,298878,1,0,0:0:0:0:
182,192,299135,1,0,0:0:0:0:
256,192,299135,1,0,0:0:0:0:
329,192,299135,1,0,0:0:0:0:
402,192,299135,1,0,0:0:0:0:
109,192,299263,1,0,0:0:0:0:
36,192,299263,1,0,0:0:0:0:
182,192,299263,1,0,0:0:0:0:
256,192,299392,1,0,0:0:0:0:
329,192,299392,1,0,0:0:0:0:
402,192,299392,1,0,0:0:0:0:
475,192,299392,1,0,0:0:0:0:
182,192,299520,1,0,0:0:0:0:
329,192,299520,1,0,0:0:0:0:
256,192,299520,1,0,0:0:0:0:
109,192,299647,1,0,0:0:0:0:
36,192,299647,1,0,0:0:0:0:
402,192,299647,1,0,0:0:0:0:
475,192,299647,1,0,0:0:0:0:
182,192,299904,1,0,0:0:0:0:
109,192,299904,1,0,0:0:0:0:
36,192,299904,1,0,0:0:0:0:
256,192,299904,1,0,0:0:0:0:
256,192,300161,1,0,0:0:0:0:
329,192,300161,1,0,0:0:0:0:
402,192,300161,1,0,0:0:0:0:
36,192,300246,1,0,0:0:0:0:
182,192,300246,1,0,0:0:0:0:
109,192,300246,1,0,0:0:0:0:
256,192,300374,1,0,0:0:0:0:
329,192,300374,1,0,0:0:0:0:
402,192,300374,1,0,0:0:0:0:
475,192,300374,1,0,0:0:0:0:
109,192,300674,1,0,0:0:0:0:
36,192,300674,1,0,0:0:0:0:
182,192,300674,1,0,0:0:0:0:
256,192,300674,1,0,0:0:0:0:
182,192,300930,1,0,0:0:0:0:
329,192,300930,1,0,0:0:0:0:
256,192,300930,1,0,0:0:0:0:
402,192,300930,1,0,0:0:0:0:
182,192,301186,1,0,0:0:0:0:
109,192,301186,1,0,0:0:0:0:
36,192,301186,1,0,0:0:0:0:
256,192,301186,1,0,0:0:0:0:
475,192,301314,1,0,0:0:0:0:
329,192,301314,1,0,0:0:0:0:
402,192,301314,1,0,0:0:0:0:
109,192,301443,1,0,0:0:0:0:
256,192,301443,1,0,0:0:0:0:
329,192,301443,1,0,0:0:0:0:
182,192,301443,1,0,0:0:0:0:
36,192,301571,1,0,0:0:0:0:
109,192,301571,1,0,0:0:0:0:
182,192,301571,1,0,0:0:0:0:
182,192,301700,1,0,0:0:0:0:
256,192,301700,1,0,0:0:0:0:
329,192,301700,1,0,0:0:0:0:
402,192,301700,1,0,0:0:0:0:
109,192,301955,1,0,0:0:0:0:
36,192,301955,1,0,0:0:0:0:
402,192,301955,1,0,0:0:0:0:
475,192,301955,1,0,0:0:0:0:
182,192,302212,1,0,0:0:0:0:
256,192,302212,1,0,0:0:0:0:
329,192,302212,1,0,0:0:0:0:
402,192,302212,1,0,0:0:0:0:
109,192,302341,1,0,0:0:0:0:
36,192,302341,1,0,0:0:0:0:
182,192,302341,1,0,0:0:0:0:
256,192,302468,1,0,0:0:0:0:
329,192,302468,1,0,0:0:0:0:
402,192,302468,1,0,0:0:0:0:
475,192,302468,1,0,0:0:0:0:
182,192,302596,1,0,0:0:0:0:
329,192,302596,1,0,0:0:0:0:
256,192,302596,1,0,0:0:0:0:
109,192,302725,1,0,0:0:0:0:
36,192,302725,1,0,0:0:0:0:
402,192,302725,1,0,0:0:0:0:
475,192,302725,1,0,0:0:0:0:
182,192,302981,1,0,0:0:0:0:
109,192,302981,1,0,0:0:0:0:
36,192,302981,1,0,0:0:0:0:
256,192,302981,1,0,0:0:0:0:
256,192,303237,1,0,0:0:0:0:
329,192,303237,1,0,0:0:0:0:
402,192,303237,1,0,0:0:0:0:
475,192,303494,1,0,0:0:0:0:
402,192,303494,1,0,0:0:0:0:
329,192,303494,1,0,0:0:0:0:
256,192,303494,1,0,0:0:0:0:
182,192,303751,1,0,0:0:0:0:
109,192,303751,1,0,0:0:0:0:
36,192,303751,1,0,0:0:0:0:
256,192,303751,1,0,0:0:0:0:
402,192,304007,1,0,0:0:0:0:
36,192,304263,1,0,0:0:0:0:
256,192,304520,1,0,0:0:0:0:
329,192,304520,1,0,0:0:0:0:
402,192,304520,1,0,0:0:0:0:
475,192,304520,1,0,0:0:0:0:
182,192,304776,1,0,0:0:0:0:
109,192,304776,1,0,0:0:0:0:
36,192,304776,1,0,0:0:0:0:
329,192,305033,1,0,0:0:0:0:
256,192,305161,1,0,0:0:0:0:
182,192,305161,1,0,0:0:0:0:
109,192,305161,1,0,0:0:0:0:
475,192,305288,1,0,0:0:0:0:
329,192,305545,1,0,0:0:0:0:
256,192,305545,1,0,0:0:0:0:
182,192,305545,1,0,0:0:0:0:
36,192,305802,1,0,0:0:0:0:
109,192,305802,1,0,0:0:0:0:
182,192,305802,1,0,0:0:0:0:
329,192,305887,1,0,0:0:0:0:
402,192,305887,1,0,0:0:0:0:
475,192,305887,1,0,0:0:0:0:
182,192,306058,1,0,0:0:0:0:
329,192,306314,1,0,0:0:0:0:
402,192,306314,1,0,0:0:0:0:
475,192,306314,1,0,0:0:0:0:
256,192,306443,1,0,0:0:0:0:
182,192,306571,1,0,0:0:0:0:
109,192,306571,1,0,0:0:0:0:
36,192,306571,1,0,0:0:0:0:
256,192,306827,1,0,0:0:0:0:
182,192,306827,1,0,0:0:0:0:
109,192,306827,1,0,0:0:0:0:
329,192,306955,1,0,0:0:0:0:
475,192,307084,1,0,0:0:0:0:
402,192,307212,1,0,0:0:0:0:
329,192,307212,1,0,0:0:0:0:
182,192,307341,1,0,0:0:0:0:
36,192,307596,1,0,0:0:0:0:
109,192,307596,1,0,0:0:0:0:
182,192,307596,1,0,0:0:0:0:
256,192,307725,1,0,0:0:0:0:
36,192,307853,1,0,0:0:0:0:
329,192,307853,1,0,0:0:0:0:
182,192,307853,1,0,0:0:0:0:
256,192,307917,1,0,0:0:0:0:
475,192,307917,1,0,0:0:0:0:
402,192,307981,1,0,0:0:0:0:
182,192,307981,1,0,0:0:0:0:
109,192,308045,1,0,0:0:0:0:
256,192,308045,1,0,0:0:0:0:
475,192,308110,1,0,0:0:0:0:
36,192,308110,1,0,0:0:0:0:
329,192,308110,1,0,0:0:0:0:
182,192,308174,1,0,0:0:0:0:
329,192,308237,1,0,0:0:0:0:
475,192,308237,1,0,0:0:0:0:
256,192,308302,1,0,0:0:0:0:
109,192,308302,1,0,0:0:0:0:
36,192,308366,1,0,0:0:0:0:
182,192,308366,1,0,0:0:0:0:
402,192,308366,1,0,0:0:0:0:
329,192,308430,1,0,0:0:0:0:
109,192,308430,1,0,0:0:0:0:
475,192,308494,1,0,0:0:0:0:
182,192,308494,1,0,0:0:0:0:
256,192,308558,1,0,0:0:0:0:
109,192,308558,1,0,0:0:0:0:
36,192,308622,1,0,0:0:0:0:
182,192,308622,1,0,0:0:0:0:
402,192,308622,1,0,0:0:0:0:
475,192,308686,1,0,0:0:0:0:
329,192,308686,1,0,0:0:0:0:
402,192,308751,1,0,0:0:0:0:
256,192,308751,1,0,0:0:0:0:
329,192,308814,1,0,0:0:0:0:
182,192,308814,1,0,0:0:0:0:
402,192,308878,1,0,0:0:0:0:
109,192,308878,1,0,0:0:0:0:
256,192,308878,1,0,0:0:0:0:
36,192,308943,1,0,0:0:0:0:
475,192,308943,1,0,0:0:0:0:
402,192,309007,1,0,0:0:0:0:
182,192,309007,1,0,0:0:0:0:
109,192,309071,1,0,0:0:0:0:
256,192,309135,1,0,0:0:0:0:
475,192,309135,1,0,0:0:0:0:
36,192,309135,1,0,0:0:0:0:
182,192,309200,1,0,0:0:0:0:
329,192,309200,1,0,0:0:0:0:
402,192,309263,1,0,0:0:0:0:
109,192,309263,1,0,0:0:0:0:
256,192,309327,1,0,0:0:0:0:
475,192,309327,1,0,0:0:0:0:
329,192,309392,1,0,0:0:0:0:
182,192,309392,1,0,0:0:0:0:
36,192,309392,1,0,0:0:0:0:
109,192,309455,1,0,0:0:0:0:
256,192,309455,1,0,0:0:0:0:
329,192,309520,1,0,0:0:0:0:
475,192,309520,1,0,0:0:0:0:
256,192,309584,1,0,0:0:0:0:
402,192,309584,1,0,0:0:0:0:
36,192,309647,1,0,0:0:0:0:
182,192,309647,1,0,0:0:0:0:
329,192,309647,1,0,0:0:0:0:
109,192,309712,1,0,0:0:0:0:
402,192,309712,1,0,0:0:0:0:
256,192,309776,1,0,0:0:0:0:
329,192,309841,1,0,0:0:0:0:
36,192,309904,1,0,0:0:0:0:
109,192,309904,1,0,0:0:0:0:
182,192,309904,1,0,0:0:0:0:
256,192,309904,1,0,0:0:0:0:
329,192,309904,1,0,0:0:0:0:
402,192,309904,1,0,0:0:0:0:
475,192,309904,1,0,0:0:0:0:
