osu file format v14

[General]
AudioFilename: audio.mp3
AudioLeadIn: 0
PreviewTime: 69736
Countdown: 0
SampleSet: Normal
StackLeniency: 0.7
Mode: 1
LetterboxInBreaks: 0
WidescreenStoryboard: 1

[Editor]
DistanceSpacing: 0.8
BeatDivisor: 12
GridSize: 8
TimelineZoom: 2.899999

[Metadata]
Title:HEAVENLY MOON
TitleUnicode:HEAVENLY MOON
Artist:Tatsh
ArtistUnicode:Tatsh
Creator:kanpakyin
Version:SKYLINE
Source:jubeat copious
Tags:CORE BEMANI KONAMI plus jukebeat pop'n music Sunny Park REFLEC BEAT limelight electronic instrumental ginjani video game videogame HEAVENLY MOON HEAVENLY_MOON Shimizu Tatsuya 清水達也 世阿彌 ぜあみ Zeami ost original soundtrack sound track
BeatmapID:3252076
BeatmapSetID:1592310

[Difficulty]
HPDrainRate:5.5
CircleSize:5
OverallDifficulty:6.4
ApproachRate:5
SliderMultiplier:1.4
SliderTickRate:1

[Events]
//Background and Video events
0,0,"BG.jpg",0,0
//Break Periods
//Storyboard Layer 0 (Background)
//Storyboard Layer 1 (Fail)
//Storyboard Layer 2 (Pass)
//Storyboard Layer 3 (Foreground)
//Storyboard Layer 4 (Overlay)
//Storyboard Sound Samples

[TimingPoints]
1021,324.324324324324,4,1,1,50,1,0
1021,-117.647058823529,4,1,1,50,0,0
5723,-166.666666666667,4,1,1,20,0,0
6210,-117.647058823529,4,1,1,50,0,0
8480,-166.666666666667,4,1,1,20,0,0
8642,-117.647058823529,4,1,1,50,0,0
9453,-111.111111111111,4,1,1,50,0,0
9939,-109.89010989011,4,1,1,50,0,0
10020,-108.695652173913,4,1,1,50,0,0
10102,-107.52688172043,4,1,1,50,0,0
10264,-106.382978723404,4,1,1,50,0,0
10345,-105.263157894737,4,1,1,50,0,0
10426,-104.166666666667,4,1,1,50,0,0
10912,-103.092783505155,4,1,1,50,0,0
10993,-102.040816326531,4,1,1,50,0,0
11075,-101.010101010101,4,1,1,50,0,0
11156,-100,4,1,1,50,0,0
11237,-99.009900990099,4,1,1,50,0,0
11291,-98.0392156862745,4,1,1,50,0,0
11345,-97.0873786407767,4,1,1,50,0,0
11399,-96.1538461538461,4,1,1,50,0,0
11723,-105.263157894737,4,1,1,30,0,0
12048,-111.111111111111,4,1,1,30,0,0
12372,-117.647058823529,4,1,1,30,0,0
12696,-125,4,1,1,30,0,0
13020,-133.333333333333,4,1,1,30,0,0
22912,-200,4,1,1,20,0,0
24372,324.324324324324,4,1,1,60,1,0
24372,-90.9090909090909,4,1,1,60,0,0
34101,-92.5925925925926,4,1,1,60,0,0
34263,-94.3396226415094,4,1,1,60,0,0
34426,-96.1538461538461,4,1,1,60,0,0
34507,-97.0873786407767,4,1,1,60,0,0
34588,-98.0392156862745,4,1,1,60,0,0
34669,-99.009900990099,4,1,1,60,0,0
34750,-100,4,1,1,60,0,0
44480,-101.010101010101,4,1,1,60,0,0
44561,-102.040816326531,4,1,1,60,0,0
44642,-103.092783505155,4,1,1,60,0,0
44723,-104.166666666667,4,1,1,60,0,0
44804,-105.263157894737,4,1,1,60,0,0
44885,-106.382978723404,4,1,1,60,0,0
44966,-107.52688172043,4,1,1,60,0,0
45047,-108.695652173913,4,1,1,60,0,0
45128,-109.89010989011,4,1,1,30,0,0
45453,-125,4,1,1,30,0,0
45777,-142.857142857143,4,1,1,30,0,0
45939,-153.846153846154,4,1,1,30,0,0
46020,-156.25,4,1,1,30,0,0
46101,-158.730158730159,4,1,1,30,0,0
46264,-111.111111111111,4,1,1,60,0,0
46426,324.324324324324,4,1,1,60,1,0
47398,-83.3333333333333,4,1,1,60,0,0
47480,-100,4,1,1,60,0,0
48696,-83.3333333333333,4,1,1,60,0,0
48778,-100,4,1,1,60,0,0
49993,-83.3333333333333,4,1,1,60,0,0
50075,-100,4,1,1,60,0,0
52588,-83.3333333333333,4,1,1,60,0,0
52670,-100,4,1,1,60,0,0
53885,-83.3333333333333,4,1,1,60,0,0
53967,-100,4,1,1,60,0,0
58750,-101.010101010101,4,1,1,60,0,0
58831,-102.040816326531,4,1,1,60,0,0
58912,-103.092783505155,4,1,1,60,0,0
59074,-104.166666666667,4,1,1,60,0,0
59236,-105.263157894737,4,1,1,60,0,0
59398,-106.382978723404,4,1,1,60,0,0
59561,-107.52688172043,4,1,1,60,0,0
59642,-108.695652173913,4,1,1,60,0,0
59723,-109.89010989011,4,1,1,60,0,0
59885,-111.111111111111,4,1,1,60,0,0
61831,-108.695652173913,4,1,1,40,0,0
61885,-106.382978723404,4,1,1,40,0,0
61939,-104.166666666667,4,1,1,40,0,0
61993,-102.040816326531,4,1,1,60,0,0
62155,-100,4,1,1,60,0,0
62317,-99.009900990099,4,1,1,60,0,0
62480,-98.0392156862745,4,1,1,60,0,0
62642,-97.0873786407767,4,1,1,60,0,0
62804,-96.1538461538461,4,1,1,60,0,0
62966,-95.2380952380952,4,1,1,60,0,0
63128,-94.3396226415094,4,1,1,60,0,0
63290,-93.4579439252336,4,1,1,60,0,0
63453,-92.5925925925926,4,1,1,60,0,0
63615,-91.743119266055,4,1,1,60,0,0
63777,-90.9090909090909,4,1,1,60,0,0
63939,-90.0900900900901,4,1,1,60,0,0
64101,-89.2857142857143,4,1,1,60,0,0
64263,-88.4955752212389,4,1,1,60,0,0
64425,-87.719298245614,4,1,1,60,0,0
64588,-86.9565217391304,4,1,1,60,0,0
64750,-86.2068965517241,4,1,1,60,0,0
64912,-85.4700854700855,4,1,1,60,0,0
65074,-84.7457627118644,4,1,1,60,0,0
65236,-84.0336134453781,4,1,1,60,0,0
65398,-83.3333333333333,4,1,1,60,0,0
65561,-82.6446280991736,4,1,1,60,0,0
65723,-81.9672131147541,4,1,1,60,0,0
65885,-81.3008130081301,4,1,1,60,0,0
66047,-80.6451612903226,4,1,1,60,0,0
66209,-80,4,1,1,60,0,0
66371,-79.3650793650794,4,1,1,60,0,0
66534,-78.7401574803149,4,1,1,60,0,0
66696,-78.125,4,1,1,60,0,0
66858,-77.5193798449612,4,1,1,60,0,0
67020,-76.9230769230769,4,1,1,60,0,0
67182,-75.187969924812,4,1,1,60,0,0
67344,-73.5294117647059,4,1,1,60,0,0
67507,-71.9424460431655,4,1,1,60,0,0
67669,-70.4225352112676,4,1,1,60,0,0
67831,-68.9655172413793,4,1,1,60,0,0
67993,-67.5675675675676,4,1,1,60,0,0
68155,-84.7457627118644,4,1,1,40,0,0
68236,-86.2068965517241,4,1,1,40,0,0
68317,-87.719298245614,4,1,1,40,0,0
68398,-89.2857142857143,4,1,1,40,0,0
68480,-90.9090909090909,4,1,1,40,0,0
69777,324.324324324324,4,1,1,70,1,0
69777,-86.9565217391304,4,1,1,70,0,1
89236,-86.5800865800866,4,1,1,70,0,1
89317,-86.2068965517241,4,1,1,70,0,1
89398,-85.8369098712446,4,1,1,70,0,1
89479,-85.4700854700855,4,1,1,70,0,1
89560,-85.1063829787234,4,1,1,70,0,1
89641,-84.7457627118644,4,1,1,70,0,1
89722,-84.3881856540084,4,1,1,70,0,1
89804,-84.0336134453781,4,1,1,70,0,1
89885,-83.6820083682008,4,1,1,70,0,1
89966,-83.3333333333333,4,1,1,70,0,1
90047,-82.9875518672199,4,1,1,70,0,1
90128,-82.6446280991736,4,1,1,70,0,1
90209,-82.3045267489712,4,1,1,70,0,1
90290,-81.9672131147541,4,1,1,70,0,1
90371,-81.6326530612245,4,1,1,70,0,1
90452,-81.3008130081301,4,1,1,70,0,0
90858,-74.0740740740741,4,1,1,70,0,1
90939,-86.9565217391304,4,1,1,70,0,1
95074,-87.719298245614,4,1,1,70,0,1
95155,-88.4955752212389,4,1,1,70,0,1
95236,-89.2857142857143,4,1,1,70,0,1
95317,-90.0900900900901,4,1,1,70,0,1
95398,-90.9090909090909,4,1,1,70,0,1
95479,-91.743119266055,4,1,1,70,0,1
95560,-92.5925925925926,4,1,1,70,0,1
95641,-93.4579439252336,4,1,1,70,0,0
96047,-74.0740740740741,4,1,1,70,0,1
96129,-86.9565217391304,4,1,1,70,0,1
97668,-88.4955752212389,4,1,1,70,0,1
97831,-90.0900900900901,4,1,1,70,0,1
97912,-90.9090909090909,4,1,1,70,0,1
97993,-91.743119266055,4,1,1,70,0,1
98155,-94.3396226415094,4,1,1,70,0,1
98317,-97.0873786407767,4,1,1,70,0,0
98479,-100,4,1,1,70,0,0
100749,-99.009900990099,4,1,1,70,0,0
100831,-98.0392156862745,4,1,1,70,0,0
100912,-97.0873786407767,4,1,1,70,0,0
101074,-96.1538461538461,4,1,1,70,0,0
101236,-95.2380952380952,4,1,1,70,0,0
101398,-94.3396226415094,4,1,1,70,0,0
101560,-93.4579439252336,4,1,1,70,0,0
101722,-92.5925925925926,4,1,1,70,0,0
101885,-91.743119266055,4,1,1,70,0,0
102047,-90.9090909090909,4,1,1,70,0,0
102209,-90.0900900900901,4,1,1,70,0,0
102371,-89.2857142857143,4,1,1,70,0,0
102533,-88.4955752212389,4,1,1,70,0,0
102695,-87.719298245614,4,1,1,70,0,0
102858,-86.9565217391304,4,1,1,70,0,0
103020,-86.2068965517241,4,1,1,70,0,0
103182,-85.4700854700855,4,1,1,70,0,0
103344,-84.7457627118644,4,1,1,70,0,0
103506,-83.3333333333333,4,1,1,70,0,0
103668,-81.9672131147541,4,1,1,70,0,0
103749,-81.3008130081301,4,1,1,70,0,0
103831,-80.6451612903226,4,1,1,70,0,0
103993,-79.3650793650794,4,1,1,70,0,0
104155,-78.125,4,1,1,70,0,0
104317,-76.9230769230769,4,1,1,70,0,0
104398,-76.3358778625954,4,1,1,70,0,0
104479,-75.7575757575758,4,1,1,70,0,0
104641,-74.6268656716418,4,1,1,70,0,0
104804,-73.5294117647059,4,1,1,70,0,0
104966,-72.463768115942,4,1,1,70,0,0
105020,-71.9424460431655,4,1,1,70,0,0
105074,-71.4285714285714,4,1,1,70,0,0
105128,-70.9219858156028,4,1,1,70,0,0
105290,-69.9300699300699,4,1,1,70,0,0
105344,-69.4444444444444,4,1,1,70,0,0
105398,-68.9655172413793,4,1,1,70,0,0
105452,-68.4931506849315,4,1,1,70,0,0
105614,-67.5675675675676,4,1,1,70,0,0
105668,-67.1140939597315,4,1,1,70,0,0
105722,-66.6666666666667,4,1,1,70,0,0
105776,-66.2251655629139,4,1,1,70,0,0
105858,-66.6666666666667,4,1,1,70,0,0
105939,-67.1140939597315,4,1,1,70,0,0
106020,-67.5675675675676,4,1,1,70,0,0
106101,-68.0272108843537,4,1,1,70,0,0
106506,-71.4285714285714,4,1,1,70,0,0
106912,-76.9230769230769,4,1,1,70,0,0
108371,-71.4285714285714,4,1,1,70,0,0
108452,-71.9424460431655,4,1,1,70,0,0
108533,-72.463768115942,4,1,1,70,0,0
108614,-72.992700729927,4,1,1,70,0,0
108695,-73.5294117647059,4,1,1,70,0,0
109020,-76.9230769230769,4,1,1,70,0,0
109506,-83.3333333333333,4,1,1,70,0,0
111290,-90.9090909090909,4,1,1,70,0,0
111614,-88.4955752212389,4,1,1,70,0,0
111939,-86.2068965517241,4,1,1,70,0,0
112101,-84.7457627118644,4,1,1,70,0,0
112263,-83.3333333333333,4,1,1,70,0,0
112587,-81.3008130081301,4,1,1,70,0,0
112912,-79.3650793650794,4,1,1,70,0,0
113236,-77.5193798449612,4,1,1,70,0,0
113398,-75.7575757575758,4,1,1,70,0,0
113560,-73.5294117647059,4,1,1,70,0,0

[Colours]
Combo1 : 128,150,255
Combo2 : 255,0,0

[HitObjects]
444,210,1021,5,0,0:0:0:0:
444,210,1183,1,8,0:0:0:0:
444,210,1345,1,0,0:0:0:0:
439,202,1507,1,8,0:0:0:0:
439,202,1669,1,0,0:0:0:0:
439,202,1831,1,8,0:0:0:0:
439,202,1993,1,0,0:0:0:0:
449,204,2156,1,8,0:0:0:0:
449,204,2318,1,0,0:0:0:0:
449,204,2480,1,8,0:0:0:0:
449,204,2561,1,8,0:0:0:0:
449,204,2642,1,0,0:0:0:0:
449,204,2804,1,8,0:0:0:0:
440,193,3615,1,0,0:0:0:0:
440,193,3777,1,8,0:0:0:0:
440,193,3858,1,0,0:0:0:0:
440,193,3939,1,0,0:0:0:0:
440,193,4102,1,8,0:0:0:0:
440,193,4264,1,0,0:0:0:0:
440,193,4426,1,8,0:0:0:0:
440,193,4507,1,8,0:0:0:0:
440,193,4588,1,0,0:0:0:0:
440,193,4750,1,8,0:0:0:0:
440,193,4912,1,0,0:0:0:0:
440,193,5075,1,8,0:0:0:0:
440,193,5156,1,8,0:0:0:0:
440,193,5237,1,8,0:0:0:0:
440,193,5399,1,0,0:0:0:0:
428,196,5885,1,8,0:0:0:0:
428,196,6210,1,0,0:0:0:0:
428,196,6372,1,8,0:0:0:0:
428,196,6453,1,8,0:0:0:0:
428,196,6534,1,0,0:0:0:0:
428,196,6696,1,8,0:0:0:0:
428,196,6858,1,0,0:0:0:0:
428,196,7020,1,8,0:0:0:0:
428,196,7102,1,8,0:0:0:0:
428,196,7183,1,0,0:0:0:0:
428,196,7345,1,8,0:0:0:0:
428,196,7507,1,0,0:0:0:0:
428,196,7669,1,8,0:0:0:0:
428,196,7750,1,8,0:0:0:0:
428,196,7831,1,0,0:0:0:0:
428,196,7993,1,8,0:0:0:0:
428,196,8480,1,8,0:0:0:0:
428,196,8804,1,0,0:0:0:0:
428,196,8966,1,0,0:0:0:0:
428,196,9129,1,8,0:0:0:0:
428,196,9453,1,8,0:0:0:0:
428,196,9615,1,0,0:0:0:0:
428,196,9777,1,8,0:0:0:0:
428,196,9939,1,8,0:0:0:0:
428,196,10020,1,8,0:0:0:0:
428,196,10102,1,0,0:0:0:0:
428,196,10264,1,8,0:0:0:0:
428,196,10345,1,0,0:0:0:0:
428,196,10426,1,8,0:0:0:0:
428,196,10588,1,0,0:0:0:0:
428,196,10750,1,0,0:0:0:0:
398,177,10831,1,0,0:0:0:0:
428,196,10912,1,0,0:0:0:0:
428,196,10993,1,0,0:0:0:0:
428,196,11075,1,8,0:0:0:0:
428,196,11156,1,8,0:0:0:0:
428,196,11237,1,0,0:0:0:0:
428,196,11291,1,0,0:0:0:0:
418,192,11345,1,0,0:0:0:0:
428,196,11399,1,0,0:0:0:0:
413,181,11723,1,0,0:0:0:0:
413,181,12048,1,0,0:0:0:0:
413,181,12372,1,8,0:0:0:0:
413,181,12696,1,0,0:0:0:0:
413,181,13020,1,0,0:0:0:0:
413,181,13183,1,0,0:0:0:0:
413,181,13345,1,8,0:0:0:0:
413,181,13507,1,8,0:0:0:0:
413,181,13669,1,0,0:0:0:0:
413,181,13831,1,0,0:0:0:0:
413,181,13993,1,0,0:0:0:0:
413,181,14318,1,0,0:0:0:0:
413,181,14642,1,8,0:0:0:0:
413,181,14966,1,8,0:0:0:0:
413,181,15291,1,8,0:0:0:0:
413,181,15453,1,0,0:0:0:0:
413,181,15615,1,0,0:0:0:0:
413,181,15777,1,0,0:0:0:0:
413,181,15939,1,8,0:0:0:0:
413,181,16264,1,8,0:0:0:0:
413,181,16588,1,8,0:0:0:0:
413,181,16750,1,0,0:0:0:0:
413,181,16912,1,0,0:0:0:0:
413,181,17075,1,0,0:0:0:0:
413,181,17237,1,0,0:0:0:0:
413,181,17399,1,0,0:0:0:0:
413,181,17561,1,8,0:0:0:0:
413,181,17723,1,0,0:0:0:0:
413,181,17885,1,8,0:0:0:0:
413,181,18210,1,0,0:0:0:0:
413,181,18372,1,0,0:0:0:0:
413,181,18534,1,0,0:0:0:0:
413,181,18858,1,0,0:0:0:0:
403,186,19020,1,0,0:0:0:0:
403,186,19183,1,8,0:0:0:0:
411,188,19507,1,0,0:0:0:0:
410,187,19669,1,0,0:0:0:0:
406,191,19831,1,0,0:0:0:0:
408,184,19993,1,0,0:0:0:0:
408,184,20156,1,8,0:0:0:0:
418,190,20318,1,8,0:0:0:0:
418,190,20480,1,8,0:0:0:0:
396,186,20642,1,0,0:0:0:0:
396,186,20804,1,0,0:0:0:0:
396,186,20966,1,0,0:0:0:0:
397,184,21129,1,8,0:0:0:0:
396,186,21291,1,0,0:0:0:0:
396,186,21453,1,0,0:0:0:0:
396,186,21615,1,0,0:0:0:0:
396,186,21777,1,8,0:0:0:0:
256,192,21939,12,0,22912,0:0:0:0:
397,171,23075,5,0,0:0:0:0:
392,161,23642,1,8,0:0:0:0:
388,135,24372,1,4,0:0:0:0:
387,154,24615,1,8,0:0:0:0:
387,154,24696,1,0,0:0:0:0:
387,154,24858,1,0,0:0:0:0:
387,154,25020,1,8,0:0:0:0:
387,154,25263,1,8,0:0:0:0:
387,154,25344,1,0,0:0:0:0:
387,154,25507,1,8,0:0:0:0:
387,154,25669,1,0,0:0:0:0:
387,154,25831,1,0,0:0:0:0:
387,154,25993,1,8,0:0:0:0:
380,139,26155,1,0,0:0:0:0:
380,139,26317,1,8,0:0:0:0:
380,139,26480,1,0,0:0:0:0:
380,139,26561,1,8,0:0:0:0:
380,139,26642,1,0,0:0:0:0:
380,139,26804,1,8,0:0:0:0:
380,139,26966,1,0,0:0:0:0:
380,139,27128,1,8,0:0:0:0:
380,139,27209,1,8,0:0:0:0:
380,139,27290,1,0,0:0:0:0:
382,133,27453,1,0,0:0:0:0:
382,133,27615,1,8,0:0:0:0:
382,133,27777,1,0,0:0:0:0:
382,133,27858,1,8,0:0:0:0:
382,133,27939,1,0,0:0:0:0:
382,133,28101,1,8,0:0:0:0:
382,133,28263,1,0,0:0:0:0:
382,133,28426,1,0,0:0:0:0:
382,133,28507,1,0,0:0:0:0:
382,133,28588,1,0,0:0:0:0:
382,133,28750,1,8,0:0:0:0:
382,133,28912,1,0,0:0:0:0:
382,133,29074,1,8,0:0:0:0:
382,133,29155,1,0,0:0:0:0:
382,133,29236,1,8,0:0:0:0:
382,133,29317,1,0,0:0:0:0:
382,133,29399,1,0,0:0:0:0:
382,133,29480,1,0,0:0:0:0:
382,133,29561,1,8,0:0:0:0:
401,130,29804,1,8,0:0:0:0:
401,130,29885,1,0,0:0:0:0:
401,130,30047,1,0,0:0:0:0:
401,130,30209,1,8,0:0:0:0:
402,130,30371,1,0,0:0:0:0:
401,130,30453,1,8,0:0:0:0:
401,130,30534,1,0,0:0:0:0:
401,130,30696,1,8,0:0:0:0:
401,130,30858,1,0,0:0:0:0:
401,130,31101,1,8,0:0:0:0:
401,130,31182,1,0,0:0:0:0:
401,130,31344,1,8,0:0:0:0:
401,130,31507,1,0,0:0:0:0:
401,130,31669,1,8,0:0:0:0:
401,130,31750,1,8,0:0:0:0:
401,130,31831,1,0,0:0:0:0:
401,130,31993,1,0,0:0:0:0:
401,130,32155,1,8,0:0:0:0:
401,130,32317,1,0,0:0:0:0:
401,130,32480,1,0,0:0:0:0:
401,130,32804,1,8,0:0:0:0:
400,122,32966,1,0,0:0:0:0:
400,122,33128,1,0,0:0:0:0:
399,117,33209,1,0,0:0:0:0:
400,117,33290,1,0,0:0:0:0:
400,117,33371,1,0,0:0:0:0:
400,117,33453,1,8,0:0:0:0:
400,117,33615,1,0,0:0:0:0:
400,117,33777,1,8,0:0:0:0:
400,122,34101,1,8,0:0:0:0:
400,117,34263,1,0,0:0:0:0:
400,117,34426,1,8,0:0:0:0:
400,117,34507,1,0,0:0:0:0:
400,117,34588,1,8,0:0:0:0:
400,117,34669,1,8,0:0:0:0:
400,117,34750,1,0,0:0:0:0:
394,110,35074,1,0,0:0:0:0:
400,117,35236,1,8,0:0:0:0:
386,114,35399,1,0,0:0:0:0:
397,112,35561,1,0,0:0:0:0:
400,117,35723,1,8,0:0:0:0:
394,110,35885,1,0,0:0:0:0:
400,117,36047,1,8,0:0:0:0:
376,111,36209,1,0,0:0:0:0:
398,107,36371,1,0,0:0:0:0:
400,117,36534,1,8,0:0:0:0:
407,99,36696,1,0,0:0:0:0:
407,99,36858,1,0,0:0:0:0:
400,117,37020,1,8,0:0:0:0:
407,99,37182,1,0,0:0:0:0:
400,117,37344,1,8,0:0:0:0:
400,117,37507,1,0,0:0:0:0:
401,116,37669,1,0,0:0:0:0:
400,117,37831,1,8,0:0:0:0:
400,117,37993,1,0,0:0:0:0:
401,116,38155,1,0,0:0:0:0:
400,117,38317,1,8,0:0:0:0:
400,117,38480,1,0,0:0:0:0:
400,117,38642,1,8,0:0:0:0:
400,117,38804,1,8,0:0:0:0:
400,117,38966,1,8,0:0:0:0:
400,117,39128,1,0,0:0:0:0:
400,117,39290,1,8,0:0:0:0:
400,117,39453,1,0,0:0:0:0:
400,117,39615,1,0,0:0:0:0:
400,117,39777,1,8,0:0:0:0:
400,117,39858,1,8,0:0:0:0:
400,117,39939,1,0,0:0:0:0:
380,129,40263,1,0,0:0:0:0:
400,117,40426,1,8,0:0:0:0:
408,130,40588,1,0,0:0:0:0:
383,127,40750,1,0,0:0:0:0:
400,117,40912,1,8,0:0:0:0:
377,119,41074,1,8,0:0:0:0:
405,115,41236,1,0,0:0:0:0:
407,116,41561,1,0,0:0:0:0:
405,115,41723,1,8,0:0:0:0:
402,114,42047,1,0,0:0:0:0:
405,115,42209,1,8,0:0:0:0:
405,115,42371,1,0,0:0:0:0:
405,115,42534,1,0,0:0:0:0:
422,121,42696,1,8,0:0:0:0:
405,115,42858,1,0,0:0:0:0:
414,112,43020,1,8,0:0:0:0:
405,115,43182,1,0,0:0:0:0:
405,115,43344,1,0,0:0:0:0:
405,115,43507,1,0,0:0:0:0:
405,115,43669,1,0,0:0:0:0:
405,115,43831,1,8,0:0:0:0:
405,115,43993,1,8,0:0:0:0:
405,115,44155,1,8,0:0:0:0:
405,115,44317,1,0,0:0:0:0:
405,115,44480,1,0,0:0:0:0:
405,115,44561,1,8,0:0:0:0:
405,115,44642,1,0,0:0:0:0:
405,115,44723,1,8,0:0:0:0:
405,115,44804,1,0,0:0:0:0:
405,115,44885,1,8,0:0:0:0:
405,115,44966,1,8,0:0:0:0:
405,115,45047,1,8,0:0:0:0:
405,115,45128,1,8,0:0:0:0:
405,115,45453,1,8,0:0:0:0:
405,115,45777,1,8,0:0:0:0:
405,115,45939,1,0,0:0:0:0:
405,115,46020,1,0,0:0:0:0:
405,115,46101,1,8,0:0:0:0:
405,115,46426,1,4,0:0:0:0:
388,118,46588,1,0,0:0:0:0:
405,115,46750,1,8,0:0:0:0:
405,115,46912,1,0,0:0:0:0:
405,115,47236,1,0,0:0:0:0:
405,115,47398,1,12,0:0:0:0:
405,115,47723,1,0,0:0:0:0:
385,118,47885,1,0,0:0:0:0:
405,115,48047,1,8,0:0:0:0:
405,115,48209,1,0,0:0:0:0:
405,115,48534,1,0,0:0:0:0:
405,115,48696,1,12,0:0:0:0:
405,115,49020,1,0,0:0:0:0:
385,118,49182,1,0,0:0:0:0:
385,118,49344,1,8,0:0:0:0:
385,118,49507,1,0,0:0:0:0:
369,125,49669,1,0,0:0:0:0:
385,118,49831,1,0,0:0:0:0:
385,118,49993,1,12,0:0:0:0:
369,125,50317,1,0,0:0:0:0:
369,125,50480,1,8,0:0:0:0:
374,119,50642,1,8,0:0:0:0:
374,119,50804,1,0,0:0:0:0:
374,119,50966,1,0,0:0:0:0:
374,119,51128,1,8,0:0:0:0:
374,119,51290,1,8,0:0:0:0:
374,119,51453,1,8,0:0:0:0:
374,119,51615,1,4,0:0:0:0:
374,119,51939,1,8,0:0:0:0:
374,119,52101,1,0,0:0:0:0:
374,119,52263,1,0,0:0:0:0:
374,119,52425,1,0,0:0:0:0:
374,119,52588,1,12,0:0:0:0:
374,119,52750,1,0,0:0:0:0:
374,119,52912,1,0,0:0:0:0:
374,119,53074,1,0,0:0:0:0:
374,119,53236,1,8,0:0:0:0:
374,119,53398,1,0,0:0:0:0:
374,119,53561,1,0,0:0:0:0:
374,119,53723,1,0,0:0:0:0:
374,119,53885,1,12,0:0:0:0:
374,119,54209,1,0,0:0:0:0:
374,119,54371,1,0,0:0:0:0:
370,113,54534,1,8,0:0:0:0:
370,113,54696,1,0,0:0:0:0:
370,113,54858,1,0,0:0:0:0:
370,113,55020,1,8,0:0:0:0:
370,113,55182,1,8,0:0:0:0:
370,113,55344,1,0,0:0:0:0:
370,113,55507,1,8,0:0:0:0:
383,109,55669,1,0,0:0:0:0:
383,109,55831,1,0,0:0:0:0:
383,109,55993,1,8,0:0:0:0:
383,109,56317,1,0,0:0:0:0:
383,109,56480,1,8,0:0:0:0:
383,109,56642,1,0,0:0:0:0:
383,109,56804,1,4,0:0:0:0:
379,102,57128,1,8,0:0:0:0:
379,102,57290,1,8,0:0:0:0:
379,102,57615,1,0,0:0:0:0:
379,102,57777,1,8,0:0:0:0:
379,102,58101,1,0,0:0:0:0:
379,102,58263,1,0,0:0:0:0:
379,102,58425,1,8,0:0:0:0:
379,102,58588,1,0,0:0:0:0:
379,102,58750,1,8,0:0:0:0:
379,102,58831,1,8,0:0:0:0:
379,102,58912,1,0,0:0:0:0:
379,102,59074,1,8,0:0:0:0:
379,102,59236,1,0,0:0:0:0:
379,102,59398,1,0,0:0:0:0:
379,102,59561,1,0,0:0:0:0:
383,98,59642,1,0,0:0:0:0:
379,102,59723,1,8,0:0:0:0:
379,102,59885,1,0,0:0:0:0:
379,102,60047,1,8,0:0:0:0:
379,102,60209,1,0,0:0:0:0:
379,102,60371,1,8,0:0:0:0:
387,86,60534,1,0,0:0:0:0:
387,86,60696,1,0,0:0:0:0:
387,86,60858,1,0,0:0:0:0:
387,86,61020,1,8,0:0:0:0:
387,86,61182,1,0,0:0:0:0:
388,88,61344,1,0,0:0:0:0:
387,86,61507,1,0,0:0:0:0:
387,86,61669,1,8,0:0:0:0:
392,89,61831,1,0,0:0:0:0:
392,89,61885,1,0,0:0:0:0:
392,89,61939,1,0,0:0:0:0:
392,89,61993,1,8,0:0:0:0:
396,102,62155,1,0,0:0:0:0:
395,96,62317,1,8,0:0:0:0:
395,95,62480,1,8,0:0:0:0:
395,95,62642,1,0,0:0:0:0:
395,95,62804,1,0,0:0:0:0:
395,95,62966,1,8,0:0:0:0:
395,95,63128,1,0,0:0:0:0:
395,96,63290,1,8,0:0:0:0:
395,95,63453,1,8,0:0:0:0:
395,95,63615,1,8,0:0:0:0:
395,95,63777,1,0,0:0:0:0:
395,95,63939,1,8,0:0:0:0:
395,95,64101,1,0,0:0:0:0:
395,96,64263,1,8,0:0:0:0:
395,95,64425,1,0,0:0:0:0:
395,95,64588,1,8,0:0:0:0:
395,95,64750,1,0,0:0:0:0:
395,95,64912,1,8,0:0:0:0:
395,95,65074,1,8,0:0:0:0:
395,96,65236,1,0,0:0:0:0:
395,95,65398,1,8,0:0:0:0:
395,95,65561,1,8,0:0:0:0:
395,95,65723,5,0,0:0:0:0:
395,95,65885,1,8,0:0:0:0:
395,95,66047,1,0,0:0:0:0:
395,96,66209,1,8,0:0:0:0:
395,95,66371,1,8,0:0:0:0:
395,95,66534,1,0,0:0:0:0:
395,95,66696,1,0,0:0:0:0:
367,147,66858,5,8,0:0:0:0:
395,95,67020,1,0,0:0:0:0:
367,147,67182,1,12,0:0:0:0:
367,147,67344,1,12,0:0:0:0:
367,147,67507,1,12,0:0:0:0:
367,147,67669,1,12,0:0:0:0:
367,147,67831,1,12,0:0:0:0:
367,147,67993,1,12,0:0:0:0:
367,147,68155,1,8,0:0:0:0:
367,147,68236,1,0,0:0:0:0:
367,147,68317,1,0,0:0:0:0:
367,147,68398,1,0,0:0:0:0:
367,147,68480,1,8,0:0:0:0:
418,136,69777,1,4,0:0:0:0:
418,136,69939,1,0,0:0:0:0:
419,140,70020,1,0,0:0:0:0:
418,136,70101,1,8,0:0:0:0:
418,136,70263,1,0,0:0:0:0:
418,136,70425,1,8,0:0:0:0:
418,136,70587,1,0,0:0:0:0:
418,136,70668,1,8,0:0:0:0:
418,136,70749,1,8,0:0:0:0:
418,136,70912,1,0,0:0:0:0:
418,136,71074,1,8,0:0:0:0:
442,143,71236,1,8,0:0:0:0:
425,148,71317,1,0,0:0:0:0:
442,143,71398,1,8,0:0:0:0:
442,143,71560,1,0,0:0:0:0:
442,143,71641,1,8,0:0:0:0:
442,143,71722,1,0,0:0:0:0:
442,143,71885,1,0,0:0:0:0:
442,143,71966,1,0,0:0:0:0:
442,143,72047,1,8,0:0:0:0:
442,143,72128,1,0,0:0:0:0:
442,143,72209,1,0,0:0:0:0:
442,143,72290,1,0,0:0:0:0:
442,143,72371,1,8,0:0:0:0:
442,143,72533,1,0,0:0:0:0:
442,143,72695,1,8,0:0:0:0:
442,143,72858,1,0,0:0:0:0:
442,143,73020,1,8,0:0:0:0:
442,143,73182,1,8,0:0:0:0:
442,143,73263,1,8,0:0:0:0:
442,143,73344,1,8,0:0:0:0:
442,143,73506,1,0,0:0:0:0:
442,143,73668,1,8,0:0:0:0:
442,143,73831,1,0,0:0:0:0:
442,143,73912,1,0,0:0:0:0:
442,143,73993,1,8,0:0:0:0:
442,143,74155,1,0,0:0:0:0:
442,143,74317,1,8,0:0:0:0:
442,143,74479,1,0,0:0:0:0:
442,143,74560,1,0,0:0:0:0:
442,143,74641,1,8,0:0:0:0:
442,143,74722,1,0,0:0:0:0:
442,143,74804,1,0,0:0:0:0:
442,143,74885,1,8,0:0:0:0:
442,143,74966,1,0,0:0:0:0:
442,143,75128,1,0,0:0:0:0:
442,143,75209,1,0,0:0:0:0:
442,143,75290,1,8,0:0:0:0:
442,143,75452,1,0,0:0:0:0:
442,143,75614,1,8,0:0:0:0:
442,143,75777,1,0,0:0:0:0:
442,143,75858,1,8,0:0:0:0:
442,143,75939,1,8,0:0:0:0:
442,143,76101,1,0,0:0:0:0:
442,143,76263,1,8,0:0:0:0:
442,143,76425,1,0,0:0:0:0:
442,143,76506,1,0,0:0:0:0:
442,143,76587,1,8,0:0:0:0:
442,143,76749,1,0,0:0:0:0:
442,143,76912,1,0,0:0:0:0:
442,143,77074,1,0,0:0:0:0:
442,143,77155,1,0,0:0:0:0:
442,143,77236,1,8,0:0:0:0:
442,143,77317,1,0,0:0:0:0:
442,143,77398,1,0,0:0:0:0:
442,143,77479,1,0,0:0:0:0:
442,143,77560,1,8,0:0:0:0:
442,143,77722,1,0,0:0:0:0:
442,143,77804,1,0,0:0:0:0:
442,143,77885,1,8,0:0:0:0:
442,143,78047,1,0,0:0:0:0:
442,143,78209,1,8,0:0:0:0:
442,143,78371,1,8,0:0:0:0:
442,143,78452,1,0,0:0:0:0:
442,143,78533,1,8,0:0:0:0:
442,143,78695,1,0,0:0:0:0:
442,143,78858,1,8,0:0:0:0:
442,143,78939,1,8,0:0:0:0:
442,143,79020,1,0,0:0:0:0:
442,143,79101,1,8,0:0:0:0:
442,143,79182,1,8,0:0:0:0:
442,143,79263,1,0,0:0:0:0:
442,143,79344,1,8,0:0:0:0:
442,143,79425,1,8,0:0:0:0:
442,143,79506,1,0,0:0:0:0:
442,143,79587,1,0,0:0:0:0:
442,143,79668,1,0,0:0:0:0:
442,143,79749,1,0,0:0:0:0:
442,143,79831,1,8,0:0:0:0:
442,143,79912,1,0,0:0:0:0:
442,143,79993,1,0,0:0:0:0:
442,143,80074,1,8,0:0:0:0:
442,143,80155,1,0,0:0:0:0:
442,143,80317,1,0,0:0:0:0:
442,143,80398,1,0,0:0:0:0:
442,143,80479,1,8,0:0:0:0:
442,143,80641,1,8,0:0:0:0:
442,143,80804,1,0,0:0:0:0:
442,143,80966,1,0,0:0:0:0:
442,143,81047,1,0,0:0:0:0:
442,143,81128,1,8,0:0:0:0:
442,143,81290,1,8,0:0:0:0:
442,143,81452,1,0,0:0:0:0:
442,143,81614,1,0,0:0:0:0:
442,143,81695,1,0,0:0:0:0:
442,143,81776,1,8,0:0:0:0:
442,143,81939,1,0,0:0:0:0:
442,143,82101,1,8,0:0:0:0:
442,143,82263,1,8,0:0:0:0:
442,143,82344,1,0,0:0:0:0:
442,143,82425,1,0,0:0:0:0:
442,143,82587,1,0,0:0:0:0:
442,143,82668,1,0,0:0:0:0:
442,143,82749,1,0,0:0:0:0:
433,149,82912,1,0,0:0:0:0:
433,149,83074,1,8,0:0:0:0:
433,149,83236,1,8,0:0:0:0:
433,149,83398,1,0,0:0:0:0:
433,149,83560,1,0,0:0:0:0:
433,149,83722,1,8,0:0:0:0:
433,149,83885,1,0,0:0:0:0:
433,149,84047,1,0,0:0:0:0:
433,149,84209,1,0,0:0:0:0:
433,149,84290,1,0,0:0:0:0:
433,149,84371,1,8,0:0:0:0:
433,149,84533,1,0,0:0:0:0:
433,149,84695,1,8,0:0:0:0:
409,143,84858,1,0,0:0:0:0:
433,149,84939,1,0,0:0:0:0:
433,149,85020,1,8,0:0:0:0:
433,149,85101,1,0,0:0:0:0:
433,149,85182,1,0,0:0:0:0:
433,149,85263,1,0,0:0:0:0:
433,149,85344,1,8,0:0:0:0:
413,147,85506,1,0,0:0:0:0:
431,136,85587,1,0,0:0:0:0:
413,147,85668,1,8,0:0:0:0:
413,147,85831,1,0,0:0:0:0:
413,147,85993,1,0,0:0:0:0:
434,134,86074,1,0,0:0:0:0:
431,136,86155,1,8,0:0:0:0:
412,146,86236,1,0,0:0:0:0:
413,147,86317,1,8,0:0:0:0:
413,147,86479,1,0,0:0:0:0:
413,147,86641,1,0,0:0:0:0:
413,147,86804,1,0,0:0:0:0:
413,147,86885,1,0,0:0:0:0:
413,147,86966,1,8,0:0:0:0:
413,147,87128,1,0,0:0:0:0:
412,146,87290,1,8,0:0:0:0:
406,132,87371,1,0,0:0:0:0:
413,147,87452,1,0,0:0:0:0:
413,147,87533,1,0,0:0:0:0:
413,147,87614,1,8,0:0:0:0:
413,147,87695,1,8,0:0:0:0:
413,147,87776,1,0,0:0:0:0:
413,147,87858,1,8,0:0:0:0:
413,147,87939,1,0,0:0:0:0:
413,147,88101,1,0,0:0:0:0:
412,146,88263,1,8,0:0:0:0:
413,147,88425,1,0,0:0:0:0:
413,147,88587,1,0,0:0:0:0:
413,147,88668,1,0,0:0:0:0:
413,147,88749,1,0,0:0:0:0:
413,147,88831,1,0,0:0:0:0:
413,147,88912,1,8,0:0:0:0:
413,147,88993,1,0,0:0:0:0:
413,147,89074,1,0,0:0:0:0:
412,146,89236,1,0,0:0:0:0:
413,147,89317,1,0,0:0:0:0:
413,147,89398,1,8,0:0:0:0:
413,147,89479,1,8,0:0:0:0:
413,147,89560,1,0,0:0:0:0:
413,147,89641,1,8,0:0:0:0:
413,147,89722,1,8,0:0:0:0:
413,147,89804,1,8,0:0:0:0:
413,147,89885,1,0,0:0:0:0:
413,147,89966,1,0,0:0:0:0:
413,147,90047,1,8,0:0:0:0:
413,147,90128,1,0,0:0:0:0:
412,146,90209,1,8,0:0:0:0:
412,146,90290,1,0,0:0:0:0:
413,147,90371,1,8,0:0:0:0:
413,147,90452,1,8,0:0:0:0:
413,147,90858,1,12,0:0:0:0:
413,147,91020,1,8,0:0:0:0:
412,146,91182,1,0,0:0:0:0:
413,147,91344,1,0,0:0:0:0:
410,120,91425,1,0,0:0:0:0:
413,147,91506,1,8,0:0:0:0:
413,147,91668,1,8,0:0:0:0:
413,147,91831,1,0,0:0:0:0:
413,147,91993,1,8,0:0:0:0:
412,146,92155,1,8,0:0:0:0:
413,147,92317,1,0,0:0:0:0:
413,147,92479,1,0,0:0:0:0:
413,147,92641,1,0,0:0:0:0:
410,120,92722,1,0,0:0:0:0:
413,147,92804,1,8,0:0:0:0:
413,147,92966,1,0,0:0:0:0:
412,146,93128,1,0,0:0:0:0:
413,147,93290,1,0,0:0:0:0:
410,120,93371,1,0,0:0:0:0:
413,147,93452,1,8,0:0:0:0:
413,147,93614,1,8,0:0:0:0:
413,147,93776,1,0,0:0:0:0:
413,147,93939,1,0,0:0:0:0:
408,115,94020,1,0,0:0:0:0:
412,146,94101,1,8,0:0:0:0:
413,147,94263,1,0,0:0:0:0:
410,120,94344,1,0,0:0:0:0:
413,147,94425,1,0,0:0:0:0:
413,147,94587,1,8,0:0:0:0:
413,147,94749,1,8,0:0:0:0:
413,147,94912,1,0,0:0:0:0:
412,146,95074,1,8,0:0:0:0:
389,141,95155,1,8,0:0:0:0:
413,147,95236,1,0,0:0:0:0:
413,147,95317,1,0,0:0:0:0:
413,147,95398,1,8,0:0:0:0:
413,147,95479,1,0,0:0:0:0:
413,147,95560,1,0,0:0:0:0:
413,147,95641,1,0,0:0:0:0:
406,136,96047,1,12,0:0:0:0:
388,114,96209,1,0,0:0:0:0:
407,136,96371,1,0,0:0:0:0:
407,136,96533,1,0,0:0:0:0:
388,114,96614,1,0,0:0:0:0:
407,136,96695,1,8,0:0:0:0:
406,136,96858,1,8,0:0:0:0:
406,136,97020,1,0,0:0:0:0:
407,136,97182,1,0,0:0:0:0:
388,114,97263,1,0,0:0:0:0:
407,136,97344,1,8,0:0:0:0:
407,136,97506,1,0,0:0:0:0:
407,136,97668,1,0,0:0:0:0:
406,136,97831,1,8,0:0:0:0:
406,136,97912,1,0,0:0:0:0:
406,136,97993,1,8,0:0:0:0:
407,136,98155,1,8,0:0:0:0:
407,136,98317,1,0,0:0:0:0:
407,136,98479,1,8,0:0:0:0:
406,136,98804,1,8,0:0:0:0:
407,136,99128,1,8,0:0:0:0:
407,136,99452,1,8,0:0:0:0:
406,136,99614,1,0,0:0:0:0:
406,136,99776,1,8,0:0:0:0:
407,136,100101,1,8,0:0:0:0:
407,136,100425,1,8,0:0:0:0:
406,136,100587,1,0,0:0:0:0:
406,136,100749,1,0,0:0:0:0:
407,136,100831,1,0,0:0:0:0:
407,136,100912,1,8,0:0:0:0:
407,136,101074,1,8,0:0:0:0:
407,136,101236,1,0,0:0:0:0:
407,136,101398,1,8,0:0:0:0:
406,136,101560,1,8,0:0:0:0:
406,136,101722,1,8,0:0:0:0:
407,136,101885,1,0,0:0:0:0:
407,136,102047,1,8,0:0:0:0:
407,136,102209,1,8,0:0:0:0:
407,136,102371,1,8,0:0:0:0:
406,136,102533,1,0,0:0:0:0:
406,136,102695,1,8,0:0:0:0:
407,136,102858,1,8,0:0:0:0:
407,136,103020,1,8,0:0:0:0:
407,136,103182,1,0,0:0:0:0:
407,136,103344,1,8,0:0:0:0:
406,136,103506,1,0,0:0:0:0:
406,136,103668,1,8,0:0:0:0:
392,116,103749,1,0,0:0:0:0:
407,136,103831,1,0,0:0:0:0:
407,136,103993,1,8,0:0:0:0:
407,136,104155,1,0,0:0:0:0:
407,136,104317,1,8,0:0:0:0:
392,115,104398,1,0,0:0:0:0:
406,136,104479,1,8,0:0:0:0:
406,136,104641,1,8,0:0:0:0:
407,136,104804,1,0,0:0:0:0:
399,129,104966,1,0,0:0:0:0:
399,129,105020,1,0,0:0:0:0:
412,121,105074,1,0,0:0:0:0:
399,129,105128,1,8,0:0:0:0:
407,136,105290,1,0,0:0:0:0:
401,131,105344,1,0,0:0:0:0:
382,133,105398,1,0,0:0:0:0:
406,136,105452,1,8,0:0:0:0:
406,136,105614,1,0,0:0:0:0:
420,137,105668,1,0,0:0:0:0:
420,137,105722,1,0,0:0:0:0:
444,160,105776,1,8,0:0:0:0:
407,136,105858,1,0,0:0:0:0:
407,136,105939,1,0,0:0:0:0:
407,136,106020,1,8,0:0:0:0:
407,136,106101,1,4,0:0:0:0:
401,131,106587,1,4,0:0:0:0:
401,131,107074,1,12,0:0:0:0:
256,192,107236,12,0,108209,0:0:0:0:
404,131,108371,5,8,0:0:0:0:
404,131,108452,1,8,0:0:0:0:
404,131,108533,1,8,0:0:0:0:
396,125,108614,1,8,0:0:0:0:
404,131,108695,1,4,0:0:0:0:
395,133,109182,1,4,0:0:0:0:
410,132,109668,1,12,0:0:0:0:
256,192,109831,12,0,111128,0:0:0:0:
397,136,111290,5,0,0:0:0:0:
395,133,111614,1,8,0:0:0:0:
372,132,111939,1,0,0:0:0:0:
371,132,112101,1,0,0:0:0:0:
372,132,112263,1,8,0:0:0:0:
378,130,112587,1,0,0:0:0:0:
378,130,112912,1,8,0:0:0:0:
378,130,113236,1,12,0:0:0:0:
378,130,113398,1,12,0:0:0:0:
378,130,113560,1,4,0:0:0:0:
