osu file format v14

[General]
AudioFilename: audio.mp3
AudioLeadIn: 0
PreviewTime: 69736
Countdown: 0
SampleSet: Normal
StackLeniency: 0.7
Mode: 1
LetterboxInBreaks: 0
WidescreenStoryboard: 1

[Editor]
Bookmarks: 26804,69777,90858,99614
DistanceSpacing: 0.8
BeatDivisor: 4
GridSize: 8
TimelineZoom: 2.499999

[Metadata]
Title:HEAVENLY MOON
TitleUnicode:HEAVENLY MOON
Artist:Tatsh
ArtistUnicode:Tatsh
Creator:kanpakyin
Version:MUZUKASHII
Source:jubeat copious
Tags:CORE BEMANI KONAMI plus jukebeat pop'n music Sunny Park REFLEC BEAT limelight electronic instrumental ginjani video game videogame HEAVENLY MOON HEAVENLY_MOON Shimizu Tatsuya 清水達也 世阿彌 ぜあみ Zeami ost original soundtrack sound track
BeatmapID:3274952
BeatmapSetID:1592310

[Difficulty]
HPDrainRate:6.5
CircleSize:5
OverallDifficulty:5
ApproachRate:5
SliderMultiplier:1.4
SliderTickRate:1

[Events]
//Background and Video events
0,0,"BG.jpg",0,0
//Break Periods
//Storyboard Layer 0 (Background)
//Storyboard Layer 1 (Fail)
//Storyboard Layer 2 (Pass)
//Storyboard Layer 3 (Foreground)
//Storyboard Layer 4 (Overlay)
//Storyboard Sound Samples

[TimingPoints]
1021,324.324324324324,4,1,1,50,1,0
1021,-117.647058823529,4,1,1,50,0,0
9453,-111.111111111111,4,1,1,50,0,0
9939,-109.89010989011,4,1,1,50,0,0
10020,-108.695652173913,4,1,1,50,0,0
10102,-107.52688172043,4,1,1,50,0,0
10264,-106.382978723404,4,1,1,50,0,0
10345,-105.263157894737,4,1,1,50,0,0
10426,-104.166666666667,4,1,1,50,0,0
10912,-103.092783505155,4,1,1,50,0,0
10993,-102.040816326531,4,1,1,50,0,0
11075,-101.010101010101,4,1,1,50,0,0
11237,-100,4,1,1,50,0,0
11318,-99.009900990099,4,1,1,50,0,0
11399,-97.0873786407767,4,1,1,50,0,0
11723,-105.263157894737,4,1,1,30,0,0
12048,-111.111111111111,4,1,1,30,0,0
12372,-117.647058823529,4,1,1,30,0,0
12696,-125,4,1,1,30,0,0
13020,-133.333333333333,4,1,1,30,0,0
22912,-200,4,1,1,20,0,0
24372,324.324324324324,4,1,1,60,1,0
44763,-101.010101010101,4,1,1,60,0,0
44844,-102.040816326531,4,1,1,60,0,0
44926,-103.092783505155,4,1,1,60,0,0
45128,-105.263157894737,4,1,1,30,0,0
45453,-111.111111111111,4,1,1,30,0,0
45777,-117.647058823529,4,1,1,30,0,0
45939,-120.481927710843,4,1,1,30,0,0
46101,-123.456790123457,4,1,1,30,0,0
46426,324.324324324324,4,1,1,60,1,0
47398,-90.9090909090909,4,1,1,60,0,0
47480,-100,4,1,1,60,0,0
48696,-90.9090909090909,4,1,1,60,0,0
48778,-100,4,1,1,60,0,0
49993,-90.9090909090909,4,1,1,60,0,0
50075,-100,4,1,1,60,0,0
52588,-90.9090909090909,4,1,1,60,0,0
52670,-100,4,1,1,60,0,0
53885,-90.9090909090909,4,1,1,60,0,0
53967,-100,4,1,1,60,0,0
59398,-102.040816326531,4,1,1,60,0,0
59561,-104.166666666667,4,1,1,60,0,0
59723,-106.382978723404,4,1,1,60,0,0
59885,-108.695652173913,4,1,1,60,0,0
60047,-111.111111111111,4,1,1,60,0,0
61993,-108.695652173913,4,1,1,60,0,0
62155,-106.382978723404,4,1,1,60,0,0
62317,-104.166666666667,4,1,1,60,0,0
62480,-102.040816326531,4,1,1,60,0,0
62642,-100,4,1,1,60,0,0
67182,-98.0392156862745,4,1,1,60,0,0
67344,-96.1538461538461,4,1,1,60,0,0
67507,-94.3396226415094,4,1,1,60,0,0
67669,-92.5925925925926,4,1,1,60,0,0
67831,-90.9090909090909,4,1,1,60,0,0
68155,-92.5925925925926,4,1,1,60,0,0
68236,-93.4579439252336,4,1,1,60,0,0
68317,-94.3396226415094,4,1,1,60,0,0
68398,-95.2380952380952,4,1,1,60,0,0
68480,-96.1538461538461,4,1,1,60,0,0
69777,324.324324324324,4,1,1,70,1,0
69777,-90.9090909090909,4,1,1,70,0,1
90452,-90.9090909090909,4,1,1,70,0,0
90858,-80,4,1,1,70,0,1
90939,-90.9090909090909,4,1,1,70,0,1
95641,-90.9090909090909,4,1,1,70,0,0
96047,-80,4,1,1,70,0,1
96129,-90.9090909090909,4,1,1,70,0,1
97668,-91.743119266055,4,1,1,70,0,1
97831,-93.4579439252336,4,1,1,70,0,1
97912,-94.3396226415094,4,1,1,70,0,1
97993,-95.2380952380952,4,1,1,70,0,1
98155,-97.0873786407767,4,1,1,70,0,1
98317,-99.009900990099,4,1,1,70,0,0
98479,-100,4,1,1,70,0,0
103506,-99.009900990099,4,1,1,70,0,0
103668,-98.0392156862745,4,1,1,70,0,0
103831,-97.0873786407767,4,1,1,70,0,0
103993,-96.1538461538461,4,1,1,70,0,0
104155,-95.2380952380952,4,1,1,70,0,0
104317,-94.3396226415094,4,1,1,70,0,0
104479,-93.4579439252336,4,1,1,70,0,0
104641,-92.5925925925926,4,1,1,70,0,0
104804,-91.743119266055,4,1,1,70,0,0
104966,-90.9090909090909,4,1,1,70,0,0
105047,-90.0900900900901,4,1,1,70,0,0
105128,-89.2857142857143,4,1,1,70,0,0
105290,-88.4955752212389,4,1,1,70,0,0
105371,-87.719298245614,4,1,1,70,0,0
105452,-86.9565217391304,4,1,1,70,0,0
105614,-86.2068965517241,4,1,1,70,0,0
105695,-85.4700854700855,4,1,1,70,0,0
105776,-84.7457627118644,4,1,1,70,0,0
105858,-84.0336134453781,4,1,1,70,0,0
105939,-83.3333333333333,4,1,1,70,0,0
106425,-88.4955752212389,4,1,1,70,0,0
106912,-94.3396226415094,4,1,1,70,0,0
108371,-81.9672131147541,4,1,1,70,0,0
108452,-82.6446280991736,4,1,1,70,0,0
108533,-83.3333333333333,4,1,1,70,0,0
109020,-88.4955752212389,4,1,1,70,0,0
109506,-94.3396226415094,4,1,1,70,0,0
111290,-100,4,1,1,70,0,0

[Colours]
Combo1 : 128,150,255
Combo2 : 255,0,0

[HitObjects]
444,210,1021,5,0,0:0:0:0:
444,210,1345,1,0,0:0:0:0:
439,202,1669,1,0,0:0:0:0:
439,202,1993,1,0,0:0:0:0:
449,204,2318,1,0,0:0:0:0:
449,204,2480,1,8,0:0:0:0:
449,204,2642,1,0,0:0:0:0:
449,204,2804,1,8,0:0:0:0:
440,193,3615,1,0,0:0:0:0:
440,193,3939,1,0,0:0:0:0:
440,193,4264,1,0,0:0:0:0:
440,193,4588,1,0,0:0:0:0:
440,193,4912,1,0,0:0:0:0:
440,193,5075,1,8,0:0:0:0:
440,193,5237,1,0,0:0:0:0:
440,193,5399,1,0,0:0:0:0:
428,196,6210,1,0,0:0:0:0:
428,196,6534,1,0,0:0:0:0:
428,196,6858,1,0,0:0:0:0:
428,196,7183,1,0,0:0:0:0:
428,196,7507,1,0,0:0:0:0:
428,196,7669,1,8,0:0:0:0:
428,196,7831,1,0,0:0:0:0:
428,196,7993,1,8,0:0:0:0:
428,196,8804,1,0,0:0:0:0:
428,196,8966,1,0,0:0:0:0:
428,196,9129,1,8,0:0:0:0:
428,196,9453,1,8,0:0:0:0:
428,196,9777,1,8,0:0:0:0:
428,196,9939,1,8,0:0:0:0:
428,196,10102,1,0,0:0:0:0:
428,196,10345,1,0,0:0:0:0:
428,196,10588,1,0,0:0:0:0:
428,196,10750,1,0,0:0:0:0:
405,187,10831,1,0,0:0:0:0:
428,196,10912,1,0,0:0:0:0:
428,196,11075,1,8,0:0:0:0:
428,196,11237,1,0,0:0:0:0:
428,196,11318,1,0,0:0:0:0:
428,196,11399,1,0,0:0:0:0:
413,181,11723,1,0,0:0:0:0:
413,181,12048,1,0,0:0:0:0:
413,181,12372,1,8,0:0:0:0:
413,181,12696,1,0,0:0:0:0:
413,181,14318,1,0,0:0:0:0:
413,181,14642,1,8,0:0:0:0:
413,181,14966,1,8,0:0:0:0:
413,181,15291,1,8,0:0:0:0:
413,181,15939,1,8,0:0:0:0:
413,181,16264,1,8,0:0:0:0:
413,181,16588,1,8,0:0:0:0:
413,181,17237,1,0,0:0:0:0:
413,181,17399,1,0,0:0:0:0:
413,181,17561,1,8,0:0:0:0:
413,181,17885,1,8,0:0:0:0:
413,181,18858,1,0,0:0:0:0:
403,186,19183,1,8,0:0:0:0:
408,184,20156,1,8,0:0:0:0:
418,190,20318,1,8,0:0:0:0:
418,190,20480,1,8,0:0:0:0:
396,186,20804,1,0,0:0:0:0:
397,184,21129,1,8,0:0:0:0:
396,186,21777,1,8,0:0:0:0:
388,135,24372,1,4,0:0:0:0:
387,154,24858,1,0,0:0:0:0:
387,154,25020,1,8,0:0:0:0:
376,134,25344,1,0,0:0:0:0:
387,154,25507,1,8,0:0:0:0:
387,154,25669,1,0,0:0:0:0:
380,139,26155,1,0,0:0:0:0:
380,139,26317,1,8,0:0:0:0:
372,133,26642,1,0,0:0:0:0:
380,139,26804,1,8,0:0:0:0:
380,139,26966,1,0,0:0:0:0:
382,133,27453,1,0,0:0:0:0:
382,133,27615,1,8,0:0:0:0:
382,133,27939,1,0,0:0:0:0:
382,133,28101,1,8,0:0:0:0:
382,133,28263,1,0,0:0:0:0:
382,133,28426,1,0,0:0:0:0:
382,133,28588,1,0,0:0:0:0:
382,133,28912,1,0,0:0:0:0:
382,133,29074,1,8,0:0:0:0:
382,133,29236,1,8,0:0:0:0:
395,122,29399,1,0,0:0:0:0:
382,133,29480,1,0,0:0:0:0:
382,133,29561,1,0,0:0:0:0:
401,130,30047,1,0,0:0:0:0:
401,130,30209,1,8,0:0:0:0:
385,128,30534,1,0,0:0:0:0:
401,130,30696,1,0,0:0:0:0:
401,130,30858,1,8,0:0:0:0:
401,130,31344,1,0,0:0:0:0:
401,130,31507,1,8,0:0:0:0:
401,130,31831,1,0,0:0:0:0:
401,130,31993,1,0,0:0:0:0:
401,130,32155,1,8,0:0:0:0:
383,132,32317,1,0,0:0:0:0:
401,130,32480,1,0,0:0:0:0:
401,130,32804,1,0,0:0:0:0:
400,122,32966,1,0,0:0:0:0:
400,122,33128,1,0,0:0:0:0:
399,117,33209,1,0,0:0:0:0:
400,117,33290,1,0,0:0:0:0:
400,117,33453,1,8,0:0:0:0:
400,117,33615,1,0,0:0:0:0:
400,117,33777,1,8,0:0:0:0:
400,122,34101,1,8,0:0:0:0:
400,117,34426,1,8,0:0:0:0:
400,117,34507,1,8,0:0:0:0:
400,117,34588,1,8,0:0:0:0:
400,117,34750,1,4,0:0:0:0:
394,110,35074,1,0,0:0:0:0:
400,117,35236,1,8,0:0:0:0:
400,117,35723,1,8,0:0:0:0:
394,110,35885,1,0,0:0:0:0:
400,117,36047,1,8,0:0:0:0:
398,107,36371,1,0,0:0:0:0:
400,117,36534,1,8,0:0:0:0:
400,117,37020,1,8,0:0:0:0:
407,99,37182,1,0,0:0:0:0:
400,117,37344,1,8,0:0:0:0:
401,116,37669,1,0,0:0:0:0:
400,117,37831,1,8,0:0:0:0:
400,117,38317,1,8,0:0:0:0:
400,117,38642,1,8,0:0:0:0:
400,117,38804,1,8,0:0:0:0:
400,117,38966,1,0,0:0:0:0:
400,117,39290,1,8,0:0:0:0:
400,117,39453,1,0,0:0:0:0:
400,117,39615,1,0,0:0:0:0:
400,117,39777,1,0,0:0:0:0:
388,131,39858,1,0,0:0:0:0:
400,117,39939,1,0,0:0:0:0:
400,117,40426,1,8,0:0:0:0:
406,109,40588,1,0,0:0:0:0:
400,117,40912,1,8,0:0:0:0:
405,115,41236,1,0,0:0:0:0:
405,115,41723,1,8,0:0:0:0:
405,115,42209,1,8,0:0:0:0:
397,128,42371,1,0,0:0:0:0:
405,115,42534,1,0,0:0:0:0:
405,115,42858,1,0,0:0:0:0:
405,115,43182,1,0,0:0:0:0:
405,115,43344,1,0,0:0:0:0:
405,115,43507,1,0,0:0:0:0:
405,115,43669,1,0,0:0:0:0:
405,115,43831,1,8,0:0:0:0:
405,115,44155,1,8,0:0:0:0:
405,115,44480,1,0,0:0:0:0:
405,115,44561,1,0,0:0:0:0:
405,115,44642,1,0,0:0:0:0:
405,115,44804,1,8,0:0:0:0:
405,115,44885,1,8,0:0:0:0:
405,115,44966,1,8,0:0:0:0:
405,115,45128,1,8,0:0:0:0:
405,115,45453,1,8,0:0:0:0:
405,115,45777,1,8,0:0:0:0:
405,115,45939,1,0,0:0:0:0:
405,115,46101,1,8,0:0:0:0:
405,115,46426,1,4,0:0:0:0:
405,115,46912,1,0,0:0:0:0:
405,115,47236,1,8,0:0:0:0:
405,115,47398,1,12,0:0:0:0:
405,115,47723,1,0,0:0:0:0:
405,115,48209,1,0,0:0:0:0:
405,115,48534,1,8,0:0:0:0:
405,115,48696,1,12,0:0:0:0:
405,115,49020,1,0,0:0:0:0:
385,118,49507,1,0,0:0:0:0:
385,118,49831,1,8,0:0:0:0:
385,118,49993,1,12,0:0:0:0:
369,125,50317,1,0,0:0:0:0:
374,119,50804,1,8,0:0:0:0:
374,119,51128,1,8,0:0:0:0:
374,119,51290,1,8,0:0:0:0:
374,119,51453,1,8,0:0:0:0:
374,119,51615,1,4,0:0:0:0:
374,119,51939,1,8,0:0:0:0:
374,119,52101,1,0,0:0:0:0:
374,119,52425,1,0,0:0:0:0:
374,119,52588,1,12,0:0:0:0:
374,119,52912,1,0,0:0:0:0:
374,119,53236,1,8,0:0:0:0:
374,119,53398,1,0,0:0:0:0:
374,119,53723,1,8,0:0:0:0:
374,119,53885,1,12,0:0:0:0:
374,119,54209,1,0,0:0:0:0:
370,113,54534,1,8,0:0:0:0:
370,113,54696,1,0,0:0:0:0:
370,113,55020,1,8,0:0:0:0:
370,113,55182,1,0,0:0:0:0:
370,113,55507,1,8,0:0:0:0:
383,109,55669,1,8,0:0:0:0:
383,109,55831,1,0,0:0:0:0:
383,109,55993,1,8,0:0:0:0:
383,109,56480,1,8,0:0:0:0:
383,109,56804,1,4,0:0:0:0:
379,102,57290,1,8,0:0:0:0:
379,102,57777,1,8,0:0:0:0:
379,102,58101,1,0,0:0:0:0:
379,102,58425,1,8,0:0:0:0:
379,102,58750,1,8,0:0:0:0:
379,102,58912,1,0,0:0:0:0:
379,102,59074,1,8,0:0:0:0:
379,102,59398,1,0,0:0:0:0:
379,102,59561,1,0,0:0:0:0:
379,102,59723,1,8,0:0:0:0:
379,102,59885,1,0,0:0:0:0:
379,102,60047,1,8,0:0:0:0:
379,102,60371,1,8,0:0:0:0:
387,86,60696,1,0,0:0:0:0:
387,86,60858,1,0,0:0:0:0:
387,86,61020,1,8,0:0:0:0:
373,97,61182,1,0,0:0:0:0:
387,86,61669,1,8,0:0:0:0:
392,89,61993,1,8,0:0:0:0:
396,102,62155,1,0,0:0:0:0:
395,96,62317,1,8,0:0:0:0:
395,108,62480,1,8,0:0:0:0:
395,95,62642,1,0,0:0:0:0:
395,95,62966,1,8,0:0:0:0:
395,96,63290,1,8,0:0:0:0:
395,95,63615,1,8,0:0:0:0:
395,95,63939,1,8,0:0:0:0:
384,95,64101,1,0,0:0:0:0:
395,96,64263,1,8,0:0:0:0:
395,95,64588,1,8,0:0:0:0:
395,95,64912,1,8,0:0:0:0:
395,95,65074,1,0,0:0:0:0:
395,96,65236,1,8,0:0:0:0:
395,95,65398,1,8,0:0:0:0:
395,95,65561,1,0,0:0:0:0:
395,95,65885,1,8,0:0:0:0:
395,95,66047,1,8,0:0:0:0:
395,96,66209,1,0,0:0:0:0:
395,95,66371,1,8,0:0:0:0:
395,95,66534,1,8,0:0:0:0:
395,95,66696,1,8,0:0:0:0:
367,147,66858,5,0,0:0:0:0:
367,147,67182,1,12,0:0:0:0:
367,147,67344,1,12,0:0:0:0:
367,147,67507,1,12,0:0:0:0:
367,147,67669,1,12,0:0:0:0:
367,147,67831,1,12,0:0:0:0:
367,147,67993,1,12,0:0:0:0:
367,147,68155,1,0,0:0:0:0:
383,154,68236,1,0,0:0:0:0:
367,147,68317,1,0,0:0:0:0:
370,159,68398,1,0,0:0:0:0:
367,147,68480,1,0,0:0:0:0:
418,136,69777,1,4,0:0:0:0:
405,125,69939,1,0,0:0:0:0:
418,136,70101,1,8,0:0:0:0:
418,136,70425,1,8,0:0:0:0:
418,136,70668,1,0,0:0:0:0:
418,136,70749,1,8,0:0:0:0:
418,136,70912,1,0,0:0:0:0:
418,136,71074,1,8,0:0:0:0:
442,143,71398,1,8,0:0:0:0:
442,143,71722,1,8,0:0:0:0:
442,143,71885,1,0,0:0:0:0:
442,143,72047,1,0,0:0:0:0:
442,143,72128,1,0,0:0:0:0:
442,143,72209,1,0,0:0:0:0:
448,146,72290,1,0,0:0:0:0:
442,143,72371,1,0,0:0:0:0:
442,143,72533,1,0,0:0:0:0:
442,143,72695,1,8,0:0:0:0:
442,143,73020,1,8,0:0:0:0:
442,143,73263,1,0,0:0:0:0:
442,143,73344,1,8,0:0:0:0:
442,143,73506,1,0,0:0:0:0:
442,143,73668,1,8,0:0:0:0:
442,143,73993,1,8,0:0:0:0:
442,143,74317,1,8,0:0:0:0:
442,143,74479,1,0,0:0:0:0:
442,143,74641,1,0,0:0:0:0:
442,143,74722,1,0,0:0:0:0:
442,143,74804,1,0,0:0:0:0:
442,143,74885,1,0,0:0:0:0:
442,143,74966,1,0,0:0:0:0:
427,122,75128,1,0,0:0:0:0:
442,143,75290,1,8,0:0:0:0:
442,143,75614,1,8,0:0:0:0:
442,143,75858,1,0,0:0:0:0:
442,143,75939,1,8,0:0:0:0:
442,143,76101,1,0,0:0:0:0:
442,143,76263,1,8,0:0:0:0:
442,143,76587,1,8,0:0:0:0:
442,143,76912,1,8,0:0:0:0:
442,143,77074,1,0,0:0:0:0:
442,143,77236,1,0,0:0:0:0:
442,143,77317,1,0,0:0:0:0:
442,143,77398,1,0,0:0:0:0:
442,143,77479,1,0,0:0:0:0:
442,143,77560,1,0,0:0:0:0:
442,143,77722,1,0,0:0:0:0:
442,143,77885,1,8,0:0:0:0:
442,143,78371,1,0,0:0:0:0:
442,143,78533,1,8,0:0:0:0:
442,143,78858,1,8,0:0:0:0:
442,143,79020,1,8,0:0:0:0:
442,143,79101,1,8,0:0:0:0:
442,143,79182,1,8,0:0:0:0:
442,143,79344,1,8,0:0:0:0:
442,143,79506,1,8,0:0:0:0:
442,143,79587,1,8,0:0:0:0:
442,143,79668,1,8,0:0:0:0:
442,143,79831,1,0,0:0:0:0:
442,143,79912,1,0,0:0:0:0:
442,143,79993,1,0,0:0:0:0:
442,143,80155,1,4,0:0:0:0:
442,143,80479,1,8,0:0:0:0:
453,144,80804,1,0,0:0:0:0:
442,143,80966,1,0,0:0:0:0:
442,143,81128,1,8,0:0:0:0:
442,143,81452,1,0,0:0:0:0:
442,143,81614,1,8,0:0:0:0:
442,143,81776,1,8,0:0:0:0:
442,143,82101,1,8,0:0:0:0:
442,143,82263,1,0,0:0:0:0:
442,143,82425,1,0,0:0:0:0:
442,143,82587,1,0,0:0:0:0:
457,133,82668,1,0,0:0:0:0:
442,143,82749,1,0,0:0:0:0:
433,149,83074,1,8,0:0:0:0:
433,149,83398,1,0,0:0:0:0:
433,149,83560,1,0,0:0:0:0:
433,149,83722,1,8,0:0:0:0:
433,149,84047,1,0,0:0:0:0:
433,149,84209,1,8,0:0:0:0:
433,149,84371,1,8,0:0:0:0:
433,149,84695,1,0,0:0:0:0:
409,143,84858,1,0,0:0:0:0:
433,149,85020,1,0,0:0:0:0:
469,142,85101,1,0,0:0:0:0:
433,149,85182,1,0,0:0:0:0:
433,149,85263,1,0,0:0:0:0:
433,149,85344,1,0,0:0:0:0:
452,139,85506,1,0,0:0:0:0:
413,147,85668,1,8,0:0:0:0:
412,146,86155,1,0,0:0:0:0:
413,147,86317,1,8,0:0:0:0:
413,147,86641,1,0,0:0:0:0:
414,135,86804,1,0,0:0:0:0:
413,147,86966,1,8,0:0:0:0:
412,146,87290,1,8,0:0:0:0:
413,147,87452,1,0,0:0:0:0:
413,147,87614,1,8,0:0:0:0:
413,147,87776,1,0,0:0:0:0:
405,133,87858,1,0,0:0:0:0:
413,147,87939,1,0,0:0:0:0:
412,146,88263,1,8,0:0:0:0:
413,147,88425,1,0,0:0:0:0:
413,147,88587,1,0,0:0:0:0:
404,156,88668,1,0,0:0:0:0:
413,147,88749,1,0,0:0:0:0:
413,147,88912,1,8,0:0:0:0:
412,146,89236,1,0,0:0:0:0:
404,136,89317,1,0,0:0:0:0:
413,147,89398,1,0,0:0:0:0:
413,147,89560,1,0,0:0:0:0:
413,147,89722,1,0,0:0:0:0:
413,147,89885,1,0,0:0:0:0:
413,147,89966,1,0,0:0:0:0:
412,146,90047,1,0,0:0:0:0:
412,146,90209,1,0,0:0:0:0:
393,124,90290,1,0,0:0:0:0:
413,134,90371,1,0,0:0:0:0:
413,147,90858,1,12,0:0:0:0:
412,146,91182,1,0,0:0:0:0:
413,147,91506,1,8,0:0:0:0:
413,147,91831,1,0,0:0:0:0:
413,147,91993,1,8,0:0:0:0:
412,146,92155,1,8,0:0:0:0:
413,147,92479,1,8,0:0:0:0:
413,147,92641,1,0,0:0:0:0:
413,147,92804,1,8,0:0:0:0:
413,147,92966,1,0,0:0:0:0:
412,146,93128,1,0,0:0:0:0:
413,147,93452,1,8,0:0:0:0:
413,147,93776,1,0,0:0:0:0:
412,146,94101,1,8,0:0:0:0:
413,147,94263,1,8,0:0:0:0:
413,147,94425,1,0,0:0:0:0:
413,147,94749,1,8,0:0:0:0:
413,147,94912,1,0,0:0:0:0:
412,146,95074,1,8,0:0:0:0:
413,147,95236,1,0,0:0:0:0:
413,147,95398,1,0,0:0:0:0:
413,147,95479,1,0,0:0:0:0:
413,147,95560,1,0,0:0:0:0:
406,143,95641,1,0,0:0:0:0:
406,136,96047,1,12,0:0:0:0:
407,136,96371,1,0,0:0:0:0:
407,136,96695,1,8,0:0:0:0:
406,136,97020,1,8,0:0:0:0:
407,136,97182,1,0,0:0:0:0:
407,136,97344,1,8,0:0:0:0:
407,136,97506,1,8,0:0:0:0:
407,136,97668,1,0,0:0:0:0:
406,136,97831,1,8,0:0:0:0:
406,136,97993,1,8,0:0:0:0:
407,136,98155,1,8,0:0:0:0:
407,136,98317,1,0,0:0:0:0:
406,136,99614,5,0,0:0:0:0:
413,137,100425,1,0,0:0:0:0:
406,136,100587,5,0,0:0:0:0:
406,136,100749,1,0,0:0:0:0:
407,136,100831,1,0,0:0:0:0:
407,136,100912,1,0,0:0:0:0:
407,136,101236,1,8,0:0:0:0:
406,136,101560,1,8,0:0:0:0:
397,132,101722,1,8,0:0:0:0:
407,136,101885,1,8,0:0:0:0:
407,136,102209,1,8,0:0:0:0:
406,136,102533,1,8,0:0:0:0:
407,136,102695,1,8,0:0:0:0:
407,136,102858,1,8,0:0:0:0:
407,136,103020,1,8,0:0:0:0:
407,136,103182,1,8,0:0:0:0:
406,136,103506,1,0,0:0:0:0:
406,136,103668,1,0,0:0:0:0:
407,136,103831,1,8,0:0:0:0:
407,136,103993,1,8,0:0:0:0:
407,136,104155,1,0,0:0:0:0:
382,141,104317,1,0,0:0:0:0:
406,136,104479,1,8,0:0:0:0:
406,136,104641,1,8,0:0:0:0:
407,136,104804,1,0,0:0:0:0:
399,129,104966,1,0,0:0:0:0:
391,131,105047,1,0,0:0:0:0:
399,129,105128,1,0,0:0:0:0:
407,136,105290,1,8,0:0:0:0:
426,138,105371,1,8,0:0:0:0:
418,131,105452,1,8,0:0:0:0:
406,136,105614,1,0,0:0:0:0:
417,131,105695,1,0,0:0:0:0:
444,160,105776,1,0,0:0:0:0:
407,136,105939,1,8,0:0:0:0:
407,136,106101,1,4,0:0:0:0:
401,131,106587,1,4,0:0:0:0:
401,131,107074,1,12,0:0:0:0:
404,131,108371,5,8,0:0:0:0:
404,131,108452,1,8,0:0:0:0:
404,131,108533,1,8,0:0:0:0:
404,131,108695,1,4,0:0:0:0:
395,133,109182,1,4,0:0:0:0:
410,132,109668,1,12,0:0:0:0:
397,136,111290,5,0,0:0:0:0:
395,133,111614,1,8,0:0:0:0:
372,132,111939,1,0,0:0:0:0:
372,132,112263,1,8,0:0:0:0:
378,130,112587,1,0,0:0:0:0:
378,130,112912,1,8,0:0:0:0:
378,130,113236,1,12,0:0:0:0:
378,130,113398,1,12,0:0:0:0:
378,130,113560,1,4,0:0:0:0:
