osu file format v14

[General]
AudioFilename: audio.mp3
AudioLeadIn: 0
PreviewTime: 69736
Countdown: 0
SampleSet: Normal
StackLeniency: 0.7
Mode: 1
LetterboxInBreaks: 0
WidescreenStoryboard: 1

[Editor]
DistanceSpacing: 0.8
BeatDivisor: 4
GridSize: 32
TimelineZoom: 2.3

[Metadata]
Title:HEAVENLY MOON
TitleUnicode:HEAVENLY MOON
Artist:Tatsh
ArtistUnicode:Tatsh
Creator:kanpakyin
Version:HEAVENLY MOON'S HEAVENLY MOON
Source:jubeat copious
Tags:CORE BEMANI KONAMI plus jukebeat pop'n music Sunny Park REFLEC BEAT limelight electronic instrumental ginjani video game videogame HEAVENLY MOON HEAVENLY_MOON Shimizu Tatsuya 清水達也 世阿彌 ぜあみ Zeami ost original soundtrack sound track
BeatmapID:3252110
BeatmapSetID:1592310

[Difficulty]
HPDrainRate:5.5
CircleSize:2
OverallDifficulty:6
ApproachRate:0
SliderMultiplier:1.4
SliderTickRate:1

[Events]
//Background and Video events
0,0,"BG.jpg",0,0
//Break Periods
//Storyboard Layer 0 (Background)
//Storyboard Layer 1 (Fail)
//Storyboard Layer 2 (Pass)
//Storyboard Layer 3 (Foreground)
//Storyboard Layer 4 (Overlay)
//Storyboard Sound Samples

[TimingPoints]
1021,324.324324324324,4,1,0,70,1,0
3075,-100,4,1,0,40,0,0
3588,-100,4,1,0,70,0,0
11584,-111.111111111111,4,1,0,60,0,0
24372,324.324324324324,4,1,0,80,1,0
45128,-100,4,1,0,40,0,0
46426,324.324324324324,4,1,0,80,1,0
69638,-100,4,1,0,90,0,0
69777,324.324324324324,4,1,0,90,1,1
69777,-90.9090909090909,4,1,0,90,0,1
90533,-90.9090909090909,4,1,0,70,0,0
90858,-90.9090909090909,4,1,0,90,0,1
95722,-90.9090909090909,4,1,0,70,0,0
96047,-90.9090909090909,4,1,0,90,0,1
98317,-90.9090909090909,4,1,0,90,0,0
100587,-88.8888888888889,4,1,0,90,0,0
100749,-86.9565217391304,4,1,0,90,0,0
100831,-85.1063829787234,4,1,0,90,0,0
100912,-83.3333333333333,4,1,0,90,0,1
106101,-83.3333333333333,4,1,0,90,0,0
106425,-90.9090909090909,4,1,0,80,0,0
111209,-90.9090909090909,4,1,0,80,0,0

[HitObjects]
256,192,1021,5,12,0:0:0:0:
256,192,1183,1,0,0:0:0:0:
256,192,1345,1,8,0:0:0:0:
256,192,1507,1,0,0:0:0:0:
256,192,1669,1,8,0:0:0:0:
256,192,1831,1,0,0:0:0:0:
256,192,1993,1,8,0:0:0:0:
256,192,2156,1,0,0:0:0:0:
256,192,2318,1,8,0:0:0:0:
256,192,2480,1,8,0:0:0:0:
256,192,2642,1,0,0:0:0:0:
256,192,2804,1,8,0:0:0:0:
256,192,3129,1,0,0:0:0:0:
256,192,3291,1,8,0:0:0:0:
256,192,3372,1,8,0:0:0:0:
256,192,3453,1,0,0:0:0:0:
256,192,3615,1,8,0:0:0:0:
256,192,3777,1,0,0:0:0:0:
256,192,3939,1,8,0:0:0:0:
256,192,4102,1,0,0:0:0:0:
256,192,4264,1,8,0:0:0:0:
256,192,4426,1,0,0:0:0:0:
256,192,4588,1,8,0:0:0:0:
256,192,4750,1,0,0:0:0:0:
256,192,4912,1,8,0:0:0:0:
256,192,5075,1,0,0:0:0:0:
256,192,5237,1,0,0:0:0:0:
256,192,5399,1,8,0:0:0:0:
256,192,5561,1,0,0:0:0:0:
256,192,5885,1,0,0:0:0:0:
256,192,6048,1,0,0:0:0:0:
256,192,6210,1,12,0:0:0:0:
256,192,6372,1,0,0:0:0:0:
256,192,6534,1,8,0:0:0:0:
256,192,6696,1,0,0:0:0:0:
256,192,6858,1,8,0:0:0:0:
256,192,7020,1,0,0:0:0:0:
256,192,7183,1,8,0:0:0:0:
256,192,7345,1,0,0:0:0:0:
256,192,7507,1,8,0:0:0:0:
256,192,7669,1,8,0:0:0:0:
256,192,7831,1,0,0:0:0:0:
256,192,7993,1,8,0:0:0:0:
256,192,8156,1,0,0:0:0:0:
256,192,8480,1,8,0:0:0:0:
256,192,8561,1,0,0:0:0:0:
256,192,8642,1,0,0:0:0:0:
256,192,8804,1,12,0:0:0:0:
256,192,8966,1,8,0:0:0:0:
256,192,9129,1,0,0:0:0:0:
256,192,9453,1,8,0:0:0:0:
256,192,9777,1,8,0:0:0:0:
256,192,9939,1,0,0:0:0:0:
256,192,10102,1,12,0:0:0:0:
256,192,10345,1,12,0:0:0:0:
256,192,10588,1,0,0:0:0:0:
256,192,10750,1,8,0:0:0:0:
256,192,10831,1,8,0:0:0:0:
256,192,10912,1,0,0:0:0:0:
256,192,10993,1,0,0:0:0:0:
256,192,11075,1,8,0:0:0:0:
256,192,11156,1,0,0:0:0:0:
256,192,11237,1,8,0:0:0:0:
256,192,11291,1,8,0:0:0:0:
256,192,11345,1,8,0:0:0:0:
256,192,11399,1,0,0:0:0:0:
256,192,11723,1,0,0:0:0:0:
256,192,12048,1,0,0:0:0:0:
256,192,12372,1,8,0:0:0:0:
256,192,12696,1,8,0:0:0:0:
256,192,14318,1,0,0:0:0:0:
256,192,14642,1,8,0:0:0:0:
256,192,14966,1,8,0:0:0:0:
256,192,15291,1,8,0:0:0:0:
256,192,15939,1,8,0:0:0:0:
256,192,16264,1,0,0:0:0:0:
256,192,16588,1,8,0:0:0:0:
256,192,17561,1,8,0:0:0:0:
256,192,17885,1,8,0:0:0:0:
256,192,19183,1,8,0:0:0:0:
256,192,20156,1,8,0:0:0:0:
256,192,20318,1,0,0:0:0:0:
256,192,20480,1,8,0:0:0:0:
256,192,21777,1,0,0:0:0:0:
256,192,21939,12,0,23075,0:0:0:0:
256,192,24372,5,12,0:0:0:0:
256,192,24615,1,0,0:0:0:0:
256,192,24696,1,8,0:0:0:0:
256,192,24858,1,0,0:0:0:0:
256,192,25020,1,8,0:0:0:0:
256,192,25263,1,8,0:0:0:0:
256,192,25344,1,0,0:0:0:0:
256,192,25507,1,0,0:0:0:0:
256,192,25669,1,8,0:0:0:0:
256,192,25912,1,0,0:0:0:0:
256,192,25993,1,8,0:0:0:0:
256,192,26155,1,0,0:0:0:0:
256,192,26317,1,8,0:0:0:0:
256,192,26480,1,0,0:0:0:0:
256,192,26642,1,8,0:0:0:0:
256,192,26723,1,8,0:0:0:0:
256,192,26804,1,0,0:0:0:0:
256,192,26966,1,8,0:0:0:0:
256,192,27209,1,8,0:0:0:0:
256,192,27290,1,0,0:0:0:0:
256,192,27453,1,8,0:0:0:0:
256,192,27615,1,8,0:0:0:0:
256,192,27858,1,0,0:0:0:0:
256,192,27939,1,8,0:0:0:0:
256,192,28101,1,0,0:0:0:0:
256,192,28263,1,8,0:0:0:0:
256,192,28426,1,0,0:0:0:0:
256,192,28507,1,0,0:0:0:0:
256,192,28588,1,8,0:0:0:0:
256,192,28750,1,0,0:0:0:0:
256,192,28912,1,8,0:0:0:0:
256,192,29074,1,8,0:0:0:0:
256,192,29236,1,0,0:0:0:0:
256,192,29399,1,0,0:0:0:0:
256,192,29480,1,8,0:0:0:0:
256,192,29561,1,8,0:0:0:0:
256,192,29804,1,8,0:0:0:0:
256,192,29885,1,0,0:0:0:0:
256,192,30047,1,0,0:0:0:0:
256,192,30209,1,8,0:0:0:0:
256,192,30453,1,0,0:0:0:0:
256,192,30534,1,8,0:0:0:0:
256,192,30696,1,0,0:0:0:0:
256,192,30858,1,8,0:0:0:0:
256,192,31101,1,8,0:0:0:0:
256,192,31182,1,0,0:0:0:0:
256,192,31344,1,0,0:0:0:0:
256,192,31507,1,8,0:0:0:0:
256,192,31588,1,8,0:0:0:0:
256,192,31669,1,0,0:0:0:0:
256,192,31831,1,8,0:0:0:0:
256,192,31993,1,0,0:0:0:0:
256,192,32155,1,8,0:0:0:0:
256,192,32317,1,8,0:0:0:0:
256,192,32480,1,0,0:0:0:0:
256,192,32804,1,8,0:0:0:0:
256,192,32966,1,0,0:0:0:0:
256,192,33128,1,8,0:0:0:0:
256,192,33209,1,8,0:0:0:0:
256,192,33290,1,0,0:0:0:0:
256,192,33371,1,0,0:0:0:0:
256,192,33453,1,8,0:0:0:0:
256,192,33615,1,0,0:0:0:0:
256,192,33777,1,8,0:0:0:0:
256,192,34101,1,8,0:0:0:0:
256,192,34263,1,0,0:0:0:0:
256,192,34426,1,8,0:0:0:0:
256,192,34507,1,0,0:0:0:0:
256,192,34588,1,8,0:0:0:0:
256,192,34669,1,0,0:0:0:0:
256,192,34750,1,8,0:0:0:0:
256,192,34912,1,0,0:0:0:0:
256,192,35074,1,0,0:0:0:0:
256,192,35236,1,8,0:0:0:0:
256,192,35561,1,0,0:0:0:0:
256,192,35723,1,8,0:0:0:0:
256,192,35885,1,0,0:0:0:0:
256,192,36047,1,8,0:0:0:0:
256,192,36128,1,0,0:0:0:0:
256,192,36209,1,8,0:0:0:0:
256,192,36371,1,0,0:0:0:0:
256,192,36534,1,8,0:0:0:0:
256,192,36858,1,0,0:0:0:0:
256,192,37020,1,8,0:0:0:0:
256,192,37101,1,8,0:0:0:0:
256,192,37182,1,0,0:0:0:0:
256,192,37344,1,8,0:0:0:0:
256,192,37507,1,0,0:0:0:0:
256,192,37669,1,0,0:0:0:0:
256,192,37831,1,8,0:0:0:0:
256,192,38155,1,0,0:0:0:0:
256,192,38317,1,8,0:0:0:0:
256,192,38480,1,0,0:0:0:0:
256,192,38642,1,8,0:0:0:0:
256,192,38723,1,0,0:0:0:0:
256,192,38804,1,0,0:0:0:0:
256,192,38885,1,0,0:0:0:0:
256,192,38966,1,8,0:0:0:0:
256,192,39128,1,0,0:0:0:0:
256,192,39290,1,8,0:0:0:0:
256,192,39371,1,0,0:0:0:0:
256,192,39453,1,8,0:0:0:0:
256,192,39615,1,8,0:0:0:0:
256,192,39777,1,0,0:0:0:0:
256,192,39858,1,0,0:0:0:0:
256,192,39939,1,8,0:0:0:0:
256,192,40101,1,0,0:0:0:0:
256,192,40263,1,0,0:0:0:0:
256,192,40426,1,8,0:0:0:0:
256,192,40750,1,0,0:0:0:0:
256,192,40912,1,8,0:0:0:0:
256,192,41074,1,0,0:0:0:0:
256,192,41236,1,8,0:0:0:0:
256,192,41317,1,0,0:0:0:0:
256,192,41399,1,0,0:0:0:0:
256,192,41561,1,0,0:0:0:0:
256,192,41723,1,8,0:0:0:0:
256,192,42047,1,0,0:0:0:0:
256,192,42209,1,8,0:0:0:0:
256,192,42290,1,8,0:0:0:0:
256,192,42371,1,0,0:0:0:0:
256,192,42534,1,8,0:0:0:0:
256,192,42696,1,8,0:0:0:0:
256,192,42858,1,8,0:0:0:0:
256,192,43020,1,8,0:0:0:0:
256,192,43182,1,0,0:0:0:0:
256,192,43344,1,0,0:0:0:0:
256,192,43507,1,0,0:0:0:0:
256,192,43669,1,0,0:0:0:0:
256,192,43831,1,8,0:0:0:0:
256,192,43993,1,0,0:0:0:0:
256,192,44155,1,8,0:0:0:0:
256,192,44317,1,0,0:0:0:0:
256,192,44480,1,8,0:0:0:0:
256,192,44561,1,8,0:0:0:0:
256,192,44642,1,0,0:0:0:0:
256,192,44723,1,0,0:0:0:0:
256,192,44804,1,8,0:0:0:0:
256,192,44885,1,0,0:0:0:0:
256,192,44966,1,8,0:0:0:0:
256,192,45047,1,8,0:0:0:0:
256,192,45128,1,0,0:0:0:0:
256,192,45453,1,0,0:0:0:0:
256,192,45777,1,8,0:0:0:0:
256,192,45939,1,0,0:0:0:0:
256,192,46020,1,0,0:0:0:0:
256,192,46101,1,8,0:0:0:0:
256,192,46426,1,12,0:0:0:0:
256,192,46588,1,0,0:0:0:0:
256,192,46750,1,0,0:0:0:0:
256,192,46912,1,8,0:0:0:0:
256,192,47236,1,0,0:0:0:0:
256,192,47398,1,8,0:0:0:0:
256,192,47723,1,8,0:0:0:0:
256,192,47885,1,8,0:0:0:0:
256,192,48047,1,0,0:0:0:0:
256,192,48209,1,8,0:0:0:0:
256,192,48534,1,0,0:0:0:0:
256,192,48696,1,8,0:0:0:0:
256,192,49020,1,8,0:0:0:0:
256,192,49182,1,0,0:0:0:0:
256,192,49344,1,8,0:0:0:0:
256,192,49507,1,8,0:0:0:0:
256,192,49831,1,0,0:0:0:0:
256,192,49993,1,8,0:0:0:0:
256,192,50317,1,8,0:0:0:0:
256,192,50480,1,0,0:0:0:0:
256,192,50642,1,8,0:0:0:0:
256,192,50804,1,8,0:0:0:0:
256,192,50966,1,0,0:0:0:0:
256,192,51128,1,8,0:0:0:0:
256,192,51290,1,8,0:0:0:0:
256,192,51453,1,0,0:0:0:0:
256,192,51615,1,8,0:0:0:0:
256,192,51777,1,0,0:0:0:0:
256,192,51939,1,8,0:0:0:0:
256,192,52101,1,8,0:0:0:0:
256,192,52425,1,0,0:0:0:0:
256,192,52588,1,8,0:0:0:0:
256,192,52912,1,0,0:0:0:0:
256,192,53074,1,0,0:0:0:0:
256,192,53236,1,8,0:0:0:0:
256,192,53398,1,0,0:0:0:0:
256,192,53723,1,8,0:0:0:0:
256,192,53885,1,8,0:0:0:0:
256,192,54209,1,0,0:0:0:0:
256,192,54371,1,0,0:0:0:0:
256,192,54534,1,8,0:0:0:0:
256,192,54696,1,0,0:0:0:0:
256,192,54858,1,8,0:0:0:0:
256,192,55020,1,8,0:0:0:0:
256,192,55182,1,0,0:0:0:0:
256,192,55344,1,0,0:0:0:0:
256,192,55507,1,8,0:0:0:0:
256,192,55669,1,8,0:0:0:0:
256,192,55831,1,0,0:0:0:0:
256,192,55993,1,8,0:0:0:0:
256,192,56317,1,0,0:0:0:0:
256,192,56480,1,8,0:0:0:0:
256,192,56642,1,0,0:0:0:0:
256,192,56804,1,12,0:0:0:0:
256,192,57128,1,0,0:0:0:0:
256,192,57290,1,8,0:0:0:0:
256,192,57615,1,0,0:0:0:0:
256,192,57777,1,8,0:0:0:0:
256,192,58101,1,0,0:0:0:0:
256,192,58425,1,8,0:0:0:0:
256,192,58588,1,0,0:0:0:0:
256,192,58912,1,0,0:0:0:0:
256,192,59074,1,8,0:0:0:0:
256,192,59398,1,0,0:0:0:0:
256,192,59561,1,0,0:0:0:0:
256,192,59723,1,8,0:0:0:0:
256,192,59885,1,0,0:0:0:0:
256,192,60209,1,0,0:0:0:0:
256,192,60371,1,8,0:0:0:0:
256,192,60696,1,0,0:0:0:0:
256,192,60858,1,8,0:0:0:0:
256,192,61020,1,8,0:0:0:0:
256,192,61182,1,0,0:0:0:0:
256,192,61507,1,8,0:0:0:0:
256,192,61669,1,0,0:0:0:0:
256,192,61750,1,0,0:0:0:0:
256,192,61831,1,0,0:0:0:0:
256,192,61993,1,8,0:0:0:0:
256,192,62074,1,8,0:0:0:0:
256,192,62155,1,8,0:0:0:0:
256,192,62317,1,0,0:0:0:0:
256,192,62480,1,8,0:0:0:0:
256,192,62561,1,8,0:0:0:0:
256,192,62642,1,0,0:0:0:0:
256,192,62804,1,8,0:0:0:0:
256,192,62966,1,8,0:0:0:0:
256,192,63047,1,0,0:0:0:0:
256,192,63128,1,0,0:0:0:0:
256,192,63290,1,8,0:0:0:0:
256,192,63453,1,8,0:0:0:0:
256,192,63534,1,8,0:0:0:0:
256,192,63615,1,0,0:0:0:0:
256,192,63777,1,0,0:0:0:0:
256,192,63939,1,8,0:0:0:0:
256,192,64020,1,0,0:0:0:0:
256,192,64101,1,8,0:0:0:0:
256,192,64263,1,0,0:0:0:0:
256,192,64425,1,8,0:0:0:0:
256,192,64507,1,8,0:0:0:0:
256,192,64588,1,8,0:0:0:0:
256,192,64750,1,8,0:0:0:0:
256,192,64912,1,0,0:0:0:0:
256,192,64993,1,8,0:0:0:0:
256,192,65074,1,0,0:0:0:0:
256,192,65236,1,0,0:0:0:0:
256,192,65398,1,8,0:0:0:0:
256,192,65480,1,8,0:0:0:0:
256,192,65561,1,0,0:0:0:0:
256,192,65723,1,0,0:0:0:0:
256,192,65885,1,8,0:0:0:0:
256,192,66047,1,8,0:0:0:0:
256,192,66209,1,0,0:0:0:0:
256,192,66371,1,0,0:0:0:0:
256,192,66534,1,8,0:0:0:0:
256,192,66696,1,0,0:0:0:0:
256,192,66858,1,8,0:0:0:0:
256,192,67020,1,0,0:0:0:0:
256,192,67182,1,12,0:0:0:0:
256,192,67344,1,12,0:0:0:0:
256,192,67507,1,12,0:0:0:0:
256,192,67669,1,12,0:0:0:0:
256,192,67831,1,12,0:0:0:0:
256,192,67993,1,12,0:0:0:0:
256,192,68155,1,0,0:0:0:0:
256,192,68236,1,0,0:0:0:0:
256,192,68317,1,0,0:0:0:0:
256,192,68398,1,0,0:0:0:0:
256,192,68480,1,8,0:0:0:0:
256,192,69777,1,12,0:0:0:0:
256,192,69939,1,0,0:0:0:0:
256,192,70101,1,8,0:0:0:0:
256,192,70182,1,8,0:0:0:0:
256,192,70263,1,0,0:0:0:0:
256,192,70425,1,8,0:0:0:0:
256,192,70587,1,0,0:0:0:0:
256,192,70668,1,0,0:0:0:0:
256,192,70749,1,8,0:0:0:0:
256,192,70831,1,8,0:0:0:0:
256,192,70912,1,0,0:0:0:0:
256,192,71074,1,8,0:0:0:0:
256,192,71236,1,8,0:0:0:0:
256,192,71398,1,0,0:0:0:0:
256,192,71560,1,0,0:0:0:0:
256,192,71722,1,8,0:0:0:0:
256,192,71885,1,0,0:0:0:0:
256,192,71966,1,0,0:0:0:0:
256,192,72047,1,8,0:0:0:0:
256,192,72128,1,8,0:0:0:0:
256,192,72209,1,8,0:0:0:0:
256,192,72290,1,8,0:0:0:0:
256,192,72371,1,0,0:0:0:0:
256,192,72533,1,0,0:0:0:0:
256,192,72695,1,8,0:0:0:0:
256,192,72777,1,0,0:0:0:0:
256,192,72858,1,0,0:0:0:0:
256,192,73020,1,8,0:0:0:0:
256,192,73101,1,8,0:0:0:0:
256,192,73182,1,0,0:0:0:0:
256,192,73263,1,0,0:0:0:0:
256,192,73344,1,8,0:0:0:0:
256,192,73506,1,0,0:0:0:0:
256,192,73668,1,8,0:0:0:0:
256,192,73831,1,0,0:0:0:0:
256,192,73993,1,8,0:0:0:0:
256,192,74074,1,8,0:0:0:0:
256,192,74155,1,0,0:0:0:0:
256,192,74317,1,8,0:0:0:0:
256,192,74479,1,0,0:0:0:0:
256,192,74560,1,0,0:0:0:0:
256,192,74641,1,8,0:0:0:0:
256,192,74722,1,0,0:0:0:0:
256,192,74804,1,8,0:0:0:0:
256,192,74885,1,8,0:0:0:0:
256,192,74966,1,0,0:0:0:0:
256,192,75128,1,0,0:0:0:0:
256,192,75290,1,0,0:0:0:0:
256,192,75371,1,8,0:0:0:0:
256,192,75452,1,0,0:0:0:0:
288,192,75614,1,8,0:0:0:0:
288,192,75695,1,8,0:0:0:0:
288,192,75777,1,0,0:0:0:0:
288,192,75858,1,8,0:0:0:0:
288,192,75939,1,8,0:0:0:0:
288,192,76101,1,0,0:0:0:0:
288,192,76263,1,8,0:0:0:0:
288,192,76425,1,0,0:0:0:0:
288,192,76587,1,8,0:0:0:0:
288,192,76668,1,0,0:0:0:0:
288,192,76749,1,0,0:0:0:0:
288,192,76912,1,8,0:0:0:0:
288,192,77074,1,0,0:0:0:0:
288,192,77155,1,0,0:0:0:0:
288,192,77236,1,8,0:0:0:0:
288,192,77317,1,0,0:0:0:0:
288,192,77398,1,8,0:0:0:0:
288,192,77479,1,0,0:0:0:0:
288,192,77560,1,8,0:0:0:0:
288,192,77722,1,0,0:0:0:0:
288,192,77885,1,8,0:0:0:0:
288,192,77966,1,8,0:0:0:0:
288,192,78047,1,0,0:0:0:0:
288,192,78209,1,8,0:0:0:0:
288,192,78290,1,8,0:0:0:0:
288,192,78371,1,8,0:0:0:0:
288,192,78533,1,8,0:0:0:0:
288,192,78695,1,0,0:0:0:0:
288,192,78858,1,8,0:0:0:0:
256,192,78939,1,0,0:0:0:0:
256,224,79020,1,8,0:0:0:0:
256,224,79101,1,0,0:0:0:0:
256,192,79182,1,8,0:0:0:0:
256,224,79263,1,8,0:0:0:0:
256,224,79344,1,8,0:0:0:0:
256,224,79425,1,0,0:0:0:0:
256,224,79506,1,8,0:0:0:0:
256,224,79587,1,8,0:0:0:0:
256,192,79668,1,0,0:0:0:0:
256,224,79749,1,8,0:0:0:0:
256,224,79831,1,0,0:0:0:0:
256,224,79912,1,0,0:0:0:0:
256,224,79993,1,8,0:0:0:0:
256,224,80074,1,0,0:0:0:0:
256,224,80155,1,8,0:0:0:0:
256,192,80317,1,8,0:0:0:0:
256,192,80479,1,0,0:0:0:0:
256,192,80641,1,8,0:0:0:0:
256,192,80722,1,0,0:0:0:0:
256,192,80804,1,8,0:0:0:0:
256,192,80966,1,0,0:0:0:0:
256,192,81128,1,8,0:0:0:0:
256,192,81209,1,8,0:0:0:0:
256,192,81290,1,0,0:0:0:0:
256,192,81452,1,0,0:0:0:0:
256,192,81614,1,8,0:0:0:0:
256,192,81695,1,0,0:0:0:0:
256,192,81776,1,0,0:0:0:0:
256,192,81939,1,8,0:0:0:0:
256,192,82101,1,0,0:0:0:0:
256,192,82182,1,8,0:0:0:0:
256,192,82263,1,0,0:0:0:0:
256,192,82425,1,8,0:0:0:0:
256,192,82506,1,0,0:0:0:0:
256,192,82587,1,0,0:0:0:0:
256,192,82668,1,0,0:0:0:0:
256,224,82749,1,8,0:0:0:0:
256,192,82912,1,8,0:0:0:0:
256,192,83074,1,0,0:0:0:0:
256,192,83236,1,8,0:0:0:0:
256,192,83317,1,8,0:0:0:0:
256,192,83398,1,0,0:0:0:0:
256,192,83560,1,0,0:0:0:0:
256,192,83641,1,0,0:0:0:0:
256,192,83722,1,8,0:0:0:0:
256,192,83804,1,8,0:0:0:0:
256,192,83885,1,0,0:0:0:0:
256,192,84047,1,0,0:0:0:0:
256,192,84209,1,0,0:0:0:0:
256,192,84290,1,0,0:0:0:0:
256,192,84371,1,8,0:0:0:0:
256,192,84533,1,0,0:0:0:0:
256,192,84695,1,8,0:0:0:0:
256,192,84858,1,0,0:0:0:0:
256,192,85020,1,8,0:0:0:0:
256,192,85101,1,8,0:0:0:0:
256,192,85182,1,8,0:0:0:0:
256,224,85263,1,8,0:0:0:0:
256,192,85344,1,0,0:0:0:0:
256,192,85506,1,0,0:0:0:0:
256,192,85668,1,8,0:0:0:0:
256,192,85831,1,0,0:0:0:0:
256,192,85912,1,8,0:0:0:0:
256,192,85993,1,8,0:0:0:0:
256,192,86155,1,0,0:0:0:0:
256,192,86317,1,8,0:0:0:0:
256,192,86398,1,0,0:0:0:0:
256,192,86479,1,0,0:0:0:0:
256,192,86641,1,0,0:0:0:0:
256,192,86804,1,8,0:0:0:0:
256,192,86885,1,8,0:0:0:0:
256,192,86966,1,0,0:0:0:0:
256,192,87128,1,0,0:0:0:0:
256,192,87290,1,8,0:0:0:0:
256,192,87371,1,0,0:0:0:0:
256,192,87452,1,8,0:0:0:0:
256,192,87614,1,0,0:0:0:0:
256,192,87695,1,0,0:0:0:0:
256,192,87776,1,8,0:0:0:0:
256,192,87858,1,8,0:0:0:0:
256,192,87939,1,0,0:0:0:0:
256,192,88101,1,0,0:0:0:0:
256,192,88263,1,8,0:0:0:0:
256,192,88425,1,8,0:0:0:0:
256,192,88506,1,0,0:0:0:0:
256,192,88587,1,8,0:0:0:0:
256,192,88668,1,8,0:0:0:0:
256,192,88749,1,0,0:0:0:0:
256,192,88831,1,8,0:0:0:0:
256,192,88912,1,0,0:0:0:0:
256,192,88993,1,0,0:0:0:0:
256,192,89074,1,8,0:0:0:0:
256,192,89236,1,8,0:0:0:0:
256,192,89317,1,0,0:0:0:0:
256,192,89398,1,8,0:0:0:0:
256,192,89479,1,8,0:0:0:0:
256,192,89560,1,0,0:0:0:0:
256,192,89641,1,8,0:0:0:0:
256,192,89722,1,0,0:0:0:0:
256,192,89804,1,0,0:0:0:0:
256,192,89885,1,8,0:0:0:0:
256,192,89966,1,0,0:0:0:0:
256,192,90047,1,8,0:0:0:0:
256,192,90128,1,0,0:0:0:0:
256,192,90209,1,8,0:0:0:0:
256,192,90290,1,8,0:0:0:0:
256,192,90371,1,8,0:0:0:0:
256,192,90452,1,8,0:0:0:0:
256,192,90533,1,0,0:0:0:0:
256,192,90695,1,0,0:0:0:0:
256,192,90858,1,12,0:0:0:0:
256,192,91020,1,0,0:0:0:0:
256,192,91101,1,0,0:0:0:0:
256,192,91182,1,8,0:0:0:0:
256,192,91344,1,0,0:0:0:0:
256,192,91506,1,8,0:0:0:0:
256,192,91587,1,8,0:0:0:0:
256,192,91668,1,0,0:0:0:0:
256,192,91749,1,0,0:0:0:0:
256,192,91831,1,8,0:0:0:0:
256,192,91993,1,8,0:0:0:0:
256,192,92074,1,0,0:0:0:0:
256,192,92155,1,8,0:0:0:0:
256,192,92236,1,8,0:0:0:0:
256,192,92317,1,0,0:0:0:0:
256,192,92479,1,8,0:0:0:0:
256,192,92560,1,8,0:0:0:0:
256,192,92641,1,0,0:0:0:0:
256,192,92722,1,0,0:0:0:0:
256,192,92804,1,8,0:0:0:0:
256,192,92885,1,0,0:0:0:0:
256,192,92966,1,8,0:0:0:0:
256,192,93047,1,0,0:0:0:0:
256,192,93128,1,8,0:0:0:0:
256,192,93290,1,0,0:0:0:0:
256,192,93452,1,8,0:0:0:0:
256,192,93533,1,8,0:0:0:0:
256,192,93614,1,0,0:0:0:0:
276,190,93695,1,0,0:0:0:0:
256,192,93776,1,8,0:0:0:0:
256,192,93939,1,0,0:0:0:0:
288,192,94101,1,8,0:0:0:0:
276,190,94182,1,0,0:0:0:0:
288,192,94263,1,0,0:0:0:0:
288,192,94425,1,8,0:0:0:0:
256,192,94587,1,0,0:0:0:0:
256,192,94749,1,0,0:0:0:0:
288,192,94831,1,8,0:0:0:0:
288,192,94912,1,0,0:0:0:0:
288,192,95074,1,8,0:0:0:0:
288,192,95155,1,0,0:0:0:0:
288,192,95236,1,0,0:0:0:0:
288,192,95317,1,0,0:0:0:0:
288,192,95398,1,8,0:0:0:0:
288,192,95479,1,8,0:0:0:0:
288,192,95560,1,8,0:0:0:0:
288,192,95641,1,8,0:0:0:0:
288,192,95722,1,0,0:0:0:0:
256,192,95885,1,0,0:0:0:0:
320,192,96047,1,12,0:0:0:0:
256,192,96209,1,0,0:0:0:0:
256,192,96371,1,8,0:0:0:0:
256,192,96452,1,8,0:0:0:0:
256,192,96533,1,0,0:0:0:0:
256,192,96695,1,8,0:0:0:0:
256,192,96776,1,8,0:0:0:0:
256,192,96858,1,0,0:0:0:0:
256,192,96939,1,0,0:0:0:0:
256,192,97020,1,8,0:0:0:0:
248,192,97101,1,0,0:0:0:0:
256,192,97182,1,8,0:0:0:0:
256,192,97344,1,0,0:0:0:0:
256,192,97425,1,0,0:0:0:0:
256,192,97506,1,8,0:0:0:0:
256,192,97668,1,8,0:0:0:0:
256,192,97831,1,0,0:0:0:0:
256,192,97993,1,8,0:0:0:0:
256,192,98074,1,0,0:0:0:0:
256,192,98155,1,0,0:0:0:0:
256,192,98236,1,0,0:0:0:0:
256,192,98317,1,8,0:0:0:0:
256,192,98479,12,0,99452,0:0:0:0:
256,192,99614,5,0,0:0:0:0:
256,192,100263,1,8,0:0:0:0:
256,192,100425,1,0,0:0:0:0:
256,192,100587,5,8,0:0:0:0:
256,192,100749,1,0,0:0:0:0:
256,192,100831,1,0,0:0:0:0:
256,192,100912,1,8,0:0:0:0:
256,192,101074,1,8,0:0:0:0:
256,192,101236,1,8,0:0:0:0:
256,192,101398,1,8,0:0:0:0:
256,192,101560,1,8,0:0:0:0:
256,192,101722,1,8,0:0:0:0:
256,192,101885,1,8,0:0:0:0:
256,192,102047,1,8,0:0:0:0:
256,192,102209,1,8,0:0:0:0:
256,192,102371,1,8,0:0:0:0:
256,192,102533,1,8,0:0:0:0:
256,192,102695,1,8,0:0:0:0:
256,192,102858,1,8,0:0:0:0:
256,192,103020,1,8,0:0:0:0:
256,192,103182,1,8,0:0:0:0:
256,192,103344,1,8,0:0:0:0:
256,192,103506,1,0,0:0:0:0:
256,192,103668,1,0,0:0:0:0:
256,192,103831,1,0,0:0:0:0:
256,192,103993,1,0,0:0:0:0:
256,192,104155,1,0,0:0:0:0:
256,192,104317,1,0,0:0:0:0:
256,192,104479,1,0,0:0:0:0:
256,192,104641,1,0,0:0:0:0:
256,192,104804,1,8,0:0:0:0:
256,192,104966,1,0,0:0:0:0:
256,192,105128,1,8,0:0:0:0:
256,192,105209,1,8,0:0:0:0:
256,192,105290,1,0,0:0:0:0:
256,192,105371,1,0,0:0:0:0:
256,192,105452,1,8,0:0:0:0:
256,192,105533,1,8,0:0:0:0:
256,192,105614,1,0,0:0:0:0:
256,192,105695,1,0,0:0:0:0:
256,192,105776,1,8,0:0:0:0:
256,192,105831,1,8,0:0:0:0:
256,192,105885,1,8,0:0:0:0:
256,192,105939,1,0,0:0:0:0:
256,192,106020,1,0,0:0:0:0:
256,192,106101,1,12,0:0:0:0:
256,192,106425,1,0,0:0:0:0:
256,192,106587,1,8,0:0:0:0:
256,192,106912,1,0,0:0:0:0:
256,192,107074,1,12,0:0:0:0:
256,192,107722,1,8,0:0:0:0:
256,192,108371,1,0,0:0:0:0:
256,192,108452,1,0,0:0:0:0:
256,192,108533,1,0,0:0:0:0:
256,192,108614,1,0,0:0:0:0:
256,192,108695,1,12,0:0:0:0:
256,192,109020,1,0,0:0:0:0:
256,192,109182,1,8,0:0:0:0:
256,192,109506,1,0,0:0:0:0:
256,192,109668,1,12,0:0:0:0:
256,192,110317,1,8,0:0:0:0:
256,192,110966,1,8,0:0:0:0:
256,192,111290,1,0,0:0:0:0:
256,192,111614,1,8,0:0:0:0:
256,192,111939,1,0,0:0:0:0:
256,192,112263,1,8,0:0:0:0:
256,192,112587,1,0,0:0:0:0:
256,192,112912,1,8,0:0:0:0:
256,192,113236,1,12,0:0:0:0:
256,192,113398,1,12,0:0:0:0:
256,192,113560,1,4,0:0:0:0:
