osu file format v14

[General]
AudioFilename: audio.mp3
AudioLeadIn: 0
PreviewTime: 69736
Countdown: 0
SampleSet: Normal
StackLeniency: 0.7
Mode: 1
LetterboxInBreaks: 0
WidescreenStoryboard: 1

[Editor]
Bookmarks: 24372,26804,52588,69777,90858,99614
DistanceSpacing: 0.8
BeatDivisor: 4
GridSize: 8
TimelineZoom: 1.499999

[Metadata]
Title:HEAVENLY MOON
TitleUnicode:HEAVENLY MOON
Artist:Tatsh
ArtistUnicode:Tatsh
Creator:kanpakyin
Version:FUTSUU
Source:jubeat copious
Tags:CORE BEMANI KONAMI plus jukebeat pop'n music Sunny Park REFLEC BEAT limelight electronic instrumental ginjani video game videogame HEAVENLY MOON HEAVENLY_MOON Shimizu Tatsuya 清水達也 世阿彌 ぜあみ Zeami ost original soundtrack sound track
BeatmapID:3285005
BeatmapSetID:1592310

[Difficulty]
HPDrainRate:7
CircleSize:5
OverallDifficulty:4.5
ApproachRate:5
SliderMultiplier:1.4
SliderTickRate:1

[Events]
//Background and Video events
0,0,"BG.jpg",0,0
//Break Periods
//Storyboard Layer 0 (Background)
//Storyboard Layer 1 (Fail)
//Storyboard Layer 2 (Pass)
//Storyboard Layer 3 (Foreground)
//Storyboard Layer 4 (Overlay)
//Storyboard Sound Samples

[TimingPoints]
1021,324.324324324324,4,1,1,50,1,0
11723,-100,4,1,1,30,0,0
24372,324.324324324324,4,1,1,60,1,0
45129,-100,4,1,1,30,0,0
46426,324.324324324324,4,1,1,60,1,0
68155,-100,4,1,1,40,0,0
69777,324.324324324324,4,1,1,70,1,0
69777,-100,4,1,1,70,0,1
90452,-100,4,1,1,70,0,0
90858,-100,4,1,1,70,0,1
95641,-100,4,1,1,70,0,0
96047,-100,4,1,1,70,0,1
98317,-100,4,1,1,70,0,0

[Colours]
Combo1 : 128,150,255
Combo2 : 255,0,0

[HitObjects]
444,210,1021,5,0,0:0:0:0:
444,210,1345,1,0,0:0:0:0:
439,202,1669,1,0,0:0:0:0:
439,202,1993,1,0,0:0:0:0:
449,204,2318,1,0,0:0:0:0:
449,204,2642,1,0,0:0:0:0:
449,204,2804,1,8,0:0:0:0:
440,193,3615,1,0,0:0:0:0:
440,193,3939,1,0,0:0:0:0:
440,193,4264,1,0,0:0:0:0:
440,193,4588,1,0,0:0:0:0:
440,193,4912,1,0,0:0:0:0:
440,193,5237,1,0,0:0:0:0:
440,193,5399,1,8,0:0:0:0:
428,196,6210,1,0,0:0:0:0:
428,196,6534,1,0,0:0:0:0:
428,196,6858,1,0,0:0:0:0:
428,196,7183,1,0,0:0:0:0:
428,196,7507,1,0,0:0:0:0:
428,196,7831,1,0,0:0:0:0:
428,196,7993,1,8,0:0:0:0:
428,196,8804,1,0,0:0:0:0:
428,196,8966,1,0,0:0:0:0:
428,196,9129,1,8,0:0:0:0:
428,196,9453,1,8,0:0:0:0:
428,196,9777,1,8,0:0:0:0:
428,196,9939,1,8,0:0:0:0:
428,196,10102,1,0,0:0:0:0:
428,196,10588,1,0,0:0:0:0:
428,196,10750,1,0,0:0:0:0:
427,184,10912,1,0,0:0:0:0:
428,196,11075,1,8,0:0:0:0:
428,196,11237,1,0,0:0:0:0:
428,196,11399,1,0,0:0:0:0:
413,181,11723,1,0,0:0:0:0:
413,181,12048,1,0,0:0:0:0:
413,181,12372,1,8,0:0:0:0:
413,181,12696,1,0,0:0:0:0:
413,181,14318,1,0,0:0:0:0:
413,181,14642,1,8,0:0:0:0:
413,181,14966,1,8,0:0:0:0:
413,181,15291,1,8,0:0:0:0:
413,181,15939,1,8,0:0:0:0:
413,181,16264,1,8,0:0:0:0:
413,181,16588,1,8,0:0:0:0:
413,181,17561,1,8,0:0:0:0:
413,181,17885,1,8,0:0:0:0:
403,186,19183,1,8,0:0:0:0:
408,184,20156,1,8,0:0:0:0:
418,190,20318,1,8,0:0:0:0:
418,190,20480,1,8,0:0:0:0:
396,186,21777,1,8,0:0:0:0:
388,135,24372,1,4,0:0:0:0:
388,135,24696,1,0,0:0:0:0:
387,154,24858,1,0,0:0:0:0:
387,154,25020,1,8,0:0:0:0:
376,134,25344,1,0,0:0:0:0:
387,154,25507,1,8,0:0:0:0:
387,154,25669,1,0,0:0:0:0:
384,135,25993,1,0,0:0:0:0:
380,139,26155,1,0,0:0:0:0:
380,139,26317,1,8,0:0:0:0:
372,133,26642,1,0,0:0:0:0:
380,139,26966,1,8,0:0:0:0:
382,133,27453,1,0,0:0:0:0:
382,133,27615,1,8,0:0:0:0:
382,133,27939,1,0,0:0:0:0:
382,133,28101,1,8,0:0:0:0:
382,133,28263,1,0,0:0:0:0:
382,133,28426,1,0,0:0:0:0:
382,133,28588,1,0,0:0:0:0:
382,133,28912,1,0,0:0:0:0:
382,133,29074,1,8,0:0:0:0:
382,133,29236,1,8,0:0:0:0:
395,122,29399,1,0,0:0:0:0:
382,133,29561,1,0,0:0:0:0:
401,130,30209,1,8,0:0:0:0:
401,130,30534,1,8,0:0:0:0:
401,130,30696,1,0,0:0:0:0:
401,130,30858,1,8,0:0:0:0:
401,130,31182,1,0,0:0:0:0:
401,130,31344,1,0,0:0:0:0:
401,130,31507,1,8,0:0:0:0:
401,130,31831,1,8,0:0:0:0:
401,130,32155,1,8,0:0:0:0:
401,130,32317,1,0,0:0:0:0:
401,130,32480,1,0,0:0:0:0:
401,130,32804,1,0,0:0:0:0:
400,122,32966,1,0,0:0:0:0:
400,122,33128,1,0,0:0:0:0:
400,117,33453,1,8,0:0:0:0:
403,115,33615,1,0,0:0:0:0:
400,117,33777,1,8,0:0:0:0:
400,122,34101,1,8,0:0:0:0:
400,117,34750,1,4,0:0:0:0:
400,117,35236,1,8,0:0:0:0:
400,117,35723,1,8,0:0:0:0:
400,117,36047,1,8,0:0:0:0:
400,117,36534,1,8,0:0:0:0:
400,117,37020,1,8,0:0:0:0:
407,99,37182,1,0,0:0:0:0:
400,117,37344,1,8,0:0:0:0:
400,117,38317,1,8,0:0:0:0:
400,117,38642,1,8,0:0:0:0:
400,117,38804,1,8,0:0:0:0:
400,117,38966,1,0,0:0:0:0:
400,117,39290,1,8,0:0:0:0:
400,117,39453,1,0,0:0:0:0:
400,117,39615,1,0,0:0:0:0:
400,117,39777,1,0,0:0:0:0:
400,117,39939,1,4,0:0:0:0:
400,117,40426,1,8,0:0:0:0:
400,117,40912,1,8,0:0:0:0:
405,115,41236,1,0,0:0:0:0:
405,115,41723,1,8,0:0:0:0:
397,128,42209,1,8,0:0:0:0:
405,115,42534,1,0,0:0:0:0:
405,115,42858,1,0,0:0:0:0:
405,115,43182,1,0,0:0:0:0:
405,115,43344,1,0,0:0:0:0:
405,115,43507,1,0,0:0:0:0:
405,115,43831,1,8,0:0:0:0:
405,115,44155,1,8,0:0:0:0:
405,115,44317,1,0,0:0:0:0:
405,115,44480,1,8,0:0:0:0:
405,115,45128,1,8,0:0:0:0:
405,115,45453,1,8,0:0:0:0:
405,115,45777,1,8,0:0:0:0:
405,115,46101,1,8,0:0:0:0:
405,115,46426,1,4,0:0:0:0:
405,115,46750,1,8,0:0:0:0:
405,115,46912,1,0,0:0:0:0:
405,115,47398,1,12,0:0:0:0:
405,115,47723,1,0,0:0:0:0:
405,115,48047,1,8,0:0:0:0:
405,115,48209,1,0,0:0:0:0:
405,115,48696,1,12,0:0:0:0:
405,115,49020,1,0,0:0:0:0:
385,118,49344,1,8,0:0:0:0:
385,118,49507,1,0,0:0:0:0:
385,118,49993,1,12,0:0:0:0:
369,125,50317,1,0,0:0:0:0:
374,119,51128,1,8,0:0:0:0:
374,119,51290,1,8,0:0:0:0:
374,119,51453,1,8,0:0:0:0:
374,119,51615,1,4,0:0:0:0:
374,119,51939,1,8,0:0:0:0:
374,119,52101,1,0,0:0:0:0:
374,119,52588,1,12,0:0:0:0:
374,119,52912,1,0,0:0:0:0:
374,119,53236,1,8,0:0:0:0:
374,119,53398,1,0,0:0:0:0:
374,119,53885,1,12,0:0:0:0:
374,119,54209,1,0,0:0:0:0:
370,113,54534,1,8,0:0:0:0:
370,113,54696,1,0,0:0:0:0:
370,113,55020,1,8,0:0:0:0:
370,113,55182,1,0,0:0:0:0:
370,113,55507,1,8,0:0:0:0:
383,109,55669,1,0,0:0:0:0:
383,109,55831,1,0,0:0:0:0:
383,109,55993,1,8,0:0:0:0:
383,109,56480,1,8,0:0:0:0:
383,109,56804,1,4,0:0:0:0:
379,102,57290,1,8,0:0:0:0:
379,102,57777,1,8,0:0:0:0:
373,122,58101,1,0,0:0:0:0:
379,102,58750,1,0,0:0:0:0:
379,102,59074,1,8,0:0:0:0:
379,102,59398,1,0,0:0:0:0:
379,102,59561,1,0,0:0:0:0:
379,102,59723,1,8,0:0:0:0:
379,102,60047,1,0,0:0:0:0:
379,102,60371,1,8,0:0:0:0:
387,86,60696,1,0,0:0:0:0:
387,86,60858,1,0,0:0:0:0:
387,86,61020,1,8,0:0:0:0:
387,86,61669,1,8,0:0:0:0:
392,89,61993,1,8,0:0:0:0:
396,102,62155,1,0,0:0:0:0:
395,96,62317,1,8,0:0:0:0:
395,95,62642,1,0,0:0:0:0:
395,95,62966,1,8,0:0:0:0:
395,96,63290,1,0,0:0:0:0:
395,95,63615,1,8,0:0:0:0:
395,95,63939,1,8,0:0:0:0:
384,95,64101,1,0,0:0:0:0:
395,96,64263,1,8,0:0:0:0:
395,95,64588,1,8,0:0:0:0:
395,95,64912,1,8,0:0:0:0:
395,96,65236,1,8,0:0:0:0:
395,95,65398,1,8,0:0:0:0:
395,95,65561,1,0,0:0:0:0:
395,95,65885,1,8,0:0:0:0:
395,95,66047,1,8,0:0:0:0:
395,96,66209,1,0,0:0:0:0:
395,95,66534,1,8,0:0:0:0:
395,95,66696,1,8,0:0:0:0:
367,147,66858,5,0,0:0:0:0:
367,147,67182,1,12,0:0:0:0:
367,147,67507,1,12,0:0:0:0:
367,147,67831,1,12,0:0:0:0:
367,147,67993,1,12,0:0:0:0:
367,147,68155,1,0,0:0:0:0:
367,147,68480,1,0,0:0:0:0:
418,136,69777,1,4,0:0:0:0:
418,136,70101,1,8,0:0:0:0:
418,136,70425,1,8,0:0:0:0:
418,136,70749,1,8,0:0:0:0:
418,136,70912,1,0,0:0:0:0:
418,136,71074,1,8,0:0:0:0:
442,143,71398,1,8,0:0:0:0:
442,143,71722,1,8,0:0:0:0:
445,139,71885,1,0,0:0:0:0:
442,143,72047,1,0,0:0:0:0:
442,143,72209,1,0,0:0:0:0:
442,143,72371,1,0,0:0:0:0:
442,143,72695,1,8,0:0:0:0:
442,143,73020,1,8,0:0:0:0:
442,143,73344,1,8,0:0:0:0:
442,143,73506,1,0,0:0:0:0:
442,143,73668,1,8,0:0:0:0:
442,143,73993,1,8,0:0:0:0:
442,143,74317,1,8,0:0:0:0:
442,143,74479,1,0,0:0:0:0:
442,143,74641,1,0,0:0:0:0:
442,143,74804,1,0,0:0:0:0:
442,143,74966,1,0,0:0:0:0:
442,143,75290,1,8,0:0:0:0:
412,127,75452,1,0,0:0:0:0:
442,143,75614,1,8,0:0:0:0:
442,143,75939,1,8,0:0:0:0:
442,143,76263,1,8,0:0:0:0:
442,143,76587,1,8,0:0:0:0:
405,125,76749,1,0,0:0:0:0:
442,143,76912,1,8,0:0:0:0:
442,143,77560,1,0,0:0:0:0:
442,143,77722,1,0,0:0:0:0:
442,143,77885,1,8,0:0:0:0:
442,143,78209,1,0,0:0:0:0:
442,143,78371,1,0,0:0:0:0:
442,143,78533,1,8,0:0:0:0:
442,143,78858,1,8,0:0:0:0:
442,143,79020,1,0,0:0:0:0:
442,143,79182,1,8,0:0:0:0:
442,143,79506,1,0,0:0:0:0:
442,143,79668,1,0,0:0:0:0:
442,143,79831,1,0,0:0:0:0:
442,143,79993,1,0,0:0:0:0:
442,143,80155,1,4,0:0:0:0:
442,143,80479,1,8,0:0:0:0:
453,144,80804,1,0,0:0:0:0:
430,149,80966,1,0,0:0:0:0:
442,143,81128,1,8,0:0:0:0:
442,143,81452,1,0,0:0:0:0:
442,143,81776,1,8,0:0:0:0:
442,143,82101,1,8,0:0:0:0:
459,139,82263,1,0,0:0:0:0:
417,136,82425,1,0,0:0:0:0:
417,136,82587,1,0,0:0:0:0:
442,143,82749,1,0,0:0:0:0:
433,149,83398,1,0,0:0:0:0:
433,149,83722,1,8,0:0:0:0:
433,149,84047,1,0,0:0:0:0:
433,149,84209,1,8,0:0:0:0:
433,149,84371,1,8,0:0:0:0:
433,149,84695,1,0,0:0:0:0:
433,149,84858,1,8,0:0:0:0:
469,142,85020,1,0,0:0:0:0:
433,149,85182,1,0,0:0:0:0:
433,149,85344,1,0,0:0:0:0:
413,147,85668,1,8,0:0:0:0:
413,147,86317,1,8,0:0:0:0:
413,147,86641,1,0,0:0:0:0:
414,135,86804,1,0,0:0:0:0:
413,147,86966,1,8,0:0:0:0:
412,146,87290,1,8,0:0:0:0:
413,147,87452,1,0,0:0:0:0:
413,147,87614,1,8,0:0:0:0:
413,147,87939,1,0,0:0:0:0:
404,156,88425,1,0,0:0:0:0:
413,147,88587,1,0,0:0:0:0:
413,147,88749,1,0,0:0:0:0:
413,147,88912,1,8,0:0:0:0:
412,146,89236,1,0,0:0:0:0:
413,147,89398,1,0,0:0:0:0:
413,147,89560,1,0,0:0:0:0:
413,147,89722,1,0,0:0:0:0:
413,147,89885,1,0,0:0:0:0:
393,124,90209,1,0,0:0:0:0:
413,147,90858,1,12,0:0:0:0:
431,146,91182,1,0,0:0:0:0:
413,147,91506,1,8,0:0:0:0:
413,147,91831,1,0,0:0:0:0:
413,147,91993,1,8,0:0:0:0:
412,146,92155,1,8,0:0:0:0:
413,147,92479,1,8,0:0:0:0:
413,147,92641,1,0,0:0:0:0:
413,147,92804,1,8,0:0:0:0:
413,147,92966,1,0,0:0:0:0:
412,146,93128,1,0,0:0:0:0:
413,147,93452,1,8,0:0:0:0:
413,147,93776,1,0,0:0:0:0:
412,146,94101,1,8,0:0:0:0:
413,147,94263,1,0,0:0:0:0:
413,147,94425,1,0,0:0:0:0:
413,147,94749,1,8,0:0:0:0:
413,147,94912,1,0,0:0:0:0:
412,146,95074,1,8,0:0:0:0:
413,147,95236,1,0,0:0:0:0:
413,147,95398,1,0,0:0:0:0:
406,136,96047,1,12,0:0:0:0:
407,136,96371,1,0,0:0:0:0:
407,136,96695,1,8,0:0:0:0:
406,136,97020,1,0,0:0:0:0:
407,136,97182,1,8,0:0:0:0:
407,136,97344,1,8,0:0:0:0:
407,136,97668,1,0,0:0:0:0:
406,136,97831,1,8,0:0:0:0:
406,136,97993,1,8,0:0:0:0:
407,136,98155,1,8,0:0:0:0:
407,136,98317,1,0,0:0:0:0:
406,136,99614,5,0,0:0:0:0:
407,136,100425,1,0,0:0:0:0:
406,136,100587,5,0,0:0:0:0:
406,136,100749,1,0,0:0:0:0:
407,136,100912,1,8,0:0:0:0:
407,136,101236,1,8,0:0:0:0:
406,136,101560,1,8,0:0:0:0:
406,136,101722,1,8,0:0:0:0:
407,136,101885,1,8,0:0:0:0:
407,136,102209,1,8,0:0:0:0:
406,136,102533,1,8,0:0:0:0:
407,136,102858,1,8,0:0:0:0:
407,136,103020,1,8,0:0:0:0:
407,136,103182,1,8,0:0:0:0:
406,136,103506,1,0,0:0:0:0:
406,136,103668,1,0,0:0:0:0:
407,136,103831,1,8,0:0:0:0:
407,136,104155,1,0,0:0:0:0:
382,141,104317,1,0,0:0:0:0:
406,136,104479,1,8,0:0:0:0:
407,136,104804,1,0,0:0:0:0:
399,129,105128,1,8,0:0:0:0:
407,136,105290,1,8,0:0:0:0:
418,131,105452,1,0,0:0:0:0:
406,136,105614,1,0,0:0:0:0:
444,160,105776,1,8,0:0:0:0:
407,136,105939,1,8,0:0:0:0:
407,136,106101,1,4,0:0:0:0:
401,131,106587,1,4,0:0:0:0:
401,131,107074,1,12,0:0:0:0:
404,131,108371,5,8,0:0:0:0:
406,121,108533,1,8,0:0:0:0:
404,131,108695,1,4,0:0:0:0:
395,133,109182,1,4,0:0:0:0:
410,132,109668,1,12,0:0:0:0:
397,136,111290,5,0,0:0:0:0:
395,133,111614,1,8,0:0:0:0:
372,132,111939,1,8,0:0:0:0:
372,132,112263,1,8,0:0:0:0:
378,130,112587,1,0,0:0:0:0:
378,130,112912,1,8,0:0:0:0:
378,130,113236,1,12,0:0:0:0:
378,130,113398,1,12,0:0:0:0:
378,130,113560,1,4,0:0:0:0:
