osu file format v14

[General]
AudioFilename: HEAVENLY MOON.mp3
AudioLeadIn: 0
PreviewTime: 69993
Countdown: 0
SampleSet: Normal
StackLeniency: 0.3
Mode: 0
LetterboxInBreaks: 1
WidescreenStoryboard: 1

[Editor]
Bookmarks: 11615,24588,34966,46642,62209,69993,80372,91074,96264,106318
DistanceSpacing: 0.9
BeatDivisor: 4
GridSize: 8
TimelineZoom: 3.599999

[Metadata]
Title:HEAVENLY MOON
TitleUnicode:HEAVENLY MOON
Artist:Tatsh
ArtistUnicode:Tatsh
Creator:Jenny
Version:mAp
Source:jubeat copious
Tags:
BeatmapID:744797
BeatmapSetID:336539

[Difficulty]
HPDrainRate:6.5
CircleSize:5
OverallDifficulty:9.4
ApproachRate:9.2
SliderMultiplier:1.9
SliderTickRate:1

[Events]
//Background and Video events
0,0,"bg.jpg",0,0
//Break Periods
//Storyboard Layer 0 (Background)
//Storyboard Layer 1 (Fail)
//Storyboard Layer 2 (Pass)
//Storyboard Layer 3 (Foreground)
//Storyboard Sound Samples

[TimingPoints]
1237,324.324324324324,4,1,0,80,1,0
10318,-66.6666666666667,4,1,0,80,0,0
10480,-66.6666666666667,4,1,0,40,0,0
10561,-66.6666666666667,4,1,0,80,0,0
10723,-66.6666666666667,4,1,0,40,0,0
10804,-66.6666666666667,4,1,0,80,0,0
11047,-66.6666666666667,4,1,0,40,0,0
11128,-66.6666666666667,4,1,0,80,0,0
11209,-66.6666666666667,4,1,0,40,0,0
11291,-66.6666666666667,4,1,0,80,0,0
11331,-66.6666666666667,4,1,0,60,0,0
11372,-66.6666666666667,4,1,0,80,0,0
11412,-66.6666666666667,4,1,0,60,0,0
11453,-66.6666666666667,4,1,0,80,0,0
11493,-66.6666666666667,4,1,0,60,0,0
11534,-66.6666666666667,4,1,0,80,0,0
11574,-66.6666666666667,4,1,0,60,0,0
11615,-66.6666666666667,4,1,0,80,0,0
11939,-133.333333333333,4,2,0,50,0,0
22074,-133.333333333333,4,2,0,5,0,0
24588,-100,4,1,0,80,0,1
24993,-100,4,1,0,60,0,1
25074,-100,4,1,0,80,0,1
25642,-100,4,1,0,60,0,1
25723,-100,4,1,0,80,0,1
26047,-100,4,1,0,60,0,1
26128,-100,4,1,0,80,0,1
26291,-100,4,1,0,60,0,1
26372,-100,4,1,0,80,0,1
26696,-100,4,1,0,60,0,1
26777,-100,4,1,0,80,0,1
26939,-100,4,1,0,60,0,1
27020,-100,4,1,0,80,0,1
27588,-100,4,1,0,60,0,1
27669,-100,4,1,0,80,0,1
28236,-100,4,1,0,60,0,1
28318,-100,4,1,0,80,0,1
28966,-100,4,1,0,60,0,1
29047,-100,4,1,0,80,0,1
29372,-100,4,1,0,40,0,1
29453,-100,4,1,0,80,0,1
29534,-100,4,1,0,40,0,1
29615,-100,4,1,0,80,0,1
30182,-100,4,1,0,60,0,1
30264,-100,4,1,0,80,0,1
30831,-100,4,1,0,60,0,1
30912,-100,4,1,0,80,0,1
31480,-100,4,1,0,60,0,1
31561,-100,4,1,0,80,0,1
32128,-100,4,1,0,60,0,1
32209,-100,4,1,0,80,0,1
32453,-100,4,1,0,40,0,1
32534,-100,4,1,0,80,0,1
32615,-100,4,1,0,40,0,1
32696,-100,4,1,0,80,0,1
32777,-100,4,1,0,40,0,1
32858,-100,4,1,0,60,0,1
32939,-100,4,1,0,80,0,1
33101,-100,4,1,0,60,0,1
33182,-100,4,1,0,80,0,1
33669,-100,4,1,0,80,0,1
34318,-100,4,1,0,80,0,1
34966,-100,4,1,0,80,0,0
35047,-100,4,2,0,5,0,0
35453,-100,4,1,0,80,0,0
35534,-100,4,2,0,5,0,0
35939,-100,4,1,0,80,0,0
36020,-100,4,1,0,40,0,0
36264,-100,4,1,0,80,0,0
36345,-100,4,2,0,5,0,0
36750,-100,4,1,0,80,0,0
36831,-100,4,2,0,5,0,0
37236,-100,4,1,0,80,0,0
37318,-100,4,1,0,40,0,0
37561,-100,4,1,0,80,0,0
37642,-100,4,2,0,5,0,0
38047,-100,4,1,0,80,0,0
38128,-100,4,2,0,5,0,0
38534,-100,4,1,0,80,0,0
38615,-100,4,1,0,60,0,0
38777,-100,4,1,0,80,0,0
40236,-100,4,1,0,60,0,0
40399,-100,4,1,0,80,0,0
41209,-100,4,2,0,5,0,0
41453,-100,4,1,0,80,0,0
41534,-100,4,2,0,40,0,0
41777,-100,4,1,0,80,0,0
42020,-100,4,2,0,40,0,0
42264,-100,4,1,0,80,0,0
42507,-100,4,1,0,40,0,0
42669,-100,4,1,0,80,0,0
42993,-100,4,2,0,5,0,0
43074,-100,4,1,0,80,0,0
43318,-100,4,2,0,5,0,0
43399,-100,4,1,0,80,0,0
43480,-100,4,1,0,60,0,0
43642,-100,4,1,0,80,0,0
43804,-100,4,1,0,60,0,0
43966,-100,4,1,0,80,0,0
45264,-100,4,1,0,40,0,0
45345,-100,4,1,0,80,0,0
47615,-100,4,2,0,80,0,0
47939,-100,4,1,0,80,0,0
48912,-100,4,2,0,80,0,0
49236,-100,4,1,0,80,0,0
49318,-100,4,1,0,60,0,0
49480,-100,4,1,0,80,0,0
50209,-100,4,2,0,80,0,0
50534,-100,4,1,0,80,0,0
52804,-100,4,2,0,80,0,0
53128,-100,4,1,0,80,0,0
54101,-100,4,2,0,80,0,0
54426,-100,4,1,0,80,0,0
55804,-100,4,1,0,5,0,0
55885,-100,4,1,0,80,0,0
55966,-100,4,1,0,5,0,0
56047,-100,4,1,0,80,0,0
56128,-100,4,1,0,5,0,0
56209,-100,4,1,0,80,0,0
56291,-100,4,1,0,5,0,0
56534,-100,4,1,0,80,0,0
56615,-100,4,1,0,5,0,0
56696,-100,4,1,0,80,0,0
56777,-100,4,1,0,5,0,0
57020,-100,4,1,0,80,0,0
57101,-100,4,2,0,80,0,0
58236,-100,4,1,0,60,0,0
59209,-100,4,2,0,80,0,0
60831,-100,4,1,0,60,0,0
61885,-100,4,3,0,60,0,0
61966,-100,4,2,0,20,0,0
62047,-100,4,2,0,60,0,0
62128,-100,4,2,0,20,0,0
62209,-100,4,1,0,80,0,0
67480,-100,4,1,0,40,0,0
67561,-100,4,1,0,80,0,0
67642,-100,4,1,0,40,0,0
67723,-100,4,1,0,80,0,0
67804,-100,4,1,0,40,0,0
67885,-100,4,1,0,80,0,0
67966,-100,4,1,0,40,0,0
68047,-100,4,1,0,80,0,0
68128,-100,4,1,0,40,0,0
68209,-100,4,1,0,80,0,0
68291,-100,4,1,0,40,0,0
68372,-100,4,1,0,80,0,0
68453,-100,4,1,0,75,0,0
68534,-100,4,1,0,70,0,0
68615,-100,4,1,0,65,0,0
68696,-100,4,2,0,80,0,0
69993,-100,4,1,0,80,0,1
88155,-100,4,1,0,80,0,0
88236,-100,4,1,0,40,0,0
88399,-100,4,1,0,60,0,0
88561,-100,4,1,0,80,0,0
91074,-100,4,1,0,80,0,1
95939,-100,4,1,0,80,0,0
96264,-100,4,1,0,80,0,1
106642,-100,4,1,0,60,0,1
106723,-100,4,1,0,80,0,1
107291,-200,4,1,0,80,0,0
107372,-200,4,1,0,5,0,0
108264,-200,4,1,0,40,0,0
108426,-200,4,1,0,80,0,0
108912,-100,4,1,0,80,0,0
109236,-100,4,1,0,60,0,0
109318,-100,4,1,0,80,0,0
109885,-200,4,1,0,80,0,0
109966,-200,4,1,0,5,0,0
111182,-200,4,1,0,40,0,0
111345,-200,4,1,0,80,0,0

[HitObjects]
184,89,1237,5,4,0:0:0:0:
276,63,1399,1,0,0:0:0:0:
157,109,1561,1,0,0:0:0:0:
247,140,1723,1,0,0:0:0:0:
123,109,1885,1,0,0:0:0:0:
179,186,2047,1,0,0:0:0:0:
95,89,2209,1,0,0:0:0:0:
96,184,2371,1,0,0:0:0:0:
82,56,2534,5,0,0:0:0:0:
234,104,2696,1,0,0:0:0:0:
186,256,2858,1,0,0:0:0:0:
34,208,3020,1,0,0:0:0:0:
34,208,3831,5,0,0:0:0:0:
21,302,3993,1,0,0:0:0:0:
57,180,4155,1,0,0:0:0:0:
100,264,4317,1,0,0:0:0:0:
59,143,4480,1,0,0:0:0:0:
142,187,4642,1,0,0:0:0:0:
39,111,4804,1,0,0:0:0:0:
132,99,4966,1,0,0:0:0:0:
4,95,5128,5,0,0:0:0:0:
70,241,5291,1,0,0:0:0:0:
216,175,5453,1,0,0:0:0:0:
150,29,5615,1,0,0:0:0:0:
150,29,6426,5,0,0:0:0:0:
168,122,6588,1,0,0:0:0:0:
65,198,6750,1,0,0:0:0:0:
83,105,6912,1,0,0:0:0:0:
181,188,7074,1,0,0:0:0:0:
199,281,7236,1,0,0:0:0:0:
96,357,7398,1,0,0:0:0:0:
114,264,7560,1,0,0:0:0:0:
260,331,7723,5,0,0:0:0:0:
38,306,7885,1,0,0:0:0:0:
191,353,8047,1,0,0:0:0:0:
115,296,8209,1,0,0:0:0:0:
115,296,9020,5,0,0:0:0:0:
67,141,9182,1,0,0:0:0:0:
224,178,9345,1,0,0:0:0:0:
224,178,9669,2,0,P|131:154|60:218,1,190
56,284,10155,1,0,0:0:0:0:
244,239,10318,6,0,L|230:85,1,142.500005435944
295,24,10561,2,0,L|309:178,1,142.500005435944
316,229,10804,1,0,0:0:0:0:
490,146,10966,2,0,P|459:132|405:141,1,71.2500027179719
203,183,11128,2,0,P|167:184|135:170,1,71.2500027179719
62,105,11291,2,0,L|25:110,1,35.625001358986
73,71,11372,2,0,L|37:50,1,35.625001358986
104,53,11453,2,0,L|92:15,1,35.625001358986
139,52,11534,2,0,L|156:9,1,35.625001358986
172,65,11615,1,4,0:0:0:0:
172,65,11939,5,2,0:0:0:0:
235,138,12264,1,0,0:0:0:0:
327,108,12588,1,2,0:0:0:0:
390,181,12912,6,0,P|404:149|403:111,1,71.2500027179719,2|0,0:0|0:0,0:0:0:0:
316,18,13236,2,0,P|302:50|303:88,1,71.2500027179719
338,143,13561,1,2,0:0:0:0:
279,179,13723,1,0,0:0:0:0:
336,210,13885,1,0,0:0:0:0:
289,247,14047,1,0,0:0:0:0:
345,270,14209,5,0,0:0:0:0:
265,317,14534,1,2,0:0:0:0:
183,274,14858,1,0,0:0:0:0:
89,363,15182,1,2,0:0:0:0:
58,237,15507,6,0,P|41:165|79:94,1,142.500005435944,2|0,0:0|0:0,0:0:0:0:
124,72,15993,1,0,0:0:0:0:
233,139,16155,2,0,L|306:129,1,71.2500027179719,2|0,0:0|0:0,0:0:0:0:
387,82,16480,2,0,L|460:92,1,71.2500027179719,2|0,0:0|0:0,0:0:0:0:
502,181,16804,5,2,0:0:0:0:
502,181,16966,1,0,0:0:0:0:
420,228,17128,1,0,0:0:0:0:
420,228,17290,1,0,0:0:0:0:
333,198,17453,1,2,0:0:0:0:
333,198,17615,1,0,0:0:0:0:
251,245,17777,1,2,0:0:0:0:
251,245,17939,1,0,0:0:0:0:
250,149,18101,5,2,0:0:0:0:
312,189,18264,2,0,P|322:221|310:268,1,71.2500027179719,2|0,0:0|0:0,0:0:0:0:
315,257,18588,1,2,0:0:0:0:
413,172,18750,1,2,0:0:0:0:
379,145,18912,1,0,0:0:0:0:
370,103,19074,1,0,0:0:0:0:
387,64,19236,1,0,0:0:0:0:
478,33,19399,6,0,L|470:115,1,71.2500027179719,2|0,0:0|0:0,0:0:0:0:
393,244,19723,2,0,L|385:162,1,71.2500027179719
330,96,20047,1,0,0:0:0:0:
291,77,20209,1,0,0:0:0:0:
248,76,20372,1,0,0:0:0:0:
211,98,20534,1,2,0:0:0:0:
192,136,20696,6,0,L|201:213,1,71.2500027179719,2|0,0:0|0:0,0:0:0:0:
211,273,21020,1,0,0:0:0:0:
103,342,21182,2,0,L|112:265,1,71.2500027179719,2|0,0:0|0:0,0:0:0:0:
122,205,21506,1,0,0:0:0:0:
14,135,21669,2,0,P|13:173|32:206,1,71.2500027179719,2|0,0:0|0:0,0:0:0:0:
8,329,21993,1,0,0:0:0:0:
8,329,24588,5,6,0:0:0:0:
133,375,24750,1,0,0:0:0:0:
133,375,24831,2,0,P|151:331|141:277,1,95,2|0,0:0|0:0,0:0:0:0:
122,267,25074,1,0,0:0:0:0:
8,329,25236,1,2,0:0:0:0:
233,367,25399,1,0,0:0:0:0:
233,367,25480,2,0,L|336:354,1,95,2|0,0:0|0:0,0:0:0:0:
355,349,25723,1,0,0:0:0:0:
450,143,25885,6,0,P|455:94|425:52,1,95,2|0,0:0|0:0,0:0:0:0:
305,31,26128,2,0,P|300:80|330:122,1,95,2|0,0:0|0:0,0:0:0:0:
348,130,26372,1,0,0:0:0:0:
160,84,26534,2,0,L|53:96,1,95,2|0,0:0|0:0,0:0:0:0:
0,207,26777,2,0,L|107:195,1,95,2|0,0:0|0:0,0:0:0:0:
122,191,27020,1,0,0:0:0:0:
41,17,27182,5,2,0:0:0:0:
3,80,27345,1,0,0:0:0:0:
3,80,27426,2,0,P|4:136|34:178,1,95,2|0,0:0|0:0,0:0:0:0:
49,180,27669,1,0,0:0:0:0:
300,135,27831,1,2,0:0:0:0:
252,86,27993,1,0,0:0:0:0:
252,86,28074,2,0,P|205:74|151:90,1,95,2|0,0:0|0:0,0:0:0:0:
139,104,28318,1,0,0:0:0:0:
195,355,28480,5,0,0:0:0:0:
240,200,28642,1,2,0:0:0:0:
83,239,28804,2,0,P|78:292|97:340,1,95,2|0,0:0|0:0,0:0:0:0:
216,368,29128,1,0,0:0:0:0:
275,121,29291,2,0,L|265:67,1,47.5,2|0,0:0|0:0,0:0:0:0:
371,198,29453,2,0,L|361:252,1,47.5
493,60,29615,1,2,0:0:0:0:
476,36,29696,1,0,0:0:0:0:
459,12,29777,5,2,0:0:0:0:
446,176,29939,1,0,0:0:0:0:
446,176,30020,2,0,P|447:227|481:275,1,95,2|0,0:0|0:0,0:0:0:0:
495,274,30264,1,0,0:0:0:0:
397,69,30426,1,2,0:0:0:0:
310,166,30588,1,0,0:0:0:0:
310,166,30669,2,0,P|272:209|222:221,1,95,2|0,0:0|0:0,0:0:0:0:
209,214,30912,1,0,0:0:0:0:
69,80,31074,5,2,0:0:0:0:
183,17,31236,1,0,0:0:0:0:
183,17,31318,2,0,L|166:120,1,95,2|0,0:0|0:0,0:0:0:0:
161,138,31561,1,0,0:0:0:0:
244,314,31723,1,2,0:0:0:0:
358,377,31885,1,0,0:0:0:0:
358,377,31967,2,0,L|341:274,1,95,2|0,0:0|0:0,0:0:0:0:
336,256,32210,1,0,0:0:0:0:
419,80,32372,6,0,L|409:133,1,47.5
234,357,32534,2,0,L|224:304,1,47.5,2|0,0:0|0:0,0:0:0:0:
79,22,32696,2,0,L|69:75,1,47.5,2|0,0:0|0:0,0:0:0:0:
9,102,32858,1,0,0:0:0:0:
74,211,33020,1,0,0:0:0:0:
77,248,33101,1,0,0:0:0:0:
60,282,33182,1,2,0:0:0:0:
4,360,33345,1,0,0:0:0:0:
38,326,33426,1,0,0:0:0:0:
85,321,33507,1,2,0:0:0:0:
130,335,33588,1,0,0:0:0:0:
153,376,33669,5,0,0:0:0:0:
309,214,33831,1,2,0:0:0:0:
3,314,33993,1,2,0:0:0:0:
508,220,34318,1,2,0:0:0:0:
406,18,34642,1,0,0:0:0:0:
375,57,34723,1,0,0:0:0:0:
371,106,34804,1,0,0:0:0:0:
393,150,34885,1,0,0:0:0:0:
434,177,34966,6,0,B|458:188|485:183|485:183|447:221|342:227|326:301,1,237.5,6|0,0:0|0:0,0:0:0:0:
145,333,35453,2,0,B|121:322|94:327|94:327|132:289|237:283|253:209,1,237.5,2|0,0:0|0:0,0:0:0:0:
304,110,35939,2,0,P|299:57|267:11,1,95,2|0,0:0|0:0,0:0:0:0:
22,48,36264,6,0,P|65:102|223:89,1,237.5,2|0,0:0|0:0,0:0:0:0:
395,20,36750,2,0,B|351:47|359:144|414:109|428:199|384:236,1,237.5,2|0,0:0|0:0,0:0:0:0:
298,330,37236,2,0,L|183:315,1,95,2|0,0:0|0:0,0:0:0:0:
18,369,37561,6,0,P|70:312|31:164,1,237.5,2|0,0:0|0:0,0:0:0:0:
246,19,38047,2,0,P|194:76|233:224,1,237.5,2|0,0:0|0:0,0:0:0:0:
344,275,38534,1,2,0:0:0:0:
344,275,38696,1,0,0:0:0:0:
501,114,38858,5,2,0:0:0:0:
381,165,39020,1,0,0:0:0:0:
396,35,39182,1,0,0:0:0:0:
396,35,39507,1,2,0:0:0:0:
488,205,39669,1,0,0:0:0:0:
354,345,39831,1,0,0:0:0:0:
299,291,39993,1,0,0:0:0:0:
308,259,40074,1,0,0:0:0:0:
318,227,40155,6,0,P|378:226|424:266,1,95,6|0,0:0|0:0,0:0:0:0:
445,308,40480,1,0,0:0:0:0:
512,92,40642,2,0,P|426:106|355:39,1,190,2|0,0:0|0:0,0:0:0:0:
131,79,41128,2,0,P|186:70|260:119,1,142.5,2|0,0:0|0:0,0:0:0:0:
288,170,41453,6,0,L|309:71,1,95,2|0,0:0|0:0,0:0:0:0:
488,3,41939,2,0,L|467:102,1,95,2|0,0:0|0:0,0:0:0:0:
487,355,42426,2,0,L|508:256,1,95,2|0,0:0|0:0,0:0:0:0:
393,105,42750,6,0,P|393:183|440:241,1,142.5
256,379,43074,2,0,P|256:301|209:243,1,142.5
161,269,43399,1,0,0:0:0:0:
135,340,43561,1,0,0:0:0:0:
0,159,43723,1,0,0:0:0:0:
26,230,43885,1,0,0:0:0:0:
161,49,44047,5,2,0:0:0:0:
346,105,44209,1,0,0:0:0:0:
94,162,44372,1,0,0:0:0:0:
377,222,44534,1,0,0:0:0:0:
178,113,44696,6,0,L|189:165,1,47.5,2|0,0:0|0:0,0:0:0:0:
111,301,44858,2,0,L|122:249,1,47.5
254,72,45020,6,0,L|265:124,1,47.5,2|0,0:0|0:0,0:0:0:0:
22,331,45182,2,0,L|33:279,1,47.5,2|0,0:0|0:0,0:0:0:0:
31,284,46642,6,2,P|91:336|200:304,1,190
302,114,47128,2,2,P|242:62|133:94,1,190
60,189,47615,1,8,0:0:0:0:
60,189,47939,6,2,L|253:140,1,190
512,251,48426,2,2,L|319:300,1,190
178,236,48912,1,8,0:0:0:0:
178,236,49236,6,2,P|166:184|173:128,1,95,2|0,0:0|0:0,0:0:0:0:
210,78,49561,1,2,0:0:0:0:
302,283,49723,2,2,P|216:260|148:333,1,190,0|2,0:0|0:0,0:0:0:0:
87,281,50209,1,8,0:0:0:0:
87,281,50534,5,0,0:0:0:0:
240,235,50696,1,2,0:0:0:0:
21,192,50858,1,2,0:0:0:0:
301,35,51020,2,2,P|348:96|316:211,1,190
301,359,51507,1,0,0:0:0:0:
451,302,51669,1,0,0:0:0:0:
200,254,51831,6,2,P|103:244|5:309,1,190,0|2,0:0|0:0,0:0:0:0:
182,44,52318,2,2,P|279:54|377:-11,1,190,0|2,0:0|0:0,0:0:0:0:
481,50,52804,1,8,0:0:0:0:
481,50,53128,6,2,L|512:237,1,190,0|2,0:0|0:0,0:0:0:0:
294,371,53615,2,2,L|325:184,1,190,0|2,0:0|0:0,0:0:0:0:
243,86,54101,1,8,0:0:0:0:
243,86,54426,6,2,P|310:147|418:106,1,190,0|2,0:0|0:0,0:0:0:0:
205,341,54912,2,2,P|138:280|30:321,1,190,0|2,0:0|0:0,0:0:0:0:
3,181,55399,1,0,0:0:0:0:
77,77,55561,1,0,0:0:0:0:
85,94,55642,1,0,0:0:0:0:
91,111,55723,6,0,L|81:165,1,47.5,2|0,0:0|0:0,0:0:0:0:
171,329,55885,2,0,L|161:275,1,47.5,2|0,0:0|0:0,0:0:0:0:
241,36,56047,2,0,L|231:90,1,47.5
370,373,56209,2,0,L|360:319,1,47.5,2|0,0:0|0:0,0:0:0:0:
296,108,56534,6,0,L|286:162,1,47.5
377,250,56696,2,0,L|367:196,1,47.5,2|0,0:0|0:0,0:0:0:0:
368,203,57020,5,0,0:0:0:0:
220,269,57507,1,2,0:0:0:0:
87,174,57993,1,2,0:0:0:0:
118,81,58318,1,0,0:0:0:0:
161,237,58804,1,0,0:0:0:0:
89,303,59128,1,0,0:0:0:0:
89,303,59291,1,2,0:0:0:0:
89,303,59615,6,0,P|80:255|92:203,1,95,2|0,0:0|0:0,0:0:0:0:
88,210,59939,1,0,0:0:0:0:
174,165,60101,1,0,0:0:0:0:
224,248,60264,2,0,P|233:296|221:348,1,95,2|0,0:0|0:0,0:0:0:0:
316,135,60588,2,0,P|307:87|319:35,1,95
402,0,60912,5,0,0:0:0:0:
504,81,61074,1,0,0:0:0:0:
443,330,61399,1,0,0:0:0:0:
443,330,61885,2,0,L|486:307,1,47.5
355,306,62047,2,0,L|334:256,1,47.5
383,142,62209,5,2,0:0:0:0:
502,194,62372,1,0,0:0:0:0:
310,173,62534,1,0,0:0:0:0:
458,113,62696,5,2,0:0:0:0:
410,301,62858,1,0,0:0:0:0:
271,165,63020,1,0,0:0:0:0:
477,257,63182,5,2,0:0:0:0:
244,368,63345,1,0,0:0:0:0:
468,138,63507,1,0,0:0:0:0:
367,340,63669,5,2,0:0:0:0:
122,262,63831,1,0,0:0:0:0:
312,88,63993,1,0,0:0:0:0:
178,380,64155,5,2,0:0:0:0:
119,127,64318,1,0,0:0:0:0:
365,382,64480,1,0,0:0:0:0:
83,314,64642,5,2,0:0:0:0:
331,249,64804,1,0,0:0:0:0:
150,66,64966,1,0,0:0:0:0:
235,242,65128,5,2,0:0:0:0:
294,23,65291,1,0,0:0:0:0:
56,286,65453,1,0,0:0:0:0:
343,248,65615,5,2,0:0:0:0:
32,166,65777,1,0,0:0:0:0:
506,81,65939,1,0,0:0:0:0:
394,15,66101,5,2,0:0:0:0:
450,201,66264,1,2,0:0:0:0:
265,331,66426,5,0,0:0:0:0:
321,145,66589,1,2,0:0:0:0:
503,280,66750,5,0,0:0:0:0:
256,355,66912,1,2,0:0:0:0:
12,99,67074,5,2,0:0:0:0:
259,174,67236,1,2,0:0:0:0:
481,40,67399,6,0,L|423:56,1,47.5
211,77,67561,2,0,L|269:93,1,47.5
444,137,67723,6,0,L|386:153,1,47.5
174,174,67885,2,0,L|232:190,1,47.5
407,234,68047,6,0,L|349:250,1,47.5
137,271,68209,2,0,L|195:287,1,47.5
122,380,68372,5,0,0:0:0:0:
106,356,68453,1,0,0:0:0:0:
80,344,68534,1,0,0:0:0:0:
51,343,68615,1,0,0:0:0:0:
24,352,68696,1,0,0:0:0:0:
24,352,69993,6,0,L|43:240,1,95,6|0,0:0|0:0,0:0:0:0:
251,16,70318,2,0,L|232:128,1,95,10|0,0:0|0:0,0:0:0:0:
269,201,70642,1,2,0:0:0:0:
481,124,70804,1,0,0:0:0:0:
481,124,70885,2,2,P|419:109|355:160,1,142.5
418,338,71291,6,0,P|428:289|413:239,1,95,2|0,0:0|0:0,0:0:0:0:
264,37,71615,2,0,P|254:86|269:136,1,95,10|0,0:0|0:0,0:0:0:0:
321,209,71939,1,2,0:0:0:0:
497,129,72101,1,0,0:0:0:0:
469,155,72182,1,2,0:0:0:0:
431,163,72264,1,0,0:0:0:0:
393,157,72345,1,0,0:0:0:0:
365,131,72426,1,2,0:0:0:0:
357,93,72507,1,0,0:0:0:0:
369,57,72588,6,0,L|398:163,1,95,2|0,0:0|0:0,0:0:0:0:
247,361,72912,2,0,L|276:255,1,95,10|0,0:0|0:0,0:0:0:0:
239,177,73236,1,2,0:0:0:0:
3,281,73399,1,0,0:0:0:0:
3,281,73480,2,2,P|46:317|137:301,1,142.5,2|0,0:0|0:0,0:0:0:0:
195,59,73885,6,0,P|184:104|191:157,1,95,2|0,0:0|0:0,0:0:0:0:
352,354,74209,2,0,P|363:309|356:256,1,95,10|0,0:0|0:0,0:0:0:0:
300,181,74534,1,2,0:0:0:0:
184,375,74696,1,0,0:0:0:0:
103,63,74858,1,0,0:0:0:0:
83,95,74939,1,0,0:0:0:0:
83,132,75020,1,0,0:0:0:0:
103,164,75101,1,0,0:0:0:0:
136,181,75182,6,0,L|237:165,1,95,2|0,0:0|0:0,0:0:0:0:
496,283,75507,2,0,L|395:267,1,95,10|0,0:0|0:0,0:0:0:0:
308,293,75831,1,2,0:0:0:0:
428,29,75993,1,0,0:0:0:0:
428,29,76074,2,2,P|458:72|447:172,1,142.5
229,132,76480,6,0,P|270:108|317:106,1,95,2|0,0:0|0:0,0:0:0:0:
480,346,76804,2,0,P|439:370|392:372,1,95,10|0,0:0|0:0,0:0:0:0:
305,329,77128,1,2,0:0:0:0:
484,252,77291,1,0,0:0:0:0:
164,209,77453,1,0,0:0:0:0:
132,230,77534,1,0,0:0:0:0:
94,233,77615,1,0,0:0:0:0:
58,220,77696,1,0,0:0:0:0:
42,185,77777,6,0,L|69:89,1,95,2|0,0:0|0:0,0:0:0:0:
347,17,78101,2,0,L|320:113,1,95,10|0,0:0|0:0,0:0:0:0:
289,201,78426,1,2,0:0:0:0:
469,130,78588,1,0,0:0:0:0:
311,335,78750,1,2,0:0:0:0:
131,264,78912,1,0,0:0:0:0:
285,17,79074,5,0,0:0:0:0:
308,46,79155,1,0,0:0:0:0:
317,82,79236,1,2,0:0:0:0:
310,119,79318,1,0,0:0:0:0:
295,154,79399,1,0,0:0:0:0:
289,201,79481,1,0,0:0:0:0:
309,243,79562,1,2,0:0:0:0:
349,268,79643,1,0,0:0:0:0:
429,224,79723,5,0,0:0:0:0:
381,193,79804,1,0,0:0:0:0:
324,197,79885,2,0,L|313:172,1,23.75
288,241,79966,1,0,0:0:0:0:
254,304,80047,1,2,0:0:0:0:
218,348,80128,1,0,0:0:0:0:
161,352,80209,2,0,L|154:380,1,23.75
113,321,80290,1,0,0:0:0:0:
79,258,80372,6,0,L|99:149,1,95,2|0,0:0|0:0,0:0:0:0:
119,70,80696,1,8,0:0:0:0:
302,10,80858,2,0,P|311:61|292:122,1,95,2|0,0:0|0:0,0:0:0:0:
257,189,81182,1,0,0:0:0:0:
394,369,81345,2,0,P|385:318|404:257,1,95,10|0,0:0|0:0,0:0:0:0:
439,190,81669,1,0,0:0:0:0:
251,64,81831,2,0,L|142:84,1,95,2|8,0:0|0:0,0:0:0:0:
63,104,82155,1,0,0:0:0:0:
301,202,82318,1,2,0:0:0:0:
349,81,82480,1,2,0:0:0:0:
202,151,82642,1,8,0:0:0:0:
154,272,82804,1,0,0:0:0:0:
159,290,82885,1,0,0:0:0:0:
164,308,82966,6,0,L|265:296,1,95,2|0,0:0|0:0,0:0:0:0:
339,241,83291,1,8,0:0:0:0:
217,13,83453,2,0,P|203:65|212:113,1,95,2|0,0:0|0:0,0:0:0:0:
241,197,83777,1,0,0:0:0:0:
494,135,83939,2,0,P|447:153|377:147,1,95,10|0,0:0|0:0,0:0:0:0:
312,117,84264,1,0,0:0:0:0:
390,12,84426,1,2,0:0:0:0:
469,258,84588,2,0,P|469:308|452:355,1,95,10|0,0:0|0:0,0:0:0:0:
360,375,84912,1,2,0:0:0:0:
149,295,85074,1,2,0:0:0:0:
469,258,85236,1,0,0:0:0:0:
494,228,85318,1,0,0:0:0:0:
497,190,85399,1,0,0:0:0:0:
485,153,85480,1,0,0:0:0:0:
452,133,85561,6,0,L|346:149,1,95,2|0,0:0|0:0,0:0:0:0:
267,112,85885,1,8,0:0:0:0:
462,326,86047,2,0,P|474:277|460:221,1,95,2|0,0:0|0:0,0:0:0:0:
410,153,86372,1,0,0:0:0:0:
192,211,86534,2,0,P|180:260|194:316,1,95,10|0,0:0|0:0,0:0:0:0:
244,384,86859,1,0,0:0:0:0:
3,171,87020,2,0,L|108:187,1,95,2|8,0:0|0:0,0:0:0:0:
187,149,87344,1,0,0:0:0:0:
50,11,87507,2,0,P|38:60|52:116,1,95,2|0,0:0|0:0,0:0:0:0:
300,62,87831,1,0,0:0:0:0:
333,45,87912,1,0,0:0:0:0:
370,48,87993,1,0,0:0:0:0:
401,68,88074,1,0,0:0:0:0:
419,101,88155,6,0,L|393:200,1,95
369,264,88480,1,0,0:0:0:0:
445,326,88642,1,0,0:0:0:0:
498,173,88804,1,0,0:0:0:0:
498,173,88885,1,0,0:0:0:0:
358,59,89047,1,0,0:0:0:0:
358,59,89128,1,0,0:0:0:0:
358,59,89210,1,0,0:0:0:0:
358,59,89291,1,0,0:0:0:0:
392,151,89453,5,0,0:0:0:0:
368,192,89534,1,0,0:0:0:0:
323,207,89615,1,0,0:0:0:0:
275,202,89696,1,0,0:0:0:0:
224,159,89777,5,0,0:0:0:0:
212,204,89858,1,0,0:0:0:0:
178,237,89939,1,0,0:0:0:0:
132,249,90020,1,0,0:0:0:0:
67,231,90101,5,0,0:0:0:0:
56,215,90182,1,0,0:0:0:0:
92,123,90264,5,0,0:0:0:0:
103,139,90345,1,0,0:0:0:0:
245,217,90426,5,0,0:0:0:0:
234,201,90507,1,0,0:0:0:0:
257,41,90588,5,0,0:0:0:0:
268,57,90669,1,0,0:0:0:0:
268,57,91074,6,0,P|313:37|366:51,1,95,14|0,0:0|0:0,0:0:0:0:
429,22,91399,1,2,0:0:0:0:
462,213,91561,1,0,0:0:0:0:
344,325,91723,2,0,L|354:221,1,95,10|0,0:0|0:0,0:0:0:0:
361,154,92047,1,0,0:0:0:0:
221,234,92209,1,2,0:0:0:0:
65,186,92372,1,10,0:0:0:0:
100,61,92534,1,0,0:0:0:0:
148,217,92697,1,2,0:0:0:0:
68,357,92859,1,0,0:0:0:0:
20,201,93020,1,8,0:0:0:0:
248,320,93182,1,2,0:0:0:0:
464,177,93345,6,0,L|452:73,1,95,2|0,0:0|0:0,0:0:0:0:
441,7,93669,1,10,0:0:0:0:
205,108,93831,1,0,0:0:0:0:
291,204,93993,2,0,P|345:207|389:184,1,95,2|0,0:0|0:0,0:0:0:0:
136,33,94318,2,0,P|82:30|38:53,1,95,10|0,0:0|0:0,0:0:0:0:
94,332,94642,2,0,L|76:219,1,95,2|0,0:0|0:0,0:0:0:0:
65,163,94966,1,8,0:0:0:0:
0,312,95128,1,2,0:0:0:0:
283,247,95291,2,0,P|336:246|385:277,1,95,2|0,0:0|0:0,0:0:0:0:
406,323,95615,1,2,0:0:0:0:
401,304,95696,1,0,0:0:0:0:
405,285,95777,1,0,0:0:0:0:
418,271,95858,1,0,0:0:0:0:
418,271,96264,6,0,L|429:170,1,95,14|0,0:0|0:0,0:0:0:0:
276,10,96588,2,0,L|287:111,1,95,2|0,0:0|0:0,0:0:0:0:
296,179,96912,1,8,0:0:0:0:
79,118,97074,1,2,0:0:0:0:
120,207,97236,2,0,P|173:210|212:191,1,95,2|0,0:0|0:0,0:0:0:0:
252,128,97561,1,8,0:0:0:0:
5,53,97723,2,0,P|28:100|64:124,1,95,2|0,0:0|0:0,0:0:0:0:
139,127,98048,1,0,0:0:0:0:
92,42,98209,1,10,0:0:0:0:
28,225,98372,1,0,0:0:0:0:
157,368,98534,6,2,B|179:323|237:301|271:308|271:308|323:315|343:347|332:406|286:412|252:394|240:345|271:308|271:308|313:263|420:246|489:290|514:326|514:326|493:271|454:233|416:227,1,760
435,232,100642,1,0,0:0:0:0:
412,104,100804,1,0,0:0:0:0:
507,149,100966,1,0,0:0:0:0:
507,149,101047,1,0,0:0:0:0:
507,149,101128,5,6,0:0:0:0:
342,252,101291,1,2,0:0:0:0:
5,149,101453,1,8,0:0:0:0:
170,252,101616,1,0,0:0:0:0:
467,60,101777,5,2,0:0:0:0:
501,219,101939,1,2,0:0:0:0:
45,60,102101,1,8,0:0:0:0:
11,219,102263,1,0,0:0:0:0:
466,365,102426,5,2,0:0:0:0:
443,237,102588,1,2,0:0:0:0:
46,365,102750,1,8,0:0:0:0:
69,237,102912,1,0,0:0:0:0:
510,294,103074,5,2,0:0:0:0:
468,171,103236,1,2,0:0:0:0:
2,294,103399,1,8,0:0:0:0:
44,171,103561,1,0,0:0:0:0:
488,233,103723,5,2,0:0:0:0:
495,238,103885,1,2,0:0:0:0:
122,51,104047,1,10,0:0:0:0:
115,56,104209,1,2,0:0:0:0:
24,233,104372,5,2,0:0:0:0:
17,238,104534,1,2,0:0:0:0:
390,51,104696,1,10,0:0:0:0:
397,56,104858,1,2,0:0:0:0:
21,142,105020,5,0,0:0:0:0:
491,242,105182,1,2,0:0:0:0:
0,241,105345,5,8,0:0:0:0:
511,142,105507,1,2,0:0:0:0:
18,346,105669,5,0,0:0:0:0:
493,37,105831,1,2,0:0:0:0:
237,370,105993,5,8,0:0:0:0:
190,336,106074,1,0,0:0:0:0:
176,280,106155,1,2,0:0:0:0:
186,224,106236,1,0,0:0:0:0:
231,188,106318,6,0,B|250:183|264:188|264:188|234:215|159:214|118:171,1,190
79,108,106804,1,0,0:0:0:0:
79,108,107291,2,0,P|102:213|2:347,1,285
237,317,108588,5,0,0:0:0:0:
237,317,108669,1,0,0:0:0:0:
237,317,108750,1,0,0:0:0:0:
237,317,108831,1,0,0:0:0:0:
237,317,108912,2,0,P|316:351|432:319,1,190
484,362,109399,1,0,0:0:0:0:
484,362,109885,2,0,B|464:347|461:318|461:318|431:329|363:319|305:262|291:138|357:68,1,380,0|8,0:0|0:0,0:0:0:0:
461,21,111507,5,0,0:0:0:0:
447,118,111831,1,8,0:0:0:0:
365,175,112155,1,0,0:0:0:0:
384,46,112479,1,8,0:0:0:0:
307,71,112804,1,0,0:0:0:0:
284,233,113128,1,8,0:0:0:0:
203,291,113453,5,8,0:0:0:0:
126,148,113615,1,8,0:0:0:0:
239,33,113777,1,4,0:0:0:0:
