osu file format v14

[General]
AudioFilename: HEAVENLY MOON.mp3
AudioLeadIn: 0
PreviewTime: 69993
Countdown: 0
SampleSet: Soft
StackLeniency: 0.3
Mode: 0
LetterboxInBreaks: 1
WidescreenStoryboard: 1

[Editor]
Bookmarks: 11615,24588,34966,46642,62209,69993,80372,91074,96264,106318
DistanceSpacing: 0.8
BeatDivisor: 4
GridSize: 8
TimelineZoom: 2.400001

[Metadata]
Title:HEAVENLY MOON
TitleUnicode:HEAVENLY MOON
Artist:Tatsh
ArtistUnicode:Tatsh
Creator:Jenny
Version:Hyper v2
Source:jubeat copious
Tags:
BeatmapID:778231
BeatmapSetID:336539

[Difficulty]
HPDrainRate:6.5
CircleSize:3
OverallDifficulty:7.8
ApproachRate:9
SliderMultiplier:2.1
SliderTickRate:1

[Events]
//Background and Video events
0,0,"bg.jpg",0,0
//Break Periods
//Storyboard Layer 0 (Background)
//Storyboard Layer 1 (Fail)
//Storyboard Layer 2 (Pass)
//Storyboard Layer 3 (Foreground)
//Storyboard Layer 4 (Overlay)
//Storyboard Sound Samples

[TimingPoints]
1237,324.324324324324,4,1,0,80,1,0
10318,-66.6666666666667,4,1,0,80,0,0
10480,-66.6666666666667,4,1,0,40,0,0
10561,-66.6666666666667,4,1,0,80,0,0
10723,-66.6666666666667,4,1,0,40,0,0
10804,-66.6666666666667,4,1,0,80,0,0
11047,-66.6666666666667,4,1,0,40,0,0
11128,-66.6666666666667,4,1,0,80,0,0
11209,-66.6666666666667,4,1,0,40,0,0
11291,-66.6666666666667,4,1,0,80,0,0
11331,-66.6666666666667,4,1,0,60,0,0
11372,-66.6666666666667,4,1,0,80,0,0
11412,-66.6666666666667,4,1,0,60,0,0
11453,-66.6666666666667,4,1,0,80,0,0
11493,-66.6666666666667,4,1,0,60,0,0
11534,-66.6666666666667,4,1,0,80,0,0
11574,-66.6666666666667,4,1,0,60,0,0
11615,-66.6666666666667,4,1,0,80,0,0
11939,-133.333333333333,4,2,0,50,0,0
15588,-133.333333333333,4,2,0,50,0,0
16074,-133.333333333333,4,2,0,50,0,0
22074,-133.333333333333,4,2,0,5,0,0
24588,-100,4,1,0,80,0,1
24993,-100,4,1,0,60,0,1
25074,-100,4,1,0,80,0,1
25642,-100,4,1,0,60,0,1
25723,-100,4,1,0,80,0,1
26047,-100,4,1,0,60,0,1
26128,-100,4,1,0,80,0,1
26291,-100,4,1,0,60,0,1
26372,-100,4,1,0,80,0,1
26696,-100,4,1,0,60,0,1
26777,-100,4,1,0,80,0,1
26939,-100,4,1,0,60,0,1
27020,-100,4,1,0,80,0,1
27588,-100,4,1,0,60,0,1
27669,-100,4,1,0,80,0,1
28236,-100,4,1,0,60,0,1
28318,-100,4,1,0,80,0,1
28966,-100,4,1,0,60,0,1
29047,-100,4,1,0,80,0,1
29372,-100,4,1,0,40,0,1
29453,-100,4,1,0,80,0,1
29534,-100,4,1,0,40,0,1
29615,-100,4,1,0,80,0,1
30182,-100,4,1,0,60,0,1
30264,-100,4,1,0,80,0,1
30831,-100,4,1,0,60,0,1
30912,-100,4,1,0,80,0,1
31480,-100,4,1,0,60,0,1
31561,-100,4,1,0,80,0,1
32128,-100,4,1,0,60,0,1
32209,-100,4,1,0,80,0,1
32453,-100,4,1,0,40,0,1
32534,-100,4,1,0,80,0,1
32615,-100,4,1,0,40,0,1
32696,-100,4,1,0,80,0,1
32777,-100,4,1,0,40,0,1
32858,-100,4,1,0,60,0,1
32939,-100,4,1,0,80,0,1
33020,-100,4,1,0,80,0,1
33101,-100,4,1,0,60,0,1
33182,-100,4,1,0,80,0,1
34966,-100,4,1,0,80,0,0
35047,-100,4,2,0,5,0,0
35453,-100,4,1,0,80,0,0
35534,-100,4,2,0,5,0,0
35939,-100,4,1,0,80,0,0
36020,-100,4,1,0,40,0,0
36264,-100,4,1,0,80,0,0
36345,-100,4,2,0,5,0,0
36750,-100,4,1,0,80,0,0
36831,-100,4,2,0,5,0,0
37236,-100,4,1,0,80,0,0
37318,-100,4,1,0,40,0,0
37561,-100,4,1,0,80,0,0
37642,-100,4,2,0,5,0,0
38047,-100,4,1,0,80,0,0
38128,-100,4,2,0,5,0,0
38534,-100,4,1,0,80,0,0
38615,-100,4,1,0,60,0,0
38777,-100,4,1,0,80,0,0
40236,-100,4,1,0,60,0,0
40399,-100,4,1,0,80,0,0
41209,-100,4,2,0,5,0,0
41453,-100,4,1,0,80,0,0
41534,-100,4,2,0,40,0,0
41777,-100,4,1,0,80,0,0
42020,-100,4,2,0,40,0,0
42264,-100,4,1,0,80,0,0
42507,-100,4,1,0,40,0,0
42669,-100,4,1,0,80,0,0
42993,-100,4,2,0,5,0,0
43074,-100,4,1,0,80,0,0
43318,-100,4,2,0,5,0,0
43399,-100,4,1,0,80,0,0
43480,-100,4,1,0,60,0,0
43642,-100,4,1,0,80,0,0
43804,-100,4,1,0,60,0,0
43966,-100,4,1,0,80,0,0
45264,-100,4,1,0,40,0,0
45345,-100,4,1,0,80,0,0
47615,-100,4,2,0,80,0,0
47939,-100,4,1,0,80,0,0
48912,-100,4,2,0,80,0,0
49236,-100,4,1,0,80,0,0
49318,-100,4,1,0,60,0,0
49480,-100,4,1,0,80,0,0
50209,-100,4,2,0,80,0,0
50534,-100,4,1,0,80,0,0
52804,-100,4,2,0,80,0,0
53128,-100,4,1,0,80,0,0
54101,-100,4,2,0,80,0,0
54426,-100,4,1,0,80,0,0
55804,-100,4,1,0,5,0,0
55885,-100,4,1,0,80,0,0
55966,-100,4,1,0,5,0,0
56047,-100,4,1,0,80,0,0
56128,-100,4,1,0,5,0,0
56209,-100,4,1,0,80,0,0
56291,-100,4,1,0,5,0,0
56534,-100,4,1,0,80,0,0
56615,-100,4,1,0,5,0,0
56696,-100,4,1,0,80,0,0
56777,-100,4,1,0,5,0,0
57020,-100,4,1,0,80,0,0
57101,-100,4,2,0,80,0,0
58236,-100,4,1,0,60,0,0
59209,-100,4,2,0,80,0,0
60831,-100,4,1,0,60,0,0
61885,-100,4,3,0,60,0,0
61966,-100,4,2,0,20,0,0
62047,-100,4,2,0,60,0,0
62128,-100,4,2,0,20,0,0
62209,-100,4,1,0,80,0,0
67480,-100,4,1,0,40,0,0
67561,-100,4,1,0,80,0,0
67642,-100,4,1,0,40,0,0
67723,-100,4,1,0,80,0,0
67804,-100,4,1,0,40,0,0
67885,-100,4,1,0,80,0,0
67966,-100,4,1,0,40,0,0
68047,-100,4,1,0,80,0,0
68128,-100,4,1,0,40,0,0
68209,-100,4,1,0,80,0,0
68291,-100,4,1,0,40,0,0
68372,-100,4,1,0,80,0,0
68453,-100,4,1,0,75,0,0
68534,-100,4,1,0,70,0,0
68615,-100,4,1,0,65,0,0
68696,-100,4,2,0,80,0,0
69993,-100,4,1,0,80,0,1
88155,-100,4,1,0,80,0,0
88236,-100,4,1,0,40,0,0
88399,-100,4,1,0,60,0,0
88561,-100,4,1,0,80,0,0
91074,-100,4,1,0,80,0,1
95939,-100,4,1,0,80,0,0
96264,-100,4,1,0,80,0,1
106642,-100,4,1,0,60,0,1
106723,-100,4,1,0,80,0,1
107291,-200,4,1,0,80,0,0
107372,-200,4,1,0,5,0,0
108264,-200,4,1,0,40,0,0
108426,-200,4,1,0,80,0,0
108912,-100,4,1,0,80,0,0
109236,-100,4,1,0,60,0,0
109318,-100,4,1,0,80,0,0
109885,-200,4,1,0,80,0,0
109966,-200,4,1,0,5,0,0
111182,-200,4,1,0,40,0,0
111345,-200,4,1,0,80,0,0

[HitObjects]
18,219,1237,6,0,L|32:343,1,105,4|0,0:0|0:0,0:0:0:0:
105,167,1561,2,0,L|117:272,1,105
218,288,1885,2,0,L|207:184,1,105
306,237,2209,2,0,L|294:132,1,105
225,52,2534,5,0,0:0:0:0:
321,36,2696,1,0,0:0:0:0:
191,27,2858,1,0,0:0:0:0:
355,61,3020,1,0,0:0:0:0:
355,61,3831,6,0,P|408:74|467:67,1,105
512,174,4155,2,0,P|459:161|400:168,1,105
328,227,4480,2,0,L|354:345,1,105
228,286,4804,2,0,L|205:183,1,105
225,80,5128,5,0,0:0:0:0:
131,106,5290,1,0,0:0:0:0:
245,42,5452,1,0,0:0:0:0:
110,143,5614,1,0,0:0:0:0:
110,143,6426,6,0,P|56:133|4:139,1,105
79,29,6750,2,0,P|133:39|185:33,1,105
284,9,7074,2,0,B|299:62|299:62|284:109,1,105
380,208,7399,2,0,B|365:155|365:155|380:108,1,105
461,41,7723,5,0,0:0:0:0:
488,134,7885,1,0,0:0:0:0:
481,2,8047,1,0,0:0:0:0:
468,173,8209,1,0,0:0:0:0:
468,173,9020,5,0,0:0:0:0:
468,173,10318,5,0,0:0:0:0:
153,244,10561,1,0,0:0:0:0:
360,153,10804,1,0,0:0:0:0:
311,239,10966,1,0,0:0:0:0:
217,269,11128,1,0,0:0:0:0:
118,257,11291,1,0,0:0:0:0:
56,180,11453,1,0,0:0:0:0:
62,149,11534,1,0,0:0:0:0:
69,118,11615,1,4,0:0:0:0:
147,57,11939,5,2,0:0:0:0:
242,31,12264,1,0,0:0:0:0:
332,69,12588,1,2,0:0:0:0:
366,160,12912,5,2,0:0:0:0:
366,160,13561,2,0,L|357:75,1,78.7500030040742,2|0,0:0|0:0,0:0:0:0:
281,145,13885,2,0,L|290:230,1,78.7500030040742
281,318,14209,5,0,0:0:0:0:
373,352,14534,1,2,0:0:0:0:
469,325,14858,1,0,0:0:0:0:
504,233,15182,1,2,0:0:0:0:
479,138,15507,5,2,0:0:0:0:
479,138,16155,1,2,0:0:0:0:
388,177,16480,1,2,0:0:0:0:
312,114,16804,5,2,0:0:0:0:
312,114,17777,1,2,0:0:0:0:
312,114,18101,5,2,0:0:0:0:
334,20,18264,1,2,0:0:0:0:
334,20,18588,1,2,0:0:0:0:
404,86,18750,2,0,P|407:128|394:166,1,78.7500030040742,2|0,0:0|0:0,0:0:0:0:
309,210,19074,2,0,P|268:199|236:175,1,78.7500030040742
186,98,19399,5,2,0:0:0:0:
186,98,20372,1,0,0:0:0:0:
241,180,20534,1,2,0:0:0:0:
340,174,20696,2,0,P|375:157|404:119,2,78.7500030040742,2|0|0,0:0|0:0|0:0,0:0:0:0:
284,92,21182,2,0,P|296:55|290:7,2,78.7500030040742,2|0|0,0:0|0:0|0:0,0:0:0:0:
186,73,21669,1,2,0:0:0:0:
473,28,21993,1,0,0:0:0:0:
473,28,24588,5,6,0:0:0:0:
378,0,24750,1,0,0:0:0:0:
378,0,24831,2,0,P|312:36|217:15,1,157.5,2|0,0:0|0:0,0:0:0:0:
79,144,25236,1,2,0:0:0:0:
174,172,25398,1,0,0:0:0:0:
174,172,25479,2,0,P|240:136|335:157,1,157.5,2|0,0:0|0:0,0:0:0:0:
443,80,25885,5,2,0:0:0:0:
501,166,26047,1,0,0:0:0:0:
501,166,26128,2,0,L|488:333,1,157.5,2|0,0:0|0:0,0:0:0:0:
333,369,26534,1,2,0:0:0:0:
275,283,26696,1,0,0:0:0:0:
275,283,26777,2,0,L|288:116,1,157.5,2|0,0:0|0:0,0:0:0:0:
196,20,27182,5,2,0:0:0:0:
104,58,27345,1,0,0:0:0:0:
104,58,27426,2,0,B|126:138|126:138|104:211,1,157.5,2|0,0:0|0:0,0:0:0:0:
229,313,27831,1,2,0:0:0:0:
321,275,27994,1,0,0:0:0:0:
321,275,28075,2,0,B|299:195|299:195|321:122,1,157.5,2|0,0:0|0:0,0:0:0:0:
400,19,28480,5,0,0:0:0:0:
507,92,28642,1,2,0:0:0:0:
316,130,28804,1,2,0:0:0:0:
316,130,29128,1,0,0:0:0:0:
362,7,29291,1,2,0:0:0:0:
452,101,29453,1,0,0:0:0:0:
406,224,29616,1,2,0:0:0:0:
499,192,29777,5,2,0:0:0:0:
453,315,29940,1,0,0:0:0:0:
453,315,30020,2,0,L|279:291,1,157.5,2|0,0:0|0:0,0:0:0:0:
9,242,30426,1,2,0:0:0:0:
55,368,30589,1,0,0:0:0:0:
55,368,30669,2,0,L|229:344,1,157.5,2|0,0:0|0:0,0:0:0:0:
371,321,31074,5,2,0:0:0:0:
458,223,31236,1,0,0:0:0:0:
458,223,31318,2,0,P|462:142|426:65,1,157.5,2|0,0:0|0:0,0:0:0:0:
243,29,31723,1,2,0:0:0:0:
156,127,31885,1,0,0:0:0:0:
156,127,31967,2,0,P|152:208|188:285,1,157.5,2|0,0:0|0:0,0:0:0:0:
305,358,32372,5,0,0:0:0:0:
457,235,32534,1,2,0:0:0:0:
331,273,32696,1,2,0:0:0:0:
331,273,33020,1,0,0:0:0:0:
249,169,33182,1,2,0:0:0:0:
324,59,33345,1,0,0:0:0:0:
344,64,33426,1,0,0:0:0:0:
364,69,33507,1,2,0:0:0:0:
428,142,33669,5,0,0:0:0:0:
306,194,33831,1,2,0:0:0:0:
219,93,33994,1,2,0:0:0:0:
472,236,34318,1,2,0:0:0:0:
60,313,34642,1,0,0:0:0:0:
53,292,34723,1,0,0:0:0:0:
46,271,34804,1,0,0:0:0:0:
39,250,34885,1,0,0:0:0:0:
33,229,34966,6,0,P|111:169|230:197,1,210,6|0,0:0|0:0,0:0:0:0:
452,287,35453,2,0,P|370:347|269:330,1,210,2|0,0:0|0:0,0:0:0:0:
143,291,35939,1,2,0:0:0:0:
143,291,36264,6,0,L|117:70,1,210,2|0,0:0|0:0,0:0:0:0:
330,0,36750,2,0,L|356:221,1,210,2|0,0:0|0:0,0:0:0:0:
374,340,37236,1,2,0:0:0:0:
374,340,37561,6,0,B|403:295|403:295|238:351,1,210,2|0,0:0|0:0,0:0:0:0:
46,260,38047,2,0,B|17:305|17:305|182:249,1,210,2|0,0:0|0:0,0:0:0:0:
289,211,38534,1,2,0:0:0:0:
289,211,38858,5,2,0:0:0:0:
261,115,39020,1,0,0:0:0:0:
444,176,39182,1,0,0:0:0:0:
444,176,39507,1,2,0:0:0:0:
416,272,39669,1,0,0:0:0:0:
327,317,39831,1,0,0:0:0:0:
228,303,39993,1,0,0:0:0:0:
216,285,40074,1,0,0:0:0:0:
204,267,40155,6,0,B|178:215|178:215|198:47,1,210,6|0,0:0|0:0,0:0:0:0:
382,11,40642,2,0,B|408:63|408:63|388:231,1,210,2|0,0:0|0:0,0:0:0:0:
362,342,41128,1,2,0:0:0:0:
167,301,41453,5,2,0:0:0:0:
465,178,41939,1,2,0:0:0:0:
50,114,42426,1,2,0:0:0:0:
50,114,42588,1,0,0:0:0:0:
292,22,42750,6,0,L|281:140,1,105
152,181,43074,2,0,L|163:63,1,105
83,19,43399,1,0,0:0:0:0:
83,19,43561,1,0,0:0:0:0:
5,74,43723,1,0,0:0:0:0:
5,74,43885,1,0,0:0:0:0:
47,204,44047,5,2,0:0:0:0:
172,171,44209,1,0,0:0:0:0:
276,334,44372,1,0,0:0:0:0:
151,301,44534,1,0,0:0:0:0:
410,243,44696,6,0,L|485:227,1,52.5,2|0,0:0|0:0,0:0:0:0:
269,201,44858,2,0,L|194:217,1,52.5
494,245,45020,6,0,L|443:256,1,52.5,2|0,0:0|0:0,0:0:0:0:
236,188,45182,2,0,L|161:204,1,52.5,2|0,0:0|0:0,0:0:0:0:
184,198,46642,6,2,L|397:222,1,210
512,93,47128,2,2,L|299:69,1,210
205,53,47615,1,8,0:0:0:0:
205,53,47939,6,2,P|199:148|285:218,1,210
104,359,48426,2,2,P|110:264|24:194,1,210
12,96,48912,1,8,0:0:0:0:
12,96,49236,6,2,L|119:70,1,105,2|0,0:0|0:0,0:0:0:0:
209,43,49561,1,2,0:0:0:0:
328,198,49723,2,2,P|250:142|145:178,1,210,0|2,0:0|0:0,0:0:0:0:
110,245,50209,1,8,0:0:0:0:
110,245,50534,5,0,0:0:0:0:
34,183,50696,1,2,0:0:0:0:
220,126,50858,1,2,0:0:0:0:
65,8,51020,2,2,P|3:83|49:195,1,210
114,217,51507,1,0,0:0:0:0:
114,217,51669,1,0,0:0:0:0:
348,89,51831,6,2,B|293:68|293:68|119:96,1,210,0|2,0:0|0:0,0:0:0:0:
23,248,52318,2,2,B|78:269|78:269|252:241,1,210,0|2,0:0|0:0,0:0:0:0:
354,216,52804,1,8,0:0:0:0:
354,216,53128,6,2,P|255:229|185:143,1,210,0|2,0:0|0:0,0:0:0:0:
290,27,53615,2,2,P|389:14|459:100,1,210,0|2,0:0|0:0,0:0:0:0:
491,217,54101,1,8,0:0:0:0:
491,217,54426,6,2,P|386:205|289:268,1,210,0|2,0:0|0:0,0:0:0:0:
27,150,54912,2,2,P|132:162|229:99,1,210,0|2,0:0|0:0,0:0:0:0:
309,18,55399,1,0,0:0:0:0:
309,18,55723,6,0,L|332:76,1,52.5,2|0,0:0|0:0,0:0:0:0:
236,159,55885,2,0,L|259:101,1,52.5,2|0,0:0|0:0,0:0:0:0:
161,20,56047,2,0,L|184:78,1,52.5
88,161,56209,2,0,L|111:103,1,52.5,2|0,0:0|0:0,0:0:0:0:
167,0,56534,6,0,L|190:58,1,52.5
94,181,56696,2,0,L|117:123,1,52.5,2|0,0:0|0:0,0:0:0:0:
113,132,57020,5,0,0:0:0:0:
232,79,57507,1,2,0:0:0:0:
322,173,57993,1,2,0:0:0:0:
288,267,58318,1,0,0:0:0:0:
225,152,58804,1,0,0:0:0:0:
311,55,59128,1,0,0:0:0:0:
311,55,59291,1,2,0:0:0:0:
311,55,59615,6,0,P|366:69|439:57,1,105,2|0,0:0|0:0,0:0:0:0:
512,175,59939,2,0,P|461:161|409:164,1,105
334,229,60264,1,2,0:0:0:0:
201,85,60588,1,0,0:0:0:0:
201,85,60912,5,0,0:0:0:0:
266,10,61074,1,0,0:0:0:0:
465,222,61398,1,0,0:0:0:0:
465,222,61885,2,0,L|451:158,1,52.5
433,220,62047,2,0,L|447:284,1,52.5
308,349,62209,6,0,P|241:358|172:346,1,105,2|0,0:0|0:0,0:0:0:0:
112,313,62534,1,0,0:0:0:0:
295,206,62696,6,0,P|362:197|431:209,1,105,2|0,0:0|0:0,0:0:0:0:
491,242,63021,1,0,0:0:0:0:
455,17,63182,6,0,B|470:70|470:70|455:117,1,105,2|0,0:0|0:0,0:0:0:0:
398,200,63507,1,0,0:0:0:0:
207,186,63669,6,0,B|192:133|192:133|207:86,1,105,2|0,0:0|0:0,0:0:0:0:
264,3,63994,1,0,0:0:0:0:
458,85,64155,5,2,0:0:0:0:
369,128,64318,1,0,0:0:0:0:
458,85,64480,1,0,0:0:0:0:
389,289,64642,5,2,0:0:0:0:
300,246,64805,1,0,0:0:0:0:
389,289,64967,1,0,0:0:0:0:
355,23,65128,5,2,0:0:0:0:
292,99,65291,1,0,0:0:0:0:
355,23,65453,1,0,0:0:0:0:
286,351,65615,5,2,0:0:0:0:
223,275,65778,1,0,0:0:0:0:
286,351,65940,1,0,0:0:0:0:
384,217,66101,5,2,0:0:0:0:
358,87,66264,1,2,0:0:0:0:
175,22,66426,5,0,0:0:0:0:
201,152,66589,1,2,0:0:0:0:
384,217,66750,5,0,0:0:0:0:
506,171,66912,1,2,0:0:0:0:
323,359,67074,5,2,0:0:0:0:
201,313,67236,1,2,0:0:0:0:
291,145,67399,6,0,L|307:214,1,52.5
361,200,67561,2,0,L|345:269,1,52.5
212,364,67723,6,0,L|196:295,1,52.5
142,309,67885,2,0,L|158:240,1,52.5
4,59,68047,6,0,L|20:128,1,52.5
74,114,68209,2,0,L|58:183,1,52.5
16,302,68372,5,0,0:0:0:0:
12,288,68453,1,0,0:0:0:0:
8,274,68534,1,0,0:0:0:0:
4,259,68615,1,0,0:0:0:0:
0,244,68696,1,0,0:0:0:0:
0,244,69993,6,0,P|51:260|121:246,1,105,6|0,0:0|0:0,0:0:0:0:
261,129,70318,2,0,P|210:113|140:127,1,105,10|0,0:0|0:0,0:0:0:0:
41,65,70642,1,2,0:0:0:0:
268,28,70804,1,0,0:0:0:0:
268,28,70885,2,2,P|336:61|357:162,1,157.5
286,357,71291,6,0,L|296:241,1,105,2|0,0:0|0:0,0:0:0:0:
122,61,71615,2,0,L|132:177,1,105,10|0,0:0|0:0,0:0:0:0:
144,293,71939,1,2,0:0:0:0:
296,235,72101,1,0,0:0:0:0:
323,203,72182,1,2,0:0:0:0:
332,161,72264,1,0,0:0:0:0:
328,119,72345,1,0,0:0:0:0:
312,80,72426,1,2,0:0:0:0:
280,52,72507,1,0,0:0:0:0:
238,45,72588,6,0,B|189:60|189:60|109:42,1,105,2|0,0:0|0:0,0:0:0:0:
0,227,72912,2,0,B|49:212|49:212|129:230,1,105,10|0,0:0|0:0,0:0:0:0:
177,330,73236,1,2,0:0:0:0:
319,250,73399,1,0,0:0:0:0:
319,250,73480,2,2,P|346:179|300:92,1,157.5,2|0,0:0|0:0,0:0:0:0:
81,159,73885,6,0,P|129:178|181:180,1,105,2|0,0:0|0:0,0:0:0:0:
390,21,74209,2,0,P|341:1|289:0,1,105,10|0,0:0|0:0,0:0:0:0:
188,78,74534,1,2,0:0:0:0:
374,138,74696,1,0,0:0:0:0:
297,202,74858,1,0,0:0:0:0:
265,183,74939,1,0,0:0:0:0:
228,180,75020,1,0,0:0:0:0:
193,192,75101,1,0,0:0:0:0:
170,221,75182,6,0,L|186:335,1,105,2|0,0:0|0:0,0:0:0:0:
15,174,75507,2,0,L|31:60,1,105,10|0,0:0|0:0,0:0:0:0:
149,17,75831,1,2,0:0:0:0:
296,150,75993,1,0,0:0:0:0:
296,150,76074,2,2,P|235:190|142:157,1,157.5
378,238,76480,6,0,P|424:264|489:244,1,105,2|0,0:0|0:0,0:0:0:0:
512,64,76804,2,0,P|466:38|401:58,1,105,10|0,0:0|0:0,0:0:0:0:
292,15,77128,1,2,0:0:0:0:
449,131,77291,1,0,0:0:0:0:
378,238,77453,1,0,0:0:0:0:
346,219,77534,1,0,0:0:0:0:
309,216,77615,1,0,0:0:0:0:
274,228,77696,1,0,0:0:0:0:
251,257,77777,6,0,L|267:371,1,105,2|0,0:0|0:0,0:0:0:0:
470,202,78101,2,0,L|454:88,1,105,10|0,0:0|0:0,0:0:0:0:
347,21,78426,1,2,0:0:0:0:
347,21,78588,1,0,0:0:0:0:
157,63,78750,1,2,0:0:0:0:
157,63,78912,1,0,0:0:0:0:
418,124,79074,5,0,0:0:0:0:
292,151,79236,1,2,0:0:0:0:
272,107,79318,1,0,0:0:0:0:
235,76,79399,1,0,0:0:0:0:
190,58,79480,1,0,0:0:0:0:
142,60,79561,1,2,0:0:0:0:
96,73,79642,1,0,0:0:0:0:
62,106,79723,1,0,0:0:0:0:
25,263,79885,1,0,0:0:0:0:
45,307,79967,1,0,0:0:0:0:
82,338,80048,1,2,0:0:0:0:
127,356,80129,1,0,0:0:0:0:
175,354,80210,1,0,0:0:0:0:
221,341,80291,1,0,0:0:0:0:
255,308,80372,6,0,L|247:198,1,105,2|0,0:0|0:0,0:0:0:0:
234,73,80696,1,8,0:0:0:0:
420,0,80858,2,0,L|412:110,1,105,2|0,0:0|0:0,0:0:0:0:
399,235,81182,1,0,0:0:0:0:
213,164,81345,2,0,P|162:153|110:154,1,105,10|0,0:0|0:0,0:0:0:0:
2,230,81669,1,0,0:0:0:0:
189,359,81831,2,0,P|241:359|292:348,1,105,2|8,0:0|0:0,0:0:0:0:
400,272,82155,1,0,0:0:0:0:
261,188,82318,1,2,0:0:0:0:
261,188,82480,1,2,0:0:0:0:
481,126,82642,1,8,0:0:0:0:
481,126,82804,1,0,0:0:0:0:
403,58,82966,6,0,L|296:44,1,105,2|0,0:0|0:0,0:0:0:0:
171,23,83291,1,8,0:0:0:0:
0,208,83453,2,0,L|107:194,1,105,2|0,0:0|0:0,0:0:0:0:
232,173,83778,1,0,0:0:0:0:
415,357,83939,2,0,P|361:365|307:338,1,105,10|0,0:0|0:0,0:0:0:0:
225,212,84264,1,0,0:0:0:0:
376,267,84426,1,2,0:0:0:0:
493,112,84588,2,0,P|444:92|393:100,1,105,10|0,0:0|0:0,0:0:0:0:
290,264,84912,1,2,0:0:0:0:
432,189,85074,1,2,0:0:0:0:
296,103,85236,1,0,0:0:0:0:
263,84,85318,1,0,0:0:0:0:
226,83,85399,1,0,0:0:0:0:
193,100,85480,1,0,0:0:0:0:
171,129,85561,6,0,L|191:240,1,105,2|0,0:0|0:0,0:0:0:0:
219,360,85885,1,8,0:0:0:0:
16,257,86047,2,0,L|36:146,1,105,2|0,0:0|0:0,0:0:0:0:
64,26,86371,1,0,0:0:0:0:
238,113,86534,2,0,P|292:125|357:116,1,105,10|0,0:0|0:0,0:0:0:0:
464,77,86858,1,0,0:0:0:0:
510,273,87020,2,0,P|456:261|391:270,1,105,2|8,0:0|0:0,0:0:0:0:
284,309,87344,1,0,0:0:0:0:
187,177,87507,2,0,B|182:125|182:125|212:50,1,105,2|0,0:0|0:0,0:0:0:0:
323,32,87831,1,0,0:0:0:0:
323,32,87912,1,0,0:0:0:0:
327,36,87993,1,0,0:0:0:0:
394,166,88155,5,0,0:0:0:0:
394,166,88642,1,0,0:0:0:0:
338,249,88804,1,0,0:0:0:0:
338,249,88885,1,0,0:0:0:0:
211,216,89047,1,0,0:0:0:0:
211,216,89128,1,0,0:0:0:0:
211,216,89209,1,0,0:0:0:0:
211,216,89291,1,0,0:0:0:0:
155,299,89453,5,0,0:0:0:0:
34,248,89615,1,0,0:0:0:0:
14,204,89696,1,0,0:0:0:0:
15,156,89777,1,0,0:0:0:0:
30,111,89858,1,0,0:0:0:0:
59,74,89939,1,0,0:0:0:0:
101,52,90020,1,0,0:0:0:0:
147,47,90101,1,0,0:0:0:0:
295,113,90264,1,0,0:0:0:0:
315,157,90345,1,0,0:0:0:0:
314,205,90426,1,0,0:0:0:0:
299,250,90507,1,0,0:0:0:0:
270,287,90588,1,0,0:0:0:0:
228,309,90669,1,0,0:0:0:0:
182,314,91074,6,0,L|295:339,1,105,14|0,0:0|0:0,0:0:0:0:
512,261,91399,2,0,L|399:236,1,105,2|0,0:0|0:0,0:0:0:0:
285,199,91723,1,10,0:0:0:0:
460,48,91885,2,0,P|472:103|448:168,2,105,0|0|2,0:0|0:0|0:0,0:0:0:0:
295,42,92372,2,0,B|244:27|244:27|192:42,1,105,10|0,0:0|0:0,0:0:0:0:
74,97,92696,1,2,0:0:0:0:
133,251,92858,2,0,B|184:266|184:266|236:251,1,105,0|8,0:0|0:0,0:0:0:0:
354,196,93182,1,2,0:0:0:0:
266,37,93345,6,0,P|256:88|263:151,1,105,2|0,0:0|0:0,0:0:0:0:
321,260,93669,1,10,0:0:0:0:
433,141,93831,1,0,0:0:0:0:
239,24,93993,2,0,P|229:75|236:138,1,105,2|0,0:0|0:0,0:0:0:0:
367,331,94318,2,0,P|377:280|370:217,1,105,10|0,0:0|0:0,0:0:0:0:
212,11,94642,2,0,P|202:62|209:125,1,105,2|0,0:0|0:0,0:0:0:0:
253,237,94966,1,8,0:0:0:0:
115,322,95128,1,2,0:0:0:0:
6,201,95291,2,0,L|34:90,1,105,2|0,0:0|0:0,0:0:0:0:
123,50,95615,1,2,0:0:0:0:
123,50,95696,1,0,0:0:0:0:
123,50,95777,1,0,0:0:0:0:
123,50,95858,1,0,0:0:0:0:
123,50,96264,6,0,P|179:65|238:55,1,105,14|0,0:0|0:0,0:0:0:0:
444,175,96588,2,0,P|392:169|341:184,1,105,2|0,0:0|0:0,0:0:0:0:
287,336,96912,1,8,0:0:0:0:
401,270,97074,1,2,0:0:0:0:
178,302,97236,2,0,L|67:282,2,105,2|0|8,0:0|0:0|0:0,0:0:0:0:
401,270,97723,2,0,L|512:250,2,105,2|0|0,0:0|0:0|0:0,0:0:0:0:
245,214,98209,1,10,0:0:0:0:
313,27,98372,1,0,0:0:0:0:
373,103,98534,6,2,B|370:146|390:184|390:184|416:132|438:88|436:3|436:3|505:54|531:240|424:144|424:307|500:370|500:370|452:326|388:314|323:342,1,840
346,333,100642,1,0,0:0:0:0:
253,364,100804,1,0,0:0:0:0:
172,310,100966,1,0,0:0:0:0:
175,294,101047,1,0,0:0:0:0:
178,278,101128,5,6,0:0:0:0:
200,149,101291,1,2,0:0:0:0:
79,256,101453,1,8,0:0:0:0:
68,61,101616,1,0,0:0:0:0:
258,217,101777,5,2,0:0:0:0:
280,88,101940,1,2,0:0:0:0:
159,195,102102,1,8,0:0:0:0:
148,0,102265,1,0,0:0:0:0:
338,282,102426,5,2,0:0:0:0:
360,153,102589,1,2,0:0:0:0:
239,260,102751,1,8,0:0:0:0:
228,65,102914,1,0,0:0:0:0:
418,221,103075,5,2,0:0:0:0:
440,92,103238,1,2,0:0:0:0:
319,199,103400,1,8,0:0:0:0:
308,4,103563,1,0,0:0:0:0:
440,92,103723,5,2,0:0:0:0:
326,154,103885,1,2,0:0:0:0:
481,198,104047,1,10,0:0:0:0:
264,258,104209,1,2,0:0:0:0:
368,52,104372,5,2,0:0:0:0:
254,114,104534,1,2,0:0:0:0:
409,158,104696,1,10,0:0:0:0:
192,218,104858,1,2,0:0:0:0:
18,75,105020,5,0,0:0:0:0:
18,75,105182,1,2,0:0:0:0:
275,23,105345,5,8,0:0:0:0:
275,23,105507,1,2,0:0:0:0:
85,217,105669,5,0,0:0:0:0:
85,217,105831,1,2,0:0:0:0:
327,318,105993,5,8,0:0:0:0:
365,291,106074,1,0,0:0:0:0:
383,247,106155,1,2,0:0:0:0:
380,199,106236,1,0,0:0:0:0:
358,156,106318,6,0,B|310:132|310:132|276:164|218:183|149:152,1,210
69,28,106804,1,0,0:0:0:0:
69,28,107291,2,0,B|0:77|32:195|79:151|116:265|62:315,1,315
234,280,108588,1,0,0:0:0:0:
234,280,108669,1,0,0:0:0:0:
234,280,108750,1,0,0:0:0:0:
234,280,108831,1,0,0:0:0:0:
234,280,108912,6,0,B|299:261|299:261|367:299|367:299|429:283,1,210
512,182,109399,1,0,0:0:0:0:
512,177,109885,2,0,P|410:315|202:238,1,420,0|8,0:0|0:0,0:0:0:0:
79,184,111507,5,0,0:0:0:0:
79,184,111831,1,8,0:0:0:0:
298,131,112155,1,0,0:0:0:0:
298,131,112480,1,8,0:0:0:0:
44,77,112804,1,0,0:0:0:0:
44,77,113128,1,8,0:0:0:0:
331,26,113453,5,8,0:0:0:0:
393,141,113615,1,8,0:0:0:0:
310,242,113777,1,4,0:0:0:0:
