osu file format v14

[General]
AudioFilename: HEAVENLY MOON.mp3
AudioLeadIn: 0
PreviewTime: 69993
Countdown: 0
SampleSet: Normal
StackLeniency: 0.3
Mode: 0
LetterboxInBreaks: 1
WidescreenStoryboard: 1

[Editor]
Bookmarks: 11615,24588,34966,46642,62209,69993,80372,91074,96264,106318
DistanceSpacing: 0.7
BeatDivisor: 4
GridSize: 8
TimelineZoom: 2.9

[Metadata]
Title:HEAVENLY MOON
TitleUnicode:HEAVENLY MOON
Artist:Tatsh
ArtistUnicode:Tatsh
Creator:Jenny
Version:Extra
Source:jubeat copious
Tags:
BeatmapID:751938
BeatmapSetID:336539

[Difficulty]
HPDrainRate:6.5
CircleSize:5
OverallDifficulty:8.9
ApproachRate:9
SliderMultiplier:1.9
SliderTickRate:1

[Events]
//Background and Video events
0,0,"bg.jpg",0,0
//Break Periods
//Storyboard Layer 0 (Background)
//Storyboard Layer 1 (Fail)
//Storyboard Layer 2 (Pass)
//Storyboard Layer 3 (Foreground)
//Storyboard Layer 4 (Overlay)
//Storyboard Sound Samples

[TimingPoints]
1237,324.324324324324,4,1,0,80,1,0
9426,-100,4,1,0,80,0,0
9588,-100,4,1,0,80,0,0
10318,-66.6666666666667,4,1,0,80,0,0
10480,-66.6666666666667,4,1,0,40,0,0
10561,-66.6666666666667,4,1,0,80,0,0
10723,-66.6666666666667,4,1,0,40,0,0
10804,-66.6666666666667,4,1,0,80,0,0
11047,-66.6666666666667,4,1,0,40,0,0
11128,-66.6666666666667,4,1,0,80,0,0
11209,-66.6666666666667,4,1,0,40,0,0
11291,-66.6666666666667,4,1,0,80,0,0
11331,-66.6666666666667,4,1,0,60,0,0
11372,-66.6666666666667,4,1,0,80,0,0
11412,-66.6666666666667,4,1,0,60,0,0
11453,-66.6666666666667,4,1,0,80,0,0
11493,-66.6666666666667,4,1,0,60,0,0
11534,-66.6666666666667,4,1,0,80,0,0
11574,-66.6666666666667,4,1,0,60,0,0
11615,-66.6666666666667,4,1,0,80,0,0
11939,-133.333333333333,4,2,0,50,0,0
22074,-133.333333333333,4,2,0,5,0,0
24588,-100,4,1,0,80,0,1
24993,-100,4,1,0,60,0,1
25074,-100,4,1,0,80,0,1
25642,-100,4,1,0,60,0,1
25723,-100,4,1,0,80,0,1
26047,-100,4,1,0,60,0,1
26128,-100,4,1,0,80,0,1
26291,-100,4,1,0,60,0,1
26372,-100,4,1,0,80,0,1
26696,-100,4,1,0,60,0,1
26777,-100,4,1,0,80,0,1
26939,-100,4,1,0,60,0,1
27020,-100,4,1,0,80,0,1
27588,-100,4,1,0,60,0,1
27669,-100,4,1,0,80,0,1
28236,-100,4,1,0,60,0,1
28318,-100,4,1,0,80,0,1
28966,-100,4,1,0,60,0,1
29047,-100,4,1,0,80,0,1
29372,-100,4,1,0,40,0,1
29453,-100,4,1,0,80,0,1
29534,-100,4,1,0,40,0,1
29615,-100,4,1,0,80,0,1
30182,-100,4,1,0,60,0,1
30264,-100,4,1,0,80,0,1
30831,-100,4,1,0,60,0,1
30912,-100,4,1,0,80,0,1
31480,-100,4,1,0,60,0,1
31561,-100,4,1,0,80,0,1
32128,-100,4,1,0,60,0,1
32209,-100,4,1,0,80,0,1
32453,-100,4,1,0,40,0,1
32534,-100,4,1,0,80,0,1
32615,-100,4,1,0,40,0,1
32696,-100,4,1,0,80,0,1
32777,-100,4,1,0,40,0,1
32858,-100,4,1,0,60,0,1
32939,-100,4,1,0,80,0,1
33101,-100,4,1,0,60,0,1
33182,-100,4,1,0,80,0,1
33669,-100,4,1,0,80,0,1
34318,-100,4,1,0,80,0,1
34966,-100,4,1,0,80,0,0
35047,-100,4,2,0,5,0,0
35453,-100,4,1,0,80,0,0
35534,-100,4,2,0,5,0,0
35939,-100,4,1,0,80,0,0
36020,-100,4,1,0,40,0,0
36264,-100,4,1,0,80,0,0
36345,-100,4,2,0,5,0,0
36750,-100,4,1,0,80,0,0
36831,-100,4,2,0,5,0,0
37236,-100,4,1,0,80,0,0
37318,-100,4,1,0,40,0,0
37561,-100,4,1,0,80,0,0
37642,-100,4,2,0,5,0,0
38047,-100,4,1,0,80,0,0
38128,-100,4,2,0,5,0,0
38534,-100,4,1,0,80,0,0
38615,-100,4,1,0,60,0,0
38777,-100,4,1,0,80,0,0
40236,-100,4,1,0,60,0,0
40399,-100,4,1,0,80,0,0
41209,-100,4,2,0,5,0,0
41453,-100,4,1,0,80,0,0
41534,-100,4,2,0,40,0,0
41777,-100,4,1,0,80,0,0
42020,-100,4,2,0,40,0,0
42264,-100,4,1,0,80,0,0
42507,-100,4,1,0,40,0,0
42669,-100,4,1,0,80,0,0
42993,-100,4,2,0,5,0,0
43074,-100,4,1,0,80,0,0
43318,-100,4,2,0,5,0,0
43399,-100,4,1,0,80,0,0
43480,-100,4,1,0,60,0,0
43642,-100,4,1,0,80,0,0
43804,-100,4,1,0,60,0,0
43966,-100,4,1,0,80,0,0
45264,-100,4,1,0,40,0,0
45345,-100,4,1,0,80,0,0
47615,-100,4,2,0,80,0,0
47939,-100,4,1,0,80,0,0
48912,-100,4,2,0,80,0,0
49236,-100,4,1,0,80,0,0
49318,-100,4,1,0,60,0,0
49480,-100,4,1,0,80,0,0
50209,-100,4,2,0,80,0,0
50534,-100,4,1,0,80,0,0
52804,-100,4,2,0,80,0,0
53128,-100,4,1,0,80,0,0
54101,-100,4,2,0,80,0,0
54426,-100,4,1,0,80,0,0
55804,-100,4,1,0,5,0,0
55885,-100,4,1,0,80,0,0
55966,-100,4,1,0,5,0,0
56047,-100,4,1,0,80,0,0
56128,-100,4,1,0,5,0,0
56209,-100,4,1,0,80,0,0
56291,-100,4,1,0,5,0,0
56534,-100,4,1,0,80,0,0
56615,-100,4,1,0,5,0,0
56696,-100,4,1,0,80,0,0
56777,-100,4,1,0,5,0,0
57020,-100,4,1,0,80,0,0
57101,-100,4,2,0,80,0,0
58236,-100,4,1,0,60,0,0
59209,-100,4,2,0,80,0,0
60831,-100,4,1,0,60,0,0
61885,-100,4,3,0,60,0,0
61966,-100,4,2,0,20,0,0
62047,-100,4,2,0,60,0,0
62128,-100,4,2,0,20,0,0
62209,-100,4,1,0,80,0,0
67480,-100,4,1,0,40,0,0
67561,-100,4,1,0,80,0,0
67642,-100,4,1,0,40,0,0
67723,-100,4,1,0,80,0,0
67804,-100,4,1,0,40,0,0
67885,-100,4,1,0,80,0,0
67966,-100,4,1,0,40,0,0
68047,-100,4,1,0,80,0,0
68128,-100,4,1,0,40,0,0
68209,-100,4,1,0,80,0,0
68291,-100,4,1,0,40,0,0
68372,-100,4,1,0,80,0,0
68453,-100,4,1,0,75,0,0
68534,-100,4,1,0,70,0,0
68615,-100,4,1,0,65,0,0
68696,-100,4,2,0,80,0,0
69993,-100,4,1,0,80,0,1
88155,-100,4,1,0,80,0,0
88236,-100,4,1,0,40,0,0
88399,-100,4,1,0,60,0,0
88561,-100,4,1,0,80,0,0
91074,-100,4,1,0,80,0,1
95939,-100,4,1,0,80,0,0
96264,-100,4,1,0,80,0,1
106642,-100,4,1,0,60,0,1
106723,-100,4,1,0,80,0,1
107291,-200,4,1,0,80,0,0
107372,-200,4,1,0,5,0,0
108264,-200,4,1,0,40,0,0
108426,-200,4,1,0,80,0,0
108912,-100,4,1,0,80,0,0
109236,-100,4,1,0,60,0,0
109318,-100,4,1,0,80,0,0
109885,-200,4,1,0,80,0,0
109966,-200,4,1,0,5,0,0
111182,-200,4,1,0,40,0,0
111345,-200,4,1,0,80,0,0

[HitObjects]
140,180,1237,5,4,0:0:0:0:
155,105,1399,1,0,0:0:0:0:
210,185,1561,1,0,0:0:0:0:
185,112,1723,1,0,0:0:0:0:
272,153,1885,1,0,0:0:0:0:
214,103,2047,1,0,0:0:0:0:
309,95,2209,1,0,0:0:0:0:
234,80,2371,1,0,0:0:0:0:
312,25,2534,5,0,0:0:0:0:
427,83,2696,1,0,0:0:0:0:
369,198,2858,1,0,0:0:0:0:
254,140,3020,1,0,0:0:0:0:
254,140,3831,5,0,0:0:0:0:
236,66,3993,1,0,0:0:0:0:
223,146,4155,1,0,0:0:0:0:
170,91,4317,1,0,0:0:0:0:
201,167,4479,1,0,0:0:0:0:
127,146,4641,1,0,0:0:0:0:
193,196,4803,1,0,0:0:0:0:
118,214,4965,1,0,0:0:0:0:
200,224,5128,5,0,0:0:0:0:
313,285,5290,1,0,0:0:0:0:
374,171,5452,1,0,0:0:0:0:
261,110,5614,1,0,0:0:0:0:
261,110,6426,5,0,0:0:0:0:
351,79,6588,1,0,0:0:0:0:
427,183,6750,1,0,0:0:0:0:
337,152,6912,1,0,0:0:0:0:
261,256,7074,1,0,0:0:0:0:
351,225,7236,1,0,0:0:0:0:
427,329,7399,1,0,0:0:0:0:
337,298,7561,1,0,0:0:0:0:
489,244,7723,5,0,0:0:0:0:
454,86,7885,1,0,0:0:0:0:
383,194,8047,1,0,0:0:0:0:
418,352,8209,1,0,0:0:0:0:
418,352,9020,5,0,0:0:0:0:
457,263,9182,1,0,0:0:0:0:
282,346,9345,2,0,P|235:361|156:348,1,95
49,286,9669,2,0,B|40:307|49:325|49:325|74:307|93:228|72:165,1,190
50,122,10155,1,0,0:0:0:0:
209,11,10318,5,0,0:0:0:0:
267,230,10480,1,0,0:0:0:0:
267,230,10561,2,0,P|253:158|308:85,1,142.500005435944
344,74,10804,1,0,0:0:0:0:
425,175,10966,2,0,P|396:197|346:207,1,71.2500027179719
177,261,11128,2,0,P|200:287|248:306,1,71.2500027179719
391,332,11291,2,0,L|429:319,2,35.625001358986
338,384,11453,2,0,L|300:371,2,35.625001358986
466,372,11615,1,4,0:0:0:0:
466,372,11939,5,2,0:0:0:0:
489,304,12264,1,0,0:0:0:0:
432,260,12588,1,2,0:0:0:0:
342,298,12912,6,0,P|308:309|263:305,1,71.2500027179719,2|0,0:0|0:0,0:0:0:0:
225,224,13236,2,0,P|259:213|304:217,1,71.2500027179719
360,175,13561,1,2,0:0:0:0:
337,157,13723,1,0,0:0:0:0:
328,129,13885,1,0,0:0:0:0:
331,100,14047,1,0,0:0:0:0:
346,76,14209,5,0,0:0:0:0:
436,111,14534,1,2,0:0:0:0:
284,164,14858,1,0,0:0:0:0:
470,214,15182,1,2,0:0:0:0:
408,290,15507,6,0,P|349:255|275:277,1,142.500005435944,2|0,0:0|0:0,0:0:0:0:
253,330,15993,1,0,0:0:0:0:
335,230,16155,2,0,P|339:192|324:154,1,71.2500027179719,2|0,0:0|0:0,0:0:0:0:
235,132,16480,2,0,P|231:167|242:201,1,71.2500027179719,2|0,0:0|0:0,0:0:0:0:
294,245,16804,5,2,0:0:0:0:
294,245,16966,1,0,0:0:0:0:
364,225,17128,1,0,0:0:0:0:
364,225,17290,1,0,0:0:0:0:
430,262,17453,1,2,0:0:0:0:
430,262,17615,1,0,0:0:0:0:
500,242,17777,2,0,L|490:167,1,71.2500027179719,2|0,0:0|0:0,0:0:0:0:
477,101,18101,5,2,0:0:0:0:
390,144,18264,2,0,P|351:153|298:146,1,71.2500027179719,2|0,0:0|0:0,0:0:0:0:
320,151,18588,1,2,0:0:0:0:
246,94,18750,1,2,0:0:0:0:
222,120,18912,1,0,0:0:0:0:
186,125,19074,1,0,0:0:0:0:
152,113,19236,1,0,0:0:0:0:
68,66,19399,6,0,P|37:124|57:200,1,142.500005435944,2|0,0:0|0:0,0:0:0:0:
110,225,19885,1,0,0:0:0:0:
143,212,20047,1,0,0:0:0:0:
178,218,20209,1,0,0:0:0:0:
206,239,20372,1,0,0:0:0:0:
219,271,20534,1,2,0:0:0:0:
220,306,20696,6,0,L|204:381,1,71.2500027179719,2|0,0:0|0:0,0:0:0:0:
205,375,21020,1,0,0:0:0:0:
309,299,21182,2,0,L|293:224,1,71.2500027179719,2|0,0:0|0:0,0:0:0:0:
294,229,21506,1,0,0:0:0:0:
190,153,21669,2,0,P|175:187|179:239,1,71.2500027179719,2|0,0:0|0:0,0:0:0:0:
204,285,21993,1,0,0:0:0:0:
204,285,24588,5,6,0:0:0:0:
269,175,24750,1,0,0:0:0:0:
269,175,24831,2,0,P|269:124|237:64,1,95,2|0,0:0|0:0,0:0:0:0:
233,69,25074,1,0,0:0:0:0:
113,117,25236,1,2,0:0:0:0:
369,165,25399,1,0,0:0:0:0:
369,165,25480,2,0,P|413:148|468:156,1,95,2|0,0:0|0:0,0:0:0:0:
481,162,25723,1,0,0:0:0:0:
445,352,25885,6,0,L|436:253,1,95,2|0,0:0|0:0,0:0:0:0:
326,138,26128,2,0,L|335:237,1,95,2|0,0:0|0:0,0:0:0:0:
338,256,26372,1,0,0:0:0:0:
507,61,26534,2,0,P|464:41|400:54,1,95,2|0,0:0|0:0,0:0:0:0:
326,138,26777,2,0,P|369:158|433:145,1,95,2|0,0:0|0:0,0:0:0:0:
437,145,27020,1,0,0:0:0:0:
281,32,27182,5,2,0:0:0:0:
229,86,27345,1,0,0:0:0:0:
229,86,27426,2,0,P|154:92|91:45,1,142.5,2|0,0:0|0:0,0:0:0:0:
0,293,27831,1,2,0:0:0:0:
24,222,27994,1,0,0:0:0:0:
24,222,28075,2,0,P|89:184|166:200,1,142.5,2|0,0:0|0:0,0:0:0:0:
195,254,28480,5,0,0:0:0:0:
160,63,28642,1,2,0:0:0:0:
269,132,28804,2,0,P|276:180|254:238,1,95,2|0,0:0|0:0,0:0:0:0:
195,254,29128,1,0,0:0:0:0:
74,208,29291,2,0,L|27:201,1,47.5,2|0,0:0|0:0,0:0:0:0:
164,116,29453,2,0,L|211:109,1,47.5
74,24,29615,1,2,0:0:0:0:
52,34,29696,1,0,0:0:0:0:
30,44,29777,5,2,0:0:0:0:
97,264,29939,1,0,0:0:0:0:
97,264,30020,2,0,P|123:205|99:130,1,142.5,2|0,0:0|0:0,0:0:0:0:
300,240,30426,1,2,0:0:0:0:
234,28,30588,1,0,0:0:0:0:
234,28,30669,2,0,P|208:87|232:162,1,142.5,2|0,0:0|0:0,0:0:0:0:
407,237,31074,5,2,0:0:0:0:
484,176,31236,1,0,0:0:0:0:
484,176,31318,2,0,L|391:145,1,95,2|0,0:0|0:0,0:0:0:0:
370,139,31561,1,0,0:0:0:0:
124,293,31723,1,2,0:0:0:0:
47,232,31885,1,0,0:0:0:0:
47,232,31967,2,0,L|140:201,1,95,2|0,0:0|0:0,0:0:0:0:
161,195,32210,1,0,0:0:0:0:
78,19,32372,5,0,0:0:0:0:
5,127,32534,1,2,0:0:0:0:
219,56,32696,2,0,P|270:51|328:75,1,95,2|0,0:0|0:0,0:0:0:0:
403,31,33020,1,0,0:0:0:0:
481,174,33182,1,2,0:0:0:0:
372,297,33345,1,0,0:0:0:0:
344,264,33426,1,0,0:0:0:0:
341,221,33507,1,2,0:0:0:0:
357,181,33588,1,0,0:0:0:0:
391,155,33669,5,0,0:0:0:0:
491,236,33831,1,2,0:0:0:0:
185,334,33993,1,2,0:0:0:0:
468,278,34318,1,2,0:0:0:0:
277,245,34642,1,0,0:0:0:0:
305,212,34723,1,0,0:0:0:0:
308,169,34804,1,0,0:0:0:0:
292,129,34885,1,0,0:0:0:0:
258,103,34966,6,0,B|243:95|218:108|214:146|186:170|144:192|88:183|49:163,1,237.5,6|0,0:0|0:0,0:0:0:0:
0,351,35453,2,0,B|15:359|40:346|44:308|72:284|114:262|170:271|208:290,1,237.5,2|0,0:0|0:0,0:0:0:0:
284,271,35939,2,0,L|269:369,1,95,2|0,0:0|0:0,0:0:0:0:
124,292,36264,6,0,B|96:250|115:165|144:199|158:107|124:65,1,237.5,2|0,0:0|0:0,0:0:0:0:
307,3,36750,2,0,P|434:-7|512:84,1,237.5,2|0,0:0|0:0,0:0:0:0:
462,128,37236,2,0,L|478:228,1,95,2|0,0:0|0:0,0:0:0:0:
397,363,37561,6,0,P|310:299|188:343,1,237.5,2|0,0:0|0:0,0:0:0:0:
0,167,38047,2,0,P|108:204|202:139,1,237.5,2|0,0:0|0:0,0:0:0:0:
276,159,38534,2,0,L|262:60,1,95,2|0,0:0|0:0,0:0:0:0:
202,16,38858,5,2,0:0:0:0:
94,136,39020,1,0,0:0:0:0:
251,169,39182,1,0,0:0:0:0:
251,169,39507,1,2,0:0:0:0:
277,75,39669,1,0,0:0:0:0:
151,223,39831,1,0,0:0:0:0:
243,193,39993,1,0,0:0:0:0:
276,192,40074,1,0,0:0:0:0:
305,207,40155,6,0,P|319:252|309:305,1,95,6|0,0:0|0:0,0:0:0:0:
278,356,40480,1,0,0:0:0:0:
56,306,40642,2,0,P|147:318|218:259,1,190,2|0,0:0|0:0,0:0:0:0:
89,71,41128,2,0,P|76:139|111:200,1,142.5,2|0,0:0|0:0,0:0:0:0:
167,231,41453,5,2,0:0:0:0:
484,170,41939,1,2,0:0:0:0:
10,81,42426,1,2,0:0:0:0:
10,81,42588,1,0,0:0:0:0:
190,10,42750,6,0,L|336:24,1,142.5
418,122,43074,2,0,L|276:108,1,142.5
211,124,43399,1,0,0:0:0:0:
233,29,43561,1,0,0:0:0:0:
126,104,43723,1,0,0:0:0:0:
104,199,43885,1,0,0:0:0:0:
292,153,44047,5,2,0:0:0:0:
36,114,44209,1,0,0:0:0:0:
257,72,44372,1,0,0:0:0:0:
115,152,44534,1,0,0:0:0:0:
355,62,44696,6,0,L|343:14,1,47.5,2|0,0:0|0:0,0:0:0:0:
279,233,44858,2,0,L|291:281,1,47.5
328,154,45020,6,0,L|316:106,1,47.5,2|0,0:0|0:0,0:0:0:0:
252,325,45182,2,0,L|264:373,1,47.5,2|0,0:0|0:0,0:0:0:0:
263,371,46642,6,2,P|332:318|428:349,1,190
512,136,47128,2,2,P|438:189|350:161,1,190
300,76,47615,1,8,0:0:0:0:
300,76,47939,6,2,P|314:153|246:243,1,190
67,183,48426,2,2,P|53:106|121:16,1,190
212,7,48912,1,8,0:0:0:0:
212,7,49236,6,2,L|201:104,1,95,2|0,0:0|0:0,0:0:0:0:
191,167,49561,1,2,0:0:0:0:
364,312,49723,2,2,L|342:117,1,190,0|2,0:0|0:0,0:0:0:0:
390,40,50209,1,8,0:0:0:0:
390,40,50534,5,0,0:0:0:0:
491,121,50696,1,2,0:0:0:0:
268,157,50858,1,2,0:0:0:0:
500,269,51020,2,2,P|436:325|322:287,1,190
287,223,51507,1,0,0:0:0:0:
434,156,51669,1,0,0:0:0:0:
159,63,51831,6,2,P|117:127|139:237,1,190,0|2,0:0|0:0,0:0:0:0:
357,367,52318,2,2,P|399:303|377:193,1,190,0|2,0:0|0:0,0:0:0:0:
296,145,52804,1,8,0:0:0:0:
296,145,53128,6,2,L|488:183,1,190,0|2,0:0|0:0,0:0:0:0:
225,49,53615,2,2,L|33:87,1,190,0|2,0:0|0:0,0:0:0:0:
12,180,54101,1,8,0:0:0:0:
12,180,54426,6,2,P|53:112|18:9,1,190,0|2,0:0|0:0,0:0:0:0:
207,192,54912,2,2,P|166:260|201:363,1,190,0|2,0:0|0:0,0:0:0:0:
294,377,55399,1,0,0:0:0:0:
498,279,55561,1,0,0:0:0:0:
479,284,55642,1,0,0:0:0:0:
461,291,55723,6,0,L|413:284,1,47.5,2|0,0:0|0:0,0:0:0:0:
160,242,55885,2,0,L|208:235,1,47.5,2|0,0:0|0:0,0:0:0:0:
429,197,56047,2,0,L|381:190,1,47.5
193,149,56209,2,0,L|241:142,1,47.5,2|0,0:0|0:0,0:0:0:0:
411,181,56534,6,0,L|363:174,1,47.5
211,133,56696,2,0,L|259:126,1,47.5,2|0,0:0|0:0,0:0:0:0:
258,126,57020,5,0,0:0:0:0:
174,26,57507,1,2,0:0:0:0:
50,67,57993,1,2,0:0:0:0:
82,125,58318,1,0,0:0:0:0:
15,236,58804,1,0,0:0:0:0:
79,316,59128,1,0,0:0:0:0:
79,316,59291,1,2,0:0:0:0:
79,316,59615,6,0,P|127:308|179:336,1,95,2|0,0:0|0:0,0:0:0:0:
168,325,59939,1,0,0:0:0:0:
226,278,60101,1,0,0:0:0:0:
121,199,60264,2,0,L|4:215,1,95,2|0,0:0|0:0,0:0:0:0:
221,97,60588,2,0,L|338:113,1,95
374,158,60912,5,0,0:0:0:0:
352,29,61074,1,0,0:0:0:0:
506,235,61399,1,0,0:0:0:0:
506,235,61885,2,0,L|454:248,1,47.5
389,230,62047,2,0,L|337:217,1,47.5
277,249,62209,5,2,0:0:0:0:
315,125,62372,1,0,0:0:0:0:
181,308,62534,1,0,0:0:0:0:
340,276,62696,5,2,0:0:0:0:
86,231,62858,1,0,0:0:0:0:
273,180,63020,1,0,0:0:0:0:
208,66,63182,5,2,0:0:0:0:
239,259,63345,1,0,0:0:0:0:
309,11,63507,1,0,0:0:0:0:
381,119,63669,5,2,0:0:0:0:
126,162,63831,1,0,0:0:0:0:
310,225,63993,1,0,0:0:0:0:
276,99,64155,5,2,0:0:0:0:
146,323,64318,1,0,0:0:0:0:
127,194,64480,1,0,0:0:0:0:
332,349,64642,5,2,0:0:0:0:
143,303,64804,1,0,0:0:0:0:
493,251,64966,1,0,0:0:0:0:
458,125,65128,5,2,0:0:0:0:
427,315,65291,1,0,0:0:0:0:
356,34,65453,1,0,0:0:0:0:
297,187,65615,5,2,0:0:0:0:
444,119,65777,1,0,0:0:0:0:
249,289,65939,1,0,0:0:0:0:
185,141,66101,5,2,0:0:0:0:
400,77,66264,1,2,0:0:0:0:
238,277,66426,5,0,0:0:0:0:
23,213,66589,1,2,0:0:0:0:
145,22,66750,5,0,0:0:0:0:
179,247,66912,1,2,0:0:0:0:
380,351,67074,5,2,0:0:0:0:
346,126,67236,1,2,0:0:0:0:
272,270,67399,6,0,L|341:255,1,47.5
247,306,67561,2,0,L|316:291,1,47.5
487,178,67723,6,0,L|418:163,1,47.5
512,214,67885,2,0,L|443:199,1,47.5
85,151,68047,6,0,L|154:136,1,47.5
60,187,68209,2,0,L|129:172,1,47.5
381,264,68372,5,0,0:0:0:0:
407,252,68453,1,0,0:0:0:0:
435,255,68534,1,0,0:0:0:0:
459,269,68615,1,0,0:0:0:0:
475,292,68696,1,0,0:0:0:0:
475,292,69993,6,0,L|374:308,1,95,6|0,0:0|0:0,0:0:0:0:
73,209,70318,2,0,L|174:225,1,95,10|0,0:0|0:0,0:0:0:0:
238,200,70642,1,2,0:0:0:0:
177,19,70804,1,0,0:0:0:0:
177,19,70885,2,2,P|133:65|142:146,1,142.5
259,331,71291,6,0,L|245:232,1,95,2|0,0:0|0:0,0:0:0:0:
407,36,71615,2,0,L|393:135,1,95,10|0,0:0|0:0,0:0:0:0:
380,204,71939,1,2,0:0:0:0:
502,158,72101,1,0,0:0:0:0:
486,123,72182,1,2,0:0:0:0:
457,97,72264,1,0,0:0:0:0:
422,81,72345,1,0,0:0:0:0:
384,75,72426,1,2,0:0:0:0:
346,80,72507,1,0,0:0:0:0:
312,97,72588,6,0,L|291:198,1,95,2|0,0:0|0:0,0:0:0:0:
450,355,72912,2,0,L|429:254,1,95,10|0,0:0|0:0,0:0:0:0:
411,188,73236,1,2,0:0:0:0:
239,335,73399,1,0,0:0:0:0:
239,335,73480,2,2,P|310:348|360:302,1,142.5,2|0,0:0|0:0,0:0:0:0:
422,155,73885,6,0,L|410:58,1,95,2|0,0:0|0:0,0:0:0:0:
158,13,74209,2,0,L|170:110,1,95,10|0,0:0|0:0,0:0:0:0:
179,182,74534,1,2,0:0:0:0:
63,120,74696,1,0,0:0:0:0:
252,79,74858,1,0,0:0:0:0:
274,109,74939,1,0,0:0:0:0:
308,125,75020,1,0,0:0:0:0:
345,125,75101,1,0,0:0:0:0:
379,109,75182,6,0,L|361:12,1,95,2|0,0:0|0:0,0:0:0:0:
512,183,75507,2,0,L|494:280,1,95,10|0,0:0|0:0,0:0:0:0:
437,326,75831,1,2,0:0:0:0:
231,238,75993,1,0,0:0:0:0:
231,238,76074,2,2,P|286:198|360:224,1,142.5
505,158,76480,6,0,L|405:144,1,95,2|0,0:0|0:0,0:0:0:0:
153,338,76804,2,0,L|253:324,1,95,10|0,0:0|0:0,0:0:0:0:
299,270,77128,1,2,0:0:0:0:
259,111,77291,1,0,0:0:0:0:
232,336,77453,1,0,0:0:0:0:
259,310,77534,1,0,0:0:0:0:
296,309,77615,1,0,0:0:0:0:
331,321,77696,1,0,0:0:0:0:
354,350,77777,6,0,L|346:251,1,95,2|0,0:0|0:0,0:0:0:0:
486,38,78101,2,0,L|478:137,1,95,10|0,0:0|0:0,0:0:0:0:
469,208,78426,1,2,0:0:0:0:
397,100,78588,1,0,0:0:0:0:
364,259,78750,1,2,0:0:0:0:
436,367,78912,1,0,0:0:0:0:
469,208,79074,5,0,0:0:0:0:
351,264,79236,1,2,0:0:0:0:
314,276,79318,1,0,0:0:0:0:
276,271,79399,1,0,0:0:0:0:
245,248,79480,1,0,0:0:0:0:
219,220,79561,1,2,0:0:0:0:
188,197,79642,1,0,0:0:0:0:
150,192,79723,1,0,0:0:0:0:
113,204,79805,1,0,0:0:0:0:
91,234,79885,2,0,L|68:227,1,23.75
85,271,79966,1,0,0:0:0:0:
100,305,80047,1,2,0:0:0:0:
130,327,80128,1,0,0:0:0:0:
167,333,80209,2,0,L|171:363,1,23.75
203,321,80291,1,0,0:0:0:0:
228,292,80372,6,0,L|216:189,1,95,2|0,0:0|0:0,0:0:0:0:
205,122,80696,1,8,0:0:0:0:
355,0,80858,2,0,L|343:103,1,95,2|0,0:0|0:0,0:0:0:0:
332,170,81182,1,0,0:0:0:0:
482,292,81345,2,0,P|491:241|476:192,1,95,10|0,0:0|0:0,0:0:0:0:
419,154,81669,1,0,0:0:0:0:
211,246,81831,2,0,P|202:297|217:346,1,95,2|8,0:0|0:0,0:0:0:0:
274,384,82155,1,0,0:0:0:0:
384,313,82318,1,2,0:0:0:0:
98,257,82480,1,2,0:0:0:0:
208,186,82642,1,8,0:0:0:0:
214,316,82804,1,0,0:0:0:0:
206,333,82885,1,0,0:0:0:0:
199,350,82966,6,0,L|217:245,1,95,2|0,0:0|0:0,0:0:0:0:
228,181,83291,1,8,0:0:0:0:
407,44,83453,2,0,P|411:93|386:144,1,95,2|0,0:0|0:0,0:0:0:0:
328,174,83777,1,0,0:0:0:0:
85,83,83939,2,0,P|136:62|204:70,1,95,10|0,0:0|0:0,0:0:0:0:
245,92,84264,1,0,0:0:0:0:
210,253,84426,1,2,0:0:0:0:
29,119,84588,2,0,L|48:18,1,95,10|0,0:0|0:0,0:0:0:0:
118,2,84912,1,2,0:0:0:0:
76,227,85074,1,2,0:0:0:0:
255,370,85236,1,0,0:0:0:0:
274,336,85318,1,0,0:0:0:0:
309,323,85399,1,0,0:0:0:0:
346,326,85480,1,0,0:0:0:0:
378,345,85561,6,0,L|359:246,1,95,2|0,0:0|0:0,0:0:0:0:
344,177,85885,1,8,0:0:0:0:
501,12,86047,2,0,L|482:111,1,95,2|0,0:0|0:0,0:0:0:0:
467,180,86371,1,0,0:0:0:0:
274,56,86534,2,0,P|227:45|174:51,1,95,10|0,0:0|0:0,0:0:0:0:
111,80,86858,1,0,0:0:0:0:
43,297,87020,2,0,P|90:308|143:302,1,95,2|8,0:0|0:0,0:0:0:0:
206,273,87344,1,0,0:0:0:0:
251,117,87507,2,0,L|239:18,1,95,2|0,0:0|0:0,0:0:0:0:
50,67,87831,1,0,0:0:0:0:
64,102,87912,1,0,0:0:0:0:
96,121,87993,1,0,0:0:0:0:
133,126,88074,1,0,0:0:0:0:
169,116,88155,5,0,0:0:0:0:
169,116,88642,1,0,0:0:0:0:
209,51,88804,1,0,0:0:0:0:
209,51,88885,1,0,0:0:0:0:
263,183,89047,1,0,0:0:0:0:
263,183,89128,1,0,0:0:0:0:
263,183,89209,1,0,0:0:0:0:
263,183,89291,1,0,0:0:0:0:
294,91,89453,5,0,0:0:0:0:
318,62,89534,1,0,0:0:0:0:
355,56,89615,1,0,0:0:0:0:
388,74,89696,1,0,0:0:0:0:
412,102,89777,1,0,0:0:0:0:
445,120,89858,1,0,0:0:0:0:
482,114,89939,1,0,0:0:0:0:
506,85,90020,1,0,0:0:0:0:
488,23,90101,5,0,0:0:0:0:
484,14,90182,1,0,0:0:0:0:
424,57,90264,5,0,0:0:0:0:
420,48,90345,1,0,0:0:0:0:
360,91,90426,5,0,0:0:0:0:
356,82,90507,1,0,0:0:0:0:
296,125,90588,5,0,0:0:0:0:
292,116,90669,1,0,0:0:0:0:
296,125,91074,6,0,P|306:73|288:29,1,95,14|0,0:0|0:0,0:0:0:0:
219,10,91399,1,2,0:0:0:0:
34,68,91561,1,0,0:0:0:0:
104,135,91723,2,0,L|209:112,1,95,10|0,0:0|0:0,0:0:0:0:
266,144,92047,1,0,0:0:0:0:
232,304,92209,1,2,0:0:0:0:
350,256,92372,2,0,P|310:236|238:248,1,95,10|0,0:0|0:0,0:0:0:0:
203,287,92696,1,2,0:0:0:0:
0,127,92858,2,0,P|40:147|112:135,1,95,0|8,0:0|0:0,0:0:0:0:
147,96,93182,1,2,0:0:0:0:
92,249,93345,6,0,L|109:346,1,95,2|0,0:0|0:0,0:0:0:0:
176,376,93669,1,10,0:0:0:0:
362,334,93831,1,0,0:0:0:0:
171,360,93993,2,0,P|123:363|71:344,1,95,2|0,0:0|0:0,0:0:0:0:
366,315,94318,2,0,P|402:283|425:232,1,95,10|0,0:0|0:0,0:0:0:0:
69,268,94642,2,0,P|32:236|9:185,1,95,2|0,0:0|0:0,0:0:0:0:
21,119,94966,1,8,0:0:0:0:
228,32,95128,1,2,0:0:0:0:
199,254,95291,2,0,P|182:207|188:152,1,95,2|0,0:0|0:0,0:0:0:0:
233,104,95615,1,2,0:0:0:0:
242,102,95696,1,0,0:0:0:0:
251,100,95777,1,0,0:0:0:0:
260,98,95858,1,0,0:0:0:0:
260,98,96264,6,0,L|156:82,1,95,14|0,0:0|0:0,0:0:0:0:
393,205,96588,2,0,L|497:189,1,95,2|0,0:0|0:0,0:0:0:0:
504,116,96912,1,8,0:0:0:0:
437,6,97074,1,2,0:0:0:0:
392,193,97236,2,0,P|368:237|322:263,1,95,2|0,0:0|0:0,0:0:0:0:
254,259,97561,1,8,0:0:0:0:
315,109,97723,2,0,P|266:123|216:108,1,95,2|0,0:0|0:0,0:0:0:0:
170,58,98048,1,0,0:0:0:0:
286,4,98209,1,10,0:0:0:0:
247,192,98372,1,0,0:0:0:0:
417,0,98534,6,2,B|450:8|462:30|464:57|464:57|467:118|420:153|349:136|326:82|364:13|438:10|477:82|481:121|481:121|482:152|478:200|459:236|441:269|429:297|439:343|460:370|489:377|520:375|540:361|546:337|540:313|511:301,1,760
511,301,100642,1,0,0:0:0:0:
424,342,100804,1,0,0:0:0:0:
431,246,100966,1,0,0:0:0:0:
434,237,101047,1,0,0:0:0:0:
437,228,101128,5,6,0:0:0:0:
415,133,101291,1,2,0:0:0:0:
279,272,101453,1,8,0:0:0:0:
301,367,101616,1,0,0:0:0:0:
437,228,101777,5,2,0:0:0:0:
254,173,101939,1,2,0:0:0:0:
476,138,102101,1,8,0:0:0:0:
215,263,102264,1,0,0:0:0:0:
189,39,102426,5,2,0:0:0:0:
232,127,102588,1,2,0:0:0:0:
129,362,102750,1,8,0:0:0:0:
86,274,102912,1,0,0:0:0:0:
267,339,103074,5,2,0:0:0:0:
137,157,103236,1,2,0:0:0:0:
184,309,103399,1,8,0:0:0:0:
222,57,103561,1,0,0:0:0:0:
432,209,103723,5,2,0:0:0:0:
432,209,103885,1,2,0:0:0:0:
232,366,104047,5,10,0:0:0:0:
232,366,104209,1,2,0:0:0:0:
429,112,104372,5,2,0:0:0:0:
429,112,104534,1,2,0:0:0:0:
150,327,104696,5,10,0:0:0:0:
150,327,104858,1,2,0:0:0:0:
426,15,105020,5,0,0:0:0:0:
426,15,105182,1,2,0:0:0:0:
68,288,105345,5,8,0:0:0:0:
68,288,105507,1,2,0:0:0:0:
505,74,105669,5,0,0:0:0:0:
505,74,105831,1,2,0:0:0:0:
19,217,105994,5,8,0:0:0:0:
56,187,106074,1,0,0:0:0:0:
103,188,106155,1,2,0:0:0:0:
146,208,106236,1,0,0:0:0:0:
167,250,106318,6,0,B|171:269|183:283|183:283|201:243|207:171|173:120,1,190
133,75,106804,1,0,0:0:0:0:
133,75,107291,2,0,P|212:137|382:94,1,285
497,38,108588,5,0,0:0:0:0:
497,38,108669,1,0,0:0:0:0:
497,38,108750,1,0,0:0:0:0:
497,38,108831,1,0,0:0:0:0:
497,38,108912,2,0,B|508:73|508:73|482:240,1,190
423,270,109399,1,0,0:0:0:0:
423,270,109885,2,0,P|270:205|149:355,1,380,0|8,0:0|0:0,0:0:0:0:
32,297,111507,5,0,0:0:0:0:
40,200,111831,1,8,0:0:0:0:
106,162,112155,1,0,0:0:0:0:
97,259,112479,1,8,0:0:0:0:
163,222,112804,1,0,0:0:0:0:
172,125,113128,1,8,0:0:0:0:
238,88,113453,5,8,0:0:0:0:
276,177,113615,1,8,0:0:0:0:
223,258,113777,1,4,0:0:0:0:
