osu file format v14

[General]
AudioFilename: HEAVENLY MOON.mp3
AudioLeadIn: 0
PreviewTime: 69993
Countdown: 0
SampleSet: Normal
StackLeniency: 0.3
Mode: 0
LetterboxInBreaks: 1
WidescreenStoryboard: 1

[Editor]
Bookmarks: 11615,24588,34966,46642,62209,69993,80372,91074,96264,106318
DistanceSpacing: 1.4
BeatDivisor: 4
GridSize: 8
TimelineZoom: 2.400001

[Metadata]
Title:HEAVENLY MOON
TitleUnicode:HEAVENLY MOON
Artist:Tatsh
ArtistUnicode:Tatsh
Creator:Jenny
Version:Another
Source:jubeat copious
Tags:
BeatmapID:755513
BeatmapSetID:336539

[Difficulty]
HPDrainRate:6.5
CircleSize:5
OverallDifficulty:8.5
ApproachRate:9
SliderMultiplier:1.9
SliderTickRate:1

[Events]
//Background and Video events
0,0,"bg.jpg",0,0
//Break Periods
//Storyboard Layer 0 (Background)
//Storyboard Layer 1 (Fail)
//Storyboard Layer 2 (Pass)
//Storyboard Layer 3 (Foreground)
//Storyboard Layer 4 (Overlay)
//Storyboard Sound Samples

[TimingPoints]
1237,324.324324324324,4,1,0,80,1,0
10318,-66.6666666666667,4,1,0,80,0,0
10480,-66.6666666666667,4,1,0,40,0,0
10561,-66.6666666666667,4,1,0,80,0,0
10723,-66.6666666666667,4,1,0,40,0,0
10804,-66.6666666666667,4,1,0,80,0,0
11047,-66.6666666666667,4,1,0,40,0,0
11128,-66.6666666666667,4,1,0,80,0,0
11209,-66.6666666666667,4,1,0,40,0,0
11291,-66.6666666666667,4,1,0,80,0,0
11331,-66.6666666666667,4,1,0,60,0,0
11372,-66.6666666666667,4,1,0,80,0,0
11412,-66.6666666666667,4,1,0,60,0,0
11453,-66.6666666666667,4,1,0,80,0,0
11493,-66.6666666666667,4,1,0,60,0,0
11534,-66.6666666666667,4,1,0,80,0,0
11574,-66.6666666666667,4,1,0,60,0,0
11615,-66.6666666666667,4,1,0,80,0,0
11939,-133.333333333333,4,2,0,50,0,0
15588,-133.333333333333,4,2,0,50,0,0
16074,-133.333333333333,4,2,0,50,0,0
22074,-133.333333333333,4,2,0,5,0,0
24588,-100,4,1,0,80,0,1
24993,-100,4,1,0,60,0,1
25074,-100,4,1,0,80,0,1
25642,-100,4,1,0,60,0,1
25723,-100,4,1,0,80,0,1
26047,-100,4,1,0,60,0,1
26128,-100,4,1,0,80,0,1
26291,-100,4,1,0,60,0,1
26372,-100,4,1,0,80,0,1
26696,-100,4,1,0,60,0,1
26777,-100,4,1,0,80,0,1
26939,-100,4,1,0,60,0,1
27020,-100,4,1,0,80,0,1
27588,-100,4,1,0,60,0,1
27669,-100,4,1,0,80,0,1
28236,-100,4,1,0,60,0,1
28318,-100,4,1,0,80,0,1
28966,-100,4,1,0,60,0,1
29047,-100,4,1,0,80,0,1
29372,-100,4,1,0,40,0,1
29453,-100,4,1,0,80,0,1
29534,-100,4,1,0,40,0,1
29615,-100,4,1,0,80,0,1
30182,-100,4,1,0,60,0,1
30264,-100,4,1,0,80,0,1
30831,-100,4,1,0,60,0,1
30912,-100,4,1,0,80,0,1
31480,-100,4,1,0,60,0,1
31561,-100,4,1,0,80,0,1
32128,-100,4,1,0,60,0,1
32209,-100,4,1,0,80,0,1
32453,-100,4,1,0,40,0,1
32534,-100,4,1,0,80,0,1
32615,-100,4,1,0,40,0,1
32696,-100,4,1,0,80,0,1
32777,-100,4,1,0,40,0,1
32858,-100,4,1,0,60,0,1
32939,-100,4,1,0,80,0,1
33020,-100,4,1,0,80,0,1
33101,-100,4,1,0,60,0,1
33182,-100,4,1,0,80,0,1
34966,-100,4,1,0,80,0,0
35047,-100,4,2,0,5,0,0
35453,-100,4,1,0,80,0,0
35534,-100,4,2,0,5,0,0
35939,-100,4,1,0,80,0,0
36020,-100,4,1,0,40,0,0
36264,-100,4,1,0,80,0,0
36345,-100,4,2,0,5,0,0
36750,-100,4,1,0,80,0,0
36831,-100,4,2,0,5,0,0
37236,-100,4,1,0,80,0,0
37318,-100,4,1,0,40,0,0
37561,-100,4,1,0,80,0,0
37642,-100,4,2,0,5,0,0
38047,-100,4,1,0,80,0,0
38128,-100,4,2,0,5,0,0
38534,-100,4,1,0,80,0,0
38615,-100,4,1,0,60,0,0
38777,-100,4,1,0,80,0,0
40236,-100,4,1,0,60,0,0
40399,-100,4,1,0,80,0,0
41209,-100,4,2,0,5,0,0
41453,-100,4,1,0,80,0,0
41534,-100,4,2,0,40,0,0
41777,-100,4,1,0,80,0,0
42020,-100,4,2,0,40,0,0
42264,-100,4,1,0,80,0,0
42507,-100,4,1,0,40,0,0
42669,-100,4,1,0,80,0,0
42993,-100,4,2,0,5,0,0
43074,-100,4,1,0,80,0,0
43318,-100,4,2,0,5,0,0
43399,-100,4,1,0,80,0,0
43480,-100,4,1,0,60,0,0
43642,-100,4,1,0,80,0,0
43804,-100,4,1,0,60,0,0
43966,-100,4,1,0,80,0,0
45264,-100,4,1,0,40,0,0
45345,-100,4,1,0,80,0,0
47615,-100,4,2,0,80,0,0
47939,-100,4,1,0,80,0,0
48912,-100,4,2,0,80,0,0
49236,-100,4,1,0,80,0,0
49318,-100,4,1,0,60,0,0
49480,-100,4,1,0,80,0,0
50209,-100,4,2,0,80,0,0
50534,-100,4,1,0,80,0,0
52804,-100,4,2,0,80,0,0
53128,-100,4,1,0,80,0,0
54101,-100,4,2,0,80,0,0
54426,-100,4,1,0,80,0,0
55804,-100,4,1,0,5,0,0
55885,-100,4,1,0,80,0,0
55966,-100,4,1,0,5,0,0
56047,-100,4,1,0,80,0,0
56128,-100,4,1,0,5,0,0
56209,-100,4,1,0,80,0,0
56291,-100,4,1,0,5,0,0
56534,-100,4,1,0,80,0,0
56615,-100,4,1,0,5,0,0
56696,-100,4,1,0,80,0,0
56777,-100,4,1,0,5,0,0
57020,-100,4,1,0,80,0,0
57101,-100,4,2,0,80,0,0
58236,-100,4,1,0,60,0,0
59209,-100,4,2,0,80,0,0
60831,-100,4,1,0,60,0,0
61885,-100,4,3,0,60,0,0
61966,-100,4,2,0,20,0,0
62047,-100,4,2,0,60,0,0
62128,-100,4,2,0,20,0,0
62209,-100,4,1,0,80,0,0
67480,-100,4,1,0,40,0,0
67561,-100,4,1,0,80,0,0
67642,-100,4,1,0,40,0,0
67723,-100,4,1,0,80,0,0
67804,-100,4,1,0,40,0,0
67885,-100,4,1,0,80,0,0
67966,-100,4,1,0,40,0,0
68047,-100,4,1,0,80,0,0
68128,-100,4,1,0,40,0,0
68209,-100,4,1,0,80,0,0
68291,-100,4,1,0,40,0,0
68372,-100,4,1,0,80,0,0
68453,-100,4,1,0,75,0,0
68534,-100,4,1,0,70,0,0
68615,-100,4,1,0,65,0,0
68696,-100,4,2,0,80,0,0
69993,-100,4,1,0,80,0,1
88155,-100,4,1,0,80,0,0
88236,-100,4,1,0,40,0,0
88399,-100,4,1,0,60,0,0
88561,-100,4,1,0,80,0,0
91074,-100,4,1,0,80,0,1
95939,-100,4,1,0,80,0,0
96264,-100,4,1,0,80,0,1
106642,-100,4,1,0,60,0,1
106723,-100,4,1,0,80,0,1
107291,-200,4,1,0,80,0,0
107372,-200,4,1,0,5,0,0
108264,-200,4,1,0,40,0,0
108426,-200,4,1,0,80,0,0
108912,-100,4,1,0,80,0,0
109236,-100,4,1,0,60,0,0
109318,-100,4,1,0,80,0,0
109885,-200,4,1,0,80,0,0
109966,-200,4,1,0,5,0,0
111182,-200,4,1,0,40,0,0
111345,-200,4,1,0,80,0,0

[HitObjects]
103,116,1237,5,4,0:0:0:0:
103,116,1399,1,0,0:0:0:0:
199,99,1561,1,0,0:0:0:0:
199,99,1723,1,0,0:0:0:0:
279,159,1885,1,0,0:0:0:0:
279,159,2047,1,0,0:0:0:0:
375,142,2209,1,0,0:0:0:0:
375,142,2371,1,0,0:0:0:0:
312,67,2534,5,0,0:0:0:0:
297,196,2696,1,0,0:0:0:0:
405,268,2858,1,0,0:0:0:0:
420,139,3020,1,0,0:0:0:0:
420,139,3831,5,0,0:0:0:0:
420,139,3993,1,0,0:0:0:0:
324,122,4155,1,0,0:0:0:0:
324,122,4317,1,0,0:0:0:0:
244,182,4479,1,0,0:0:0:0:
244,182,4641,1,0,0:0:0:0:
148,165,4803,1,0,0:0:0:0:
148,165,4965,1,0,0:0:0:0:
211,90,5128,5,0,0:0:0:0:
226,219,5290,1,0,0:0:0:0:
118,291,5452,1,0,0:0:0:0:
103,162,5614,1,0,0:0:0:0:
103,162,6426,5,0,0:0:0:0:
39,181,6588,1,0,0:0:0:0:
148,109,6750,1,0,0:0:0:0:
84,90,6912,1,0,0:0:0:0:
161,196,7074,1,0,0:0:0:0:
111,240,7236,1,0,0:0:0:0:
200,68,7399,1,0,0:0:0:0:
160,15,7561,1,0,0:0:0:0:
124,103,7723,5,0,0:0:0:0:
281,67,7885,1,0,0:0:0:0:
171,184,8047,1,0,0:0:0:0:
14,148,8209,1,0,0:0:0:0:
14,148,9020,5,0,0:0:0:0:
14,148,10318,2,0,P|70:182|142:163,1,142.500005435944
189,112,10561,2,0,P|255:93|315:127,1,142.500005435944
338,194,10804,1,0,0:0:0:0:
410,86,10966,2,0,B|417:51|417:51|405:9,1,71.2500027179719
494,114,11128,2,0,B|487:149|487:149|499:191,1,71.2500027179719
466,310,11291,1,0,0:0:0:0:
416,255,11453,2,0,L|425:217,2,35.625001358986
332,355,11615,5,4,0:0:0:0:
296,293,11939,1,2,0:0:0:0:
229,266,12264,1,0,0:0:0:0:
159,279,12588,1,2,0:0:0:0:
105,326,12912,6,0,P|79:286|94:194,1,142.500005435944,2|0,0:0|0:0,0:0:0:0:
92,196,13399,1,0,0:0:0:0:
145,142,13561,2,0,L|224:155,1,71.2500027179719,2|0,0:0|0:0,0:0:0:0:
309,63,13885,2,0,L|230:76,1,71.2500027179719
155,22,14209,5,0,0:0:0:0:
90,52,14534,1,2,0:0:0:0:
61,117,14858,1,0,0:0:0:0:
66,187,15182,1,2,0:0:0:0:
103,247,15507,6,0,B|161:255|161:255|317:216,1,213.750008153916,2|0,0:0|0:0,0:0:0:0:
311,217,16155,1,2,0:0:0:0:
357,158,16480,1,2,0:0:0:0:
403,278,16804,6,0,P|395:315|403:346,1,71.2500027179719,2|0,0:0|0:0,0:0:0:0:
493,309,17128,2,0,P|501:272|493:241,1,71.2500027179719
435,193,17453,2,0,L|354:209,1,71.2500027179719,2|0,0:0|0:0,0:0:0:0:
219,133,17777,2,0,L|300:149,1,71.2500027179719,2|0,0:0|0:0,0:0:0:0:
381,117,18101,5,2,0:0:0:0:
348,53,18264,2,0,P|293:20|215:38,1,142.500005435944,2|2,0:0|0:0,0:0:0:0:
149,20,18750,1,2,0:0:0:0:
123,44,18912,1,0,0:0:0:0:
113,78,19074,1,0,0:0:0:0:
117,113,19236,1,0,0:0:0:0:
135,143,19399,6,0,P|138:189|70:268,1,142.500005435944,2|0,0:0|0:0,0:0:0:0:
82,262,19885,1,0,0:0:0:0:
24,343,20047,2,0,L|100:334,1,71.2500027179719
162,361,20372,1,0,0:0:0:0:
190,339,20534,1,2,0:0:0:0:
225,344,20696,6,0,P|262:357|308:357,1,71.2500027179719,2|0,0:0|0:0,0:0:0:0:
307,355,21020,1,0,0:0:0:0:
283,287,21182,2,0,P|318:270|350:237,1,71.2500027179719,2|0,0:0|0:0,0:0:0:0:
348,236,21506,1,0,0:0:0:0:
282,204,21669,2,0,P|295:167|295:121,1,71.2500027179719,2|0,0:0|0:0,0:0:0:0:
292,122,21993,1,0,0:0:0:0:
292,122,24588,5,6,0:0:0:0:
234,47,24750,1,0,0:0:0:0:
234,47,24831,2,0,P|162:35|103:84,1,142.5,2|0,0:0|0:0,0:0:0:0:
135,297,25236,1,2,0:0:0:0:
210,239,25398,1,0,0:0:0:0:
210,239,25479,2,0,P|222:167|173:108,1,142.5,2|0,0:0|0:0,0:0:0:0:
19,270,25885,5,2,0:0:0:0:
94,338,26047,1,0,0:0:0:0:
94,338,26128,2,0,L|243:310,1,142.5,2|0,0:0|0:0,0:0:0:0:
512,152,26534,1,2,0:0:0:0:
437,220,26696,1,0,0:0:0:0:
437,220,26777,2,0,L|288:192,1,142.5,2|0,0:0|0:0,0:0:0:0:
229,47,27182,5,2,0:0:0:0:
351,0,27345,1,0,0:0:0:0:
351,0,27426,2,0,P|368:61|327:131,1,142.5,2|0,0:0|0:0,0:0:0:0:
162,220,27831,1,2,0:0:0:0:
40,173,27994,1,0,0:0:0:0:
40,173,28075,2,0,P|23:234|64:304,1,142.5,2|0,0:0|0:0,0:0:0:0:
207,365,28480,5,0,0:0:0:0:
156,178,28642,1,2,0:0:0:0:
247,215,28804,2,0,P|255:270|227:325,1,95,2|0,0:0|0:0,0:0:0:0:
61,374,29128,1,0,0:0:0:0:
3,297,29291,2,0,L|16:232,1,47.5,2|0,0:0|0:0,0:0:0:0:
156,178,29453,2,0,L|143:243,1,47.5
275,321,29615,1,2,0:0:0:0:
293,317,29696,1,0,0:0:0:0:
309,313,29777,5,2,0:0:0:0:
417,80,29939,1,0,0:0:0:0:
417,80,30020,2,0,P|427:158|381:220,1,142.5,2|0,0:0|0:0,0:0:0:0:
256,130,30426,1,2,0:0:0:0:
148,363,30588,1,0,0:0:0:0:
148,363,30669,2,0,P|138:285|184:223,1,142.5,2|0,0:0|0:0,0:0:0:0:
316,163,31074,5,2,0:0:0:0:
397,262,31236,1,0,0:0:0:0:
397,262,31318,2,0,L|382:367,1,95,2|0,0:0|0:0,0:0:0:0:
379,374,31561,1,0,0:0:0:0:
194,315,31723,1,2,0:0:0:0:
275,216,31885,1,0,0:0:0:0:
275,216,31967,2,0,L|260:111,1,95,2|0,0:0|0:0,0:0:0:0:
257,104,32210,1,0,0:0:0:0:
112,34,32372,5,0,0:0:0:0:
174,217,32534,1,2,0:0:0:0:
67,96,32696,2,0,P|59:173|99:221,1,142.5,2|0,0:0|0:0,0:0:0:0:
157,248,33020,1,0,0:0:0:0:
228,141,33182,1,2,0:0:0:0:
255,332,33345,1,0,0:0:0:0:
224,309,33426,1,0,0:0:0:0:
186,306,33507,1,2,0:0:0:0:
152,322,33588,1,0,0:0:0:0:
131,353,33669,5,0,0:0:0:0:
199,375,33831,1,2,0:0:0:0:
149,155,33993,1,2,0:0:0:0:
408,346,34318,1,2,0:0:0:0:
506,219,34642,1,0,0:0:0:0:
476,195,34723,1,0,0:0:0:0:
460,160,34804,1,0,0:0:0:0:
461,122,34885,1,0,0:0:0:0:
481,89,34966,6,0,B|494:83|508:85|508:85|470:114|397:102|417:72|345:59|305:85,1,237.5,6|0,0:0|0:0,0:0:0:0:
173,174,35453,2,0,B|160:180|146:178|146:178|184:149|257:161|237:191|309:204|349:178,1,237.5,2|0,0:0|0:0,0:0:0:0:
400,146,35939,2,0,L|384:255,1,95,2|0,0:0|0:0,0:0:0:0:
236,364,36264,6,0,P|173:289|216:163,1,237.5,2|0,0:0|0:0,0:0:0:0:
358,234,36750,2,0,P|400:128|334:36,1,237.5,2|0,0:0|0:0,0:0:0:0:
277,62,37236,2,0,L|164:49,1,95,2|0,0:0|0:0,0:0:0:0:
2,122,37561,6,0,B|-14:175|-14:175|30:365,1,237.5,2|0,0:0|0:0,0:0:0:0:
163,267,38047,2,0,B|179:214|179:214|135:24,1,237.5,2|0,0:0|0:0,0:0:0:0:
81,7,38534,1,2,0:0:0:0:
81,7,38858,5,2,0:0:0:0:
186,82,39020,1,0,0:0:0:0:
7,155,39182,1,0,0:0:0:0:
7,155,39507,1,2,0:0:0:0:
52,68,39669,1,0,0:0:0:0:
127,174,39831,1,0,0:0:0:0:
53,316,39993,1,0,0:0:0:0:
48,302,40074,1,0,0:0:0:0:
43,288,40155,6,0,P|136:264|205:332,1,190,6|0,0:0|0:0,0:0:0:0:
433,206,40642,2,0,P|340:230|271:162,1,190,2|0,0:0|0:0,0:0:0:0:
360,0,41128,2,0,P|388:65|365:130,1,142.5,2|0,0:0|0:0,0:0:0:0:
306,162,41453,5,2,0:0:0:0:
29,100,41939,1,2,0:0:0:0:
249,53,42426,1,2,0:0:0:0:
249,53,42588,1,0,0:0:0:0:
329,191,42750,6,0,P|334:266|286:323,1,142.5
201,291,43074,2,0,P|196:216|244:159,1,142.5
293,140,43399,1,0,0:0:0:0:
297,144,43561,1,0,0:0:0:0:
80,82,43723,1,0,0:0:0:0:
84,86,43885,1,0,0:0:0:0:
223,9,44047,5,2,0:0:0:0:
199,102,44209,1,0,0:0:0:0:
350,223,44372,1,0,0:0:0:0:
326,130,44534,1,0,0:0:0:0:
157,278,44696,6,0,L|214:265,1,47.5,2|0,0:0|0:0,0:0:0:0:
322,316,44858,2,0,L|379:303,1,47.5
419,218,45020,6,0,L|373:229,1,47.5,2|0,0:0|0:0,0:0:0:0:
151,354,45182,2,0,L|104:364,1,47.5,2|0,0:0|0:0,0:0:0:0:
104,364,46642,6,2,L|81:170,1,190
194,18,47128,2,2,L|217:212,1,190
231,300,47615,1,8,0:0:0:0:
231,300,47939,6,2,P|300:343|414:322,1,190
498,198,48426,2,2,P|429:155|315:176,1,190
256,234,48912,1,8,0:0:0:0:
256,234,49236,6,2,L|270:138,1,95,2|0,0:0|0:0,0:0:0:0:
269,139,49561,1,2,0:0:0:0:
126,15,49723,2,2,P|109:101|194:169,1,190,0|2,0:0|0:0,0:0:0:0:
272,142,50209,1,8,0:0:0:0:
272,142,50534,5,0,0:0:0:0:
259,47,50696,1,2,0:0:0:0:
383,12,50858,1,2,0:0:0:0:
357,202,51020,2,2,P|271:177|196:247,1,190
188,311,51507,1,0,0:0:0:0:
268,366,51669,1,0,0:0:0:0:
503,265,51831,6,2,P|438:255|313:303,1,190,0|2,0:0|0:0,0:0:0:0:
89,188,52318,2,2,P|154:198|279:150,1,190,0|2,0:0|0:0,0:0:0:0:
324,81,52804,1,8,0:0:0:0:
324,81,53128,6,2,B|339:121|339:121|323:274,1,190,0|2,0:0|0:0,0:0:0:0:
125,371,53615,2,2,B|110:331|110:331|126:178,1,190,0|2,0:0|0:0,0:0:0:0:
142,91,54101,1,8,0:0:0:0:
142,91,54426,6,2,P|148:184|69:266,1,190,0|2,0:0|0:0,0:0:0:0:
277,382,54912,2,2,P|271:289|350:207,1,190,0|2,0:0|0:0,0:0:0:0:
421,193,55399,1,0,0:0:0:0:
421,193,55723,6,0,L|413:137,1,47.5,2|0,0:0|0:0,0:0:0:0:
328,100,55885,2,0,L|320:44,1,47.5,2|0,0:0|0:0,0:0:0:0:
254,234,56047,2,0,L|246:178,1,47.5
161,141,56209,2,0,L|153:85,1,47.5,2|0,0:0|0:0,0:0:0:0:
264,217,56534,6,0,L|256:161,1,47.5
171,124,56696,2,0,L|163:68,1,47.5,2|0,0:0|0:0,0:0:0:0:
164,76,57020,5,0,0:0:0:0:
284,28,57507,1,2,0:0:0:0:
382,111,57993,1,2,0:0:0:0:
321,156,58318,1,0,0:0:0:0:
369,276,58805,1,0,0:0:0:0:
286,374,59128,1,0,0:0:0:0:
286,374,59291,1,2,0:0:0:0:
286,374,59615,6,0,L|187:364,1,95,2|0,0:0|0:0,0:0:0:0:
191,364,59939,1,0,0:0:0:0:
145,311,60101,1,0,0:0:0:0:
201,234,60264,2,0,P|245:251|302:244,1,95,2|0,0:0|0:0,0:0:0:0:
124,153,60588,2,0,P|80:170|23:163,1,95
0,99,60912,5,0,0:0:0:0:
46,16,61074,1,0,0:0:0:0:
100,234,61399,1,0,0:0:0:0:
100,234,61885,2,0,L|83:167,1,47.5
154,170,62047,2,0,L|137:103,1,47.5
250,243,62209,5,2,0:0:0:0:
202,365,62372,1,0,0:0:0:0:
242,176,62534,1,0,0:0:0:0:
320,277,62696,6,0,L|417:263,1,95,2|0,0:0|0:0,0:0:0:0:
477,192,63020,1,0,0:0:0:0:
408,47,63182,6,0,P|397:92|408:152,1,95,2|0,0:0|0:0,0:0:0:0:
443,226,63507,1,0,0:0:0:0:
317,374,63669,6,0,P|328:329|317:269,1,95,2|0,0:0|0:0,0:0:0:0:
282,195,63994,1,0,0:0:0:0:
176,264,64155,5,2,0:0:0:0:
363,304,64318,1,0,0:0:0:0:
241,345,64480,1,0,0:0:0:0:
183,127,64642,5,2,0:0:0:0:
233,8,64804,1,0,0:0:0:0:
221,201,64966,1,0,0:0:0:0:
151,134,65128,5,2,0:0:0:0:
50,214,65291,1,0,0:0:0:0:
31,86,65453,1,0,0:0:0:0:
137,208,65615,5,2,0:0:0:0:
220,108,65777,1,0,0:0:0:0:
268,295,65939,1,0,0:0:0:0:
207,222,66101,5,2,0:0:0:0:
394,177,66264,1,2,0:0:0:0:
288,296,66426,1,0,0:0:0:0:
101,251,66589,1,2,0:0:0:0:
178,75,66750,5,0,0:0:0:0:
209,234,66912,1,2,0:0:0:0:
350,159,67074,1,2,0:0:0:0:
319,0,67236,1,2,0:0:0:0:
405,96,67399,6,0,L|390:146,1,47.5
463,145,67561,2,0,L|448:195,1,47.5
262,143,67723,6,0,L|277:193,1,47.5
204,192,67885,2,0,L|219:242,1,47.5
443,223,68047,6,0,L|428:273,1,47.5
501,272,68209,2,0,L|486:322,1,47.5
407,369,68372,5,0,0:0:0:0:
389,352,68453,1,0,0:0:0:0:
366,344,68534,1,0,0:0:0:0:
342,346,68615,1,0,0:0:0:0:
321,357,68696,1,0,0:0:0:0:
321,357,69993,6,0,P|310:308|321:264,1,95,6|0,0:0|0:0,0:0:0:0:
458,131,70318,2,0,P|469:180|458:224,1,95,10|0,0:0|0:0,0:0:0:0:
396,266,70642,1,2,0:0:0:0:
238,225,70804,1,0,0:0:0:0:
237,225,70885,2,2,P|295:186|361:206,1,142.5
330,364,71291,6,0,L|308:272,1,95,2|0,0:0|0:0,0:0:0:0:
136,126,71615,2,0,L|158:218,1,95,10|0,0:0|0:0,0:0:0:0:
180,290,71939,1,2,0:0:0:0:
26,250,72101,1,0,0:0:0:0:
62,261,72182,1,2,0:0:0:0:
62,299,72264,1,0,0:0:0:0:
26,311,72345,1,0,0:0:0:0:
3,280,72426,1,2,0:0:0:0:
16,244,72507,1,0,0:0:0:0:
29,208,72588,6,0,P|35:156|21:110,1,95,2|0,0:0|0:0,0:0:0:0:
190,17,72912,2,0,P|184:69|198:115,1,95,10|0,0:0|0:0,0:0:0:0:
256,154,73236,1,2,0:0:0:0:
445,106,73399,1,0,0:0:0:0:
445,106,73480,2,2,P|388:69|317:88,1,142.5,2|0,0:0|0:0,0:0:0:0:
337,246,73885,6,0,L|373:158,1,95,2|0,0:0|0:0,0:0:0:0:
251,7,74209,2,0,L|215:95,1,95,10|0,0:0|0:0,0:0:0:0:
180,163,74534,1,2,0:0:0:0:
102,105,74696,1,0,0:0:0:0:
42,223,74858,1,0,0:0:0:0:
29,259,74939,1,0,0:0:0:0:
33,296,75020,1,0,0:0:0:0:
52,328,75101,1,0,0:0:0:0:
85,345,75182,6,0,B|113:351|113:351|186:329,1,95,2|0,0:0|0:0,0:0:0:0:
334,221,75507,2,0,B|306:215|306:215|233:237,1,95,10|0,0:0|0:0,0:0:0:0:
170,211,75831,1,2,0:0:0:0:
230,29,75993,1,0,0:0:0:0:
230,29,76074,2,2,P|263:83|242:170,1,142.5
139,276,76480,6,0,L|156:163,1,95,2|0,0:0|0:0,0:0:0:0:
315,27,76804,2,0,L|298:140,1,95,10|0,0:0|0:0,0:0:0:0:
286,195,77128,1,2,0:0:0:0:
375,158,77291,1,0,0:0:0:0:
452,262,77453,1,0,0:0:0:0:
445,299,77534,1,0,0:0:0:0:
418,325,77615,1,0,0:0:0:0:
382,338,77696,1,0,0:0:0:0:
344,331,77777,6,0,B|316:337|316:337|243:315,1,95,2|0,0:0|0:0,0:0:0:0:
95,207,78102,2,0,B|123:201|123:201|196:223,1,95,10|0,0:0|0:0,0:0:0:0:
255,189,78426,1,2,0:0:0:0:
232,61,78588,1,0,0:0:0:0:
157,166,78750,1,2,0:0:0:0:
180,294,78912,1,0,0:0:0:0:
325,365,79074,5,0,0:0:0:0:
373,306,79236,1,2,0:0:0:0:
406,287,79318,1,0,0:0:0:0:
443,286,79399,1,0,0:0:0:0:
477,302,79480,1,0,0:0:0:0:
460,267,79561,1,2,0:0:0:0:
425,250,79642,1,0,0:0:0:0:
387,246,79723,1,0,0:0:0:0:
349,251,79804,1,0,0:0:0:0:
315,268,79885,1,0,0:0:0:0:
281,285,79966,1,0,0:0:0:0:
243,290,80047,1,2,0:0:0:0:
205,286,80128,1,0,0:0:0:0:
170,269,80209,1,0,0:0:0:0:
146,238,80291,1,0,0:0:0:0:
140,200,80372,6,0,L|152:103,1,95,2|0,0:0|0:0,0:0:0:0:
162,30,80696,1,8,0:0:0:0:
23,163,80858,2,0,L|35:260,1,95,2|0,0:0|0:0,0:0:0:0:
45,333,81182,1,0,0:0:0:0:
196,278,81345,2,0,P|247:276|301:299,1,95,10|0,0:0|0:0,0:0:0:0:
350,333,81669,1,0,0:0:0:0:
510,226,81831,2,0,P|459:228|405:205,1,95,2|8,0:0|0:0,0:0:0:0:
356,171,82155,1,0,0:0:0:0:
428,29,82318,1,2,0:0:0:0:
447,223,82480,1,2,0:0:0:0:
498,105,82642,1,8,0:0:0:0:
479,299,82804,1,0,0:0:0:0:
417,224,82966,6,0,P|408:174|417:120,1,95,2|0,0:0|0:0,0:0:0:0:
451,63,83291,1,8,0:0:0:0:
302,0,83453,2,0,P|311:50|302:104,1,95,2|0,0:0|0:0,0:0:0:0:
268,161,83778,1,0,0:0:0:0:
116,103,83939,2,0,P|62:109|2:148,1,95,10|0,0:0|0:0,0:0:0:0:
2,199,84264,1,0,0:0:0:0:
37,324,84426,1,2,0:0:0:0:
123,150,84588,2,0,L|107:43,1,95,10|0,0:0|0:0,0:0:0:0:
172,14,84912,1,2,0:0:0:0:
246,117,85074,1,2,0:0:0:0:
197,235,85236,1,0,0:0:0:0:
204,272,85318,1,0,0:0:0:0:
230,298,85399,1,0,0:0:0:0:
267,306,85480,1,0,0:0:0:0:
304,297,85561,6,0,B|315:272|315:272|309:193,1,95,2|0,0:0|0:0,0:0:0:0:
300,129,85885,1,8,0:0:0:0:
453,13,86047,2,0,B|442:38|442:38|448:117,1,95,2|0,0:0|0:0,0:0:0:0:
457,181,86371,1,0,0:0:0:0:
273,238,86534,2,0,P|229:237|170:220,1,95,10|0,0:0|0:0,0:0:0:0:
114,185,86858,1,0,0:0:0:0:
239,84,87020,2,0,P|283:85|342:102,1,95,2|8,0:0|0:0,0:0:0:0:
398,137,87344,1,0,0:0:0:0:
358,326,87507,2,0,L|345:217,1,95,2|0,0:0|0:0,0:0:0:0:
240,161,87831,1,0,0:0:0:0:
223,194,87912,1,0,0:0:0:0:
190,212,87993,1,0,0:0:0:0:
152,216,88074,1,0,0:0:0:0:
119,196,88155,5,0,0:0:0:0:
119,196,88642,1,0,0:0:0:0:
143,125,88804,1,0,0:0:0:0:
143,125,88885,1,0,0:0:0:0:
193,260,89047,1,0,0:0:0:0:
193,260,89128,1,0,0:0:0:0:
193,260,89209,1,0,0:0:0:0:
193,260,89291,1,0,0:0:0:0:
249,209,89453,5,0,0:0:0:0:
281,189,89534,1,0,0:0:0:0:
318,189,89615,1,0,0:0:0:0:
350,209,89696,1,0,0:0:0:0:
360,245,89777,1,0,0:0:0:0:
370,281,89858,1,0,0:0:0:0:
402,301,89939,1,0,0:0:0:0:
439,301,90020,1,0,0:0:0:0:
471,281,90101,5,0,0:0:0:0:
464,263,90182,1,0,0:0:0:0:
483,241,90264,5,0,0:0:0:0:
476,223,90345,1,0,0:0:0:0:
495,201,90426,5,0,0:0:0:0:
488,183,90507,1,0,0:0:0:0:
512,164,90588,5,0,0:0:0:0:
505,146,90669,1,0,0:0:0:0:
505,146,91074,6,0,P|460:163|401:153,1,95,14|0,0:0|0:0,0:0:0:0:
256,46,91399,2,0,P|301:29|360:39,1,95,2|0,0:0|0:0,0:0:0:0:
404,83,91723,1,10,0:0:0:0:
351,236,91885,2,0,P|354:286|367:340,2,95,0|0|2,0:0|0:0|0:0,0:0:0:0:
405,119,92372,2,0,P|402:69|389:15,1,95,10|0,0:0|0:0,0:0:0:0:
319,3,92696,1,2,0:0:0:0:
163,116,92858,2,0,L|267:104,1,95,0|8,0:0|0:0,0:0:0:0:
332,97,93182,1,2,0:0:0:0:
488,211,93344,6,0,L|384:199,1,95,2|0,0:0|0:0,0:0:0:0:
318,189,93669,1,10,0:0:0:0:
366,69,93831,1,0,0:0:0:0:
437,247,93993,2,0,P|436:304|422:348,1,95,2|0,0:0|0:0,0:0:0:0:
275,171,94318,2,0,P|276:114|290:70,1,95,10|0,0:0|0:0,0:0:0:0:
128,238,94642,2,0,P|127:295|113:339,1,95,2|0,0:0|0:0,0:0:0:0:
48,364,94966,1,8,0:0:0:0:
0,244,95128,1,2,0:0:0:0:
211,323,95291,2,0,L|319:308,1,95,2|0,0:0|0:0,0:0:0:0:
362,259,95615,1,2,0:0:0:0:
357,250,95696,1,0,0:0:0:0:
352,241,95777,1,0,0:0:0:0:
347,232,95858,1,0,0:0:0:0:
347,232,96264,6,0,P|355:187|347:138,1,95,14|0,0:0|0:0,0:0:0:0:
232,27,96588,2,0,P|224:72|232:121,1,95,2|0,0:0|0:0,0:0:0:0:
207,192,96912,1,8,0:0:0:0:
20,152,97074,1,2,0:0:0:0:
68,237,97236,2,0,B|81:266|81:266|81:330,2,95,2|0|8,0:0|0:0|0:0,0:0:0:0:
208,104,97723,2,0,B|195:75|195:75|195:11,2,95,2|0|0,0:0|0:0|0:0,0:0:0:0:
252,165,98209,1,10,0:0:0:0:
376,136,98372,1,0,0:0:0:0:
347,225,98534,6,2,B|324:255|315:302|348:349|411:365|471:346|486:285|471:240|471:240|449:172|419:112|422:46|480:14|480:14|520:61|510:144|414:176|354:154,1,760
391,160,100642,5,0,0:0:0:0:
452,204,100804,1,0,0:0:0:0:
510,157,100966,1,0,0:0:0:0:
511,148,101047,1,0,0:0:0:0:
512,139,101128,5,6,0:0:0:0:
487,12,101291,1,2,0:0:0:0:
439,190,101453,1,8,0:0:0:0:
401,0,101616,1,0,0:0:0:0:
393,266,101777,5,2,0:0:0:0:
368,139,101940,1,2,0:0:0:0:
320,317,102102,1,8,0:0:0:0:
282,127,102265,1,0,0:0:0:0:
233,196,102426,5,2,0:0:0:0:
208,69,102589,1,2,0:0:0:0:
160,247,102751,1,8,0:0:0:0:
122,57,102914,1,0,0:0:0:0:
114,323,103075,5,2,0:0:0:0:
89,196,103238,1,2,0:0:0:0:
41,374,103400,1,8,0:0:0:0:
3,184,103563,1,0,0:0:0:0:
229,368,103723,5,2,0:0:0:0:
356,343,103886,1,2,0:0:0:0:
138,284,104048,1,10,0:0:0:0:
390,233,104211,1,2,0:0:0:0:
180,189,104372,5,2,0:0:0:0:
307,164,104535,1,2,0:0:0:0:
28,76,104697,1,10,0:0:0:0:
373,6,104860,1,2,0:0:0:0:
475,128,105020,5,0,0:0:0:0:
461,290,105182,1,2,0:0:0:0:
319,368,105345,5,8,0:0:0:0:
335,178,105507,1,2,0:0:0:0:
221,90,105669,5,0,0:0:0:0:
199,346,105831,1,2,0:0:0:0:
63,258,105993,5,8,0:0:0:0:
17,243,106074,1,0,0:0:0:0:
17,195,106155,1,2,0:0:0:0:
63,181,106236,1,0,0:0:0:0:
90,219,106318,6,0,P|155:259|270:244,1,190
326,204,106804,1,0,0:0:0:0:
326,204,107291,2,0,B|339:234|328:266|328:266|301:229|312:144|344:174|352:98|328:52,1,285
216,35,108588,5,0,0:0:0:0:
216,35,108669,1,0,0:0:0:0:
216,35,108750,1,0,0:0:0:0:
216,35,108831,1,0,0:0:0:0:
216,35,108912,2,0,B|173:52|173:52|28:31,1,190
0,101,109399,1,0,0:0:0:0:
0,101,109885,2,0,P|171:45|269:194,1,380,0|8,0:0|0:0,0:0:0:0:
226,311,111507,5,0,0:0:0:0:
319,338,111831,1,8,0:0:0:0:
289,267,112155,1,0,0:0:0:0:
166,232,112480,1,8,0:0:0:0:
106,153,112804,1,0,0:0:0:0:
260,197,113128,1,8,0:0:0:0:
231,127,113453,5,8,0:0:0:0:
194,217,113615,1,8,0:0:0:0:
253,293,113777,1,4,0:0:0:0:
