osu file format v14

[General]
AudioFilename: HEAVENLY MOON.mp3
AudioLeadIn: 0
PreviewTime: 69993
Countdown: 0
SampleSet: Normal
StackLeniency: 0.3
Mode: 0
LetterboxInBreaks: 1
WidescreenStoryboard: 1

[Editor]
Bookmarks: 11615,24588,34966,46642,62209,69993,80372,91074,96264,106318
DistanceSpacing: 1.4
BeatDivisor: 4
GridSize: 8
TimelineZoom: 2.400001

[Metadata]
Title:HEAVENLY MOON
TitleUnicode:HEAVENLY MOON
Artist:Tatsh
ArtistUnicode:Tatsh
Creator:Jenny
Version:Advanced
Source:jubeat copious
Tags:
BeatmapID:1750012
BeatmapSetID:336539

[Difficulty]
HPDrainRate:5
CircleSize:4
OverallDifficulty:7
ApproachRate:8
SliderMultiplier:1.9
SliderTickRate:1

[Events]
//Background and Video events
0,0,"bg.jpg",0,0
//Break Periods
//Storyboard Layer 0 (Background)
//Storyboard Layer 1 (Fail)
//Storyboard Layer 2 (Pass)
//Storyboard Layer 3 (Foreground)
//Storyboard Layer 4 (Overlay)
//Storyboard Sound Samples

[TimingPoints]
1237,324.324324324324,4,1,0,80,1,0
10318,-66.6666666666667,4,1,0,80,0,0
10480,-66.6666666666667,4,1,0,40,0,0
10561,-66.6666666666667,4,1,0,80,0,0
10723,-66.6666666666667,4,1,0,40,0,0
10804,-66.6666666666667,4,1,0,80,0,0
11047,-66.6666666666667,4,1,0,40,0,0
11128,-66.6666666666667,4,1,0,80,0,0
11209,-66.6666666666667,4,1,0,40,0,0
11291,-66.6666666666667,4,1,0,80,0,0
11331,-66.6666666666667,4,1,0,60,0,0
11372,-66.6666666666667,4,1,0,80,0,0
11412,-66.6666666666667,4,1,0,60,0,0
11453,-66.6666666666667,4,1,0,80,0,0
11493,-66.6666666666667,4,1,0,60,0,0
11534,-66.6666666666667,4,1,0,80,0,0
11574,-66.6666666666667,4,1,0,60,0,0
11615,-66.6666666666667,4,1,0,80,0,0
11939,-133.333333333333,4,2,0,50,0,0
15588,-133.333333333333,4,2,0,50,0,0
16074,-133.333333333333,4,2,0,50,0,0
22074,-133.333333333333,4,2,0,5,0,0
24588,-100,4,1,0,80,0,1
24993,-100,4,1,0,60,0,1
25074,-100,4,1,0,80,0,1
25642,-100,4,1,0,60,0,1
25723,-100,4,1,0,80,0,1
26047,-100,4,1,0,60,0,1
26128,-100,4,1,0,80,0,1
26291,-100,4,1,0,60,0,1
26372,-100,4,1,0,80,0,1
26696,-100,4,1,0,60,0,1
26777,-100,4,1,0,80,0,1
26939,-100,4,1,0,60,0,1
27020,-100,4,1,0,80,0,1
27588,-100,4,1,0,60,0,1
27669,-100,4,1,0,80,0,1
28236,-100,4,1,0,60,0,1
28318,-100,4,1,0,80,0,1
28966,-100,4,1,0,60,0,1
29047,-100,4,1,0,80,0,1
29372,-100,4,1,0,40,0,1
29453,-100,4,1,0,80,0,1
29534,-100,4,1,0,40,0,1
29615,-100,4,1,0,80,0,1
30182,-100,4,1,0,60,0,1
30264,-100,4,1,0,80,0,1
30831,-100,4,1,0,60,0,1
30912,-100,4,1,0,80,0,1
31480,-100,4,1,0,60,0,1
31561,-100,4,1,0,80,0,1
32128,-100,4,1,0,60,0,1
32209,-100,4,1,0,80,0,1
32453,-100,4,1,0,40,0,1
32534,-100,4,1,0,80,0,1
32615,-100,4,1,0,40,0,1
32696,-100,4,1,0,80,0,1
32777,-100,4,1,0,40,0,1
32858,-100,4,1,0,60,0,1
32939,-100,4,1,0,80,0,1
33020,-100,4,1,0,80,0,1
33101,-100,4,1,0,60,0,1
33182,-100,4,1,0,80,0,1
34966,-100,4,1,0,80,0,0
35047,-100,4,2,0,5,0,0
35453,-100,4,1,0,80,0,0
35534,-100,4,2,0,5,0,0
35939,-100,4,1,0,80,0,0
36020,-100,4,1,0,40,0,0
36264,-100,4,1,0,80,0,0
36345,-100,4,2,0,5,0,0
36750,-100,4,1,0,80,0,0
36831,-100,4,2,0,5,0,0
37236,-100,4,1,0,80,0,0
37318,-100,4,1,0,40,0,0
37561,-100,4,1,0,80,0,0
37642,-100,4,2,0,5,0,0
38047,-100,4,1,0,80,0,0
38128,-100,4,2,0,5,0,0
38534,-100,4,1,0,80,0,0
38615,-100,4,1,0,60,0,0
38777,-100,4,1,0,80,0,0
40236,-100,4,1,0,60,0,0
40399,-100,4,1,0,80,0,0
41209,-100,4,2,0,5,0,0
41453,-100,4,1,0,80,0,0
41534,-100,4,2,0,40,0,0
41777,-100,4,1,0,80,0,0
42020,-100,4,2,0,40,0,0
42264,-100,4,1,0,80,0,0
42507,-100,4,1,0,40,0,0
42669,-100,4,1,0,80,0,0
42912,-100,4,1,0,80,0,0
42993,-100,4,2,0,5,0,0
43074,-100,4,1,0,80,0,0
43236,-100,4,1,0,80,0,0
43318,-100,4,2,0,5,0,0
43399,-100,4,1,0,80,0,0
43480,-100,4,1,0,60,0,0
43642,-100,4,1,0,80,0,0
43804,-100,4,1,0,60,0,0
43966,-100,4,1,0,80,0,0
45264,-100,4,1,0,40,0,0
45345,-100,4,1,0,80,0,0
47615,-100,4,2,0,80,0,0
47939,-100,4,1,0,80,0,0
48912,-100,4,2,0,80,0,0
49236,-100,4,1,0,80,0,0
49318,-100,4,1,0,60,0,0
49480,-100,4,1,0,80,0,0
50209,-100,4,2,0,80,0,0
50534,-100,4,1,0,80,0,0
52804,-100,4,2,0,80,0,0
53128,-100,4,1,0,80,0,0
54101,-100,4,2,0,80,0,0
54426,-100,4,1,0,80,0,0
55804,-100,4,1,0,5,0,0
55885,-100,4,1,0,80,0,0
55966,-100,4,1,0,5,0,0
56047,-100,4,1,0,80,0,0
56128,-100,4,1,0,5,0,0
56209,-100,4,1,0,80,0,0
56291,-100,4,1,0,5,0,0
56534,-100,4,1,0,80,0,0
56615,-100,4,1,0,5,0,0
56696,-100,4,1,0,80,0,0
56777,-100,4,1,0,5,0,0
57020,-100,4,1,0,80,0,0
57101,-100,4,2,0,80,0,0
58236,-100,4,1,0,60,0,0
59209,-100,4,2,0,80,0,0
60831,-100,4,1,0,60,0,0
61885,-100,4,3,0,60,0,0
61966,-100,4,2,0,20,0,0
62047,-100,4,2,0,60,0,0
62128,-100,4,2,0,20,0,0
62209,-100,4,1,0,80,0,0
67480,-100,4,1,0,40,0,0
67561,-100,4,1,0,80,0,0
67642,-100,4,1,0,40,0,0
67723,-100,4,1,0,80,0,0
67804,-100,4,1,0,40,0,0
67885,-100,4,1,0,80,0,0
67966,-100,4,1,0,40,0,0
68047,-100,4,1,0,80,0,0
68128,-100,4,1,0,40,0,0
68209,-100,4,1,0,80,0,0
68291,-100,4,1,0,40,0,0
68372,-100,4,1,0,80,0,0
68453,-100,4,1,0,75,0,0
68534,-100,4,1,0,70,0,0
68615,-100,4,1,0,65,0,0
68696,-100,4,2,0,80,0,0
69993,-100,4,1,0,80,0,1
88155,-100,4,1,0,80,0,0
88236,-100,4,1,0,40,0,0
88399,-100,4,1,0,60,0,0
88561,-100,4,1,0,80,0,0
91074,-100,4,1,0,80,0,1
95939,-100,4,1,0,80,0,0
96264,-100,4,1,0,80,0,1
106642,-100,4,1,0,60,0,1
106723,-100,4,1,0,80,0,1
107291,-200,4,1,0,80,0,0
107372,-200,4,1,0,5,0,0
108264,-200,4,1,0,40,0,0
108426,-200,4,1,0,80,0,0
108912,-100,4,1,0,80,0,0
109236,-100,4,1,0,60,0,0
109318,-100,4,1,0,80,0,0
109885,-200,4,1,0,80,0,0
109966,-200,4,1,0,5,0,0
111182,-200,4,1,0,40,0,0
111345,-200,4,1,0,80,0,0

[HitObjects]
37,130,1237,6,0,L|141:141,1,95,4|0,0:0|0:0,0:0:0:0:
212,86,1561,2,0,L|316:97,1,95
385,156,1885,2,0,P|427:140|487:148,1,95
508,235,2209,2,0,P|466:251|406:243,1,95
347,282,2534,5,0,0:0:0:0:
347,282,2696,1,0,0:0:0:0:
267,227,2858,1,0,0:0:0:0:
177,262,3020,1,0,0:0:0:0:
177,262,3831,6,0,L|165:168,1,95
71,146,4155,2,0,L|59:52,1,95
153,25,4480,2,0,P|199:20|244:37,1,95
295,119,4804,2,0,P|338:135|385:130,1,95
458,94,5128,5,0,0:0:0:0:
458,94,5291,1,0,0:0:0:0:
397,19,5453,1,0,0:0:0:0:
302,39,5615,1,0,0:0:0:0:
302,39,6426,6,0,L|205:29,1,95
136,94,6750,2,0,L|39:84,1,95
3,173,7074,2,0,P|-9:218|0:264,1,95
83,314,7399,2,0,P|95:268|86:222,1,95
127,155,7723,5,0,0:0:0:0:
127,155,7885,1,0,0:0:0:0:
213,111,8047,1,0,0:0:0:0:
279,182,8209,1,0,0:0:0:0:
279,182,9020,5,0,0:0:0:0:
279,182,10318,5,0,0:0:0:0:
59,131,10561,1,0,0:0:0:0:
242,70,10804,1,0,0:0:0:0:
199,159,10966,1,0,0:0:0:0:
199,159,11128,1,0,0:0:0:0:
249,243,11291,1,0,0:0:0:0:
206,332,11453,1,0,0:0:0:0:
112,307,11615,1,4,0:0:0:0:
90,239,11939,5,2,0:0:0:0:
112,171,12263,1,0,0:0:0:0:
165,123,12587,1,2,0:0:0:0:
234,108,12912,5,2,0:0:0:0:
234,108,13561,2,0,L|314:126,1,71.2500027179719,2|0,0:0|0:0,0:0:0:0:
311,204,13885,2,0,L|231:186,1,71.2500027179719
167,219,14209,5,0,0:0:0:0:
182,149,14534,1,2,0:0:0:0:
166,79,14858,1,0,0:0:0:0:
113,30,15182,1,2,0:0:0:0:
41,26,15507,5,2,0:0:0:0:
41,26,16155,1,2,0:0:0:0:
102,64,16480,1,2,0:0:0:0:
171,41,16804,5,2,0:0:0:0:
171,41,17777,1,2,0:0:0:0:
237,81,18101,5,2,0:0:0:0:
237,81,18264,1,2,0:0:0:0:
311,57,18588,1,2,0:0:0:0:
311,57,18750,2,0,P|354:62|382:73,1,71.2500027179719,2|0,0:0|0:0,0:0:0:0:
455,68,19074,2,0,L|447:149,1,71.2500027179719
437,209,19399,5,2,0:0:0:0:
437,209,20372,1,0,0:0:0:0:
437,209,20534,1,2,0:0:0:0:
437,209,20696,2,0,P|470:197|505:194,2,71.2500027179719,2|0|0,0:0|0:0|0:0,0:0:0:0:
390,262,21182,2,0,P|357:274|322:277,2,71.2500027179719,2|0|0,0:0|0:0|0:0,0:0:0:0:
444,308,21669,1,2,0:0:0:0:
262,374,21993,1,0,0:0:0:0:
262,374,24588,6,0,P|321:346|397:365,1,142.5,6|2,0:0|0:0,0:0:0:0:
496,157,25074,1,0,0:0:0:0:
512,234,25236,2,0,P|453:262|377:243,1,142.5,2|2,0:0|0:0,0:0:0:0:
157,277,25723,5,0,0:0:0:0:
103,222,25885,2,0,L|123:78,1,142.5,2|2,0:0|0:0,0:0:0:0:
337,16,26372,1,0,0:0:0:0:
391,71,26534,2,0,L|371:215,1,142.5,2|2,0:0|0:0,0:0:0:0:
339,368,27020,5,0,0:0:0:0:
270,335,27182,2,0,B|199:316|199:316|127:355,1,142.5,2|2,0:0|0:0,0:0:0:0:
17,160,27669,1,0,0:0:0:0:
86,193,27831,2,0,B|157:212|157:212|229:173,1,142.5,2|2,0:0|0:0,0:0:0:0:
435,109,28318,5,0,0:0:0:0:
371,38,28480,1,0,0:0:0:0:
371,38,28642,1,2,0:0:0:0:
282,72,28804,1,2,0:0:0:0:
282,72,29128,2,0,P|226:73|163:45,1,95,0|2,0:0|0:0,0:0:0:0:
13,153,29453,2,0,P|58:139|105:142,1,95,0|2,0:0|0:0,0:0:0:0:
232,343,29777,6,0,L|211:194,1,142.5,2|2,0:0|0:0,0:0:0:0:
188,41,30264,1,0,0:0:0:0:
282,60,30426,2,0,L|303:209,1,142.5,2|2,0:0|0:0,0:0:0:0:
326,362,30912,1,0,0:0:0:0:
247,307,31074,6,0,P|174:301|90:345,1,142.5,2|2,0:0|0:0,0:0:0:0:
275,130,31561,1,0,0:0:0:0:
354,185,31723,2,0,P|427:191|511:147,1,142.5,2|2,0:0|0:0,0:0:0:0:
418,22,32209,1,0,0:0:0:0:
335,70,32372,5,0,0:0:0:0:
248,30,32534,1,2,0:0:0:0:
189,104,32696,1,2,0:0:0:0:
189,104,33020,1,0,0:0:0:0:
102,64,33182,1,2,0:0:0:0:
43,138,33344,1,0,0:0:0:0:
45,147,33426,1,0,0:0:0:0:
47,156,33507,1,2,0:0:0:0:
69,248,33669,5,0,0:0:0:0:
69,248,33831,1,2,0:0:0:0:
148,196,33993,1,2,0:0:0:0:
305,357,34318,1,2,0:0:0:0:
503,148,34642,1,0,0:0:0:0:
499,134,34723,1,0,0:0:0:0:
494,120,34804,1,0,0:0:0:0:
430,72,34966,6,0,P|337:88|254:30,1,190,6|0,0:0|0:0,0:0:0:0:
66,155,35453,2,0,P|159:139|242:197,1,190,2|0,0:0|0:0,0:0:0:0:
271,255,35939,1,2,0:0:0:0:
271,255,36264,6,0,L|254:65,1,190,2|0,0:0|0:0,0:0:0:0:
432,133,36750,2,0,L|449:323,1,190,2|0,0:0|0:0,0:0:0:0:
385,363,37236,1,2,0:0:0:0:
385,363,37561,6,0,B|315:387|266:336|198:361,1,190,2|0,0:0|0:0,0:0:0:0:
23,241,38047,2,0,B|92:216|141:267|209:242,1,190,2|0,0:0|0:0,0:0:0:0:
255,181,38534,1,2,0:0:0:0:
255,181,38858,5,2,0:0:0:0:
227,90,39020,1,0,0:0:0:0:
227,90,39182,1,0,0:0:0:0:
227,90,39507,1,2,0:0:0:0:
290,48,39669,1,0,0:0:0:0:
365,54,39831,1,0,0:0:0:0:
427,96,39993,1,0,0:0:0:0:
454,166,40155,6,0,L|436:363,1,190,6|0,0:0|0:0,0:0:0:0:
262,275,40642,2,0,L|280:78,1,190,2|0,0:0|0:0,0:0:0:0:
287,10,41128,1,2,0:0:0:0:
107,80,41453,5,2,0:0:0:0:
419,151,41939,1,2,0:0:0:0:
208,227,42426,1,2,0:0:0:0:
259,106,42750,6,0,P|319:101|363:128,1,95
440,178,43074,2,0,L|433:72,1,95
375,34,43399,1,0,0:0:0:0:
375,34,43561,1,0,0:0:0:0:
300,19,43723,1,0,0:0:0:0:
236,60,43885,1,0,0:0:0:0:
219,134,44047,5,2,0:0:0:0:
219,134,44696,2,0,L|275:120,1,47.5,2|0,0:0|0:0,0:0:0:0:
332,160,44858,2,0,L|388:146,1,47.5
235,105,45020,6,0,L|291:91,1,47.5,2|0,0:0|0:0,0:0:0:0:
348,131,45182,2,0,L|404:117,1,47.5,2|0,0:0|0:0,0:0:0:0:
394,119,46642,6,2,P|294:96|224:143,1,190
276,259,47128,2,2,P|376:282|446:235,1,190
480,169,47615,1,8,0:0:0:0:
480,169,47939,6,2,L|459:365,1,190
322,275,48426,2,2,L|343:79,1,190
352,10,48912,1,8,0:0:0:0:
352,10,49236,6,2,P|275:32|165:18,1,190
25,136,49723,2,2,P|102:114|212:128,1,190,0|2,0:0|0:0,0:0:0:0:
270,174,50209,1,8,0:0:0:0:
270,174,50534,6,0,L|262:69,1,95,0|2,0:0|0:0,0:0:0:0:
250,4,50858,1,2,0:0:0:0:
402,50,51020,2,2,P|417:153|344:207,1,190
285,188,51507,1,0,0:0:0:0:
285,188,51669,1,0,0:0:0:0:
305,260,51831,6,2,B|343:281|343:281|489:265,1,190,0|2,0:0|0:0,0:0:0:0:
289,373,52318,2,2,B|251:351|251:351|105:367,1,190,0|2,0:0|0:0,0:0:0:0:
40,327,52804,1,8,0:0:0:0:
40,327,53128,6,2,P|57:232|13:150,1,190,0|2,0:0|0:0,0:0:0:0:
175,53,53615,2,2,P|158:148|202:230,1,190,0|2,0:0|0:0,0:0:0:0:
268,259,54101,1,8,0:0:0:0:
268,259,54426,6,2,L|474:238,1,190,0|2,0:0|0:0,0:0:0:0:
326,139,54912,2,2,L|120:160,1,190,0|2,0:0|0:0,0:0:0:0:
68,125,55399,1,0,0:0:0:0:
68,125,55723,5,2,0:0:0:0:
91,52,55885,1,2,0:0:0:0:
28,125,56047,1,0,0:0:0:0:
63,215,56209,1,2,0:0:0:0:
414,164,56696,1,2,0:0:0:0:
350,315,57020,5,0,0:0:0:0:
316,245,57507,1,2,0:0:0:0:
366,184,57993,1,2,0:0:0:0:
400,254,58318,1,0,0:0:0:0:
478,108,59128,1,0,0:0:0:0:
478,108,59291,1,2,0:0:0:0:
425,30,59615,5,2,0:0:0:0:
109,89,60912,1,0,0:0:0:0:
113,93,61885,1,0,0:0:0:0:
113,93,62047,1,0,0:0:0:0:
184,131,62209,6,0,P|229:106|294:100,2,95,2|0|0,0:0|0:0|0:0,0:0:0:0:
108,192,62696,2,0,L|7:176,2,95,2|0|0,0:0|0:0|0:0,0:0:0:0:
174,263,63182,2,0,B|178:313|178:313|148:372,2,95,2|0|0,0:0|0:0|0:0,0:0:0:0:
108,192,63669,2,0,B|104:142|104:142|134:83,2,95,2|0|0,0:0|0:0|0:0,0:0:0:0:
201,164,64155,6,0,P|249:147|314:152,1,95,2|0,0:0|0:0,0:0:0:0:
390,179,64480,1,0,0:0:0:0:
390,179,64642,2,0,L|375:69,1,95,2|0,0:0|0:0,0:0:0:0:
499,20,64966,1,0,0:0:0:0:
499,20,65128,2,0,L|484:130,1,95,2|0,0:0|0:0,0:0:0:0:
512,247,65453,1,0,0:0:0:0:
512,247,65615,2,0,P|459:232|399:231,1,95,2|0,0:0|0:0,0:0:0:0:
326,255,65939,1,0,0:0:0:0:
218,184,66101,5,2,0:0:0:0:
218,184,66264,1,2,0:0:0:0:
256,62,66426,1,0,0:0:0:0:
256,62,66588,1,2,0:0:0:0:
342,166,66750,1,0,0:0:0:0:
342,166,66913,1,2,0:0:0:0:
304,288,67075,1,2,0:0:0:0:
304,288,67237,1,2,0:0:0:0:
227,344,67399,6,0,L|172:319,1,47.5
111,337,67561,2,0,L|166:312,1,47.5
249,342,67723,6,0,L|194:317,1,47.5
99,332,67885,2,0,L|154:307,1,47.5
271,340,68047,6,0,L|216:315,1,47.5
77,330,68209,2,0,L|132:305,1,47.5
157,240,68372,5,0,0:0:0:0:
157,240,68453,1,0,0:0:0:0:
157,240,68534,1,0,0:0:0:0:
118,123,68696,1,0,0:0:0:0:
118,123,69993,6,0,P|172:96|227:120,1,95,6|0,0:0|0:0,0:0:0:0:
252,220,70318,2,0,P|198:247|143:223,1,95,10|0,0:0|0:0,0:0:0:0:
102,282,70642,1,2,0:0:0:0:
15,237,70804,1,0,0:0:0:0:
15,237,70885,2,2,L|33:88,1,142.5
18,1,71291,6,0,B|59:21|59:21|115:16,1,95,2|0,0:0|0:0,0:0:0:0:
276,86,71615,2,0,B|235:66|235:66|179:71,1,95,10|0,0:0|0:0,0:0:0:0:
133,125,71939,1,2,0:0:0:0:
133,125,72101,1,0,0:0:0:0:
187,203,72264,1,0,0:0:0:0:
215,200,72345,1,0,0:0:0:0:
243,197,72426,1,2,0:0:0:0:
316,257,72588,6,0,P|316:308|271:346,1,95,2|0,0:0|0:0,0:0:0:0:
166,296,72912,2,0,P|166:245|211:207,1,95,10|0,0:0|0:0,0:0:0:0:
239,150,73236,1,2,0:0:0:0:
311,214,73399,1,0,0:0:0:0:
311,214,73480,1,2,0:0:0:0:
453,78,73723,1,0,0:0:0:0:
382,14,73885,6,0,L|286:31,1,95,2|0,0:0|0:0,0:0:0:0:
239,150,74209,2,0,L|143:133,1,95,10|0,0:0|0:0,0:0:0:0:
71,114,74534,1,2,0:0:0:0:
71,114,74696,1,0,0:0:0:0:
4,181,74858,1,0,0:0:0:0:
9,209,74939,1,0,0:0:0:0:
14,236,75020,1,0,0:0:0:0:
88,296,75182,6,0,P|131:270|176:280,1,95,2|0,0:0|0:0,0:0:0:0:
275,355,75507,2,0,P|320:362|359:337,1,95,10|0,0:0|0:0,0:0:0:0:
430,303,75831,1,2,0:0:0:0:
403,208,75993,1,0,0:0:0:0:
403,208,76074,2,2,B|361:230|361:230|228:214,1,142.5
171,238,76480,6,0,L|196:131,1,95,2|0,0:0|0:0,0:0:0:0:
72,57,76804,2,0,L|97:164,1,95,10|0,0:0|0:0,0:0:0:0:
1,349,77128,2,0,L|26:242,1,95,2|0,0:0|0:0,0:0:0:0:
7,160,77453,1,0,0:0:0:0:
7,160,77534,1,0,0:0:0:0:
7,160,77615,1,0,0:0:0:0:
61,73,77777,6,0,P|107:68|146:93,1,95,2|0,0:0|0:0,0:0:0:0:
186,255,78101,2,0,P|139:259|100:234,1,95,10|0,0:0|0:0,0:0:0:0:
261,29,78426,2,0,P|307:24|346:49,1,95,2|0,0:0|0:0,0:0:0:0:
385,146,78750,1,2,0:0:0:0:
488,162,78912,1,0,0:0:0:0:
449,65,79074,1,0,0:0:0:0:
424,243,79236,5,2,0:0:0:0:
433,270,79318,1,0,0:0:0:0:
442,296,79399,1,0,0:0:0:0:
319,258,79561,1,2,0:0:0:0:
310,285,79643,1,0,0:0:0:0:
301,311,79724,1,0,0:0:0:0:
215,356,79885,1,0,0:0:0:0:
180,372,79966,1,0,0:0:0:0:
143,363,80047,1,2,0:0:0:0:
122,330,80128,1,0,0:0:0:0:
133,293,80209,1,0,0:0:0:0:
205,246,80372,6,0,L|318:259,1,95,2|0,0:0|0:0,0:0:0:0:
386,199,80696,1,8,0:0:0:0:
473,141,80858,2,0,L|360:154,1,95,2|0,0:0|0:0,0:0:0:0:
287,52,81182,1,0,0:0:0:0:
287,52,81345,2,0,B|267:93|267:93|272:149,1,95,10|0,0:0|0:0,0:0:0:0:
326,230,81669,1,0,0:0:0:0:
449,185,81831,2,0,B|469:144|469:144|464:88,1,95,2|8,0:0|0:0,0:0:0:0:
410,7,82155,1,0,0:0:0:0:
361,97,82318,1,2,0:0:0:0:
221,18,82480,1,2,0:0:0:0:
200,146,82642,1,8,0:0:0:0:
119,94,82804,1,0,0:0:0:0:
115,191,82966,6,0,P|73:220|16:206,1,95,2|0,0:0|0:0,0:0:0:0:
0,143,83291,1,8,0:0:0:0:
107,23,83453,2,0,P|157:30|187:81,1,95,2|0,0:0|0:0,0:0:0:0:
196,142,83778,1,0,0:0:0:0:
293,56,83939,2,0,P|334:26|391:40,1,95,10|0,0:0|0:0,0:0:0:0:
440,77,84264,1,0,0:0:0:0:
478,202,84426,1,2,0:0:0:0:
332,136,84588,2,0,L|219:149,1,95,10|0,0:0|0:0,0:0:0:0:
107,232,84912,2,0,L|220:245,1,95,2|2,0:0|0:0,0:0:0:0:
275,306,85236,1,0,0:0:0:0:
272,334,85318,1,0,0:0:0:0:
269,362,85399,1,0,0:0:0:0:
358,323,85561,6,0,P|400:294|457:308,1,95,2|0,0:0|0:0,0:0:0:0:
512,189,85885,1,8,0:0:0:0:
512,189,86047,2,0,P|465:192|428:164,1,95,2|0,0:0|0:0,0:0:0:0:
253,74,86372,1,0,0:0:0:0:
253,74,86534,2,0,P|295:45|352:59,1,95,10|0,0:0|0:0,0:0:0:0:
405,89,86858,1,0,0:0:0:0:
381,216,87020,1,2,0:0:0:0:
196,355,87345,1,0,0:0:0:0:
172,228,87507,1,2,0:0:0:0:
26,11,87831,1,0,0:0:0:0:
2,138,87993,1,0,0:0:0:0:
87,235,88155,5,0,0:0:0:0:
87,235,88642,1,0,0:0:0:0:
171,280,88804,1,0,0:0:0:0:
198,273,88885,1,0,0:0:0:0:
248,151,89047,1,0,0:0:0:0:
248,151,89128,1,0,0:0:0:0:
332,196,89291,1,0,0:0:0:0:
449,96,89453,6,0,L|439:148,1,47.5
504,228,89615,1,0,0:0:0:0:
504,228,89696,1,0,0:0:0:0:
504,228,89777,2,0,L|514:280,1,47.5
414,340,89939,1,0,0:0:0:0:
414,340,90020,1,0,0:0:0:0:
414,340,90101,2,0,L|424:288,1,47.5
351,227,90264,2,0,L|299:237,1,47.5
237,203,90426,1,0,0:0:0:0:
261,74,90588,1,0,0:0:0:0:
261,74,91074,6,0,P|315:47|370:71,1,95,14|0,0:0|0:0,0:0:0:0:
501,173,91399,2,0,P|447:146|392:170,1,95,2|0,0:0|0:0,0:0:0:0:
337,212,91723,1,10,0:0:0:0:
447,279,91885,2,0,B|461:327|461:327|447:370,2,95,0|0|2,0:0|0:0|0:0,0:0:0:0:
363,229,92372,2,0,L|250:245,1,95,10|0,0:0|0:0,0:0:0:0:
132,138,92696,1,2,0:0:0:0:
132,138,92858,2,0,L|245:154,1,95,0|8,0:0|0:0,0:0:0:0:
315,113,93182,1,2,0:0:0:0:
238,8,93345,6,0,P|191:3|152:28,1,95,2|0,0:0|0:0,0:0:0:0:
77,89,93669,1,10,0:0:0:0:
2,28,93831,1,0,0:0:0:0:
86,125,93993,2,0,L|70:238,1,95,2|0,0:0|0:0,0:0:0:0:
203,123,94318,2,0,L|187:10,1,95,10|0,0:0|0:0,0:0:0:0:
64,134,94642,2,0,L|48:247,1,95,2|0,0:0|0:0,0:0:0:0:
32,323,94966,1,8,0:0:0:0:
152,274,95128,1,2,0:0:0:0:
243,367,95291,1,2,0:0:0:0:
421,177,95615,1,2,0:0:0:0:
414,159,95696,1,0,0:0:0:0:
408,140,95777,1,0,0:0:0:0:
402,121,95858,1,0,0:0:0:0:
402,121,96264,6,0,P|352:132|300:131,1,95,14|0,0:0|0:0,0:0:0:0:
165,51,96588,2,0,P|215:40|267:41,1,95,2|0,0:0|0:0,0:0:0:0:
347,0,96912,1,8,0:0:0:0:
418,108,97074,1,2,0:0:0:0:
334,206,97236,2,0,B|320:254|320:254|334:297,2,95,2|0|8,0:0|0:0|0:0,0:0:0:0:
418,108,97723,2,0,B|432:60|432:60|418:17,2,95,2|0|0,0:0|0:0|0:0,0:0:0:0:
480,183,98209,1,10,0:0:0:0:
326,127,98372,1,0,0:0:0:0:
228,260,98534,6,2,B|175:250|132:273|132:273|148:236|212:195|300:217|266:258|358:321|446:325|526:286|563:176|533:89|465:52|406:57|353:89|335:137|364:183|397:194,1,760
384,187,100642,1,0,0:0:0:0:
384,187,100804,1,0,0:0:0:0:
450,227,100966,1,0,0:0:0:0:
467,220,101047,1,0,0:0:0:0:
484,213,101128,5,6,0:0:0:0:
462,82,101291,1,2,0:0:0:0:
362,166,101453,1,8,0:0:0:0:
384,297,101616,1,0,0:0:0:0:
259,250,101777,2,0,L|144:262,1,95,2|2,0:0|0:0,0:0:0:0:
12,139,102101,2,0,L|127:151,1,95,8|0,0:0|0:0,0:0:0:0:
194,109,102426,5,2,0:0:0:0:
104,10,102588,1,2,0:0:0:0:
66,137,102750,1,8,0:0:0:0:
156,236,102912,1,0,0:0:0:0:
285,206,103074,2,0,L|297:91,1,95,2|2,0:0|0:0,0:0:0:0:
459,0,103399,2,0,L|471:115,1,95,8|0,0:0|0:0,0:0:0:0:
419,177,103723,5,2,0:0:0:0:
292,136,103885,1,2,0:0:0:0:
251,263,104047,1,10,0:0:0:0:
378,304,104209,1,2,0:0:0:0:
336,219,104372,5,2,0:0:0:0:
228,293,104534,1,2,0:0:0:0:
98,277,104696,1,10,0:0:0:0:
31,165,104858,1,2,0:0:0:0:
73,40,105020,5,0,0:0:0:0:
73,40,105182,1,2,0:0:0:0:
262,98,105345,1,8,0:0:0:0:
262,98,105507,1,2,0:0:0:0:
121,186,105669,1,0,0:0:0:0:
121,186,105831,1,2,0:0:0:0:
220,284,105993,1,8,0:0:0:0:
220,284,106074,1,0,0:0:0:0:
220,284,106155,1,2,0:0:0:0:
305,235,106318,6,0,B|366:225|425:280|425:280|418:242|386:216,1,190
395,151,106804,1,0,0:0:0:0:
395,151,107291,2,0,B|368:109|379:61|379:61|431:98|412:197|469:236,1,285
407,351,108588,1,0,0:0:0:0:
407,351,108669,1,0,0:0:0:0:
407,351,108750,1,0,0:0:0:0:
317,320,108912,6,0,B|266:326|266:326|184:297|184:297|132:303,1,190
61,271,109399,1,0,0:0:0:0:
61,271,109885,2,0,P|225:313|319:138,1,380,0|8,0:0|0:0,0:0:0:0:
297,61,111507,5,0,0:0:0:0:
297,61,111831,1,8,0:0:0:0:
141,113,112155,1,0,0:0:0:0:
141,113,112480,1,8,0:0:0:0:
356,197,112804,1,0,0:0:0:0:
356,197,113128,1,8,0:0:0:0:
241,346,113453,5,8,0:0:0:0:
198,259,113615,1,8,0:0:0:0:
257,181,113777,1,4,0:0:0:0:
