osu file format v14

[General]
AudioFilename: audio.mp3
AudioLeadIn: 0
PreviewTime: 60893
Countdown: 0
SampleSet: Normal
StackLeniency: 0.7
Mode: 1
LetterboxInBreaks: 0
WidescreenStoryboard: 1

[Editor]
DistanceSpacing: 1
BeatDivisor: 4
GridSize: 32
TimelineZoom: 1.1

[Metadata]
Title:Placa no Chao
TitleUnicode:Placa no Chão
Artist:Tati Zaqui
ArtistUnicode:Tati Zaqui
Creator:Kuron-kun
Version:Normal
Source:
Tags:funk pt brazilian brasil brasileiro collab ghm12 kondzilla baile portuguese portugues latino latin south america
BeatmapID:1556964
BeatmapSetID:737724

[Difficulty]
HPDrainRate:6
CircleSize:2
OverallDifficulty:4
ApproachRate:0
SliderMultiplier:1.4
SliderTickRate:1

[Events]
//Background and Video events
0,0,"saber.jpg",0,100
//Break Periods
//Storyboard Layer 0 (Background)
//Storyboard Layer 1 (Fail)
//Storyboard Layer 2 (Pass)
//Storyboard Layer 3 (Foreground)
//Storyboard Sound Samples

[TimingPoints]
2056,692.30502959604,3,1,0,60,1,0
26740,461.538461538462,3,1,0,100,1,8
27667,461.538461538462,4,1,0,100,1,0
60897,-100,4,1,0,100,0,1
75667,-100,4,1,0,100,0,0
79359,-100,4,1,0,100,0,1
94128,-100,4,1,0,100,0,0
142128,-100,4,1,0,100,0,1
156897,-100,4,1,0,100,0,0
160590,-100,4,1,0,100,0,1
175359,-100,4,1,0,100,0,0

[HitObjects]
256,192,1363,5,0,0:0:0:0:
256,192,2056,1,0,0:0:0:0:
256,192,2748,1,8,0:0:0:0:
256,192,3094,1,0,0:0:0:0:
256,192,3440,1,0,0:0:0:0:
256,192,4132,1,0,0:0:0:0:
256,192,4825,1,8,0:0:0:0:
256,192,5171,1,0,0:0:0:0:
256,192,5517,1,0,0:0:0:0:
256,192,6209,1,0,0:0:0:0:
256,192,6902,1,8,0:0:0:0:
256,192,7247,1,0,0:0:0:0:
256,192,7594,1,0,0:0:0:0:
256,192,8286,1,0,0:0:0:0:
256,192,8979,1,8,0:0:0:0:
256,192,9671,1,0,0:0:0:0:
256,192,10017,1,8,0:0:0:0:
256,192,10363,1,0,0:0:0:0:
256,192,11056,1,8,0:0:0:0:
256,192,11748,1,0,0:0:0:0:
256,192,12094,1,8,0:0:0:0:
256,192,12440,1,8,0:0:0:0:
256,192,12786,1,0,0:0:0:0:
256,192,13825,1,0,0:0:0:0:
256,192,14171,1,8,0:0:0:0:
256,192,14517,1,8,0:0:0:0:
256,192,15556,1,8,0:0:0:0:
256,192,15902,1,8,0:0:0:0:
256,192,16248,1,0,0:0:0:0:
256,192,16594,1,0,0:0:0:0:
256,192,16940,1,8,0:0:0:0:
256,192,17979,1,0,0:0:0:0:
256,192,18671,1,0,0:0:0:0:
256,192,19017,1,0,0:0:0:0:
256,192,19363,1,8,0:0:0:0:
256,192,19709,1,8,0:0:0:0:
256,192,20402,1,0,0:0:0:0:
256,192,20748,1,0,0:0:0:0:
256,192,21440,1,8,0:0:0:0:
256,192,21786,1,0,0:0:0:0:
256,192,22479,1,8,0:0:0:0:
256,192,22825,1,0,0:0:0:0:
256,192,23517,1,0,0:0:0:0:
256,192,23863,1,8,0:0:0:0:
256,192,26970,1,8,0:0:0:0:
256,192,27201,1,8,0:0:0:0:
256,192,27667,1,4,0:0:0:0:
256,192,28128,1,8,0:0:0:0:
256,192,28359,1,0,0:0:0:0:
256,192,28820,1,8,0:0:0:0:
256,192,29051,1,8,0:0:0:0:
256,192,29282,1,0,0:0:0:0:
256,192,29513,1,0,0:0:0:0:
256,192,30205,1,8,0:0:0:0:
256,192,30436,1,0,0:0:0:0:
256,192,30667,1,0,0:0:0:0:
256,192,30897,1,8,0:0:0:0:
256,192,31359,1,4,0:0:0:0:
256,192,31820,1,8,0:0:0:0:
256,192,32051,1,0,0:0:0:0:
256,192,32512,1,8,0:0:0:0:
256,192,32743,1,8,0:0:0:0:
256,192,32974,1,0,0:0:0:0:
256,192,33205,1,0,0:0:0:0:
256,192,33897,1,8,0:0:0:0:
256,192,34128,1,0,0:0:0:0:
256,192,34359,1,0,0:0:0:0:
256,192,34589,1,8,0:0:0:0:
256,192,35051,1,4,0:0:0:0:
256,192,35743,1,8,0:0:0:0:
256,192,35974,1,0,0:0:0:0:
256,192,36436,1,8,0:0:0:0:
256,192,36897,1,0,0:0:0:0:
256,192,37359,1,8,0:0:0:0:
256,192,37589,1,8,0:0:0:0:
256,192,37820,1,0,0:0:0:0:
256,192,38282,1,8,0:0:0:0:
256,192,38513,1,0,0:0:0:0:
256,192,38743,1,4,0:0:0:0:
256,192,39205,1,8,0:0:0:0:
256,192,39667,1,0,0:0:0:0:
256,192,39897,1,0,0:0:0:0:
256,192,40128,1,8,0:0:0:0:
256,192,40590,1,0,0:0:0:0:
256,192,41051,1,0,0:0:0:0:
256,192,41282,1,8,0:0:0:0:
256,192,41513,1,0,0:0:0:0:
256,192,41743,1,0,0:0:0:0:
256,192,41974,1,8,0:0:0:0:
256,192,42436,1,4,0:0:0:0:
256,192,42897,1,8,0:0:0:0:
256,192,43128,1,0,0:0:0:0:
256,192,43589,1,8,0:0:0:0:
256,192,43820,1,8,0:0:0:0:
256,192,44051,1,0,0:0:0:0:
256,192,44282,1,0,0:0:0:0:
256,192,44974,1,8,0:0:0:0:
256,192,45205,1,0,0:0:0:0:
256,192,45436,1,0,0:0:0:0:
256,192,45666,1,8,0:0:0:0:
256,192,46128,1,4,0:0:0:0:
256,192,46589,1,8,0:0:0:0:
256,192,46820,1,0,0:0:0:0:
256,192,47281,1,8,0:0:0:0:
256,192,47512,1,8,0:0:0:0:
256,192,47743,1,0,0:0:0:0:
256,192,47974,1,0,0:0:0:0:
256,192,48667,1,8,0:0:0:0:
256,192,48897,1,0,0:0:0:0:
256,192,49128,1,0,0:0:0:0:
256,192,49358,1,8,0:0:0:0:
256,192,49820,1,4,0:0:0:0:
256,192,50282,1,8,0:0:0:0:
256,192,50512,1,8,0:0:0:0:
256,192,50743,1,0,0:0:0:0:
256,192,50974,1,8,0:0:0:0:
256,192,51205,1,8,0:0:0:0:
256,192,51666,1,0,0:0:0:0:
256,192,52128,1,8,0:0:0:0:
256,192,52358,1,8,0:0:0:0:
256,192,52589,1,0,0:0:0:0:
256,192,53051,1,8,0:0:0:0:
256,192,53512,1,4,0:0:0:0:
256,192,54436,1,0,0:0:0:0:
256,192,55359,1,8,0:0:0:0:
256,192,55820,1,8,0:0:0:0:
256,192,56282,1,8,0:0:0:0:
256,192,56743,1,8,0:0:0:0:
256,192,57205,1,0,0:0:0:0:
256,192,57667,1,0,0:0:0:0:
256,192,57897,1,0,0:0:0:0:
256,192,58128,1,8,0:0:0:0:
256,192,58590,1,8,0:0:0:0:
256,192,58820,1,8,0:0:0:0:
256,192,59051,1,8,0:0:0:0:
256,192,59513,1,8,0:0:0:0:
256,192,59743,1,0,0:0:0:0:
256,192,59974,1,8,0:0:0:0:
256,192,60205,1,8,0:0:0:0:
256,192,60897,1,4,0:0:0:0:
256,192,61359,1,8,0:0:0:0:
256,192,61590,1,0,0:0:0:0:
256,192,61820,1,8,0:0:0:0:
256,192,62282,1,0,0:0:0:0:
256,192,62974,1,0,0:0:0:0:
256,192,63436,1,0,0:0:0:0:
256,192,63667,1,8,0:0:0:0:
256,192,64128,1,8,0:0:0:0:
256,192,64590,1,0,0:0:0:0:
256,192,64820,1,0,0:0:0:0:
256,192,65051,1,8,0:0:0:0:
256,192,65513,1,8,0:0:0:0:
256,192,65974,1,0,0:0:0:0:
256,192,66436,1,0,0:0:0:0:
256,192,66667,1,0,0:0:0:0:
256,192,67128,1,0,0:0:0:0:
256,192,67359,1,8,0:0:0:0:
256,192,67820,1,8,0:0:0:0:
256,192,68051,1,8,0:0:0:0:
256,192,68282,1,0,0:0:0:0:
256,192,68743,1,0,0:0:0:0:
256,192,69205,1,8,0:0:0:0:
256,192,69667,1,0,0:0:0:0:
256,192,70128,1,0,0:0:0:0:
256,192,70590,1,0,0:0:0:0:
256,192,71051,1,8,0:0:0:0:
256,192,71513,1,8,0:0:0:0:
256,192,71743,1,8,0:0:0:0:
256,192,71974,1,0,0:0:0:0:
256,192,72436,1,0,0:0:0:0:
256,192,72897,1,8,0:0:0:0:
256,192,73359,1,8,0:0:0:0:
256,192,73820,1,0,0:0:0:0:
256,192,74282,1,0,0:0:0:0:
256,192,74513,1,0,0:0:0:0:
256,192,74743,1,8,0:0:0:0:
256,192,75205,1,8,0:0:0:0:
256,192,75436,1,8,0:0:0:0:
256,192,75667,1,0,0:0:0:0:
256,192,76128,1,8,0:0:0:0:
256,192,76590,1,0,0:0:0:0:
256,192,77051,1,8,0:0:0:0:
256,192,77513,1,0,0:0:0:0:
256,192,77974,1,8,0:0:0:0:
256,192,78205,1,0,0:0:0:0:
256,192,78436,1,8,0:0:0:0:
256,192,78897,1,8,0:0:0:0:
256,192,79128,1,8,0:0:0:0:
256,192,79359,1,4,0:0:0:0:
256,192,80051,1,8,0:0:0:0:
256,192,80282,1,0,0:0:0:0:
256,192,80513,1,0,0:0:0:0:
256,192,80743,1,8,0:0:0:0:
256,192,81205,1,0,0:0:0:0:
256,192,81667,1,0,0:0:0:0:
256,192,81897,1,0,0:0:0:0:
256,192,82128,1,8,0:0:0:0:
256,192,82590,1,8,0:0:0:0:
256,192,82820,1,8,0:0:0:0:
256,192,83051,1,4,0:0:0:0:
256,192,83743,1,8,0:0:0:0:
256,192,83974,1,0,0:0:0:0:
256,192,84205,1,0,0:0:0:0:
256,192,84435,1,8,0:0:0:0:
256,192,84897,1,0,0:0:0:0:
256,192,85359,1,0,0:0:0:0:
256,192,85589,1,0,0:0:0:0:
256,192,85820,1,8,0:0:0:0:
256,192,86282,1,8,0:0:0:0:
256,192,86512,1,8,0:0:0:0:
256,192,86743,1,4,0:0:0:0:
256,192,87436,1,8,0:0:0:0:
256,192,87667,1,8,0:0:0:0:
256,192,87897,1,0,0:0:0:0:
256,192,88128,1,8,0:0:0:0:
256,192,88590,1,0,0:0:0:0:
256,192,89051,1,0,0:0:0:0:
256,192,89282,1,0,0:0:0:0:
256,192,89513,1,8,0:0:0:0:
256,192,89974,1,8,0:0:0:0:
256,192,90205,1,8,0:0:0:0:
256,192,90436,1,4,0:0:0:0:
256,192,91128,1,8,0:0:0:0:
256,192,91359,1,8,0:0:0:0:
256,192,91589,1,0,0:0:0:0:
256,192,91820,1,8,0:0:0:0:
256,192,92282,1,0,0:0:0:0:
256,192,92743,1,0,0:0:0:0:
256,192,92974,1,0,0:0:0:0:
256,192,93205,1,8,0:0:0:0:
256,192,93666,1,8,0:0:0:0:
256,192,93897,1,8,0:0:0:0:
256,192,94128,1,4,0:0:0:0:
256,192,95513,1,8,0:0:0:0:
256,192,95974,1,0,0:0:0:0:
256,192,96897,1,0,0:0:0:0:
256,192,97359,1,8,0:0:0:0:
256,192,97820,1,0,0:0:0:0:
256,192,98743,1,8,0:0:0:0:
256,192,99205,1,0,0:0:0:0:
256,192,99436,1,8,0:0:0:0:
256,192,99667,1,0,0:0:0:0:
256,192,100359,1,8,0:0:0:0:
256,192,100590,1,0,0:0:0:0:
256,192,101051,1,8,0:0:0:0:
256,192,101513,1,0,0:0:0:0:
256,192,102205,1,8,0:0:0:0:
256,192,102436,1,0,0:0:0:0:
256,192,102897,1,0,0:0:0:0:
256,192,103359,1,8,0:0:0:0:
256,192,104051,1,8,0:0:0:0:
256,192,104282,1,0,0:0:0:0:
256,192,104513,1,0,0:0:0:0:
256,192,104743,1,8,0:0:0:0:
256,192,105205,1,0,0:0:0:0:
256,192,105897,1,8,0:0:0:0:
256,192,106128,1,0,0:0:0:0:
256,192,106590,1,8,0:0:0:0:
256,192,106820,1,0,0:0:0:0:
256,192,107051,1,0,0:0:0:0:
256,192,107513,1,8,0:0:0:0:
256,192,107743,1,0,0:0:0:0:
256,192,107974,1,0,0:0:0:0:
256,192,108205,1,8,0:0:0:0:
256,192,108436,1,8,0:0:0:0:
256,192,108897,1,4,0:0:0:0:
256,192,109358,1,8,0:0:0:0:
256,192,109589,1,0,0:0:0:0:
256,192,110050,1,8,0:0:0:0:
256,192,110281,1,8,0:0:0:0:
256,192,110512,1,0,0:0:0:0:
256,192,110743,1,0,0:0:0:0:
256,192,111436,1,8,0:0:0:0:
256,192,111666,1,0,0:0:0:0:
256,192,111897,1,0,0:0:0:0:
256,192,112127,1,8,0:0:0:0:
256,192,112589,1,4,0:0:0:0:
256,192,113050,1,8,0:0:0:0:
256,192,113281,1,0,0:0:0:0:
256,192,113742,1,8,0:0:0:0:
256,192,113973,1,8,0:0:0:0:
256,192,114204,1,0,0:0:0:0:
256,192,114435,1,0,0:0:0:0:
256,192,115128,1,8,0:0:0:0:
256,192,115358,1,0,0:0:0:0:
256,192,115589,1,0,0:0:0:0:
256,192,115819,1,8,0:0:0:0:
256,192,116281,1,4,0:0:0:0:
256,192,116973,1,8,0:0:0:0:
256,192,117204,1,0,0:0:0:0:
256,192,117666,1,8,0:0:0:0:
256,192,118127,1,0,0:0:0:0:
256,192,118589,1,8,0:0:0:0:
256,192,118819,1,8,0:0:0:0:
256,192,119050,1,0,0:0:0:0:
256,192,119512,1,8,0:0:0:0:
256,192,119743,1,0,0:0:0:0:
256,192,119973,1,4,0:0:0:0:
256,192,120435,1,8,0:0:0:0:
256,192,120897,1,0,0:0:0:0:
256,192,121127,1,0,0:0:0:0:
256,192,121358,1,8,0:0:0:0:
256,192,121820,1,0,0:0:0:0:
256,192,122513,1,8,0:0:0:0:
256,192,122743,1,0,0:0:0:0:
256,192,122973,1,0,0:0:0:0:
256,192,123204,1,8,0:0:0:0:
256,192,123666,1,4,0:0:0:0:
256,192,124127,1,8,0:0:0:0:
256,192,124358,1,0,0:0:0:0:
256,192,124819,1,8,0:0:0:0:
256,192,125050,1,8,0:0:0:0:
256,192,125281,1,0,0:0:0:0:
256,192,125512,1,0,0:0:0:0:
256,192,126205,1,8,0:0:0:0:
256,192,126435,1,0,0:0:0:0:
256,192,126666,1,0,0:0:0:0:
256,192,126896,1,8,0:0:0:0:
256,192,127358,1,4,0:0:0:0:
256,192,127819,1,8,0:0:0:0:
256,192,128050,1,0,0:0:0:0:
256,192,128513,1,8,0:0:0:0:
256,192,128743,1,8,0:0:0:0:
256,192,128974,1,0,0:0:0:0:
256,192,129205,1,0,0:0:0:0:
256,192,129897,1,8,0:0:0:0:
256,192,130127,1,0,0:0:0:0:
256,192,130358,1,0,0:0:0:0:
256,192,130590,1,8,0:0:0:0:
256,192,131051,1,4,0:0:0:0:
256,192,131512,1,8,0:0:0:0:
256,192,131742,1,8,0:0:0:0:
256,192,131973,1,0,0:0:0:0:
256,192,132204,1,8,0:0:0:0:
256,192,132435,1,8,0:0:0:0:
256,192,132896,1,0,0:0:0:0:
256,192,133358,1,8,0:0:0:0:
256,192,133590,1,8,0:0:0:0:
256,192,133819,1,0,0:0:0:0:
256,192,134281,1,8,0:0:0:0:
256,192,134743,1,4,0:0:0:0:
256,192,135667,1,0,0:0:0:0:
256,192,136590,1,8,0:0:0:0:
256,192,137051,1,8,0:0:0:0:
256,192,137513,1,8,0:0:0:0:
256,192,137974,1,8,0:0:0:0:
256,192,138436,1,0,0:0:0:0:
256,192,138898,1,8,0:0:0:0:
256,192,139128,1,0,0:0:0:0:
256,192,139359,1,8,0:0:0:0:
256,192,139820,1,8,0:0:0:0:
256,192,140051,1,8,0:0:0:0:
256,192,140282,1,0,0:0:0:0:
256,192,140744,1,8,0:0:0:0:
256,192,140974,1,0,0:0:0:0:
256,192,141205,1,8,0:0:0:0:
256,192,141436,1,8,0:0:0:0:
256,192,142128,1,4,0:0:0:0:
256,192,142590,1,8,0:0:0:0:
256,192,142821,1,0,0:0:0:0:
256,192,143051,1,8,0:0:0:0:
256,192,143513,1,0,0:0:0:0:
256,192,144205,1,0,0:0:0:0:
256,192,144667,1,0,0:0:0:0:
256,192,144898,1,8,0:0:0:0:
256,192,145359,1,8,0:0:0:0:
256,192,145821,1,0,0:0:0:0:
256,192,146051,1,0,0:0:0:0:
256,192,146282,1,8,0:0:0:0:
256,192,146744,1,8,0:0:0:0:
256,192,147205,1,0,0:0:0:0:
256,192,147667,1,0,0:0:0:0:
256,192,147898,1,0,0:0:0:0:
256,192,148359,1,0,0:0:0:0:
256,192,148590,1,8,0:0:0:0:
256,192,149051,1,8,0:0:0:0:
256,192,149282,1,8,0:0:0:0:
256,192,149513,1,0,0:0:0:0:
256,192,149974,1,0,0:0:0:0:
256,192,150436,1,8,0:0:0:0:
256,192,150898,1,0,0:0:0:0:
256,192,151359,1,0,0:0:0:0:
256,192,151821,1,0,0:0:0:0:
256,192,152282,1,8,0:0:0:0:
256,192,152744,1,8,0:0:0:0:
256,192,152974,1,8,0:0:0:0:
256,192,153205,1,0,0:0:0:0:
256,192,153667,1,0,0:0:0:0:
256,192,154128,1,8,0:0:0:0:
256,192,154590,1,8,0:0:0:0:
256,192,155051,1,0,0:0:0:0:
256,192,155513,1,0,0:0:0:0:
256,192,155744,1,0,0:0:0:0:
256,192,155974,1,8,0:0:0:0:
256,192,156436,1,8,0:0:0:0:
256,192,156667,1,8,0:0:0:0:
256,192,156898,1,0,0:0:0:0:
256,192,157359,1,8,0:0:0:0:
256,192,157821,1,0,0:0:0:0:
256,192,158282,1,8,0:0:0:0:
256,192,158744,1,0,0:0:0:0:
256,192,159205,1,8,0:0:0:0:
256,192,159436,1,0,0:0:0:0:
256,192,159667,1,8,0:0:0:0:
256,192,160128,1,8,0:0:0:0:
256,192,160359,1,8,0:0:0:0:
256,192,160590,1,4,0:0:0:0:
256,192,161282,1,8,0:0:0:0:
256,192,161513,1,0,0:0:0:0:
256,192,161744,1,0,0:0:0:0:
256,192,161974,1,8,0:0:0:0:
256,192,162436,1,0,0:0:0:0:
256,192,162898,1,0,0:0:0:0:
256,192,163128,1,0,0:0:0:0:
256,192,163359,1,8,0:0:0:0:
256,192,163821,1,8,0:0:0:0:
256,192,164051,1,8,0:0:0:0:
256,192,164282,1,4,0:0:0:0:
256,192,164974,1,8,0:0:0:0:
256,192,165205,1,0,0:0:0:0:
256,192,165436,1,0,0:0:0:0:
256,192,165666,1,8,0:0:0:0:
256,192,166128,1,0,0:0:0:0:
256,192,166590,1,0,0:0:0:0:
256,192,166820,1,0,0:0:0:0:
256,192,167051,1,8,0:0:0:0:
256,192,167513,1,8,0:0:0:0:
256,192,167743,1,8,0:0:0:0:
256,192,167974,1,4,0:0:0:0:
256,192,168667,1,8,0:0:0:0:
256,192,168898,1,8,0:0:0:0:
256,192,169128,1,0,0:0:0:0:
256,192,169359,1,8,0:0:0:0:
256,192,169821,1,0,0:0:0:0:
256,192,170282,1,0,0:0:0:0:
256,192,170513,1,0,0:0:0:0:
256,192,170744,1,8,0:0:0:0:
256,192,171205,1,8,0:0:0:0:
256,192,171436,1,8,0:0:0:0:
256,192,171667,1,4,0:0:0:0:
256,192,172359,1,8,0:0:0:0:
256,192,172590,1,8,0:0:0:0:
256,192,172820,1,0,0:0:0:0:
256,192,173051,1,8,0:0:0:0:
256,192,173513,1,0,0:0:0:0:
256,192,173974,1,0,0:0:0:0:
256,192,174205,1,0,0:0:0:0:
256,192,174436,1,8,0:0:0:0:
256,192,174897,1,8,0:0:0:0:
256,192,175128,1,8,0:0:0:0:
256,192,175359,1,4,0:0:0:0:
