osu file format v14

[General]
AudioFilename: audio.mp3
AudioLeadIn: 0
PreviewTime: 0
Countdown: 0
SampleSet: Soft
StackLeniency: 0.7
Mode: 0
LetterboxInBreaks: 0
WidescreenStoryboard: 1

[Editor]
DistanceSpacing: 0.8
BeatDivisor: 2
GridSize: 4
TimelineZoom: 1

[Metadata]
Title:FLASHMAN STAGE
TitleUnicode:FLASHMAN STAGE
Artist:Tateishi Takashi
ArtistUnicode:立石孝
Creator:MoodyRPG
Version:Time Stopper
Source:ロックマン2
Tags:mm2 The Mystery of Dr. Wily no Nazo megaman rockman capcom nes famicom video game instrumental 8-bit chiptune electronic Ogeretsu Kun
BeatmapID:4410506
BeatmapSetID:2102254

[Difficulty]
HPDrainRate:8
CircleSize:4.5
OverallDifficulty:8
ApproachRate:8
SliderMultiplier:2
SliderTickRate:1

[Events]
//Background and Video events
0,0,"Flash.png",0,0
//Break Periods
//Storyboard Layer 0 (Background)
//Storyboard Layer 1 (Fail)
//Storyboard Layer 2 (Pass)
//Storyboard Layer 3 (Foreground)
//Storyboard Layer 4 (Overlay)
//Storyboard Sound Samples

[TimingPoints]
0,399.467376830892,4,2,0,50,1,0

[Colours]
Combo1 : 0,230,230
Combo2 : 0,91,183
Combo3 : 255,128,255

[HitObjects]
160,350,0,6,0,P|256:313|347:349,1,200,0|8,0:0|0:0,0:0:0:0:
443,237,599,1,0,0:0:0:0:
346,36,798,2,0,P|338:107|397:148,1,150,8|2,0:0|0:0,0:0:0:0:
257,210,1398,1,0,0:0:0:0:
165,36,1597,6,0,P|173:107|115:148,1,150,8|2,0:0|0:0,0:0:0:0:
257,210,2197,1,0,0:0:0:0:
87,332,2396,2,0,L|196:323,1,100,8|0,0:0|0:0,0:0:0:0:
16,227,2797,1,8,0:0:0:0:
16,227,2896,1,0,0:0:0:0:
126,123,3095,1,0,0:0:0:0:
257,210,3395,5,0,0:0:0:0:
267,238,3495,1,0,0:0:0:0:
275,266,3595,1,0,0:0:0:0:
284,294,3695,2,0,P|352:324|418:291,1,150,2|0,0:0|0:0,0:0:0:0:
479,208,4094,1,0,0:0:0:0:
470,179,4194,1,0,0:0:0:0:
458,151,4294,2,0,P|392:117|329:147,1,150,2|0,0:0|0:0,0:0:0:0:
93,67,4993,5,0,0:0:0:0:
89,96,5093,1,0,0:0:0:0:
83,125,5193,1,0,0:0:0:0:
77,154,5292,2,0,L|59:262,1,100,2|2,0:0|0:0,0:0:0:0:
153,362,5692,1,2,0:0:0:0:
153,362,5792,1,0,0:0:0:0:
257,270,5992,1,8,0:0:0:0:
169,152,6191,1,0,0:0:0:0:
294,60,6391,6,0,P|364:123|475:120,1,200,0|8,0:0|0:0,0:0:0:0:
501,27,6990,1,0,0:0:0:0:
463,223,7190,2,0,B|486:296|486:296|455:377,1,150,8|2,0:0|0:0,0:0:0:0:
359,189,7789,1,0,0:0:0:0:
265,367,7989,6,0,B|238:298|238:298|261:225,1,150,8|2,0:0|0:0,0:0:0:0:
361,370,8588,1,0,0:0:0:0:
260,200,8788,2,0,L|155:210,1,100,8|0,0:0|0:0,0:0:0:0:
381,112,9187,1,8,0:0:0:0:
381,112,9287,1,0,0:0:0:0:
251,33,9487,1,0,0:0:0:0:
128,112,9786,5,0,0:0:0:0:
98,116,9886,1,0,0:0:0:0:
68,119,9986,1,0,0:0:0:0:
38,122,10086,2,0,P|27:195|60:264,1,150,2|0,0:0|0:0,0:0:0:0:
136,325,10486,1,0,0:0:0:0:
166,321,10586,1,0,0:0:0:0:
195,317,10685,2,0,P|219:241|189:174,1,150,2|0,0:0|0:0,0:0:0:0:
308,42,11384,5,0,0:0:0:0:
314,71,11484,1,0,0:0:0:0:
320,100,11584,1,0,0:0:0:0:
327,129,11684,2,0,L|439:117,1,100,2|2,0:0|0:0,0:0:0:0:
302,224,12083,1,2,0:0:0:0:
302,224,12183,1,0,0:0:0:0:
416,286,12383,1,8,0:0:0:0:
288,355,12583,1,0,0:0:0:0:
180,267,12782,6,0,B|137:255|97:302|97:302|48:260|0:282,1,200,0|8,0:0|0:0,0:0:0:0:
87,138,13382,1,0,0:0:0:0:
324,105,13581,2,0,B|255:84|255:84|182:109,1,150,8|2,0:0|0:0,0:0:0:0:
415,62,14181,1,0,0:0:0:0:
467,285,14380,6,0,L|474:123,1,150,8|2,0:0|0:0,0:0:0:0:
325,203,14980,1,0,0:0:0:0:
345,355,15179,2,0,P|304:330|247:345,1,100,8|0,0:0|0:0,0:0:0:0:
90,356,15579,1,8,0:0:0:0:
90,356,15679,1,0,0:0:0:0:
166,213,15878,1,0,0:0:0:0:
14,221,16178,5,0,0:0:0:0:
18,191,16278,1,0,0:0:0:0:
23,161,16378,1,0,0:0:0:0:
27,131,16478,2,0,P|72:83|158:92,1,150,2|0,0:0|0:0,0:0:0:0:
234,210,16877,1,0,0:0:0:0:
238,180,16977,1,0,0:0:0:0:
243,150,17077,2,0,L|263:0,1,150,2|0,0:0|0:0,0:0:0:0:
428,90,17776,5,0,0:0:0:0:
424,120,17876,1,0,0:0:0:0:
421,149,17976,1,0,0:0:0:0:
418,178,18075,2,0,L|406:285,1,100,2|2,0:0|0:0,0:0:0:0:
273,363,18475,1,2,0:0:0:0:
273,363,18575,1,0,0:0:0:0:
159,279,18774,1,8,0:0:0:0:
33,318,18974,1,0,0:0:0:0:
95,171,19174,6,0,B|140:197|191:160|191:160|219:214|272:204,1,200,0|8,0:0|0:0,0:0:0:0:
211,42,19773,1,0,0:0:0:0:
449,74,19973,2,0,B|379:94|379:94|304:76,1,150,8|2,0:0|0:0,0:0:0:0:
481,195,20572,1,0,0:0:0:0:
304,307,20772,6,8,B|379:289|379:289|449:308,1,150,8|2,0:0|0:0,0:0:0:0:
258,193,21371,1,0,0:0:0:0:
372,32,21571,2,0,P|384:80|369:135,1,100,8|0,0:0|0:0,0:0:0:0:
225,58,21970,1,8,0:0:0:0:
225,58,22070,1,0,0:0:0:0:
258,193,22270,1,0,0:0:0:0:
118,145,22569,5,0,0:0:0:0:
112,174,22669,1,0,0:0:0:0:
106,203,22769,1,0,0:0:0:0:
101,233,22869,2,0,P|75:280|129:348,1,150,2|0,0:0|0:0,0:0:0:0:
240,300,23268,1,0,0:0:0:0:
269,304,23368,1,0,0:0:0:0:
298,310,23468,2,0,B|406:321|406:321|442:296,1,150,2|0,0:0|0:0,0:0:0:0:
382,107,23968,5,2,3:2:0:0:
382,107,24067,1,2,3:2:0:0:
296,218,24267,1,2,3:2:0:0:
245,74,24467,1,0,3:0:0:0:
296,218,24667,1,0,3:0:0:0:
296,218,24766,2,8,L|290:285,3,50,8|8|8|8,3:0|3:0|3:0|3:0,3:0:0:0:
245,74,25166,2,4,L|238:132,3,50,4|4|4|4,3:0|3:0|3:0|3:0,3:0:0:0:
165,198,25565,5,0,0:0:0:0:
83,60,25765,2,0,P|66:108|88:161,1,100,0|2,0:0|3:0,0:0:0:0:
122,269,26165,1,0,0:0:0:0:
149,280,26264,1,0,3:0:0:0:
179,280,26364,1,0,3:0:0:0:
207,269,26464,1,0,3:0:0:0:
232,252,26564,1,0,3:0:0:0:
164,183,26764,1,2,3:0:0:0:
183,363,26964,1,0,0:0:0:0:
301,252,27163,6,0,L|414:244,1,100
450,355,27563,1,2,3:0:0:0:
495,243,27762,1,0,3:0:0:0:
493,212,27862,1,0,3:0:0:0:
492,181,27962,1,0,3:0:0:0:
492,150,28062,1,0,3:0:0:0:
342,155,28362,1,2,3:0:0:0:
414,34,28561,1,0,0:0:0:0:
332,179,28761,6,0,B|272:185|272:185|205:140|135:174,1,200,0|2,0:0|3:0,0:0:0:0:
68,328,29460,1,0,3:0:0:0:
65,298,29560,1,0,3:0:0:0:
63,267,29660,1,0,3:0:0:0:
61,237,29760,1,0,3:0:0:0:
203,360,29960,1,2,3:0:0:0:
246,203,30159,1,0,0:0:0:0:
211,340,30359,6,0,B|260:313|312:341|366:367|409:334,1,200,0|2,0:0|3:0,0:0:0:0:
357,202,31058,1,0,3:0:0:0:
355,172,31158,1,0,3:0:0:0:
353,142,31258,1,0,3:0:0:0:
351,112,31358,1,0,3:0:0:0:
460,161,31557,1,2,3:0:0:0:
262,170,31757,1,0,0:0:0:0:
232,307,31957,5,0,0:0:0:0:
50,242,32157,2,0,P|91:219|145:230,1,100,0|2,0:0|3:0,0:0:0:0:
26,118,32556,1,0,0:0:0:0:
47,96,32656,1,0,3:0:0:0:
75,85,32756,1,0,3:0:0:0:
104,89,32855,1,0,3:0:0:0:
131,100,32955,1,0,3:0:0:0:
292,92,33155,1,2,3:0:0:0:
201,9,33355,1,0,0:0:0:0:
211,156,33555,6,0,L|217:262,1,100
292,92,33954,1,2,3:0:0:0:
431,185,34154,1,0,3:0:0:0:
401,189,34254,1,0,3:0:0:0:
371,193,34354,1,0,3:0:0:0:
341,200,34454,1,0,3:0:0:0:
474,287,34753,1,2,3:0:0:0:
328,333,34953,1,0,0:0:0:0:
195,273,35153,6,0,B|190:203|190:203|221:157|221:157|216:82,1,200,0|2,0:0|3:0,0:0:0:0:
31,54,35852,1,0,3:0:0:0:
56,70,35952,1,0,3:0:0:0:
84,78,36051,1,0,3:0:0:0:
114,78,36151,1,0,3:0:0:0:
31,201,36351,1,2,3:0:0:0:
134,312,36551,1,0,0:0:0:0:
24,178,36750,6,0,B|74:145|137:185|137:185|223:171,1,200,0|2,0:0|3:0,0:0:0:0:
308,312,37450,1,0,3:0:0:0:
320,285,37549,1,0,3:0:0:0:
324,255,37649,1,0,3:0:0:0:
320,225,37749,1,0,3:0:0:0:
459,189,37949,1,2,3:0:0:0:
431,52,38149,1,0,0:0:0:0:
298,69,38348,6,0,P|245:66|208:39,1,100,2|0,3:2|3:2,3:0:0:0:
168,222,38748,2,0,L|156:117,1,100,2|0,3:2|3:2,3:0:0:0:
5,91,39147,2,0,P|54:89|94:61,1,100,2|0,3:2|3:0,3:0:0:0:
74,210,39547,2,0,P|173:234|252:181,1,200,2|2,3:0|3:2,0:0:0:0:
223,87,40146,5,0,3:0:0:0:
509,110,40346,2,0,B|467:150|414:122|360:90|318:115,1,200,2|2,3:0|3:2,0:0:0:0:
350,210,40945,1,0,3:0:0:0:
108,308,41145,2,0,B|150:268|205:301|257:328|299:296,1,200,2|2,3:0|3:2,0:0:0:0:
201,214,41744,6,0,B|197:148|197:148|164:96|164:96|158:23,1,200
31,26,42343,1,0,0:0:0:0:
177,11,42543,2,0,L|278:4,1,100,0|2,3:0|3:0,0:0:0:0:
400,32,42942,1,0,0:0:0:0:
324,133,43142,6,0,P|334:185|324:230,1,100,2|0,0:0|0:0,0:0:0:0:
371,315,43541,2,0,P|322:326|275:313,1,100,2|0,3:0|0:0,0:0:0:0:
189,361,43941,2,0,P|179:312|192:265,1,100,2|0,0:0|0:0,0:0:0:0:
139,189,44340,2,0,P|190:175|242:190,1,100,2|0,3:0|0:0,0:0:0:0:
306,29,44740,6,0,P|255:43|203:28,1,100,2|0,3:2|3:0,3:0:0:0:
332,120,45139,2,0,L|346:223,1,100,2|0,3:2|3:0,3:0:0:0:
462,308,45539,2,0,P|413:297|366:311,1,100,2|0,3:2|3:0,3:0:0:0:
83,300,45938,2,0,B|145:338|145:338|276:343,1,200,2|2,3:0|3:2,0:0:0:0:
256,244,46537,5,0,0:0:0:0:
202,2,46737,2,0,B|194:56|257:77|314:96|308:158,1,200,2|2,3:0|3:2,0:0:0:0:
256,244,47336,1,0,0:0:0:0:
310,2,47536,2,0,B|318:56|255:77|198:96|204:158,1,200,2|2,3:0|0:0,0:0:0:0:
345,268,48135,6,0,B|304:240|304:240|213:284|213:284|163:253,1,200
5,244,48735,1,0,0:0:0:0:
148,277,48934,2,0,L|140:159,1,100,0|2,0:0|3:0,0:0:0:0:
129,34,49334,1,0,0:0:0:0:
361,104,49533,6,0,P|313:117|265:109,1,100,8|8,3:0|3:0,0:0:0:0:
394,208,49933,2,0,P|442:195|490:203,1,100,4|4,3:0|3:0,0:0:0:0:
355,298,50332,1,8,3:0:0:0:
317,284,50432,1,8,3:0:0:0:
279,270,50532,1,8,3:0:0:0:
128,173,50732,1,4,3:0:0:0:
75,349,50932,1,4,3:0:0:0:
256,192,51131,12,0,54327,0:0:0:0:
