osu file format v14

[General]
AudioFilename: audio.mp3
AudioLeadIn: 0
PreviewTime: 0
Countdown: 0
SampleSet: Soft
StackLeniency: 0.7
Mode: 0
LetterboxInBreaks: 0
WidescreenStoryboard: 1

[Editor]
DistanceSpacing: 1.2
BeatDivisor: 4
GridSize: 4
TimelineZoom: 1

[Metadata]
Title:FLASHMAN STAGE
TitleUnicode:FLASHMAN STAGE
Artist:Tateishi Takashi
ArtistUnicode:立石孝
Creator:MoodyRPG
Version:Normal
Source:ロックマン2
Tags:mm2 The Mystery of Dr. Wily no Nazo megaman rockman capcom nes famicom video game instrumental 8-bit chiptune electronic Ogeretsu Kun
BeatmapID:4410505
BeatmapSetID:2102254

[Difficulty]
HPDrainRate:5
CircleSize:4
OverallDifficulty:5
ApproachRate:5.5
SliderMultiplier:1.2
SliderTickRate:1

[Events]
//Background and Video events
0,0,"Flash.png",0,0
//Break Periods
//Storyboard Layer 0 (Background)
//Storyboard Layer 1 (Fail)
//Storyboard Layer 2 (Pass)
//Storyboard Layer 3 (Foreground)
//Storyboard Layer 4 (Overlay)
//Storyboard Sound Samples

[TimingPoints]
0,399.467376830892,4,2,0,50,1,0

[Colours]
Combo1 : 0,230,230
Combo2 : 0,91,183
Combo3 : 255,128,255

[HitObjects]
21,339,0,6,0,L|141:327,1,120,0|8,0:0|0:0,0:0:0:0:
135,183,798,2,0,L|228:197,1,90,8|2,0:0|0:0,0:0:0:0:
290,288,1398,1,0,0:0:0:0:
290,288,1597,2,0,L|379:274,1,90,8|2,0:0|0:0,0:0:0:0:
456,198,2197,1,0,0:0:0:0:
456,198,2396,2,0,L|465:78,1,120,8|8,0:0|0:0,0:0:0:0:
378,13,3095,1,0,0:0:0:0:
292,78,3395,6,0,L|283:146,1,60
168,223,3994,2,0,L|175:159,1,60
441,271,4993,2,0,L|432:341,1,60
326,344,5492,2,0,P|254:354|184:313,1,150,2|8,0:0|0:0,0:0:0:0:
142,262,6191,1,0,0:0:0:0:
183,203,6391,6,0,L|314:212,1,120,0|8,0:0|0:0,0:0:0:0:
394,99,7190,2,0,L|501:88,1,90,8|2,0:0|0:0,0:0:0:0:
415,12,7789,1,0,0:0:0:0:
415,12,7989,2,0,L|316:22,1,90,8|2,0:0|0:0,0:0:0:0:
234,77,8588,1,0,0:0:0:0:
234,77,8788,2,0,P|227:131|259:199,1,120,8|8,0:0|0:0,0:0:0:0:
170,261,9487,1,0,0:0:0:0:
208,361,9786,6,0,P|235:349|266:346,1,60
376,253,10386,2,0,P|348:265|318:268,1,60
78,108,11384,2,0,P|109:105|141:94,1,60
230,42,11884,2,0,P|295:12|375:29,1,150,2|8,0:0|0:0,0:0:0:0:
383,96,12583,1,0,0:0:0:0:
344,160,12782,6,0,L|218:167,1,120,0|8,0:0|0:0,0:0:0:0:
80,174,13581,2,0,P|57:212|63:257,1,90,8|2,0:0|0:0,0:0:0:0:
161,310,14181,1,0,0:0:0:0:
161,310,14380,2,0,P|176:269|165:220,1,90,8|2,0:0|0:0,0:0:0:0:
278,216,14980,1,0,0:0:0:0:
278,216,15179,2,0,L|400:207,1,120,8|8,0:0|0:0,0:0:0:0:
458,117,15878,1,0,0:0:0:0:
406,21,16178,6,0,P|375:38|344:43,1,60
219,101,16777,2,0,P|244:85|273:79,1,60
419,327,17776,2,0,P|393:342|364:348,1,60
257,325,18275,2,0,P|274:248|251:176,1,150,2|8,0:0|0:0,0:0:0:0:
217,118,18974,1,0,0:0:0:0:
166,66,19174,6,0,B|126:87|126:87|38:80,1,120,0|8,0:0|0:0,0:0:0:0:
28,230,19973,2,0,L|37:345,1,90,8|2,0:0|0:0,0:0:0:0:
142,353,20572,1,0,0:0:0:0:
142,353,20772,2,0,P|182:337|246:342,1,90,8|2,0:0|0:0,0:0:0:0:
255,235,21371,1,0,0:0:0:0:
255,235,21571,2,0,L|236:98,1,120,8|8,0:0|0:0,0:0:0:0:
315,40,22270,1,0,0:0:0:0:
422,50,22569,6,0,P|426:85|421:114,1,60
368,243,23169,2,0,P|362:210|364:171,1,60
182,63,23968,2,0,L|158:157,1,90,2|2,3:2|3:2,0:0:0:0:
89,167,24467,1,0,3:0:0:0:
139,261,24766,2,0,B|189:296|208:238|304:238|325:296|373:261,1,240,8|0,3:0|0:0,0:0:0:0:
442,276,25765,6,0,L|478:326,2,60,0|2|0,0:0|3:0|0:0,0:0:0:0:
421,206,26364,2,0,P|401:158|421:91,1,120,0|2,3:0|3:0,0:0:0:0:
448,28,26964,1,0,0:0:0:0:
377,7,27163,1,0,0:0:0:0:
377,7,27363,2,0,B|333:7|333:7|307:23|307:23|257:23,1,120
67,118,28362,1,2,3:0:0:0:
26,177,28561,2,0,L|34:246,1,60,0|0,0:0|0:0,0:0:0:0:
136,337,29161,5,2,3:0:0:0:
267,278,29560,2,0,L|337:282,2,60,0|0|2,0:0|0:0|3:0,0:0:0:0:
221,222,30159,1,0,0:0:0:0:
252,157,30359,2,0,L|386:162,1,120,0|2,0:0|3:0,0:0:0:0:
465,51,31158,2,0,L|334:47,1,120,0|2,0:0|3:0,0:0:0:0:
282,12,31757,1,0,0:0:0:0:
141,43,32157,6,0,L|145:-18,2,60,0|2|0,0:0|3:0|0:0,0:0:0:0:
90,94,32756,2,0,P|116:153|97:208,1,120,0|2,0:0|3:0,0:0:0:0:
153,252,33355,1,0,0:0:0:0:
196,316,33555,1,0,0:0:0:0:
196,316,33754,2,0,P|255:302|319:316,1,120
453,148,34753,1,2,3:0:0:0:
385,123,34953,2,0,P|353:117|317:117,1,60
186,154,35552,5,2,3:0:0:0:
65,74,35952,2,0,P|32:74|-6:86,2,60,0|0|2,0:0|0:0|3:0,0:0:0:0:
124,33,36551,1,0,0:0:0:0:
124,33,36750,2,0,L|261:29,1,120,0|2,0:0|3:0,0:0:0:0:
317,153,37549,2,0,L|185:158,1,120,0|2,0:0|3:0,0:0:0:0:
124,162,38149,1,0,0:0:0:0:
52,165,38348,6,0,P|36:221|63:280,2,120,2|2|2,3:2|3:2|3:2,0:0:0:0:
139,49,39547,1,2,3:0:0:0:
257,131,39946,2,0,L|269:195,1,60,2|0,3:2|3:0,0:0:0:0:
219,243,40346,2,0,P|277:222|350:226,1,120,2|2,3:0|3:2,0:0:0:0:
383,275,40945,1,0,3:0:0:0:
359,343,41145,2,0,L|236:362,1,120,2|2,3:0|0:0,0:0:0:0:
99,328,41944,5,0,0:0:0:0:
26,203,42343,2,0,L|10:138,2,60,0|0|2,0:0|3:0|3:0,0:0:0:0:
161,152,43142,2,0,L|130:23,2,120,2|2|2,0:0|3:0|0:0,0:0:0:0:
304,164,44340,1,2,3:0:0:0:
445,136,44740,6,0,L|467:12,2,120,2|2|2,3:2|3:2|3:2,0:0:0:0:
473,277,45938,1,2,3:0:0:0:
331,302,46338,2,0,P|301:300|265:283,1,60,2|0,3:2|0:0,0:0:0:0:
243,223,46737,2,0,L|211:359,1,120,2|2,3:0|3:2,0:0:0:0:
148,367,47336,1,0,0:0:0:0:
94,318,47536,2,0,L|123:193,1,120,2|2,3:0|0:0,0:0:0:0:
31,87,48335,5,0,0:0:0:0:
169,47,48735,2,0,L|173:-14,2,60,0|0|2,0:0|0:0|3:0,0:0:0:0:
207,185,49533,2,0,P|211:249|243:309,1,120,8|4,3:0|3:0,0:0:0:0:
361,368,50332,2,0,L|433:362,1,60,8|8,3:0|3:0,0:0:0:0:
444,294,50732,2,0,L|503:298,1,60,4|4,3:0|3:0,0:0:0:0:
256,192,51131,12,0,54327,0:0:0:0:
