osu file format v14

[General]
AudioFilename: audio.mp3
AudioLeadIn: 0
PreviewTime: 0
Countdown: 0
SampleSet: Soft
StackLeniency: 0.7
Mode: 0
LetterboxInBreaks: 0
WidescreenStoryboard: 0

[Editor]
DistanceSpacing: 1
BeatDivisor: 4
GridSize: 4
TimelineZoom: 1

[Metadata]
Title:FLASHMAN STAGE
TitleUnicode:FLASHMAN STAGE
Artist:Tateishi Takashi
ArtistUnicode:立石孝
Creator:MoodyRPG
Version:Hard
Source:ロックマン2
Tags:mm2 The Mystery of Dr. Wily no Nazo megaman rockman capcom nes famicom video game instrumental 8-bit chiptune electronic Ogeretsu Kun
BeatmapID:4410504
BeatmapSetID:2102254

[Difficulty]
HPDrainRate:7
CircleSize:4.5
OverallDifficulty:7
ApproachRate:7
SliderMultiplier:1.7
SliderTickRate:1

[Events]
//Background and Video events
0,0,"Flash.png",0,0
//Break Periods
//Storyboard Layer 0 (Background)
//Storyboard Layer 1 (Fail)
//Storyboard Layer 2 (Pass)
//Storyboard Layer 3 (Foreground)
//Storyboard Layer 4 (Overlay)
//Storyboard Sound Samples

[TimingPoints]
0,399.467376830892,4,2,0,50,1,0

[Colours]
Combo1 : 0,230,230
Combo2 : 0,91,183
Combo3 : 255,128,255

[HitObjects]
471,350,0,6,0,B|442:317|394:345|342:372|306:340,1,170,0|8,0:0|0:0,0:0:0:0:
256,276,599,1,0,0:0:0:0:
192,331,798,2,0,B|165:355|165:355|61:362,1,127.5,8|2,0:0|0:0,0:0:0:0:
21,244,1398,1,0,0:0:0:0:
58,168,1597,6,0,B|85:144|85:144|189:137,1,127.5,8|2,0:0|0:0,0:0:0:0:
256,37,2197,1,0,0:0:0:0:
306,104,2396,2,0,P|351:99|392:75,1,85,8|0,0:0|0:0,0:0:0:0:
455,31,2796,1,8,0:0:0:0:
455,31,2896,1,0,0:0:0:0:
496,104,3095,1,0,0:0:0:0:
425,210,3395,5,0,0:0:0:0:
425,210,3495,1,0,0:0:0:0:
425,210,3595,2,0,L|413:269,1,42.5,0|2,0:0|0:0,0:0:0:0:
372,375,3994,1,0,0:0:0:0:
372,375,4094,1,0,0:0:0:0:
372,375,4194,2,0,L|360:316,1,42.5,0|2,0:0|0:0,0:0:0:0:
87,210,4993,5,0,0:0:0:0:
87,210,5093,1,0,0:0:0:0:
87,210,5193,2,0,L|99:269,1,42.5,0|2,0:0|0:0,0:0:0:0:
11,265,5492,2,0,L|31:347,1,85,2|2,0:0|0:0,0:0:0:0:
31,347,5792,1,0,0:0:0:0:
114,365,5992,1,8,0:0:0:0:
192,333,6191,1,0,0:0:0:0:
240,262,6391,6,0,B|250:212|250:212|213:147|213:147|223:98,1,170,0|8,0:0|0:0,0:0:0:0:
276,38,6990,1,0,0:0:0:0:
336,97,7190,2,0,P|391:101|447:53,1,127.5,8|2,0:0|0:0,0:0:0:0:
496,174,7789,1,0,0:0:0:0:
491,259,7989,6,0,P|436:255|380:303,1,127.5,8|2,0:0|0:0,0:0:0:0:
275,368,8588,1,0,0:0:0:0:
190,360,8788,2,0,L|91:350,1,85,8|0,0:0|0:0,0:0:0:0:
24,345,9187,1,8,0:0:0:0:
24,345,9287,1,0,0:0:0:0:
69,273,9487,1,0,0:0:0:0:
16,157,9786,5,0,0:0:0:0:
16,157,9886,1,0,0:0:0:0:
16,157,9986,2,0,L|23:102,1,42.5,0|2,0:0|0:0,0:0:0:0:
114,27,10386,1,0,0:0:0:0:
114,27,10486,1,0,0:0:0:0:
114,27,10586,2,0,L|107:82,1,42.5,0|2,0:0|0:0,0:0:0:0:
404,94,11384,5,0,0:0:0:0:
404,94,11484,1,0,0:0:0:0:
404,94,11584,2,0,L|463:92,1,42.5,0|2,0:0|0:0,0:0:0:0:
471,173,11884,2,0,L|379:178,1,85,2|2,0:0|0:0,0:0:0:0:
386,177,12183,1,0,0:0:0:0:
349,254,12383,1,8,0:0:0:0:
296,186,12583,1,0,0:0:0:0:
248,115,12782,6,0,B|198:113|198:113|122:108|86:67,1,170,0|8,0:0|0:0,0:0:0:0:
25,12,13382,1,0,0:0:0:0:
5,94,13581,2,0,L|10:229,1,127.5,8|2,0:0|0:0,0:0:0:0:
17,349,14181,1,0,0:0:0:0:
92,310,14380,6,0,L|87:168,1,127.5,8|2,0:0|0:0,0:0:0:0:
162,79,14980,1,0,0:0:0:0:
234,35,15179,2,0,P|271:55|325:54,1,85,8|0,0:0|0:0,0:0:0:0:
363,131,15579,1,8,0:0:0:0:
363,131,15679,1,0,0:0:0:0:
281,152,15878,1,0,0:0:0:0:
135,249,16178,5,0,0:0:0:0:
135,249,16278,1,0,0:0:0:0:
135,249,16378,2,0,L|79:243,1,42.5,0|2,0:0|0:0,0:0:0:0:
19,350,16777,1,0,0:0:0:0:
19,350,16877,1,0,0:0:0:0:
19,350,16977,2,0,L|75:356,1,42.5,0|2,0:0|0:0,0:0:0:0:
353,277,17776,5,0,0:0:0:0:
353,277,17876,1,0,0:0:0:0:
353,277,17976,2,0,L|418:282,1,42.5,0|2,0:0|0:0,0:0:0:0:
422,199,18275,2,0,B|383:184|383:184|334:193,1,85,2|2,0:0|0:0,0:0:0:0:
340,191,18575,1,0,0:0:0:0:
257,174,18774,1,8,0:0:0:0:
232,92,18974,1,0,0:0:0:0:
276,19,19174,6,0,L|451:15,1,170,0|8,0:0|0:0,0:0:0:0:
487,89,19773,1,0,0:0:0:0:
431,153,19973,2,0,B|397:143|377:176|377:176|341:156|320:185,1,127.5,8|2,0:0|0:0,0:0:0:0:
404,280,20572,1,0,0:0:0:0:
346,342,20772,6,0,B|325:370|289:350|289:350|269:383|235:373,1,127.5,8|2,0:0|0:0,0:0:0:0:
122,313,21371,1,0,0:0:0:0:
49,268,21571,2,0,B|38:225|38:225|51:183,1,85,8|0,0:0|0:0,0:0:0:0:
122,139,21970,1,8,0:0:0:0:
122,139,22070,1,0,0:0:0:0:
204,158,22270,1,0,0:0:0:0:
286,39,22569,5,0,0:0:0:0:
286,39,22669,1,0,0:0:0:0:
286,39,22769,2,0,L|337:42,1,42.5,0|2,0:0|0:0,0:0:0:0:
441,119,23169,1,0,0:0:0:0:
441,119,23269,1,0,0:0:0:0:
441,119,23369,2,0,L|392:129,1,42.5,0|2,0:0|0:0,0:0:0:0:
253,282,23968,5,2,3:2:0:0:
253,282,24067,1,2,3:2:0:0:
219,360,24267,2,0,L|124:375,1,85,2|0,3:2|3:0,0:0:0:0:
57,337,24667,1,0,3:0:0:0:
57,337,24766,2,0,L|49:288,3,42.5,8|8|8|8,3:0|3:0|3:0|3:0,0:0:0:0:
80,264,25166,2,0,L|87:211,3,42.5,4|4|4|4,3:0|3:0|3:0|3:0,0:0:0:0:
64,184,25565,5,0,0:0:0:0:
17,112,25765,2,0,P|8:71|22:15,1,85,0|2,0:0|3:0,0:0:0:0:
97,4,26165,1,0,0:0:0:0:
161,58,26364,2,0,L|138:101,2,42.5,0|0|0,3:0|3:0|3:0,0:0:0:0:
243,81,26764,1,2,3:0:0:0:
324,54,26964,1,0,0:0:0:0:
403,94,27163,5,0,0:0:0:0:
403,94,27363,2,0,P|440:167|404:242,1,170,0|0,0:0|3:0,0:0:0:0:
341,298,27962,2,0,L|351:348,2,42.5,0|0|0,3:0|3:0|0:0,0:0:0:0:
257,277,28362,1,2,3:0:0:0:
185,322,28561,1,0,0:0:0:0:
104,293,28761,6,0,B|113:224|113:224|69:192|75:129,1,170,0|2,0:0|3:0,0:0:0:0:
134,76,29360,1,0,0:0:0:0:
190,139,29560,2,0,L|225:116,2,42.5,0|0|0,3:0|3:0|3:0,0:0:0:0:
192,224,29960,2,0,L|180:308,1,85,2|0,3:0|0:0,0:0:0:0:
231,376,30359,6,0,P|306:361|277:279,1,170,0|2,0:0|3:0,0:0:0:0:
323,207,30958,1,0,0:0:0:0:
407,219,31158,2,0,L|424:171,2,42.5,0|0|0,3:0|3:0|3:0,0:0:0:0:
465,280,31557,1,2,3:0:0:0:
483,363,31757,1,0,0:0:0:0:
465,280,31957,5,0,0:0:0:0:
501,202,32157,2,0,L|495:116,1,85,0|2,0:0|3:0,0:0:0:0:
430,67,32556,1,0,0:0:0:0:
345,56,32756,2,0,L|335:11,2,42.5,0|0|0,3:0|3:0|3:0,0:0:0:0:
278,109,33155,1,2,3:0:0:0:
332,174,33355,1,0,0:0:0:0:
298,253,33555,5,0,0:0:0:0:
298,253,33754,2,0,B|231:256|231:256|191:297|137:288,1,170,0|0,0:0|3:0,0:0:0:0:
62,248,34354,2,0,L|9:266,2,42.5,0|0|0,3:0|3:0|0:0,0:0:0:0:
135,204,34753,1,2,3:0:0:0:
190,139,34953,1,0,0:0:0:0:
177,54,35153,6,0,P|101:21|25:58,1,170,0|2,0:0|3:0,0:0:0:0:
9,139,35752,1,0,0:0:0:0:
59,207,35952,2,0,L|43:257,2,42.5,0|0|0,3:0|3:0|3:0,0:0:0:0:
140,183,36351,2,0,B|156:223|156:223|154:264,1,85,2|0,3:0|0:0,0:0:0:0:
212,326,36750,6,0,B|249:285|249:285|258:167,1,170,0|2,0:0|3:0,0:0:0:0:
346,164,37350,1,0,0:0:0:0:
297,94,37549,2,0,L|290:53,2,42.5,0|0|0,3:0|3:0|3:0,0:0:0:0:
346,164,37949,1,2,3:0:0:0:
389,242,38149,1,0,0:0:0:0:
389,242,38348,6,0,L|481:255,1,85,2|0,3:2|3:2,0:0:0:0:
347,318,38748,2,0,L|243:305,1,85,2|0,3:2|3:2,0:0:0:0:
203,253,39147,1,2,3:2:0:0:
203,253,39347,1,0,3:0:0:0:
262,191,39547,2,0,B|195:181|195:181|205:125|162:76,1,170,2|2,3:0|3:2,0:0:0:0:
122,14,40146,5,0,3:0:0:0:
92,93,40346,2,0,B|56:132|66:188|66:188|0:198,1,170,2|2,3:0|3:2,0:0:0:0:
10,282,40945,1,0,3:0:0:0:
71,341,41145,2,0,B|151:365|151:365|231:328,1,170,2|2,3:0|3:2,0:0:0:0:
256,248,41744,6,0,B|235:204|256:168|280:129|257:82,1,170,0|0,0:0|0:0,0:0:0:0:
414,23,42543,1,0,3:0:0:0:
362,90,42743,1,2,3:0:0:0:
419,152,42942,1,0,0:0:0:0:
351,203,43142,6,0,L|253:195,2,85,2|0|2,0:0|0:0|3:0,0:0:0:0:
419,152,43741,1,0,0:0:0:0:
432,235,43941,2,0,L|522:245,2,85,2|0|2,0:0|0:0|3:0,0:0:0:0:
378,301,44540,1,0,0:0:0:0:
312,355,44740,6,0,P|272:341|220:348,1,85,2|0,3:2|3:0,0:0:0:0:
157,300,45139,2,0,P|114:303|75:289,1,85,2|0,3:2|3:0,0:0:0:0:
55,210,45539,1,2,3:2:0:0:
55,210,45739,1,0,3:0:0:0:
23,131,45938,2,0,B|43:88|92:91|92:91|110:42|160:44,1,170,2|2,3:0|3:2,0:0:0:0:
224,93,46537,5,0,0:0:0:0:
224,178,46737,2,0,B|204:221|155:218|155:218|137:267|92:265,1,170,2|2,3:0|3:2,0:0:0:0:
76,348,47336,1,0,0:0:0:0:
159,363,47536,2,0,B|244:336|244:336|304:260,1,170,2|2,3:0|0:0,0:0:0:0:
373,242,48135,6,0,B|373:191|404:167|404:167|373:139|373:86,1,170,0|0,0:0|0:0,0:0:0:0:
214,27,48934,1,0,0:0:0:0:
144,76,49134,1,2,3:0:0:0:
61,50,49334,1,0,0:0:0:0:
15,121,49533,2,0,L|26:213,2,85,8|8|4,3:0|3:0|3:0,0:0:0:0:
61,50,50133,1,4,3:0:0:0:
144,76,50332,1,8,3:0:0:0:
150,100,50432,1,8,3:0:0:0:
156,124,50532,1,8,3:0:0:0:
214,27,50732,1,4,3:0:0:0:
61,50,50932,1,4,3:0:0:0:
256,192,51131,12,0,54327,0:0:0:0:
