osu file format v14

[General]
AudioFilename: audio.mp3
AudioLeadIn: 0
PreviewTime: 0
Countdown: 0
SampleSet: Soft
StackLeniency: 0.7
Mode: 0
LetterboxInBreaks: 0
WidescreenStoryboard: 1

[Editor]
DistanceSpacing: 1
BeatDivisor: 2
GridSize: 4
TimelineZoom: 1

[Metadata]
Title:FLASHMAN STAGE
TitleUnicode:FLASHMAN STAGE
Artist:Tateishi Takashi
ArtistUnicode:立石孝
Creator:MoodyRPG
Version:Easy
Source:ロックマン2
Tags:mm2 The Mystery of Dr. Wily no Nazo megaman rockman capcom nes famicom video game instrumental 8-bit chiptune electronic Ogeretsu Kun
BeatmapID:4410503
BeatmapSetID:2102254

[Difficulty]
HPDrainRate:3
CircleSize:3
OverallDifficulty:3
ApproachRate:3
SliderMultiplier:0.9
SliderTickRate:1

[Events]
//Background and Video events
0,0,"Flash.png",0,0
//Break Periods
//Storyboard Layer 0 (Background)
//Storyboard Layer 1 (Fail)
//Storyboard Layer 2 (Pass)
//Storyboard Layer 3 (Foreground)
//Storyboard Layer 4 (Overlay)
//Storyboard Sound Samples

[TimingPoints]
0,399.467376830892,4,2,0,50,1,0

[Colours]
Combo1 : 0,230,230
Combo2 : 0,91,183
Combo3 : 255,128,255

[HitObjects]
403,36,0,6,0,L|493:39,2,90,0|8|8,0:0|0:0|0:0,0:0:0:0:
338,98,1198,1,0,0:0:0:0:
250,78,1597,2,0,L|154:87,1,90,8|2,0:0|0:0,0:0:0:0:
70,96,2396,2,0,P|49:54|52:5,2,90,8|8|0,0:0|0:0|0:0,0:0:0:0:
28,176,3595,5,0,0:0:0:0:
72,253,3994,2,0,L|145:262,1,67.5,0|2,0:0|0:0,0:0:0:0:
314,362,5193,1,0,0:0:0:0:
397,329,5592,2,0,L|415:227,1,90,0|8,0:0|0:0,0:0:0:0:
384,154,6391,6,0,L|402:50,2,90,0|8|8,0:0|0:0|0:0,0:0:0:0:
296,176,7589,1,0,0:0:0:0:
209,199,7989,2,0,L|199:297,1,90,8|2,0:0|0:0,0:0:0:0:
127,341,8788,2,0,P|83:327|26:335,2,90,8|8|0,0:0|0:0|0:0,0:0:0:0:
214,363,9986,5,0,0:0:0:0:
296,325,10386,2,0,P|330:317|372:318,1,67.5,0|2,0:0|0:0,0:0:0:0:
179,229,11584,1,0,0:0:0:0:
93,201,11984,2,0,P|73:160|76:108,1,90,0|8,0:0|0:0,0:0:0:0:
134,50,12782,6,0,L|223:48,2,90,0|8|8,0:0|0:0|0:0,0:0:0:0:
43,53,13981,1,0,0:0:0:0:
21,140,14380,2,0,P|10:180|16:236,1,90,8|2,0:0|0:0,0:0:0:0:
94,267,15179,2,0,P|100:312|83:361,2,90,8|8|0,0:0|0:0|0:0,0:0:0:0:
178,236,16378,5,0,0:0:0:0:
262,204,16777,2,0,P|263:168|256:133,1,67.5,0|2,0:0|0:0,0:0:0:0:
428,28,17976,1,0,0:0:0:0:
469,107,18375,2,0,B|480:152|480:152|472:197,1,90,0|8,0:0|0:0,0:0:0:0:
415,266,19174,6,0,B|407:309|407:309|418:354,2,90,0|8|8,0:0|0:0|0:0,0:0:0:0:
355,198,20372,1,0,0:0:0:0:
266,216,20772,2,0,L|166:201,1,90,8|2,0:0|0:0,0:0:0:0:
166,292,21571,2,0,L|258:306,2,90,8|8|0,0:0|0:0|0:0,0:0:0:0:
110,363,22769,5,0,0:0:0:0:
58,288,23169,2,0,P|52:257|56:213,1,67.5,0|2,0:0|0:0,0:0:0:0:
26,112,23968,2,0,B|82:80|138:112|138:112|208:92,1,180,2|8,3:2|3:0,0:0:0:0:
274,48,25166,1,4,3:0:0:0:
349,97,25565,5,0,0:0:0:0:
276,149,25965,2,0,L|281:249,1,90,2|0,3:0|0:0,0:0:0:0:
286,328,26764,1,2,3:0:0:0:
371,299,27163,2,0,B|401:276|401:276|503:285,1,135
486,149,28362,1,2,3:0:0:0:
405,109,28761,6,0,L|425:9,2,90,0|2|0,0:0|3:0|0:0,0:0:0:0:
321,143,29960,1,2,3:0:0:0:
280,223,30359,2,0,P|286:270|267:315,1,90,0|2,0:0|3:0,0:0:0:0:
181,299,31158,2,0,P|173:254|193:204,1,90,0|2,0:0|3:0,0:0:0:0:
170,127,31957,5,0,0:0:0:0:
217,50,32356,2,0,L|327:56,2,90,2|0|2,3:0|0:0|3:0,0:0:0:0:
131,19,33555,2,0,B|89:13|89:13|47:36|47:36|-4:28,1,135
8,164,34753,1,2,3:0:0:0:
42,247,35153,6,0,L|16:336,2,90,0|2|0,0:0|3:0|0:0,0:0:0:0:
126,214,36351,1,2,3:0:0:0:
204,169,36750,2,0,P|198:127|211:79,1,90,0|2,0:0|3:0,0:0:0:0:
286,33,37549,2,0,L|391:41,1,90,0|2,0:0|3:0,0:0:0:0:
447,94,38348,6,0,B|418:138|444:181|472:222|442:270,1,180,2|2,3:2|3:2,0:0:0:0:
392,342,39547,1,2,3:0:0:0:
326,280,39946,2,0,L|233:295,1,90,2|2,3:2|3:0,0:0:0:0:
170,233,40745,2,0,L|74:244,1,90,2|2,3:2|3:0,0:0:0:0:
5,192,41544,6,0,L|16:129,1,45,2|0,0:0|0:0,0:0:0:0:
95,40,42343,1,0,0:0:0:0:
180,12,42743,1,2,3:0:0:0:
249,68,43142,2,0,L|355:59,2,90,2|2|2,0:0|3:0|0:0,0:0:0:0:
225,154,44340,1,2,3:0:0:0:
148,202,44740,6,0,B|148:250|117:285|117:285|146:322|146:369,1,180,2|2,3:2|3:2,0:0:0:0:
235,375,45938,1,2,3:0:0:0:
293,306,46338,2,0,B|331:279|331:279|383:279,1,90,2|2,3:2|3:0,0:0:0:0:
464,283,47137,2,0,B|487:242|487:242|487:192,1,90,2|2,3:2|3:0,0:0:0:0:
423,135,47936,6,0,L|431:74,1,45,2|0,0:0|0:0,0:0:0:0:
311,23,48735,1,0,0:0:0:0:
223,44,49134,1,2,3:0:0:0:
177,121,49533,2,0,L|81:130,2,90,8|4|8,3:0|3:0|3:0,0:0:0:0:
205,206,50732,1,4,3:0:0:0:
256,192,51131,12,0,54327,0:0:0:0:
