osu file format v14

[General]
AudioFilename: audio.mp3
AudioLeadIn: 0
PreviewTime: 165601
Countdown: 0
SampleSet: Normal
StackLeniency: 0.7
Mode: 1
LetterboxInBreaks: 0
WidescreenStoryboard: 1

[Editor]
Bookmarks: 22152
DistanceSpacing: 1
BeatDivisor: 4
GridSize: 32
TimelineZoom: 1

[Metadata]
Title:Oralma Qashqyn
TitleUnicode:Oralma Qashqyn
Artist:Taspay
ArtistUnicode:Taspay
Creator:tadahitotsu
Version:Yasuho's Futsuu
Source:
Tags:Қазақ казахский kazakh kaz kz таспай Оралма қашқын pop lofi lo-fi yasuho
BeatmapID:3623268
BeatmapSetID:1748321

[Difficulty]
HPDrainRate:8
CircleSize:4
OverallDifficulty:4
ApproachRate:8.5
SliderMultiplier:1.7
SliderTickRate:1

[Events]
//Background and Video events
0,0,"alena-aenami-rooflinesgirl-1k-2.jpg",0,0
//Break Periods
//Storyboard Layer 0 (Background)
//Storyboard Layer 1 (Fail)
//Storyboard Layer 2 (Pass)
//Storyboard Layer 3 (Foreground)
//Storyboard Layer 4 (Overlay)
//Storyboard Sound Samples

[TimingPoints]
84,689.655172413793,4,1,0,30,1,0
84,-111.111111111111,4,1,0,30,0,0
22152,-100,4,1,0,40,0,0
44221,-90.9090909090909,4,1,0,50,0,0
66290,-90.9090909090908,4,1,0,30,0,0
66463,-111.111111111111,4,1,0,30,0,0
88359,-100,4,1,0,40,0,0
110428,-90.9090909090909,4,1,0,50,0,0
132497,-90.9090909090908,4,1,0,30,0,0
132670,-111.111111111111,4,1,0,30,0,0
143532,-100,4,1,0,40,0,0
165601,-111.111111111111,4,1,0,40,0,0
167670,-105.263157894737,4,1,0,40,0,0
167842,-100,4,1,0,40,0,0
168015,-95.2380952380952,4,1,0,40,0,0
168359,-90.9090909090909,4,1,0,60,0,1
187670,-90.9090909090908,4,1,0,30,0,0
187842,-111.111111111111,4,1,0,30,0,0

[HitObjects]
230,195,22152,5,0,0:0:0:0:
230,195,22842,1,8,0:0:0:0:
381,117,23417,1,0,0:0:0:0:
179,178,24221,1,8,0:0:0:0:
196,170,24566,1,0,0:0:0:0:
196,170,24739,1,0,0:0:0:0:
197,172,24911,1,0,0:0:0:0:
156,178,25601,1,8,0:0:0:0:
231,115,26175,1,0,0:0:0:0:
231,115,26980,1,8,0:0:0:0:
231,115,27325,1,0,0:0:0:0:
231,115,27670,1,0,0:0:0:0:
231,115,28359,1,8,0:0:0:0:
231,115,28934,1,0,0:0:0:0:
231,115,29739,1,8,0:0:0:0:
150,130,30083,1,0,0:0:0:0:
196,170,30256,1,0,0:0:0:0:
150,130,30428,1,8,0:0:0:0:
199,104,31118,1,8,0:0:0:0:
199,104,31693,1,0,0:0:0:0:
199,104,32497,1,8,0:0:0:0:
170,116,32842,1,0,0:0:0:0:
170,116,33187,1,0,0:0:0:0:
170,116,33877,1,8,0:0:0:0:
182,159,34451,1,0,0:0:0:0:
204,162,34911,1,0,0:0:0:0:
182,159,35256,1,8,0:0:0:0:
191,157,35946,1,0,0:0:0:0:
206,161,36290,1,8,0:0:0:0:
196,170,36463,1,8,0:0:0:0:
204,162,36635,1,0,0:0:0:0:
206,161,37210,1,0,0:0:0:0:
178,177,37670,1,0,0:0:0:0:
192,141,38015,1,8,0:0:0:0:
217,137,38704,1,0,0:0:0:0:
196,170,38877,1,0,0:0:0:0:
217,139,39049,1,0,0:0:0:0:
217,137,39394,1,8,0:0:0:0:
225,138,39969,1,0,0:0:0:0:
201,157,40773,1,8,0:0:0:0:
201,157,41118,1,0,0:0:0:0:
201,157,41463,1,0,0:0:0:0:
201,157,42152,1,8,0:0:0:0:
201,157,42497,1,0,0:0:0:0:
202,162,42842,1,8,0:0:0:0:
196,170,43015,1,0,0:0:0:0:
207,158,43187,1,8,0:0:0:0:
207,158,43532,1,0,0:0:0:0:
207,158,43877,1,8,0:0:0:0:
207,158,44221,1,0,0:0:0:0:
229,136,44911,1,8,0:0:0:0:
228,172,45256,1,0,0:0:0:0:
383,138,45428,1,0,0:0:0:0:
228,172,45601,1,8,0:0:0:0:
157,153,46290,1,8,0:0:0:0:
228,98,46463,1,8,0:0:0:0:
184,157,46635,1,0,0:0:0:0:
190,162,46980,1,8,0:0:0:0:
100,82,47325,1,0,0:0:0:0:
89,133,47670,1,8,0:0:0:0:
164,130,48244,1,0,0:0:0:0:
195,126,48704,1,0,0:0:0:0:
195,126,49049,1,8,0:0:0:0:
233,130,49739,1,0,0:0:0:0:
256,136,50428,1,8,0:0:0:0:
216,77,50601,1,8,0:0:0:0:
256,138,50773,1,0,0:0:0:0:
256,136,51118,1,8,0:0:0:0:
216,77,51463,1,0,0:0:0:0:
256,136,51808,1,8,0:0:0:0:
216,77,51980,1,0,0:0:0:0:
107,146,52152,1,8,0:0:0:0:
107,146,52497,1,0,0:0:0:0:
107,146,53187,1,8,0:0:0:0:
141,147,53762,1,0,0:0:0:0:
141,147,54221,1,8,0:0:0:0:
141,147,54566,1,8,0:0:0:0:
216,77,54739,1,8,0:0:0:0:
126,149,54911,1,0,0:0:0:0:
126,149,55256,1,0,0:0:0:0:
179,188,55946,1,8,0:0:0:0:
179,188,56290,1,0,0:0:0:0:
216,77,56463,1,8,0:0:0:0:
179,188,56635,1,0,0:0:0:0:
205,143,57325,1,8,0:0:0:0:
202,148,58015,1,0,0:0:0:0:
216,77,58359,1,0,0:0:0:0:
202,148,58704,1,8,0:0:0:0:
208,171,59279,1,0,0:0:0:0:
208,171,60083,1,8,0:0:0:0:
216,77,60256,1,8,0:0:0:0:
208,171,60428,1,8,0:0:0:0:
208,171,60773,1,0,0:0:0:0:
198,159,61463,1,8,0:0:0:0:
198,160,62038,1,0,0:0:0:0:
140,164,62497,1,0,0:0:0:0:
174,162,62842,1,8,0:0:0:0:
174,162,63532,1,0,0:0:0:0:
199,158,63877,1,0,0:0:0:0:
191,142,64221,1,8,0:0:0:0:
199,158,64911,1,0,0:0:0:0:
216,77,65256,1,0,0:0:0:0:
199,158,65601,1,8,0:0:0:0:
216,77,65773,1,8,0:0:0:0:
216,77,65946,1,0,0:0:0:0:
199,158,66290,1,0,0:0:0:0:
152,135,67670,1,8,0:0:0:0:
152,135,68359,1,0,0:0:0:0:
153,135,69049,1,0,0:0:0:0:
166,137,70428,1,8,0:0:0:0:
166,137,71118,1,0,0:0:0:0:
166,137,71808,1,0,0:0:0:0:
169,137,73187,1,0,0:0:0:0:
169,137,73877,1,8,0:0:0:0:
169,137,74566,1,0,0:0:0:0:
171,136,75946,1,8,0:0:0:0:
171,136,76635,1,8,0:0:0:0:
171,136,77325,1,0,0:0:0:0:
171,136,78704,1,8,0:0:0:0:
171,136,79394,1,0,0:0:0:0:
171,136,80083,1,0,0:0:0:0:
171,136,81463,1,8,0:0:0:0:
171,136,82152,1,8,0:0:0:0:
171,136,82842,1,8,0:0:0:0:
181,142,84221,1,0,0:0:0:0:
181,142,84911,1,8,0:0:0:0:
181,142,85601,1,0,0:0:0:0:
181,142,86980,1,8,0:0:0:0:
181,142,87670,1,8,0:0:0:0:
181,142,88015,1,0,0:0:0:0:
181,142,88359,1,0,0:0:0:0:
181,142,89049,1,8,0:0:0:0:
181,142,89624,1,0,0:0:0:0:
181,142,90083,1,0,0:0:0:0:
181,142,90428,1,8,0:0:0:0:
181,142,91118,1,0,0:0:0:0:
181,142,91463,1,0,0:0:0:0:
196,170,91635,1,0,0:0:0:0:
181,142,91808,1,8,0:0:0:0:
181,142,92382,1,0,0:0:0:0:
192,152,92842,1,0,0:0:0:0:
195,155,93187,1,8,0:0:0:0:
196,155,93877,1,0,0:0:0:0:
196,155,94566,1,8,0:0:0:0:
196,155,95141,1,0,0:0:0:0:
189,153,95601,1,0,0:0:0:0:
207,171,95946,1,8,0:0:0:0:
189,153,96290,1,8,0:0:0:0:
196,170,96463,1,8,0:0:0:0:
189,153,96635,1,0,0:0:0:0:
189,153,97325,1,8,0:0:0:0:
189,153,97900,1,0,0:0:0:0:
189,153,98359,1,8,0:0:0:0:
189,153,98704,1,8,0:0:0:0:
189,153,99049,1,8,0:0:0:0:
189,153,99394,1,0,0:0:0:0:
189,153,100083,1,8,0:0:0:0:
189,153,100773,1,0,0:0:0:0:
189,153,101118,1,0,0:0:0:0:
196,170,101290,1,0,0:0:0:0:
189,153,101463,1,8,0:0:0:0:
189,153,102152,1,0,0:0:0:0:
195,153,102842,1,8,0:0:0:0:
195,153,103417,1,0,0:0:0:0:
195,153,103877,1,0,0:0:0:0:
195,153,104221,1,8,0:0:0:0:
195,153,104911,1,0,0:0:0:0:
196,170,105256,1,0,0:0:0:0:
196,170,105428,1,0,0:0:0:0:
195,153,105601,1,8,0:0:0:0:
195,153,106175,1,0,0:0:0:0:
186,151,106635,1,0,0:0:0:0:
186,151,106980,1,8,0:0:0:0:
186,151,107325,1,0,0:0:0:0:
186,151,107670,1,8,0:0:0:0:
186,151,108359,1,8,0:0:0:0:
191,152,108934,1,0,0:0:0:0:
192,152,109394,1,8,0:0:0:0:
191,152,109739,1,0,0:0:0:0:
191,152,110083,1,8,0:0:0:0:
196,170,110256,1,0,0:0:0:0:
191,152,110428,1,0,0:0:0:0:
191,152,111118,1,8,0:0:0:0:
165,154,111693,1,0,0:0:0:0:
166,154,112497,1,8,0:0:0:0:
166,154,112670,1,8,0:0:0:0:
187,118,112842,1,0,0:0:0:0:
187,118,113187,1,0,0:0:0:0:
187,118,113877,1,8,0:0:0:0:
207,82,114451,1,0,0:0:0:0:
207,82,114911,1,0,0:0:0:0:
177,105,115256,1,8,0:0:0:0:
166,154,115428,1,8,0:0:0:0:
177,105,115601,1,0,0:0:0:0:
177,105,115946,1,0,0:0:0:0:
177,105,116635,1,8,0:0:0:0:
190,103,116980,1,0,0:0:0:0:
166,154,117152,1,8,0:0:0:0:
191,103,117325,1,0,0:0:0:0:
191,103,117670,1,0,0:0:0:0:
190,103,118015,1,8,0:0:0:0:
191,103,118704,1,0,0:0:0:0:
191,103,119394,1,8,0:0:0:0:
191,103,119969,1,0,0:0:0:0:
191,103,120428,1,8,0:0:0:0:
191,103,120773,1,8,0:0:0:0:
166,154,120946,1,8,0:0:0:0:
183,146,121118,1,0,0:0:0:0:
184,122,121463,1,0,0:0:0:0:
188,122,122152,1,8,0:0:0:0:
188,122,122727,1,0,0:0:0:0:
188,122,123532,1,8,0:0:0:0:
153,133,123877,1,0,0:0:0:0:
166,154,124049,1,8,0:0:0:0:
153,133,124221,1,0,0:0:0:0:
166,154,124566,1,0,0:0:0:0:
156,127,124911,1,8,0:0:0:0:
156,127,125486,1,0,0:0:0:0:
156,127,126290,1,8,0:0:0:0:
166,154,126463,1,8,0:0:0:0:
156,127,126635,1,8,0:0:0:0:
156,127,126980,1,0,0:0:0:0:
156,127,127670,1,8,0:0:0:0:
144,141,128244,1,0,0:0:0:0:
144,140,128704,1,8,0:0:0:0:
144,141,129049,1,8,0:0:0:0:
166,154,129221,1,0,0:0:0:0:
144,140,129394,1,0,0:0:0:0:
144,140,129739,1,8,0:0:0:0:
163,144,130428,1,8,0:0:0:0:
163,144,131118,1,0,0:0:0:0:
166,154,131290,1,8,0:0:0:0:
163,144,131463,1,0,0:0:0:0:
163,144,131808,1,8,0:0:0:0:
163,144,132152,1,0,0:0:0:0:
170,143,132497,1,8,0:0:0:0:
177,142,133877,1,8,0:0:0:0:
177,142,134566,1,0,0:0:0:0:
177,142,135256,1,8,0:0:0:0:
232,141,136635,1,8,0:0:0:0:
232,141,137325,1,0,0:0:0:0:
232,141,138015,1,0,0:0:0:0:
236,141,139394,1,8,0:0:0:0:
236,141,140083,1,0,0:0:0:0:
236,141,140773,1,8,0:0:0:0:
236,141,142152,1,8,0:0:0:0:
236,141,143532,1,0,0:0:0:0:
238,192,143877,1,0,0:0:0:0:
196,170,144049,1,0,0:0:0:0:
238,192,144221,1,8,0:0:0:0:
180,152,144739,1,0,0:0:0:0:
225,183,145601,1,8,0:0:0:0:
196,122,145946,1,8,0:0:0:0:
196,122,146290,1,0,0:0:0:0:
196,122,146635,1,0,0:0:0:0:
196,122,146980,1,8,0:0:0:0:
196,122,147555,1,0,0:0:0:0:
211,137,148359,1,8,0:0:0:0:
181,147,148704,1,0,0:0:0:0:
196,170,148877,1,0,0:0:0:0:
181,147,149049,1,8,0:0:0:0:
202,123,149394,1,8,0:0:0:0:
202,123,149739,1,0,0:0:0:0:
202,123,150256,1,0,0:0:0:0:
202,123,150773,1,0,0:0:0:0:
209,123,151118,1,8,0:0:0:0:
210,123,151808,1,0,0:0:0:0:
210,123,152497,1,8,0:0:0:0:
191,143,153877,1,8,0:0:0:0:
189,149,154221,1,8,0:0:0:0:
196,170,154394,1,8,0:0:0:0:
189,149,154566,1,0,0:0:0:0:
213,156,155256,1,8,0:0:0:0:
215,157,155601,1,0,0:0:0:0:
220,172,155946,1,8,0:0:0:0:
223,172,156290,1,0,0:0:0:0:
196,170,156463,1,8,0:0:0:0:
223,172,156635,1,0,0:0:0:0:
223,172,157325,1,0,0:0:0:0:
223,172,158015,1,8,0:0:0:0:
223,172,158589,1,0,0:0:0:0:
224,144,159394,1,8,0:0:0:0:
224,144,159739,1,8,0:0:0:0:
224,144,160083,1,0,0:0:0:0:
196,170,160256,1,0,0:0:0:0:
253,175,160428,1,0,0:0:0:0:
253,175,160773,1,8,0:0:0:0:
253,175,161290,1,0,0:0:0:0:
253,175,161808,1,0,0:0:0:0:
253,175,162152,1,8,0:0:0:0:
253,175,162497,1,0,0:0:0:0:
253,175,162842,1,0,0:0:0:0:
253,175,163532,1,8,0:0:0:0:
253,175,164049,1,0,0:0:0:0:
268,148,164739,1,8,0:0:0:0:
226,125,164911,1,8,0:0:0:0:
226,125,165256,1,8,0:0:0:0:
226,125,165601,1,0,0:0:0:0:
205,177,167670,1,8,0:0:0:0:
205,177,168015,1,8,0:0:0:0:
211,178,168359,1,4,0:0:0:0:
234,184,168704,1,0,0:0:0:0:
237,183,169049,1,8,0:0:0:0:
240,182,169624,1,0,0:0:0:0:
208,166,170083,1,0,0:0:0:0:
208,166,170428,1,8,0:0:0:0:
166,154,170601,1,8,0:0:0:0:
208,166,170773,1,0,0:0:0:0:
208,166,171118,1,0,0:0:0:0:
208,166,171808,1,8,0:0:0:0:
208,166,172497,1,0,0:0:0:0:
208,166,172842,1,0,0:0:0:0:
209,160,173187,1,8,0:0:0:0:
166,154,173359,1,8,0:0:0:0:
212,162,173532,1,0,0:0:0:0:
166,154,173704,1,8,0:0:0:0:
212,162,173877,1,0,0:0:0:0:
222,156,174566,1,8,0:0:0:0:
222,156,175141,1,0,0:0:0:0:
222,156,175601,1,0,0:0:0:0:
222,156,175946,1,8,0:0:0:0:
166,154,176118,1,0,0:0:0:0:
222,156,176290,1,8,0:0:0:0:
222,156,176635,1,4,0:0:0:0:
226,150,177325,1,8,0:0:0:0:
231,170,177670,1,0,0:0:0:0:
166,154,177842,1,0,0:0:0:0:
231,170,178015,1,8,0:0:0:0:
231,170,178704,1,8,0:0:0:0:
231,170,179049,1,0,0:0:0:0:
231,170,179394,1,0,0:0:0:0:
260,171,179739,1,8,0:0:0:0:
231,170,180083,1,8,0:0:0:0:
166,154,180256,1,8,0:0:0:0:
231,170,180428,1,0,0:0:0:0:
237,171,180773,1,8,0:0:0:0:
237,171,181463,1,8,0:0:0:0:
166,154,181635,1,0,0:0:0:0:
237,171,181808,1,8,0:0:0:0:
237,171,182152,1,0,0:0:0:0:
238,186,182842,1,8,0:0:0:0:
241,185,183187,1,0,0:0:0:0:
166,154,183359,1,8,0:0:0:0:
238,186,183532,1,0,0:0:0:0:
166,154,183704,1,0,0:0:0:0:
244,184,183877,1,8,0:0:0:0:
246,183,184221,1,8,0:0:0:0:
248,182,184566,1,0,0:0:0:0:
244,184,184911,1,0,0:0:0:0:
248,182,185601,1,8,0:0:0:0:
248,182,186290,1,0,0:0:0:0:
166,154,186463,1,8,0:0:0:0:
277,164,186635,1,0,0:0:0:0:
248,182,186980,1,8,0:0:0:0:
248,167,187325,1,8,0:0:0:0:
250,167,187670,1,0,0:0:0:0:
251,166,189049,1,8,0:0:0:0:
251,166,189739,1,0,0:0:0:0:
251,166,190428,1,0,0:0:0:0:
251,166,191808,1,8,0:0:0:0:
204,113,192497,1,0,0:0:0:0:
204,113,193187,1,8,0:0:0:0:
204,113,194566,1,8,0:0:0:0:
204,113,195256,1,0,0:0:0:0:
204,113,195946,1,0,0:0:0:0:
204,113,197325,1,8,0:0:0:0:
204,113,198015,1,8,0:0:0:0:
204,113,198704,1,0,0:0:0:0:
196,134,200083,1,8,0:0:0:0:
196,134,200773,1,8,0:0:0:0:
196,134,201463,1,0,0:0:0:0:
224,159,202842,1,8,0:0:0:0:
234,162,203532,1,0,0:0:0:0:
234,162,204221,1,0,0:0:0:0:
193,162,205601,1,0,0:0:0:0:
199,163,206290,1,0,0:0:0:0:
175,148,206980,1,0,0:0:0:0:
224,146,208359,1,8,0:0:0:0:
