osu file format v14

[General]
AudioFilename: audio.mp3
AudioLeadIn: 0
PreviewTime: 165601
Countdown: 0
SampleSet: Normal
StackLeniency: 0.7
Mode: 1
LetterboxInBreaks: 0
WidescreenStoryboard: 1

[Editor]
Bookmarks: 22152
DistanceSpacing: 1
BeatDivisor: 4
GridSize: 32
TimelineZoom: 1

[Metadata]
Title:Oralma Qashqyn
TitleUnicode:Oralma Qashqyn
Artist:Taspay
ArtistUnicode:Taspay
Creator:tadahitotsu
Version:Janym
Source:
Tags:Қазақ казахский kazakh kaz kz таспай Оралма қашқын pop lofi lo-fi yasuho
BeatmapID:3576170
BeatmapSetID:1748321

[Difficulty]
HPDrainRate:6.5
CircleSize:4
OverallDifficulty:5
ApproachRate:8.5
SliderMultiplier:1.7
SliderTickRate:1

[Events]
//Background and Video events
0,0,"alena-aenami-cold-1k.jpg",0,0
//Break Periods
//Storyboard Layer 0 (Background)
//Storyboard Layer 1 (Fail)
//Storyboard Layer 2 (Pass)
//Storyboard Layer 3 (Foreground)
//Storyboard Layer 4 (Overlay)
//Storyboard Sound Samples

[TimingPoints]
84,689.655172413793,4,1,0,30,1,0
84,-111.111111111111,4,1,0,30,0,0
22152,-100,4,1,0,40,0,0
44221,-90.9090909090909,4,1,0,50,0,0
66290,-90.9090909090908,4,1,0,30,0,0
66463,-111.111111111111,4,1,0,30,0,0
88359,-100,4,1,0,40,0,0
88704,-100,4,1,0,40,0,0
110428,-90.9090909090909,4,1,0,50,0,0
132497,-90.9090909090908,4,1,0,30,0,0
132670,-111.111111111111,4,1,0,30,0,0
143532,-100,4,1,0,40,0,0
165601,-111.111111111111,4,1,0,40,0,0
167670,-105.263157894737,4,1,0,40,0,0
167842,-100,4,1,0,40,0,0
168015,-95.2380952380952,4,1,0,40,0,0
168359,-90.9090909090909,4,1,0,60,0,1
187670,-90.9090909090908,4,1,0,30,0,0
187842,-111.111111111111,4,1,0,30,0,0

[HitObjects]
156,147,84,5,8,0:0:0:0:
234,163,1463,5,0,0:0:0:0:
259,166,2152,5,0,0:0:0:0:
259,166,2842,5,8,0:0:0:0:
266,169,4221,5,8,0:0:0:0:
266,169,4911,5,8,0:0:0:0:
266,169,5601,5,0,0:0:0:0:
266,169,6980,5,0,0:0:0:0:
266,169,7670,5,0,0:0:0:0:
266,169,8359,5,8,0:0:0:0:
266,154,9739,5,8,0:0:0:0:
272,153,10428,5,0,0:0:0:0:
266,150,11118,5,8,0:0:0:0:
268,149,12497,5,0,0:0:0:0:
268,149,13187,5,0,0:0:0:0:
268,149,13877,5,8,0:0:0:0:
226,146,15256,5,8,0:0:0:0:
226,146,15946,5,8,0:0:0:0:
226,146,16635,5,0,0:0:0:0:
306,143,18015,5,0,0:0:0:0:
306,143,18704,5,0,0:0:0:0:
306,143,19394,5,8,0:0:0:0:
214,149,20773,5,8,0:0:0:0:
214,149,21463,5,0,0:0:0:0:
259,250,22152,5,8,0:0:0:0:
338,159,22497,1,0,0:0:0:0:
243,131,22842,1,8,0:0:0:0:
243,131,23015,1,8,0:0:0:0:
243,131,23187,1,0,0:0:0:0:
172,140,23359,1,0,0:0:0:0:
204,135,23532,1,8,0:0:0:0:
197,146,23704,1,8,0:0:0:0:
197,146,23877,1,0,0:0:0:0:
237,122,24221,1,8,0:0:0:0:
237,122,24566,1,0,0:0:0:0:
237,122,24739,1,0,0:0:0:0:
237,122,24911,1,8,0:0:0:0:
237,122,25083,1,0,0:0:0:0:
237,122,25256,1,8,0:0:0:0:
237,122,25428,1,0,0:0:0:0:
237,122,25601,1,8,0:0:0:0:
237,122,25946,1,8,0:0:0:0:
237,122,26118,1,8,0:0:0:0:
237,122,26463,1,0,0:0:0:0:
237,122,26635,1,8,0:0:0:0:
237,122,26808,1,0,0:0:0:0:
237,122,26980,1,8,0:0:0:0:
237,122,27670,1,8,0:0:0:0:
237,122,28015,1,0,0:0:0:0:
237,122,28359,1,8,0:0:0:0:
237,122,28532,1,8,0:0:0:0:
237,122,28704,1,0,0:0:0:0:
237,122,29049,1,8,0:0:0:0:
237,122,29221,1,0,0:0:0:0:
237,122,29394,1,8,0:0:0:0:
192,145,29566,1,0,0:0:0:0:
192,145,29739,1,8,0:0:0:0:
182,137,30083,1,0,0:0:0:0:
192,131,30428,1,8,0:0:0:0:
192,131,30601,1,8,0:0:0:0:
192,131,30773,1,0,0:0:0:0:
205,124,31118,1,8,0:0:0:0:
235,156,31290,1,0,0:0:0:0:
235,156,31463,1,0,0:0:0:0:
235,156,31808,1,0,0:0:0:0:
235,156,32152,1,0,0:0:0:0:
235,156,32325,1,0,0:0:0:0:
235,156,32497,1,8,0:0:0:0:
248,218,33187,1,8,0:0:0:0:
248,218,33532,1,0,0:0:0:0:
248,218,33704,1,0,0:0:0:0:
248,218,33877,1,8,0:0:0:0:
248,218,34221,1,0,0:0:0:0:
248,218,34394,1,0,0:0:0:0:
248,218,34566,1,8,0:0:0:0:
248,218,34739,1,8,0:0:0:0:
372,176,34911,1,0,0:0:0:0:
277,128,35256,1,8,0:0:0:0:
226,115,35428,1,0,0:0:0:0:
226,115,35773,1,0,0:0:0:0:
222,110,35946,1,8,0:0:0:0:
194,111,36290,1,0,0:0:0:0:
194,111,36463,1,0,0:0:0:0:
194,111,36635,1,8,0:0:0:0:
194,111,36808,1,0,0:0:0:0:
194,111,36980,1,8,0:0:0:0:
194,111,37325,1,0,0:0:0:0:
194,111,37497,1,8,0:0:0:0:
194,111,37842,1,8,0:0:0:0:
194,111,38015,1,0,0:0:0:0:
210,104,38704,1,8,0:0:0:0:
210,104,38877,1,8,0:0:0:0:
210,104,39049,1,0,0:0:0:0:
210,104,39221,1,0,0:0:0:0:
210,104,39394,1,8,0:0:0:0:
210,104,39739,1,0,0:0:0:0:
210,104,39911,1,0,0:0:0:0:
210,104,40083,1,8,0:0:0:0:
210,104,40428,1,8,0:0:0:0:
145,115,40601,1,0,0:0:0:0:
348,172,40946,1,0,0:0:0:0:
375,170,41118,1,8,0:0:0:0:
375,170,41290,1,0,0:0:0:0:
375,170,41463,1,8,0:0:0:0:
352,168,41808,1,0,0:0:0:0:
352,168,41980,1,0,0:0:0:0:
352,166,42152,1,8,0:0:0:0:
352,166,42497,1,8,0:0:0:0:
352,168,42670,1,8,0:0:0:0:
352,168,42842,1,0,0:0:0:0:
352,166,43187,1,8,0:0:0:0:
352,166,43532,1,0,0:0:0:0:
352,168,43877,1,0,0:0:0:0:
352,166,44221,1,8,0:0:0:0:
237,211,44911,1,8,0:0:0:0:
250,206,45256,1,0,0:0:0:0:
250,206,45428,1,8,0:0:0:0:
250,206,45773,1,8,0:0:0:0:
250,204,45946,1,0,0:0:0:0:
250,206,46290,1,8,0:0:0:0:
187,171,46463,1,0,0:0:0:0:
250,206,46635,1,8,0:0:0:0:
250,204,46980,1,0,0:0:0:0:
250,206,47325,1,8,0:0:0:0:
250,206,47670,1,8,0:0:0:0:
250,204,47842,1,8,0:0:0:0:
250,204,48015,1,0,0:0:0:0:
245,200,48187,1,0,0:0:0:0:
245,200,48359,1,8,0:0:0:0:
245,200,48704,1,8,0:0:0:0:
245,200,49049,1,8,0:0:0:0:
166,82,49221,1,0,0:0:0:0:
245,200,49394,1,8,0:0:0:0:
46,152,49739,1,0,0:0:0:0:
245,200,50083,1,8,0:0:0:0:
163,133,50428,1,8,0:0:0:0:
163,133,50601,1,8,0:0:0:0:
163,133,50773,1,0,0:0:0:0:
163,133,50946,1,0,0:0:0:0:
163,133,51118,1,8,0:0:0:0:
163,133,51463,1,8,0:0:0:0:
163,133,51808,1,8,0:0:0:0:
163,133,51980,1,0,0:0:0:0:
163,133,52152,1,8,0:0:0:0:
163,133,52325,1,0,0:0:0:0:
163,133,52497,1,8,0:0:0:0:
163,133,52670,1,8,0:0:0:0:
163,133,52842,1,0,0:0:0:0:
163,133,53187,1,8,0:0:0:0:
163,133,53532,1,0,0:0:0:0:
163,133,53704,1,0,0:0:0:0:
163,133,53877,1,8,0:0:0:0:
166,113,54049,1,8,0:0:0:0:
166,113,54221,1,0,0:0:0:0:
166,113,54566,1,8,0:0:0:0:
205,179,54911,1,0,0:0:0:0:
205,179,55256,1,8,0:0:0:0:
212,122,55946,1,8,0:0:0:0:
212,122,56290,1,0,0:0:0:0:
212,122,56463,1,0,0:0:0:0:
212,122,56635,1,8,0:0:0:0:
211,115,56980,1,0,0:0:0:0:
211,115,57325,1,8,0:0:0:0:
211,115,57497,1,0,0:0:0:0:
211,115,57670,1,8,0:0:0:0:
211,115,58015,1,0,0:0:0:0:
179,125,58359,1,8,0:0:0:0:
179,125,58704,1,8,0:0:0:0:
179,125,58877,1,8,0:0:0:0:
179,125,59049,1,0,0:0:0:0:
179,125,59221,1,0,0:0:0:0:
179,125,59394,1,8,0:0:0:0:
179,125,60083,1,8,0:0:0:0:
212,87,60256,1,0,0:0:0:0:
179,125,60428,1,8,0:0:0:0:
179,125,60773,1,0,0:0:0:0:
179,125,61118,1,8,0:0:0:0:
179,125,61463,1,8,0:0:0:0:
179,125,61635,1,8,0:0:0:0:
179,125,61808,1,0,0:0:0:0:
179,125,61980,1,0,0:0:0:0:
179,125,62152,1,8,0:0:0:0:
179,125,62497,1,0,0:0:0:0:
179,125,62842,1,8,0:0:0:0:
179,125,63015,1,8,0:0:0:0:
179,125,63187,1,0,0:0:0:0:
179,125,63359,1,0,0:0:0:0:
179,125,63532,1,8,0:0:0:0:
179,125,63704,1,8,0:0:0:0:
179,125,63877,1,0,0:0:0:0:
179,125,64221,1,8,0:0:0:0:
179,125,64566,1,0,0:0:0:0:
179,125,64739,1,0,0:0:0:0:
179,125,64911,1,8,0:0:0:0:
142,109,65083,1,8,0:0:0:0:
179,125,65256,1,0,0:0:0:0:
142,109,65601,1,8,0:0:0:0:
142,109,65946,1,8,0:0:0:0:
156,147,66290,5,0,0:0:0:0:
234,163,67670,5,0,0:0:0:0:
259,166,68359,5,0,0:0:0:0:
259,166,69049,5,8,0:0:0:0:
266,169,70428,5,8,0:0:0:0:
266,169,71118,5,8,0:0:0:0:
266,169,71808,5,0,0:0:0:0:
266,169,73187,5,0,0:0:0:0:
266,169,73877,5,0,0:0:0:0:
266,169,74566,5,8,0:0:0:0:
266,154,75946,5,8,0:0:0:0:
272,153,76635,5,0,0:0:0:0:
266,150,77325,5,8,0:0:0:0:
268,149,78704,5,0,0:0:0:0:
268,149,79394,5,0,0:0:0:0:
268,149,80083,5,8,0:0:0:0:
226,146,81463,5,8,0:0:0:0:
226,146,82152,5,8,0:0:0:0:
226,146,82842,5,0,0:0:0:0:
306,143,84221,5,0,0:0:0:0:
306,143,84911,5,0,0:0:0:0:
306,143,85601,5,8,0:0:0:0:
214,149,86980,5,8,0:0:0:0:
214,149,87670,5,0,0:0:0:0:
252,222,88359,5,8,0:0:0:0:
232,207,88532,1,0,0:0:0:0:
232,207,88704,1,8,0:0:0:0:
222,115,88877,1,8,0:0:0:0:
231,207,89049,1,0,0:0:0:0:
308,164,89394,1,0,0:0:0:0:
329,155,89739,1,8,0:0:0:0:
329,155,90083,1,0,0:0:0:0:
329,155,90256,1,0,0:0:0:0:
329,155,90428,1,8,0:0:0:0:
334,155,90773,1,0,0:0:0:0:
334,155,91118,1,8,0:0:0:0:
306,149,91463,1,8,0:0:0:0:
306,149,91635,1,0,0:0:0:0:
306,149,91808,1,8,0:0:0:0:
306,149,92152,1,0,0:0:0:0:
306,149,92325,1,0,0:0:0:0:
306,149,92497,1,8,0:0:0:0:
265,153,92670,1,8,0:0:0:0:
270,152,92842,1,0,0:0:0:0:
270,152,93015,1,0,0:0:0:0:
270,152,93187,1,8,0:0:0:0:
172,125,93877,1,8,0:0:0:0:
172,125,94049,1,8,0:0:0:0:
172,125,94221,1,0,0:0:0:0:
172,125,94566,1,8,0:0:0:0:
217,45,94739,1,0,0:0:0:0:
172,125,94911,1,8,0:0:0:0:
172,125,95256,1,8,0:0:0:0:
254,89,95428,1,0,0:0:0:0:
254,89,95601,1,8,0:0:0:0:
321,110,95773,1,8,0:0:0:0:
321,110,95946,1,0,0:0:0:0:
158,133,96290,1,0,0:0:0:0:
158,133,96463,1,0,0:0:0:0:
158,133,96635,1,8,0:0:0:0:
180,146,96980,1,0,0:0:0:0:
181,146,97325,1,8,0:0:0:0:
181,146,97497,1,8,0:0:0:0:
181,146,97670,1,0,0:0:0:0:
180,146,97842,1,0,0:0:0:0:
180,146,98015,1,8,0:0:0:0:
181,146,98359,1,0,0:0:0:0:
181,146,98704,1,8,0:0:0:0:
228,166,99394,1,0,0:0:0:0:
243,168,99739,1,8,0:0:0:0:
243,168,99911,1,8,0:0:0:0:
243,168,100083,1,0,0:0:0:0:
243,168,100256,1,8,0:0:0:0:
243,168,100428,1,8,0:0:0:0:
243,168,100773,1,0,0:0:0:0:
243,168,101118,1,0,0:0:0:0:
195,44,101290,1,8,0:0:0:0:
243,168,101463,1,0,0:0:0:0:
248,161,101808,1,8,0:0:0:0:
248,159,101980,1,8,0:0:0:0:
248,159,102152,1,0,0:0:0:0:
248,159,102497,1,0,0:0:0:0:
248,161,102670,1,0,0:0:0:0:
248,161,102842,1,8,0:0:0:0:
257,124,103187,1,8,0:0:0:0:
257,124,103359,1,8,0:0:0:0:
257,124,103532,1,0,0:0:0:0:
185,109,103877,1,0,0:0:0:0:
115,97,104049,1,8,0:0:0:0:
185,109,104221,1,0,0:0:0:0:
239,120,104911,1,8,0:0:0:0:
239,120,105256,1,0,0:0:0:0:
239,120,105601,1,8,0:0:0:0:
182,32,105773,1,8,0:0:0:0:
239,120,105946,1,0,0:0:0:0:
239,120,106290,1,8,0:0:0:0:
135,100,106635,1,0,0:0:0:0:
135,100,106808,1,0,0:0:0:0:
135,100,106980,1,8,0:0:0:0:
140,102,107325,1,8,0:0:0:0:
135,100,107497,1,8,0:0:0:0:
140,102,107670,1,0,0:0:0:0:
230,109,108015,1,0,0:0:0:0:
303,72,108359,1,8,0:0:0:0:
303,72,108532,1,0,0:0:0:0:
303,72,108704,1,8,0:0:0:0:
303,72,109049,1,8,0:0:0:0:
222,20,109221,1,8,0:0:0:0:
303,72,109394,1,0,0:0:0:0:
303,72,109566,1,0,0:0:0:0:
303,72,109739,1,8,0:0:0:0:
166,121,110084,1,0,0:0:0:0:
352,166,110428,1,8,0:0:0:0:
237,211,111118,1,8,0:0:0:0:
250,206,111463,1,0,0:0:0:0:
250,206,111635,1,0,0:0:0:0:
250,206,111808,1,8,0:0:0:0:
250,204,112153,1,0,0:0:0:0:
250,206,112497,1,8,0:0:0:0:
187,171,112670,1,0,0:0:0:0:
250,206,112842,1,8,0:0:0:0:
250,204,113187,1,0,0:0:0:0:
250,206,113532,1,8,0:0:0:0:
250,206,113877,1,8,0:0:0:0:
250,204,114049,1,8,0:0:0:0:
250,204,114222,1,0,0:0:0:0:
245,200,114394,1,0,0:0:0:0:
245,200,114566,1,8,0:0:0:0:
245,200,114911,1,8,0:0:0:0:
245,200,115256,1,8,0:0:0:0:
166,82,115428,1,0,0:0:0:0:
245,200,115601,1,8,0:0:0:0:
46,152,115946,1,0,0:0:0:0:
245,200,116290,1,8,0:0:0:0:
163,133,116635,1,8,0:0:0:0:
163,133,116808,1,0,0:0:0:0:
163,133,116980,1,0,0:0:0:0:
163,133,117152,1,8,0:0:0:0:
163,133,117325,1,8,0:0:0:0:
163,133,117670,1,8,0:0:0:0:
163,133,118015,1,8,0:0:0:0:
163,133,118187,1,0,0:0:0:0:
163,133,118359,1,8,0:0:0:0:
163,133,118532,1,0,0:0:0:0:
163,133,118704,1,8,0:0:0:0:
163,133,118877,1,8,0:0:0:0:
163,133,119049,1,0,0:0:0:0:
163,133,119394,1,8,0:0:0:0:
163,133,119739,1,0,0:0:0:0:
163,133,119911,1,0,0:0:0:0:
163,133,120084,1,8,0:0:0:0:
166,113,120256,1,8,0:0:0:0:
166,113,120428,1,0,0:0:0:0:
166,113,120773,1,8,0:0:0:0:
205,179,121118,1,0,0:0:0:0:
205,179,121463,1,8,0:0:0:0:
212,122,122153,1,8,0:0:0:0:
212,122,122497,1,0,0:0:0:0:
212,122,122670,1,0,0:0:0:0:
212,122,122842,1,8,0:0:0:0:
211,115,123187,1,0,0:0:0:0:
211,115,123532,1,8,0:0:0:0:
211,115,123704,1,0,0:0:0:0:
211,115,123877,1,8,0:0:0:0:
211,115,124222,1,0,0:0:0:0:
179,125,124566,1,8,0:0:0:0:
179,125,124911,1,8,0:0:0:0:
179,125,125084,1,8,0:0:0:0:
179,125,125256,1,0,0:0:0:0:
179,125,125428,1,0,0:0:0:0:
179,125,125601,1,8,0:0:0:0:
179,125,126290,1,8,0:0:0:0:
212,87,126463,1,0,0:0:0:0:
179,125,126635,1,8,0:0:0:0:
179,125,126980,1,0,0:0:0:0:
179,125,127325,1,8,0:0:0:0:
179,125,127670,1,8,0:0:0:0:
179,125,127842,1,0,0:0:0:0:
179,125,128015,1,8,0:0:0:0:
179,125,128187,1,0,0:0:0:0:
179,125,128359,1,8,0:0:0:0:
179,125,128704,1,0,0:0:0:0:
179,125,129049,1,8,0:0:0:0:
179,125,129222,1,8,0:0:0:0:
179,125,129394,1,0,0:0:0:0:
179,125,129566,1,0,0:0:0:0:
179,125,129739,1,8,0:0:0:0:
179,125,129911,1,8,0:0:0:0:
179,125,130084,1,0,0:0:0:0:
179,125,130428,1,8,0:0:0:0:
179,125,130773,1,0,0:0:0:0:
179,125,130946,1,0,0:0:0:0:
179,125,131118,1,8,0:0:0:0:
142,109,131290,1,8,0:0:0:0:
179,125,131463,1,0,0:0:0:0:
142,109,131808,1,8,0:0:0:0:
142,109,132153,1,8,0:0:0:0:
156,147,132497,5,0,0:0:0:0:
234,163,133877,5,0,0:0:0:0:
259,166,134566,5,0,0:0:0:0:
259,166,135256,5,8,0:0:0:0:
266,169,136635,5,8,0:0:0:0:
266,169,137325,5,8,0:0:0:0:
266,169,138015,5,0,0:0:0:0:
266,169,139394,5,0,0:0:0:0:
266,169,140083,5,0,0:0:0:0:
266,169,140773,5,8,0:0:0:0:
266,154,142152,5,8,0:0:0:0:
272,153,142842,5,0,0:0:0:0:
266,150,143532,5,8,0:0:0:0:
262,166,143877,1,0,0:0:0:0:
262,166,144049,1,0,0:0:0:0:
262,166,144221,1,8,0:0:0:0:
262,166,144566,1,8,0:0:0:0:
262,166,144911,1,8,0:0:0:0:
262,166,145083,1,8,0:0:0:0:
262,166,145256,1,0,0:0:0:0:
262,166,145428,1,0,0:0:0:0:
268,138,145601,1,8,0:0:0:0:
268,138,145946,1,0,0:0:0:0:
266,128,146290,1,8,0:0:0:0:
248,106,146635,1,8,0:0:0:0:
248,106,146808,1,0,0:0:0:0:
248,106,146980,1,8,0:0:0:0:
246,107,147325,1,0,0:0:0:0:
248,106,147670,1,8,0:0:0:0:
217,97,148015,1,0,0:0:0:0:
246,107,148187,1,0,0:0:0:0:
246,107,148359,1,8,0:0:0:0:
217,97,149049,1,8,0:0:0:0:
217,97,149221,1,8,0:0:0:0:
217,97,149566,1,0,0:0:0:0:
217,97,149739,1,8,0:0:0:0:
217,97,150083,1,8,0:0:0:0:
217,97,150256,1,0,0:0:0:0:
217,97,150601,1,8,0:0:0:0:
217,97,150773,1,8,0:0:0:0:
219,91,150946,1,0,0:0:0:0:
219,91,151118,1,8,0:0:0:0:
219,91,151463,1,8,0:0:0:0:
219,91,151635,1,8,0:0:0:0:
226,93,151808,1,0,0:0:0:0:
230,58,152152,1,0,0:0:0:0:
265,82,152497,1,8,0:0:0:0:
265,82,152842,1,0,0:0:0:0:
265,82,153015,1,0,0:0:0:0:
265,82,153187,1,8,0:0:0:0:
265,82,153532,1,8,0:0:0:0:
265,82,153704,1,8,0:0:0:0:
265,82,153877,1,8,0:0:0:0:
265,82,154566,1,8,0:0:0:0:
258,78,154911,1,0,0:0:0:0:
260,78,155256,1,8,0:0:0:0:
260,78,155428,1,8,0:0:0:0:
260,78,155601,1,0,0:0:0:0:
231,61,155773,1,0,0:0:0:0:
258,78,155946,1,8,0:0:0:0:
239,155,156290,1,8,0:0:0:0:
239,155,156463,1,8,0:0:0:0:
239,155,156635,1,8,0:0:0:0:
143,163,156808,1,0,0:0:0:0:
215,164,157325,1,8,0:0:0:0:
208,159,157497,1,0,0:0:0:0:
197,159,157670,1,8,0:0:0:0:
210,157,158015,1,8,0:0:0:0:
210,157,158187,1,8,0:0:0:0:
210,157,158359,1,0,0:0:0:0:
208,159,158532,1,0,0:0:0:0:
210,157,158704,1,8,0:0:0:0:
279,144,159049,1,0,0:0:0:0:
279,144,159394,1,8,0:0:0:0:
279,144,159566,1,0,0:0:0:0:
279,144,160083,1,8,0:0:0:0:
279,144,160256,1,8,0:0:0:0:
279,144,160428,1,0,0:0:0:0:
219,189,160601,1,0,0:0:0:0:
210,195,160773,1,8,0:0:0:0:
219,189,161118,1,0,0:0:0:0:
219,189,161463,1,8,0:0:0:0:
219,76,161635,1,8,0:0:0:0:
219,76,161808,1,0,0:0:0:0:
219,76,162152,1,8,0:0:0:0:
219,76,162325,1,0,0:0:0:0:
219,76,162497,1,8,0:0:0:0:
219,76,162670,1,8,0:0:0:0:
219,76,162842,1,0,0:0:0:0:
219,63,163532,1,8,0:0:0:0:
225,69,163877,1,8,0:0:0:0:
225,69,164049,1,8,0:0:0:0:
225,69,164566,1,0,0:0:0:0:
225,69,164739,1,0,0:0:0:0:
225,69,164911,1,8,0:0:0:0:
225,69,165083,1,8,0:0:0:0:
225,69,165601,1,0,0:0:0:0:
285,85,166290,1,0,0:0:0:0:
309,81,166635,1,8,0:0:0:0:
309,81,166808,1,8,0:0:0:0:
309,81,166980,1,0,0:0:0:0:
308,81,167325,1,0,0:0:0:0:
309,81,167670,1,8,0:0:0:0:
309,81,167842,1,8,0:0:0:0:
309,81,168015,1,8,0:0:0:0:
280,123,168359,1,4,0:0:0:0:
244,216,168704,1,8,0:0:0:0:
258,180,169049,1,8,0:0:0:0:
258,180,169221,1,8,0:0:0:0:
225,85,169394,1,0,0:0:0:0:
225,85,169566,1,0,0:0:0:0:
225,85,169739,1,8,0:0:0:0:
225,85,170083,1,8,0:0:0:0:
225,85,170428,1,8,0:0:0:0:
225,85,170601,1,0,0:0:0:0:
225,85,170773,1,8,0:0:0:0:
225,85,171118,1,0,0:0:0:0:
225,85,171463,1,8,0:0:0:0:
205,90,171808,1,8,0:0:0:0:
205,90,171980,1,8,0:0:0:0:
205,90,172152,1,0,0:0:0:0:
205,90,172325,1,0,0:0:0:0:
205,90,172497,1,8,0:0:0:0:
194,166,172842,1,8,0:0:0:0:
285,140,173187,1,8,0:0:0:0:
285,140,173359,1,0,0:0:0:0:
285,140,173532,1,8,0:0:0:0:
285,140,173704,1,0,0:0:0:0:
285,140,173877,1,8,0:0:0:0:
285,140,174049,1,8,0:0:0:0:
285,140,174221,1,0,0:0:0:0:
289,126,174566,1,8,0:0:0:0:
289,126,174911,1,0,0:0:0:0:
289,126,175083,1,0,0:0:0:0:
289,126,175256,1,8,0:0:0:0:
289,126,175428,1,8,0:0:0:0:
289,126,175601,1,8,0:0:0:0:
289,126,175946,1,8,0:0:0:0:
227,65,176118,1,0,0:0:0:0:
289,126,176290,1,8,0:0:0:0:
289,126,176635,1,4,0:0:0:0:
289,126,177325,1,0,0:0:0:0:
290,90,177670,1,8,0:0:0:0:
290,90,177842,1,8,0:0:0:0:
290,90,178015,1,0,0:0:0:0:
298,88,178359,1,0,0:0:0:0:
298,88,178704,1,8,0:0:0:0:
298,88,178877,1,8,0:0:0:0:
298,88,179049,1,0,0:0:0:0:
239,88,179394,1,8,0:0:0:0:
239,88,179739,1,0,0:0:0:0:
239,88,180083,1,8,0:0:0:0:
239,88,180256,1,8,0:0:0:0:
239,88,180428,1,0,0:0:0:0:
239,88,180601,1,0,0:0:0:0:
239,88,180773,1,8,0:0:0:0:
206,81,181463,1,8,0:0:0:0:
206,81,181808,1,0,0:0:0:0:
206,81,181980,1,8,0:0:0:0:
206,81,182152,1,8,0:0:0:0:
206,81,182497,1,0,0:0:0:0:
206,81,182842,1,8,0:0:0:0:
206,81,183015,1,8,0:0:0:0:
206,81,183187,1,0,0:0:0:0:
206,81,183359,1,0,0:0:0:0:
206,81,183532,1,8,0:0:0:0:
188,117,183877,1,0,0:0:0:0:
188,117,184221,1,8,0:0:0:0:
188,117,184394,1,8,0:0:0:0:
188,117,184566,1,0,0:0:0:0:
188,117,184739,1,0,0:0:0:0:
188,117,184911,1,8,0:0:0:0:
195,120,185083,1,8,0:0:0:0:
195,120,185256,1,0,0:0:0:0:
225,118,185601,1,8,0:0:0:0:
225,118,185946,1,0,0:0:0:0:
225,118,186118,1,0,0:0:0:0:
225,118,186290,1,8,0:0:0:0:
225,118,186463,1,8,0:0:0:0:
225,118,186635,1,8,0:0:0:0:
225,118,186980,1,8,0:0:0:0:
225,118,187325,1,0,0:0:0:0:
156,147,187670,5,8,0:0:0:0:
234,163,189049,5,0,0:0:0:0:
259,166,189739,5,0,0:0:0:0:
259,166,190428,5,8,0:0:0:0:
266,169,191808,5,8,0:0:0:0:
266,169,192497,5,8,0:0:0:0:
266,169,193187,5,0,0:0:0:0:
266,169,194566,5,0,0:0:0:0:
266,169,195256,5,0,0:0:0:0:
266,169,195946,5,8,0:0:0:0:
266,154,197325,5,8,0:0:0:0:
272,153,198015,5,0,0:0:0:0:
266,150,198704,5,8,0:0:0:0:
268,149,200083,5,0,0:0:0:0:
268,149,200773,5,0,0:0:0:0:
268,149,201463,5,8,0:0:0:0:
226,146,202842,5,8,0:0:0:0:
226,146,203532,5,8,0:0:0:0:
226,146,204221,5,0,0:0:0:0:
306,143,205601,5,0,0:0:0:0:
306,143,206290,5,0,0:0:0:0:
306,143,206980,5,8,0:0:0:0:
214,149,208359,5,8,0:0:0:0:
