osu file format v14

[General]
AudioFilename: audio.mp3
AudioLeadIn: 0
PreviewTime: -1
Countdown: 1
SampleSet: Soft
StackLeniency: 0.2
Mode: 0
LetterboxInBreaks: 0
WidescreenStoryboard: 1

[Editor]
Bookmarks: 7189,20522,33856,47189,60522
DistanceSpacing: 1.4
BeatDivisor: 4
GridSize: 16
TimelineZoom: 2

[Metadata]
Title:Kanpan Tasogare Shinbun
TitleUnicode:官板黄昏新聞
Artist:Tasogare Frontier
ArtistUnicode:黄昏フロンティア
Creator:-Nanako-
Version:this is also 85 combo
Source:
Tags:
BeatmapID:2263114
BeatmapSetID:1049511

[Difficulty]
HPDrainRate:4
CircleSize:4.5
OverallDifficulty:6
ApproachRate:9.5
SliderMultiplier:2
SliderTickRate:1

[Events]
//Background and Video events
0,0,"bg.jpg",0,0
//Break Periods
//Storyboard Layer 0 (Background)
//Storyboard Layer 1 (Fail)
//Storyboard Layer 2 (Pass)
//Storyboard Layer 3 (Foreground)
//Storyboard Layer 4 (Overlay)
//Storyboard Sound Samples

[TimingPoints]
523,333.333333333333,5,2,0,100,1,0
523,-500,5,2,0,100,0,0
1022,-200,5,2,0,100,0,0
1522,-100,5,2,0,100,0,0
2189,-200,5,2,0,100,0,0
3189,-100,5,2,0,100,0,0
3856,-500,5,2,0,100,0,0
4356,-200,5,2,0,100,0,0
4856,-100,5,2,0,100,0,0
5522,-200,5,2,0,100,0,0
6522,-100,5,2,0,100,0,0
7189,-125,5,2,0,100,0,0
7689,-166.666666666667,5,2,0,100,0,0
8856,-125,5,2,0,100,0,0
9356,-166.666666666667,5,2,0,100,0,0
9856,-100,5,2,0,100,0,0
10522,-125,5,2,0,100,0,0
11022,-166.666666666667,5,2,0,100,0,0
12189,-125,5,2,0,100,0,0
12689,-166.666666666667,5,2,0,100,0,0
13189,-100,5,2,0,100,0,0
13856,-125,5,2,0,100,0,0
14356,-166.666666666667,5,2,0,100,0,0
14856,-100,5,2,0,100,0,0
15522,-125,5,2,0,100,0,0
16022,-166.666666666667,5,2,0,100,0,0
16522,-100,5,2,0,100,0,0
17189,-166.666666666667,5,2,0,100,0,0
18856,-166.666666666667,5,2,0,100,0,0
20522,-125,5,2,0,100,0,0
21022,-166.666666666667,5,2,0,100,0,0
22189,-125,5,2,0,100,0,0
22689,-166.666666666667,5,2,0,100,0,0
23189,-100,5,2,0,100,0,0
23856,-125,5,2,0,100,0,0
24356,-166.666666666667,5,2,0,100,0,0
25522,-125,5,2,0,100,0,0
26022,-166.666666666667,5,2,0,100,0,0
26522,-100,5,2,0,100,0,0
27189,-100,5,2,0,100,0,0
30522,-125,5,2,0,100,0,0
32189,-200,5,2,0,100,0,0
33856,-166.666666666667,5,2,0,100,0,0
39356,-200,5,2,0,100,0,0
39856,-125,5,2,0,100,0,0
40522,-166.666666666667,5,2,0,100,0,0
46022,-200,5,2,0,100,0,0
46522,-83.3333333333333,5,2,0,100,0,0
47189,-166.666666666667,5,2,0,100,0,0
52689,-200,5,2,0,100,0,0
53189,-125,5,2,0,100,0,0
53856,-166.666666666667,5,2,0,100,0,0
59356,-200,5,2,0,100,0,0
60522,-100,5,2,0,100,0,1
61522,-83.3333333333333,5,2,0,100,0,1

[HitObjects]
175,68,523,6,0,L|200:64,2,20
217,60,1022,2,0,P|250:95|246:146,1,100
172,175,1522,6,0,P|138:139|142:88,1,100
217,60,1856,2,0,P|250:95|246:146,1,100
92,211,2189,6,0,L|204:203,1,100
254,297,2689,2,0,L|142:289,1,100
92,211,3189,6,0,L|204:203,1,100
254,297,3522,2,0,L|142:289,1,100
311,212,3856,6,0,L|331:211,2,20
382,272,4356,2,0,P|407:234|401:178,1,100
360,44,4856,6,0,P|335:82|341:138,1,100
382,272,5189,2,0,P|407:234|401:178,1,100
302,93,5522,6,0,L|190:100,1,100
161,192,6022,2,0,L|61:185,1,100
302,93,6522,6,0,L|190:100,1,100
161,192,6856,2,0,L|61:185,1,100
195,326,7189,6,0,P|255:270|334:295,1,160
428,146,7689,2,0,P|464:192|453:265,1,119.999996337891
327,144,8189,1,0,0:0:0:0:
272,349,8522,5,0,0:0:0:0:
377,220,8689,1,0,0:0:0:0:
195,326,8856,6,0,P|255:270|334:295,1,160
428,146,9356,2,0,P|464:192|453:265,1,119.999996337891
343,299,9856,6,0,L|232:287,1,100
362,311,10189,6,0,L|251:299,1,100
99,333,10522,6,0,P|46:278|42:177,1,160
205,118,11022,2,0,P|170:169|184:233,1,119.999996337891
79,83,11522,1,0,0:0:0:0:
16,317,11856,5,0,0:0:0:0:
178,223,12022,1,0,0:0:0:0:
99,333,12189,6,0,P|46:278|42:177,1,160
205,118,12689,2,0,P|170:169|184:233,1,119.999996337891
79,83,13189,6,0,P|119:48|181:41,1,100
294,143,13522,6,0,P|245:146|199:108,1,100
366,61,13856,6,0,B|399:100|399:100|382:223,1,160
417,286,14356,2,0,B|387:251|387:251|399:165,1,119.999996337891
310,274,14856,6,0,P|274:303|222:294,1,100
204,208,15189,6,0,P|240:179|292:188,1,100
417,286,15522,6,0,B|387:251|387:251|402:133,1,160
366,61,16022,2,0,B|399:100|399:100|387:181,1,119.999996337891
310,274,16522,6,0,P|274:303|222:294,1,100
204,208,16855,6,0,P|240:179|292:188,1,100
135,276,17189,6,0,B|101:231|101:231|118:90,2,179.999994506836
61,28,18522,1,0,0:0:0:0:
203,72,18856,6,0,L|280:66,1,59.9999981689454
401,97,19189,2,0,L|324:91,1,59.9999981689454
221,150,19522,2,0,L|298:144,1,59.9999981689454
423,181,19856,6,0,P|363:177|321:223,1,119.999996337891
157,272,20522,6,0,P|234:263|287:334,1,160
423,181,21022,2,0,P|363:177|321:223,1,119.999996337891
255,80,21522,1,0,0:0:0:0:
202,341,21856,5,0,0:0:0:0:
393,258,22022,1,0,0:0:0:0:
157,272,22189,6,0,P|234:263|287:334,1,160
423,181,22689,2,0,P|363:177|321:223,1,119.999996337891
255,80,23189,6,0,P|232:123|237:173,2,100
86,125,23856,6,0,P|103:205|169:262,1,160
304,308,24356,2,0,P|241:306|201:353,1,119.999996337891
270,132,24856,1,0,0:0:0:0:
203,344,25189,5,0,0:0:0:0:
307,216,25356,1,0,0:0:0:0:
406,355,25522,6,0,P|398:278|450:189,1,160
370,41,26022,2,0,P|390:101|356:161,1,119.999996337891
270,132,26522,6,0,L|170:122,1,100
284,151,26856,6,0,L|174:141,1,100
88,242,27189,6,0,L|187:232,2,100
256,288,27689,1,0,0:0:0:0:
54,230,28022,1,0,0:0:0:0:
78,348,28189,6,0,P|127:352|173:335,1,100
246,271,28522,6,0,P|296:271|335:300,1,100
413,235,28856,6,0,P|439:290|432:341,2,100
256,288,29356,1,0,0:0:0:0:
431,90,29689,1,0,0:0:0:0:
355,155,29856,6,0,P|305:159|259:142,1,100
186,78,30189,6,0,P|134:80|91:107,1,100
50,201,30522,6,0,B|74:154|74:154|55:35,1,160
164,174,31022,1,0,0:0:0:0:
171,198,31356,5,0,0:0:0:0:
117,344,31522,1,0,0:0:0:0:
164,174,31856,1,0,0:0:0:0:
25,292,32189,6,0,B|188:253|104:382|270:345,1,250
312,281,33189,6,0,L|306:222,1,50
400,322,33522,2,0,L|408:268,1,50
403,51,33856,5,0,2:0:0:0:
377,130,34022,1,0,2:0:0:0:
433,193,34189,1,0,2:0:0:0:
407,272,34355,5,0,2:0:0:0:
433,193,34521,1,0,2:0:0:0:
377,130,34688,1,0,2:0:0:0:
403,51,34856,6,0,L|465:54,1,59.9999981689454
512,34,35189,2,0,L|442:36,1,59.9999981689454
377,130,35522,5,0,0:0:0:0:
306,175,35689,1,0,0:0:0:0:
243,118,35856,2,0,L|248:52,1,59.9999981689454
84,198,36189,5,0,0:0:0:0:
155,243,36356,1,0,0:0:0:0:
218,186,36523,2,0,L|213:120,1,59.9999981689454
247,58,36856,2,0,L|242:117,1,59.9999981689454
218,186,37189,5,0,0:0:0:0:
155,243,37356,1,0,0:0:0:0:
84,198,37522,1,0,0:0:0:0:
21,255,37689,5,0,0:0:0:0:
84,198,37856,1,0,0:0:0:0:
155,243,38022,1,0,0:0:0:0:
218,186,38189,6,0,L|213:120,1,59.9999981689454
247,58,38522,2,0,L|242:117,1,59.9999981689454
295,177,38856,6,0,P|334:175|367:154,2,59.9999981689454
405,109,39356,2,0,P|430:111|455:123,2,50
468,205,39856,6,0,L|455:293,1,80
481,194,40189,6,0,L|468:282,1,80
352,166,40522,5,0,0:0:0:0:
361,249,40689,1,0,0:0:0:0:
370,332,40856,1,0,0:0:0:0:
353,324,41022,5,0,0:0:0:0:
361,249,41189,1,0,0:0:0:0:
369,174,41356,1,0,0:0:0:0:
413,103,41522,6,0,L|485:100,1,59.9999981689454
345,47,41856,2,0,L|262:40,1,59.9999981689454
142,205,42189,5,0,0:0:0:0:
77,151,42356,1,0,0:0:0:0:
110,74,42522,2,0,L|193:81,1,59.9999981689454
240,273,42856,5,0,0:0:0:0:
305,219,43023,1,0,0:0:0:0:
272,142,43189,2,0,L|189:149,1,59.9999981689454
110,74,43522,2,0,L|193:81,1,59.9999981689454
272,142,43856,5,0,0:0:0:0:
355,135,44022,1,0,0:0:0:0:
438,128,44189,1,0,0:0:0:0:
430,141,44356,5,0,0:0:0:0:
355,135,44522,1,0,0:0:0:0:
281,129,44689,1,0,0:0:0:0:
169,79,44856,6,0,L|110:74,1,59.9999981689454
212,147,45189,2,0,L|272:142,1,59.9999981689454
155,206,45522,6,0,L|96:201,2,59.9999981689454
203,271,46022,2,0,L|261:263,2,50
301,201,46522,6,0,B|330:238|330:238|323:328,1,119.999996337891
339,379,46856,6,0,B|310:342|310:342|317:252,1,119.999996337891
314,83,47189,5,0,0:0:0:0:
361,153,47355,1,0,0:0:0:0:
442,129,47522,1,0,0:0:0:0:
437,117,47689,5,0,0:0:0:0:
361,153,47855,1,0,0:0:0:0:
314,83,48022,1,0,0:0:0:0:
365,15,48189,5,0,0:0:0:0:
445,45,48355,1,0,0:0:0:0:
361,153,48522,5,0,0:0:0:0:
314,83,48688,1,0,0:0:0:0:
229,192,48856,5,0,0:0:0:0:
232,108,49022,1,0,0:0:0:0:
310,219,49189,5,0,0:0:0:0:
361,153,49355,1,0,0:0:0:0:
432,200,49522,2,0,L|427:265,1,59.9999981689454
361,153,49855,5,0,0:0:0:0:
310,219,50021,1,0,0:0:0:0:
432,200,50189,2,0,L|427:265,1,59.9999981689454
361,153,50522,5,0,0:0:0:0:
310,219,50689,1,0,0:0:0:0:
229,192,50855,1,0,0:0:0:0:
233,181,51022,5,0,0:0:0:0:
310,219,51189,1,0,0:0:0:0:
361,153,51355,1,0,0:0:0:0:
314,83,51522,5,0,0:0:0:0:
232,108,51689,1,0,0:0:0:0:
310,219,51855,5,0,0:0:0:0:
361,153,52021,1,0,0:0:0:0:
229,192,52189,6,0,P|197:192|165:180,2,59.9999981689454
138,111,52689,2,0,P|111:113|84:122,2,50
58,192,53189,6,0,L|71:280,1,80
45,181,53522,6,0,L|58:269,1,80
191,268,53855,5,0,0:0:0:0:
229,192,54022,1,0,0:0:0:0:
167,133,54188,1,0,0:0:0:0:
162,144,54355,5,0,0:0:0:0:
229,192,54521,1,0,0:0:0:0:
191,268,54688,1,0,0:0:0:0:
106,256,54855,5,0,0:0:0:0:
93,173,55022,1,0,0:0:0:0:
191,268,55189,5,0,0:0:0:0:
229,192,55356,1,0,0:0:0:0:
328,289,55522,5,0,0:0:0:0:
251,328,55689,1,0,0:0:0:0:
314,205,55855,5,0,0:0:0:0:
229,192,56022,1,0,0:0:0:0:
281,124,56189,2,0,L|276:62,1,59.9999981689454
314,205,56522,5,0,0:0:0:0:
229,192,56689,1,0,0:0:0:0:
281,71,56855,2,0,L|285:130,1,59.9999981689454
314,205,57189,5,0,0:0:0:0:
229,192,57356,1,0,0:0:0:0:
191,268,57522,1,0,0:0:0:0:
202,273,57689,5,0,0:0:0:0:
229,192,57855,1,0,0:0:0:0:
314,205,58022,1,0,0:0:0:0:
328,289,58189,5,0,0:0:0:0:
251,328,58356,1,0,0:0:0:0:
314,205,58522,5,0,0:0:0:0:
229,192,58689,1,0,0:0:0:0:
328,289,58855,2,0,P|365:291|392:280,2,59.9999981689454
430,218,59356,2,0,P|458:216|484:224,2,50
328,289,59856,5,0,0:0:0:0:
401,101,60022,1,0,0:0:0:0:
359,20,60189,1,0,0:0:0:0:
375,362,60356,1,0,0:0:0:0:
69,180,60522,6,0,B|50:166|41:144|41:144|107:141|144:179|136:245,1,200
62,259,61022,2,0,B|185:226|124:330|249:291,1,200
447,273,61522,2,0,B|383:220|294:230|294:230|332:272|317:324,1,239.999992675781
330,18,62022,1,0,0:0:0:0:
448,273,62189,2,0,P|363:307|346:180,1,239.999992675781
409,93,62689,2,0,B|453:65|479:102|479:102|431:154|369:140|333:96,1,239.999992675781
111,183,63189,1,0,0:0:0:0:
26,111,63356,1,0,0:0:0:0:
67,30,63522,1,0,0:0:0:0:
108,102,63689,1,0,0:0:0:0:
82,314,63856,2,0,B|205:261|259:300|285:376,1,239.999992675781
47,358,64356,2,0,P|62:223|70:106,1,239.999992675781
64,384,64856,2,0,P|81:252|87:132,1,239.999992675781
388,161,65356,1,0,0:0:0:0:
48,57,65522,2,0,B|200:16|108:156|265:58,1,239.999992675781
387,67,66022,2,0,B|234:28|195:133|365:206,1,239.999992675781
108,366,66522,1,0,0:0:0:0:
20,276,66689,1,0,0:0:0:0:
80,183,66855,1,0,0:0:0:0:
110,287,67022,1,0,0:0:0:0:
383,334,67189,2,0,B|430:357|426:260|426:260|328:258|269:364,1,239.999992675781
171,185,67689,2,0,B|121:9|263:20|287:106,1,239.999992675781
95,253,68189,2,0,B|36:212|36:212|196:169|221:191|129:247,1,239.999992675781
275,53,68689,1,0,0:0:0:0:
139,339,68856,2,0,B|139:215|112:84|79:164,1,239.999992675781
440,42,69356,2,0,B|410:172|421:273|421:273|377:262,1,239.999992675781
118,181,69856,1,0,0:0:0:0:
33,116,70023,1,0,0:0:0:0:
79,26,70189,1,0,0:0:0:0:
113,85,70356,1,0,0:0:0:0:
82,338,70522,2,0,B|106:227|77:146|77:146|30:222|109:264,1,239.999992675781
158,283,71022,2,0,B|303:308|354:223|276:119,1,239.999992675781
277,312,71522,2,0,B|370:222|363:118|289:93|278:184,1,239.999992675781
391,350,72022,1,0,0:0:0:0:
183,189,72189,2,0,B|106:118|181:49|181:49|245:68|303:142,1,239.999992675781
268,298,72689,2,0,B|336:316|364:271|364:271|297:203|160:258,1,239.999992675781
60,378,73189,1,0,0:0:0:0:
17,100,73356,1,0,0:0:0:0:
512,86,73522,2,0,B|582:81|608:26|516:-19,1,119.999996337891
149,87,73856,2,0,B|120:109|108:69|108:69|28:72|150:15|258:86,1,239.999992675781
487,162,74356,2,0,B|342:80|275:172|379:238,1,239.999992675781
424,331,74856,2,0,B|410:208|366:119|417:55,1,239.999992675781
370,265,75356,1,0,0:0:0:0:
488,47,75522,2,0,B|270:53|224:128|279:152,1,239.999992675781
111,162,76022,2,0,B|44:114|99:71|99:71|124:102|148:236,1,239.999992675781
425,277,76522,1,0,0:0:0:0:
478,100,76689,1,0,0:0:0:0:
367,85,76856,1,0,0:0:0:0:
371,171,77022,1,0,0:0:0:0:
261,9,77189,2,0,B|276:120|267:256|364:256,1,239.999992675781
477,284,77689,2,0,B|388:238|285:232|230:296,1,239.999992675781
383,182,78189,2,0,B|222:241|234:326|270:360,1,239.999992675781
276,98,78689,1,0,0:0:0:0:
387,338,78856,2,0,B|264:347|335:231|197:132,1,239.999992675781
51,82,79356,2,0,B|90:137|68:189|84:224|84:224|119:169|160:209|190:157|227:182,1,239.999992675781
454,94,79856,1,0,0:0:0:0:
276,59,80022,1,0,0:0:0:0:
323,170,80189,1,0,0:0:0:0:
362,152,80356,1,0,0:0:0:0:
453,287,80522,2,0,B|454:326|413:344|462:364|400:368|400:368|353:291|386:240|449:223,1,239.999992675781
421,60,81022,2,0,B|433:80|463:94|463:126|463:126|372:96|305:152|253:53,1,239.999992675781
117,69,81522,2,0,B|210:48|304:106|330:190,1,239.999992675781
47,0,82022,1,0,0:0:0:0:
60,224,82189,2,0,B|129:196|131:125|89:44|142:-9,1,239.999992675781
201,304,82689,2,0,B|152:339|80:317|70:180|185:186|-8:119,1,239.999992675781
87,348,83189,1,0,0:0:0:0:
279,255,83356,1,0,0:0:0:0:
252,335,83522,1,0,0:0:0:0:
180,286,83689,1,0,0:0:0:0:
370,355,83856,2,0,B|359:375|333:355|333:355|374:238|450:296|391:132,1,239.999992675781
143,58,84356,2,0,B|245:151|347:157|409:58|282:54,1,239.999992675781
215,171,84856,2,0,B|345:165|364:49|331:11|216:71|414:136,1,239.999992675781
53,113,85356,1,0,0:0:0:0:
214,256,85522,2,0,B|340:214|334:146|158:169,1,239.999992675781
62,345,86022,2,0,B|-11:236|15:201|15:201|57:275|33:298,1,239.999992675781
249,375,86522,1,0,0:0:0:0:
485,134,86689,1,0,0:0:0:0:
48,72,86856,2,0,B|-37:64|-40:14|-16:-40,1,119.999996337891
347,164,87189,2,0,B|439:113|475:69|438:43|291:60|249:120,1,239.999992675781
143,160,87689,2,0,B|55:113|31:65|64:6|88:20|88:20|107:132,1,239.999992675781
92,344,88189,1,0,0:0:0:0:
30,58,88356,1,0,0:0:0:0:
497,15,88522,2,0,P|521:42|576:28,1,59.9999981689454
499,31,88689,2,0,B|537:18|499:2|493:-44,1,59.9999981689454
461,326,88856,1,0,0:0:0:0:
