osu file format v14

[General]
AudioFilename: audio.mp3
AudioLeadIn: 0
PreviewTime: 110689
Countdown: 0
SampleSet: Normal
StackLeniency: 0.7
Mode: 1
LetterboxInBreaks: 0
WidescreenStoryboard: 0

[Editor]
Bookmarks: 44759,67084,89410,111735,134061,156387,212201,234526,256852
DistanceSpacing: 0.7
BeatDivisor: 4
GridSize: 8
TimelineZoom: 1.7

[Metadata]
Title:Weave The Strands
TitleUnicode:Weave The Strands
Artist:Task Horizon
ArtistUnicode:Task Horizon
Creator:Nepuri
Version:Chimera
Source:
Tags:experimental dnb drum and bass neurofunk instrumental english electronic organimatronics drumstep evolution chamber d'n'b
BeatmapID:2536306
BeatmapSetID:1219062

[Difficulty]
HPDrainRate:5
CircleSize:5
OverallDifficulty:6
ApproachRate:10
SliderMultiplier:1.4
SliderTickRate:1

[Events]
//Background and Video events
0,0,"dna-1903875.jpg",0,0
//Break Periods
//Storyboard Layer 0 (Background)
//Storyboard Layer 1 (Fail)
//Storyboard Layer 2 (Pass)
//Storyboard Layer 3 (Foreground)
//Storyboard Layer 4 (Overlay)
//Storyboard Sound Samples

[TimingPoints]
108,348.837209302326,4,1,0,100,1,0
108,-142.857142857143,4,1,0,100,0,0
20166,-138.888888888889,4,1,0,100,0,0
20253,-136.986301369863,4,1,0,100,0,0
20340,-135.135135135135,4,1,0,100,0,0
20514,-131.578947368421,4,1,0,100,0,0
20689,-128.205128205128,4,1,0,100,0,0
20863,-125,4,1,0,100,0,0
20951,-123.456790123457,4,1,0,100,0,0
21038,-121.951219512195,4,1,0,100,0,0
21125,-120.481927710843,4,1,0,100,0,0
21212,-119.047619047619,4,1,0,100,0,0
21387,-116.279069767442,4,1,0,100,0,0
21561,-113.636363636364,4,1,0,100,0,0
21648,-112.359550561798,4,1,0,100,0,0
21735,-111.111111111111,4,1,0,100,0,0
21823,-109.89010989011,4,1,0,100,0,0
21910,-108.695652173913,4,1,0,100,0,0
22084,-106.382978723404,4,1,0,100,0,0
22171,-105.263157894737,4,1,0,100,0,0
22259,-104.166666666667,4,1,0,100,0,0
22433,-102.040816326531,4,1,0,100,0,0
22782,-125,4,1,0,100,0,0
44759,-100,4,1,0,100,0,0
54701,-111.111111111111,4,1,0,100,0,0
55398,-125,4,1,0,100,0,0
55921,-142.857142857143,4,1,0,100,0,0
56619,-133.34257841877,4,1,0,100,0,0
57317,-125.016252112775,4,1,0,100,0,0
58014,-117.66865448247,4,1,0,100,0,0
58712,-111.136796059534,4,1,0,100,0,0
58887,-109.615589090618,4,1,0,100,0,0
59235,-106.694777183962,4,1,0,100,0,0
59410,-105.291974645693,4,1,0,100,0,0
59584,-103.925580969979,4,1,0,100,0,0
59933,-101.296493824459,4,1,0,100,0,0
60108,-100.031209737438,4,1,0,100,0,0
60282,-98.7971447625164,4,1,0,100,0,0
60456,-97.593157548538,4,1,0,100,0,0
60631,-96.4181617106125,4,1,0,100,0,0
60805,-95.2711225605829,4,1,0,100,0,0
60892,-94.7078216348654,4,1,0,100,0,0
60980,-94.1510540681258,4,1,0,100,0,0
61154,-93.0570160337239,4,1,0,100,0,0
61328,-91.9881114564754,4,1,0,100,0,0
61503,-90.9434840812525,4,1,0,100,0,0
61590,-90.4300582279145,4,1,0,100,0,0
61677,-89.9223161111116,4,1,0,100,0,0
61852,-88.9238260721101,4,1,0,100,0,0
61939,-88.4328896065709,4,1,0,100,0,0
62026,-87.9472668188154,4,1,0,100,0,0
62201,-86.9919236698065,4,1,0,100,0,0
62288,-86.5220306720599,4,1,0,100,0,0
62375,-86.0571126633902,4,1,0,100,0,0
62462,-85.597237605948,4,1,0,100,0,0
62549,-85.1421789245862,4,1,0,100,0,0
62637,-84.6920048206689,4,1,0,100,0,0
62724,-84.2464951351861,4,1,0,100,0,0
62898,-83.3333333333333,4,1,0,100,0,0
62985,-83.9878083297428,4,1,0,100,0,0
63073,-84.6525731419395,4,1,0,100,0,0
63247,-86.0143282668027,4,1,0,100,0,0
63334,-86.7116931585341,4,1,0,100,0,0
63421,-87.4205347339269,4,1,0,100,0,0
63596,-88.873484151636,4,1,0,100,0,0
63683,-89.6182620509677,4,1,0,100,0,0
63770,-90.3755465461177,4,1,0,100,0,0
63945,-91.9293394325386,4,1,0,100,0,0
64032,-92.7263589511536,4,1,0,100,0,0
64119,-93.5374070121253,4,1,0,100,0,0
64294,-95.2027342225269,4,1,0,100,0,0
64381,-96.0578806365564,4,1,0,100,0,0
64468,-96.9285287800188,4,1,0,100,0,0
64642,-98.7179499835635,4,1,0,100,0,0
64817,-100.574683742907,4,1,0,100,0,0
64904,-101.529542558646,4,1,0,100,0,0
64991,-102.50270607144,4,1,0,100,0,0
65166,-104.505984535204,4,1,0,100,0,0
65340,-106.589126630014,4,1,0,100,0,0
65427,-107.66221196321,4,1,0,100,0,0
65514,-108.757005310605,4,1,0,100,0,0
65689,-111.015021442551,4,1,0,100,0,0
66038,-90.8447563043987,4,1,0,100,0,0
66474,-111.015021442551,4,1,0,100,0,0
66735,-76.8770098533263,4,1,0,100,0,0
67084,-100,4,1,0,100,0,0
67433,-62.5,4,1,0,100,0,1
67695,-76.9230769230769,4,1,0,100,0,1
67869,-75.1445217013621,4,1,0,100,0,1
67956,-74.2857057959193,4,1,0,100,0,1
68131,-72.6257023813242,4,1,0,100,0,1
68392,-70.2702664718775,4,1,0,100,0,1
68567,-68.7830760617012,4,1,0,100,0,1
68654,-68.0628165346362,4,1,0,100,0,1
68828,-66.6666666666667,4,1,0,100,0,1
69003,-76.9230769230769,4,1,0,100,0,1
69264,-90.9090909090909,4,1,0,100,0,1
69526,-111.111111111111,4,1,0,100,0,1
69875,-142.857142857143,4,1,0,100,0,0
70224,-58.8235294117647,4,1,0,100,0,1
70485,-76.9230769230769,4,1,0,100,0,1
70660,-75.155590861982,4,1,0,100,0,1
70747,-74.3019333363054,4,1,0,100,0,1
70921,-72.6515565959258,4,1,0,100,0,1
71096,-71.0729023188245,4,1,0,100,0,1
71183,-70.3090010286207,4,1,0,100,0,1
71358,-68.8294722293728,4,1,0,100,0,1
71445,-68.1127920591382,4,1,0,100,0,1
71532,-67.4109282552232,4,1,0,100,0,1
71619,-66.7233370209098,4,1,0,100,0,1
71794,-76.998535487855,4,1,0,100,0,1
72055,-91.0145022507886,4,1,0,100,0,1
72317,-111.26861802151,4,1,0,100,0,1
72666,-143.117616919937,4,1,0,100,0,0
73014,-55.5555555555556,4,1,0,100,0,1
73275,-76.9230769230769,4,1,0,100,0,1
73450,-75.155590861982,4,1,0,100,0,1
73537,-74.3019333363054,4,1,0,100,0,1
73711,-72.6515565959258,4,1,0,100,0,1
73886,-71.0729023188245,4,1,0,100,0,1
73973,-70.3090010286207,4,1,0,100,0,1
74148,-68.8294722293728,4,1,0,100,0,1
74235,-68.1127920591382,4,1,0,100,0,1
74322,-67.4109282552232,4,1,0,100,0,1
74409,-66.7233370209098,4,1,0,100,0,1
74584,-76.998535487855,4,1,0,100,0,1
74845,-91.0145022507886,4,1,0,100,0,1
75107,-111.26861802151,4,1,0,100,0,1
75456,-143.117616919937,4,1,0,100,0,0
75805,-83.3333333333333,4,1,0,100,0,0
75980,-86.9175977714328,4,1,0,100,0,0
76067,-88.8278542832347,4,1,0,100,0,0
76154,-90.8239640845716,4,1,0,100,0,0
76328,-95.0980746443807,4,1,0,100,0,0
76503,-90.9090909090909,4,1,0,100,0,0
76677,-95.1914061198552,4,1,0,100,0,0
76764,-97.4874558016249,4,1,0,100,0,0
76852,-99.8970061866214,4,1,0,100,0,0
76939,-102.42868658768,4,1,0,100,0,0
77026,-105.092134274118,4,1,0,100,0,0
77201,-99.9999999999999,4,1,0,100,0,0
77375,-105.263157894737,4,1,0,100,0,0
77462,-108.108108108108,4,1,0,100,0,0
77549,-111.111111111111,4,1,0,100,0,0
77637,-114.285714285714,4,1,0,100,0,0
77724,-117.647058823529,4,1,0,100,0,0
77898,-111.111111111111,4,1,0,100,0,0
78073,-117.506051561656,4,1,0,100,0,0
78160,-120.987597561374,4,1,0,100,0,0
78247,-124.681905289131,4,1,0,100,0,0
78596,-52.6315789473684,4,1,0,100,0,1
78857,-76.9230769230769,4,1,0,100,0,1
79032,-75.155590861982,4,1,0,100,0,1
79119,-74.3019333363054,4,1,0,100,0,1
79293,-72.6515565959258,4,1,0,100,0,1
79468,-71.0729023188245,4,1,0,100,0,1
79555,-70.3090010286207,4,1,0,100,0,1
79730,-68.8294722293728,4,1,0,100,0,1
79817,-68.1127920591382,4,1,0,100,0,1
79904,-67.4109282552232,4,1,0,100,0,1
79991,-66.7233370209098,4,1,0,100,0,1
80166,-76.998535487855,4,1,0,100,0,1
80427,-91.0145022507886,4,1,0,100,0,1
80689,-111.26861802151,4,1,0,100,0,1
81038,-143.117616919937,4,1,0,100,0,0
81387,-50,4,1,0,100,0,1
81648,-76.9230769230769,4,1,0,100,0,1
81823,-75.155590861982,4,1,0,100,0,1
81910,-74.3019333363054,4,1,0,100,0,1
82084,-72.6515565959258,4,1,0,100,0,1
82259,-71.0729023188245,4,1,0,100,0,1
82346,-70.3090010286207,4,1,0,100,0,1
82521,-68.8294722293728,4,1,0,100,0,1
82608,-68.1127920591382,4,1,0,100,0,1
82695,-67.4109282552232,4,1,0,100,0,1
82782,-66.7233370209098,4,1,0,100,0,1
82957,-76.998535487855,4,1,0,100,0,1
83218,-91.0145022507886,4,1,0,100,0,1
83480,-111.26861802151,4,1,0,100,0,1
83828,-143.117616919937,4,1,0,100,0,0
84177,-47.6190476190476,4,1,0,100,0,1
84438,-76.9230769230769,4,1,0,100,0,1
84613,-75.155590861982,4,1,0,100,0,1
84700,-74.3019333363054,4,1,0,100,0,1
84874,-72.6515565959258,4,1,0,100,0,1
85049,-71.0729023188245,4,1,0,100,0,1
85136,-70.3090010286207,4,1,0,100,0,1
85311,-68.8294722293728,4,1,0,100,0,1
85398,-68.1127920591382,4,1,0,100,0,1
85485,-67.4109282552232,4,1,0,100,0,1
85572,-66.7233370209098,4,1,0,100,0,1
85747,-76.998535487855,4,1,0,100,0,1
86008,-91.0145022507886,4,1,0,100,0,1
86270,-111.26861802151,4,1,0,100,0,1
86619,-143.117616919937,4,1,0,100,0,0
86794,-76.9230769230769,4,1,0,100,0,0
86881,-78.4313725490196,4,1,0,100,0,0
86968,-80,4,1,0,100,0,0
87055,-81.6326530612245,4,1,0,100,0,0
87142,-83.3333333333333,4,1,0,100,0,0
87230,-85.1063829787234,4,1,0,100,0,0
87317,-86.9565217391304,4,1,0,100,0,0
87404,-88.8888888888889,4,1,0,100,0,0
87491,-90.9090909090909,4,1,0,100,0,0
87578,-93.0232558139535,4,1,0,100,0,0
87666,-95.2380952380952,4,1,0,100,0,0
87753,-97.5609756097561,4,1,0,100,0,0
87840,-100,4,1,0,100,0,0
87927,-102.564102564103,4,1,0,100,0,0
88014,-105.263157894737,4,1,0,100,0,0
88189,-111.111111111111,4,1,0,100,0,0
88363,-117.647058823529,4,1,0,100,0,0
88451,-121.212121212121,4,1,0,100,0,0
88538,-125,4,1,0,100,0,0
88712,-133.333333333333,4,1,0,100,0,0
88799,-137.931034482759,4,1,0,100,0,0
88887,-142.857142857143,4,1,0,100,0,0
89061,-76.923076923077,4,1,0,100,0,0
89410,-142.857142857143,4,1,0,100,0,0
89759,-52.6315789473684,4,1,0,100,0,1
90020,-76.9230769230769,4,1,0,100,0,1
91154,-66.7233370209098,4,1,0,100,0,1
91328,-76.9230769230769,4,1,0,100,0,1
91590,-90.9090909090909,4,1,0,100,0,1
91852,-111.111111111111,4,1,0,100,0,1
92201,-142.857142857143,4,1,0,100,0,0
92549,-47.6190476190476,4,1,0,100,0,1
92810,-76.9230769230769,4,1,0,100,0,1
93944,-66.7233370209098,4,1,0,100,0,1
94118,-76.9230769230769,4,1,0,100,0,1
94380,-90.9090909090909,4,1,0,100,0,1
94642,-111.111111111111,4,1,0,100,0,1
94991,-142.857142857143,4,1,0,100,0,0
95340,-43.4782608695652,4,1,0,100,0,1
95601,-76.9230769230769,4,1,0,100,0,1
96735,-66.7233370209098,4,1,0,100,0,1
96909,-76.9230769230769,4,1,0,100,0,1
97171,-90.9090909090909,4,1,0,100,0,1
97433,-111.111111111111,4,1,0,100,0,1
97782,-142.857142857143,4,1,0,100,0,0
98131,-71.4285714285714,4,1,0,100,0,0
98218,-73.0593607305936,4,1,0,100,0,0
98305,-74.7663551401869,4,1,0,100,0,0
98392,-76.555023923445,4,1,0,100,0,0
98480,-78.4313725490196,4,1,0,100,0,0
98567,-80.4020100502513,4,1,0,100,0,0
98654,-82.4742268041237,4,1,0,100,0,0
98741,-84.6560846560847,4,1,0,100,0,0
98828,-86.9565217391304,4,1,0,100,0,0
98916,-89.3854748603352,4,1,0,100,0,0
99003,-91.9540229885058,4,1,0,100,0,0
99090,-94.6745562130178,4,1,0,100,0,0
99177,-97.5609756097561,4,1,0,100,0,0
99264,-100.62893081761,4,1,0,100,0,0
99352,-103.896103896104,4,1,0,100,0,0
99439,-107.38255033557,4,1,0,100,0,0
99526,-111.111111111111,4,1,0,100,0,0
99701,-90.9090909090909,4,1,0,100,0,0
99759,-92.5925925925926,4,1,0,100,0,0
99817,-94.3396226415094,4,1,0,100,0,0
99875,-96.1538461538461,4,1,0,100,0,0
99991,-98.0392156862745,4,1,0,100,0,0
100108,-100,4,1,0,100,0,0
100224,-102.040816326531,4,1,0,100,0,0
100340,-104.166666666667,4,1,0,100,0,0
100456,-106.382978723404,4,1,0,100,0,0
100573,-108.695652173913,4,1,0,100,0,0
100921,-58.8235294117647,4,1,0,100,0,1
101182,-76.9230769230769,4,1,0,100,0,1
101357,-75.155590861982,4,1,0,100,0,1
101444,-74.3019333363054,4,1,0,100,0,1
101532,-73.3675715333822,4,1,0,100,0,1
101618,-72.6515565959258,4,1,0,100,0,1
101793,-71.0729023188245,4,1,0,100,0,1
101880,-70.3090010286207,4,1,0,100,0,1
102055,-68.8294722293728,4,1,0,100,0,1
102142,-68.1127920591382,4,1,0,100,0,1
102229,-67.4109282552232,4,1,0,100,0,1
102316,-66.7233370209098,4,1,0,100,0,1
102491,-76.998535487855,4,1,0,100,0,1
102752,-91.0145022507886,4,1,0,100,0,1
103014,-111.26861802151,4,1,0,100,0,1
103363,-143.117616919937,4,1,0,100,0,0
103712,-58.8235294117647,4,1,0,100,0,1
103973,-76.9230769230769,4,1,0,100,0,1
104148,-75.155590861982,4,1,0,100,0,1
104235,-74.3019333363054,4,1,0,100,0,1
104409,-72.6515565959258,4,1,0,100,0,1
104584,-71.0729023188245,4,1,0,100,0,1
104671,-70.3090010286207,4,1,0,100,0,1
104846,-68.8294722293728,4,1,0,100,0,1
104933,-68.1127920591382,4,1,0,100,0,1
105020,-67.4109282552232,4,1,0,100,0,1
105107,-66.7233370209098,4,1,0,100,0,1
105282,-76.998535487855,4,1,0,100,0,1
105543,-91.0145022507886,4,1,0,100,0,1
105805,-111.26861802151,4,1,0,100,0,1
106154,-143.117616919937,4,1,0,100,0,0
107549,-90.9090909090909,4,1,0,100,0,0
108945,-66.6666666666667,4,1,0,100,0,0
110340,-50,4,1,0,100,0,0
111735,-71.4285714285714,4,1,0,100,0,0
111997,-83.3333333333333,4,1,0,100,0,0
112259,-100,4,1,0,100,0,0
112433,-50,4,1,0,100,0,1
113044,-76.9230769230769,4,1,0,100,0,1
113131,-75.0000187500047,4,1,0,100,0,1
113218,-73.1707138608015,4,1,0,100,0,1
113305,-71.4285714285714,4,1,0,100,0,1
113392,-69.7674580854554,4,1,0,100,0,1
113480,-68.1818026859539,4,1,0,100,0,1
113567,-66.6666666666667,4,1,0,100,0,1
113654,-65.2174054820447,4,1,0,100,0,1
113741,-63.8297736532396,4,1,0,100,0,1
113828,-62.5,4,1,0,100,0,1
114003,-71.4285714285714,4,1,0,100,0,0
114264,-83.3333333333333,4,1,0,100,0,0
114526,-100,4,1,0,100,0,0
114788,-117.647058823529,4,1,0,100,0,0
115049,-142.857142857143,4,1,0,100,0,0
115224,-50,4,1,0,100,0,1
115812,-76.9230769230769,4,1,0,100,0,1
115899,-75.0000187500047,4,1,0,100,0,1
115986,-73.1707138608015,4,1,0,100,0,1
116073,-71.4285714285714,4,1,0,100,0,1
116160,-69.7674580854554,4,1,0,100,0,1
116248,-68.1818026859539,4,1,0,100,0,1
116335,-66.6666666666667,4,1,0,100,0,1
116422,-65.2174054820447,4,1,0,100,0,1
116509,-63.8297736532396,4,1,0,100,0,1
116596,-62.5,4,1,0,100,0,1
116619,-62.5,4,1,0,100,0,0
116968,-50,4,1,0,100,0,0
117317,-71.4285714285714,4,1,0,100,0,0
117578,-83.3333333333333,4,1,0,100,0,0
117840,-100,4,1,0,100,0,0
118014,-50,4,1,0,100,0,1
118581,-76.9230769230769,4,1,0,100,0,1
118668,-75.0000187500047,4,1,0,100,0,1
118755,-73.1707138608015,4,1,0,100,0,1
118842,-71.4285714285714,4,1,0,100,0,1
118929,-69.7674580854554,4,1,0,100,0,1
119017,-68.1818026859539,4,1,0,100,0,1
119104,-66.6666666666667,4,1,0,100,0,1
119191,-65.2174054820447,4,1,0,100,0,1
119278,-63.8297736532396,4,1,0,100,0,1
119365,-62.5,4,1,0,100,0,1
119584,-71.4285714285714,4,1,0,100,0,0
119846,-83.3333333333333,4,1,0,100,0,0
120020,-100,4,1,0,100,0,0
120369,-117.647058823529,4,1,0,100,0,0
120805,-76.9230769230769,4,1,0,100,0,0
120980,-86.9565217391304,4,1,0,100,0,0
121067,-85.1063829787234,4,1,0,100,0,0
121154,-83.3333333333333,4,1,0,100,0,0
121241,-81.6326530612245,4,1,0,100,0,0
121328,-80,4,1,0,100,0,0
121481,-90.9090909090909,4,1,0,100,0,0
121568,-88.8888888888889,4,1,0,100,0,0
121655,-86.9565217391304,4,1,0,100,0,0
121742,-85.1063829787234,4,1,0,100,0,0
121829,-83.3333333333333,4,1,0,100,0,0
122004,-95.2380952380952,4,1,0,100,0,0
122091,-93.0232558139535,4,1,0,100,0,0
122178,-90.9090909090909,4,1,0,100,0,0
122265,-88.8888888888889,4,1,0,100,0,0
122352,-86.9565217391304,4,1,0,100,0,0
122549,-100,4,1,0,100,0,0
122637,-95.2380952380952,4,1,0,100,0,0
122724,-90.9090909090909,4,1,0,100,0,0
122811,-86.9565217391304,4,1,0,100,0,0
122898,-71.4285714285714,4,1,0,100,0,0
123160,-83.3333333333333,4,1,0,100,0,0
123421,-100,4,1,0,100,0,0
123596,-50,4,1,0,100,0,1
124206,-76.9230769230769,4,1,0,100,0,1
124294,-75.0000187500047,4,1,0,100,0,1
124381,-73.1707138608015,4,1,0,100,0,1
124468,-71.4285714285714,4,1,0,100,0,1
124555,-69.7674580854554,4,1,0,100,0,1
124642,-68.1818026859539,4,1,0,100,0,1
124730,-66.6666666666667,4,1,0,100,0,1
124817,-65.2174054820447,4,1,0,100,0,1
124904,-63.8297736532396,4,1,0,100,0,1
124991,-62.5,4,1,0,100,0,1
125166,-71.4285714285714,4,1,0,100,0,0
125427,-83.3333333333333,4,1,0,100,0,0
125689,-100,4,1,0,100,0,0
125951,-117.647058823529,4,1,0,100,0,0
126212,-142.857142857143,4,1,0,100,0,0
126387,-50,4,1,0,100,0,1
126975,-76.9230769230769,4,1,0,100,0,1
127062,-75.0000187500047,4,1,0,100,0,1
127149,-73.1707138608015,4,1,0,100,0,1
127236,-71.4285714285714,4,1,0,100,0,1
127323,-69.7674580854554,4,1,0,100,0,1
127411,-68.1818026859539,4,1,0,100,0,1
127498,-66.6666666666667,4,1,0,100,0,1
127585,-65.2174054820447,4,1,0,100,0,1
127672,-63.8297736532396,4,1,0,100,0,1
127759,-62.5,4,1,0,100,0,1
127782,-62.5,4,1,0,100,0,0
127898,-83.3333333333333,4,1,0,100,0,0
128131,-50,4,1,0,100,0,0
128363,-83.3333333333333,4,1,0,100,0,0
128480,-71.4285714285714,4,1,0,100,0,0
128741,-83.3333333333333,4,1,0,100,0,0
129003,-100,4,1,0,100,0,0
129177,-50,4,1,0,100,0,1
129744,-76.9230769230769,4,1,0,100,0,1
129831,-75.0000187500047,4,1,0,100,0,1
129918,-73.1707138608015,4,1,0,100,0,1
130005,-71.4285714285714,4,1,0,100,0,1
130092,-69.7674580854554,4,1,0,100,0,1
130180,-68.1818026859539,4,1,0,100,0,1
130267,-66.6666666666667,4,1,0,100,0,1
130354,-65.2174054820447,4,1,0,100,0,1
130441,-63.8297736532396,4,1,0,100,0,1
130528,-62.5,4,1,0,100,0,1
130747,-71.4285714285714,4,1,0,100,0,0
131009,-83.3333333333333,4,1,0,100,0,0
131183,-100,4,1,0,100,0,0
131532,-117.647058823529,4,1,0,100,0,0
131968,-125,4,1,0,100,0,0
132201,-111.111111111111,4,1,0,100,0,0
132317,-114.285714285714,4,1,0,100,0,0
132433,-117.647058823529,4,1,0,100,0,0
132666,-125,4,1,0,100,0,0
132898,-95.238095238095,4,1,0,100,0,0
133014,-97.5609756097561,4,1,0,100,0,0
133131,-100,4,1,0,100,0,0
133247,-102.564102564103,4,1,0,100,0,0
133363,-105.263157894737,4,1,0,100,0,0
133480,-108.108108108108,4,1,0,100,0,0
133596,-111.111111111111,4,1,0,100,0,0
133712,-114.285714285714,4,1,0,100,0,0
133828,-117.647058823529,4,1,0,100,0,0
134061,-71.4285714285714,4,1,0,100,0,0
134323,-83.3333333333333,4,1,0,100,0,0
134584,-100,4,1,0,100,0,0
134759,-50,4,1,0,100,0,0
135108,-83.3333333333333,4,1,0,100,0,0
136154,-62.5,4,1,0,100,0,0
136328,-71.4285714285714,4,1,0,100,0,0
136590,-83.3333333333333,4,1,0,100,0,0
136852,-100,4,1,0,100,0,0
137113,-117.647058823529,4,1,0,100,0,0
137375,-142.857142857143,4,1,0,100,0,0
137549,-50,4,1,0,100,0,0
137985,-83.3333333333333,4,1,0,100,0,0
138945,-62.5,4,1,0,100,0,0
139294,-50,4,1,0,100,0,0
139642,-71.4285714285714,4,1,0,100,0,0
139904,-83.3333333333333,4,1,0,100,0,0
140166,-100,4,1,0,100,0,0
140340,-50,4,1,0,100,0,0
140689,-83.3333333333333,4,1,0,100,0,0
141735,-62.5,4,1,0,100,0,0
141910,-71.4285714285714,4,1,0,100,0,0
142171,-83.3333333333333,4,1,0,100,0,0
142433,-100,4,1,0,100,0,0
142695,-117.647058823529,4,1,0,100,0,0
143131,-76.9230769230769,4,1,0,100,0,0
143305,-86.9565217391304,4,1,0,100,0,0
143392,-85.1063829787234,4,1,0,100,0,0
143480,-83.3333333333333,4,1,0,100,0,0
143567,-81.6326530612245,4,1,0,100,0,0
143654,-80,4,1,0,100,0,0
143807,-90.9090909090909,4,1,0,100,0,0
143894,-88.8888888888889,4,1,0,100,0,0
143981,-86.9565217391304,4,1,0,100,0,0
144068,-85.1063829787234,4,1,0,100,0,0
144155,-83.3333333333333,4,1,0,100,0,0
144330,-95.2380952380952,4,1,0,100,0,0
144417,-93.0232558139535,4,1,0,100,0,0
144504,-90.9090909090909,4,1,0,100,0,0
144591,-88.8888888888889,4,1,0,100,0,0
144678,-86.9565217391304,4,1,0,100,0,0
144875,-100,4,1,0,100,0,0
144962,-95.2380952380952,4,1,0,100,0,0
145049,-90.9090909090909,4,1,0,100,0,0
145137,-86.9565217391304,4,1,0,100,0,0
145224,-71.4285714285714,4,1,0,100,0,0
145485,-83.3333333333333,4,1,0,100,0,0
145747,-100,4,1,0,100,0,0
145921,-50,4,1,0,100,0,1
146532,-76.9230769230769,4,1,0,100,0,1
146619,-75.0000187500047,4,1,0,100,0,1
146706,-73.1707138608015,4,1,0,100,0,1
146793,-71.4285714285714,4,1,0,100,0,1
146880,-69.7674580854554,4,1,0,100,0,1
146968,-68.1818026859539,4,1,0,100,0,1
147055,-66.6666666666667,4,1,0,100,0,1
147142,-65.2174054820447,4,1,0,100,0,1
147229,-63.8297736532396,4,1,0,100,0,1
147316,-62.5,4,1,0,100,0,1
147491,-71.4285714285714,4,1,0,100,0,0
147752,-83.3333333333333,4,1,0,100,0,0
148014,-100,4,1,0,100,0,0
148276,-117.647058823529,4,1,0,100,0,0
148537,-142.857142857143,4,1,0,100,0,0
148712,-50,4,1,0,100,0,1
149279,-76.9230769230769,4,1,0,100,0,1
149366,-75.0000187500047,4,1,0,100,0,1
149453,-73.1707138608015,4,1,0,100,0,1
149540,-71.4285714285714,4,1,0,100,0,1
149627,-69.7674580854554,4,1,0,100,0,1
149715,-68.1818026859539,4,1,0,100,0,1
149802,-66.6666666666667,4,1,0,100,0,1
149889,-65.2174054820447,4,1,0,100,0,1
149976,-63.8297736532396,4,1,0,100,0,1
150063,-62.5,4,1,0,100,0,1
150108,-62.5,4,1,0,100,0,1
150456,-50,4,1,0,100,0,0
150805,-71.4285714285714,4,1,0,100,0,0
151067,-83.3333333333333,4,1,0,100,0,0
151328,-100,4,1,0,100,0,0
151503,-50,4,1,0,100,0,1
152113,-76.9230769230769,4,1,0,100,0,1
152200,-75.0000187500047,4,1,0,100,0,1
152287,-73.1707138608015,4,1,0,100,0,1
152374,-71.4285714285714,4,1,0,100,0,1
152461,-69.7674580854554,4,1,0,100,0,1
152549,-68.1818026859539,4,1,0,100,0,1
152636,-66.6666666666667,4,1,0,100,0,1
152723,-65.2174054820447,4,1,0,100,0,1
152810,-63.8297736532396,4,1,0,100,0,1
152897,-62.5,4,1,0,100,0,1
153072,-71.4285714285714,4,1,0,100,0,1
153333,-83.3333333333333,4,1,0,100,0,1
153595,-100,4,1,0,100,0,1
153857,-100,4,1,0,100,0,1
154293,-76.9230769230769,4,1,0,100,0,1
154991,-62.5,4,1,0,100,0,1
155689,-40,4,1,0,100,0,0
156387,-40,4,1,0,90,0,0
157782,-50,4,1,0,80,0,0
159177,-66.6666666666667,4,1,0,70,0,0
160573,-100,4,1,0,60,0,0
161968,-100,4,1,0,50,0,0
163363,-100,4,1,0,50,0,0
167375,-50,4,1,0,100,0,0
167724,-125,4,1,0,50,0,0
168247,-66.6666666666667,4,1,0,50,0,0
168945,-83.3333333333333,4,1,0,50,0,0
170340,-100,4,1,0,50,0,0
171735,-125,4,1,0,50,0,0
173131,-166.666666666667,4,1,0,50,0,0
177404,-166.666666666667,4,1,0,65,0,0
178014,-125,4,1,0,65,0,0
178712,-142.857142857143,4,1,0,65,0,0
178974,-142.857142857143,4,1,0,50,0,0
184206,-111.111111111111,4,1,0,85,0,0
184991,-90.9090909090908,4,1,0,85,0,0
185078,-111.111111111111,4,1,0,85,0,0
186387,-90.9090909090908,4,1,0,85,0,0
186474,-111.111111111111,4,1,0,85,0,0
187782,-90.9090909090908,4,1,0,85,0,0
187869,-111.111111111111,4,1,0,85,0,0
189875,-90.9090909090908,4,1,0,100,0,0
207317,-83.3333333333333,4,1,0,100,0,0
208014,-76.9230769230769,4,1,0,100,0,0
209410,-71.4285714285714,4,1,0,100,0,0
210805,-66.6666666666667,4,1,0,100,0,0
211852,-50,4,1,0,100,0,0
212179,-100,4,1,0,100,0,0
212549,-62.5,4,1,0,100,0,1
212790,-76.9230769230769,4,1,0,100,0,1
212964,-75.1445217013621,4,1,0,100,0,1
213051,-74.2857057959193,4,1,0,100,0,1
213226,-72.6257023813242,4,1,0,100,0,1
213487,-70.2702664718775,4,1,0,100,0,1
213662,-68.7830760617012,4,1,0,100,0,1
213749,-68.0628165346362,4,1,0,100,0,1
213923,-66.6666666666667,4,1,0,100,0,1
214098,-76.9230769230769,4,1,0,100,0,1
214359,-90.9090909090909,4,1,0,100,0,1
214621,-111.111111111111,4,1,0,100,0,1
214991,-142.857142857143,4,1,0,100,0,0
215340,-58.8235294117647,4,1,0,100,0,1
215580,-76.9230769230769,4,1,0,100,0,1
215755,-75.155590861982,4,1,0,100,0,1
215842,-74.3019333363054,4,1,0,100,0,1
216016,-72.6515565959258,4,1,0,100,0,1
216191,-71.0729023188245,4,1,0,100,0,1
216278,-70.3090010286207,4,1,0,100,0,1
216453,-68.8294722293728,4,1,0,100,0,1
216540,-68.1127920591382,4,1,0,100,0,1
216627,-67.4109282552232,4,1,0,100,0,1
216714,-66.7233370209098,4,1,0,100,0,1
216889,-76.998535487855,4,1,0,100,0,1
217150,-91.0145022507886,4,1,0,100,0,1
217412,-111.26861802151,4,1,0,100,0,1
217782,-143.117616919937,4,1,0,100,0,0
218131,-55.5555555555556,4,1,0,100,0,1
218370,-76.9230769230769,4,1,0,100,0,1
218545,-75.155590861982,4,1,0,100,0,1
218632,-74.3019333363054,4,1,0,100,0,1
218806,-72.6515565959258,4,1,0,100,0,1
218981,-71.0729023188245,4,1,0,100,0,1
219068,-70.3090010286207,4,1,0,100,0,1
219243,-68.8294722293728,4,1,0,100,0,1
219330,-68.1127920591382,4,1,0,100,0,1
219417,-67.4109282552232,4,1,0,100,0,1
219504,-66.7233370209098,4,1,0,100,0,1
219679,-76.998535487855,4,1,0,100,0,1
219940,-91.0145022507886,4,1,0,100,0,1
220202,-111.26861802151,4,1,0,100,0,1
220573,-143.117616919937,4,1,0,100,0,0
220900,-83.3333333333333,4,1,0,100,0,0
221075,-86.9175977714328,4,1,0,100,0,0
221162,-88.8278542832347,4,1,0,100,0,0
221249,-90.8239640845716,4,1,0,100,0,0
221423,-95.0980746443807,4,1,0,100,0,0
221598,-90.9090909090909,4,1,0,100,0,0
221772,-95.1914061198552,4,1,0,100,0,0
221859,-97.4874558016249,4,1,0,100,0,0
221947,-99.8970061866214,4,1,0,100,0,0
222034,-102.42868658768,4,1,0,100,0,0
222121,-105.092134274118,4,1,0,100,0,0
222296,-99.9999999999999,4,1,0,100,0,0
222470,-105.263157894737,4,1,0,100,0,0
222557,-108.108108108108,4,1,0,100,0,0
222644,-111.111111111111,4,1,0,100,0,0
222732,-114.285714285714,4,1,0,100,0,0
222819,-117.647058823529,4,1,0,100,0,0
222993,-111.111111111111,4,1,0,100,0,0
223168,-117.506051561656,4,1,0,100,0,0
223255,-120.987597561374,4,1,0,100,0,0
223342,-124.681905289131,4,1,0,100,0,0
223712,-52.6315789473684,4,1,0,100,0,1
223952,-76.9230769230769,4,1,0,100,0,1
224127,-75.155590861982,4,1,0,100,0,1
224214,-74.3019333363054,4,1,0,100,0,1
224388,-72.6515565959258,4,1,0,100,0,1
224563,-71.0729023188245,4,1,0,100,0,1
224650,-70.3090010286207,4,1,0,100,0,1
224825,-68.8294722293728,4,1,0,100,0,1
224912,-68.1127920591382,4,1,0,100,0,1
224999,-67.4109282552232,4,1,0,100,0,1
225086,-66.7233370209098,4,1,0,100,0,1
225261,-76.998535487855,4,1,0,100,0,1
225522,-91.0145022507886,4,1,0,100,0,1
225784,-111.26861802151,4,1,0,100,0,1
226154,-143.117616919937,4,1,0,100,0,0
226503,-50,4,1,0,100,0,1
226743,-76.9230769230769,4,1,0,100,0,1
226918,-75.155590861982,4,1,0,100,0,1
227005,-74.3019333363054,4,1,0,100,0,1
227179,-72.6515565959258,4,1,0,100,0,1
227354,-71.0729023188245,4,1,0,100,0,1
227441,-70.3090010286207,4,1,0,100,0,1
227616,-68.8294722293728,4,1,0,100,0,1
227703,-68.1127920591382,4,1,0,100,0,1
227790,-67.4109282552232,4,1,0,100,0,1
227877,-66.7233370209098,4,1,0,100,0,1
228052,-76.998535487855,4,1,0,100,0,1
228313,-91.0145022507886,4,1,0,100,0,1
228575,-111.26861802151,4,1,0,100,0,1
228945,-143.117616919937,4,1,0,100,0,0
229294,-47.6190476190476,4,1,0,100,0,1
229533,-76.9230769230769,4,1,0,100,0,1
229708,-75.155590861982,4,1,0,100,0,1
229795,-74.3019333363054,4,1,0,100,0,1
229969,-72.6515565959258,4,1,0,100,0,1
230144,-71.0729023188245,4,1,0,100,0,1
230231,-70.3090010286207,4,1,0,100,0,1
230406,-68.8294722293728,4,1,0,100,0,1
230493,-68.1127920591382,4,1,0,100,0,1
230580,-67.4109282552232,4,1,0,100,0,1
230667,-66.7233370209098,4,1,0,100,0,1
230842,-76.998535487855,4,1,0,100,0,1
231103,-91.0145022507886,4,1,0,100,0,1
231365,-111.26861802151,4,1,0,100,0,1
231735,-143.117616919937,4,1,0,100,0,0
231889,-76.9230769230769,4,1,0,100,0,0
231976,-78.4313725490196,4,1,0,100,0,0
232063,-80,4,1,0,100,0,0
232150,-81.6326530612245,4,1,0,100,0,0
232237,-83.3333333333333,4,1,0,100,0,0
232325,-85.1063829787234,4,1,0,100,0,0
232412,-86.9565217391304,4,1,0,100,0,0
232499,-88.8888888888889,4,1,0,100,0,0
232586,-90.9090909090909,4,1,0,100,0,0
232673,-93.0232558139535,4,1,0,100,0,0
232761,-95.2380952380952,4,1,0,100,0,0
232848,-97.5609756097561,4,1,0,100,0,0
232935,-100,4,1,0,100,0,0
233022,-102.564102564103,4,1,0,100,0,0
233109,-105.263157894737,4,1,0,100,0,0
233284,-111.111111111111,4,1,0,100,0,0
233458,-117.647058823529,4,1,0,100,0,0
233546,-121.212121212121,4,1,0,100,0,0
233633,-125,4,1,0,100,0,0
233807,-133.333333333333,4,1,0,100,0,0
233894,-137.931034482759,4,1,0,100,0,0
233982,-142.857142857143,4,1,0,100,0,0
234156,-76.923076923077,4,1,0,100,0,0
234505,-142.857142857143,4,1,0,100,0,0
234875,-52.6315789473684,4,1,0,100,0,1
235115,-76.9230769230769,4,1,0,100,0,1
236249,-66.7233370209098,4,1,0,100,0,1
236423,-76.9230769230769,4,1,0,100,0,1
236685,-90.9090909090909,4,1,0,100,0,1
236947,-111.111111111111,4,1,0,100,0,1
237317,-142.857142857143,4,1,0,100,0,0
237666,-47.6190476190476,4,1,0,100,0,1
237905,-76.9230769230769,4,1,0,100,0,1
239039,-66.7233370209098,4,1,0,100,0,1
239213,-76.9230769230769,4,1,0,100,0,1
239475,-90.9090909090909,4,1,0,100,0,1
239737,-111.111111111111,4,1,0,100,0,1
240108,-142.857142857143,4,1,0,100,0,0
240456,-43.4782608695652,4,1,0,100,0,1
240696,-76.9230769230769,4,1,0,100,0,1
241830,-66.7233370209098,4,1,0,100,0,1
242004,-76.9230769230769,4,1,0,100,0,1
242266,-90.9090909090909,4,1,0,100,0,1
242528,-111.111111111111,4,1,0,100,0,1
242898,-142.857142857143,4,1,0,100,0,0
243248,-71.4285714285714,4,1,0,100,0,0
243480,-75.0000187500047,4,1,0,100,0,0
243596,-76.9230769230769,4,1,0,100,0,0
243712,-78.9473476454348,4,1,0,100,0,0
243828,-81.0811029948927,4,1,0,100,0,0
243945,-83.3333333333333,4,1,0,100,0,0
244061,-85.7142612244968,4,1,0,100,0,0
244177,-88.2353200692118,4,1,0,100,0,0
244294,-90.9090909090909,4,1,0,100,0,0
244410,-93.7499707031342,4,1,0,100,0,0
244526,-96.774224765879,4,1,0,100,0,0
244642,-100,4,1,0,100,0,0
244759,-103.448240190262,4,1,0,100,0,0
244875,-107.142895408177,4,1,0,100,0,0
244991,-111.111111111111,4,1,0,100,0,0
245108,-115.384571005934,4,1,0,100,0,0
245224,-120.000048000019,4,1,0,100,0,0
245340,-125,4,1,0,100,0,0
245689,-142.857142857143,4,1,0,100,0,0
246038,-58.8235294117647,4,1,0,100,0,1
246277,-76.9230769230769,4,1,0,100,0,1
246452,-75.155590861982,4,1,0,100,0,1
246539,-74.3019333363054,4,1,0,100,0,1
246627,-73.3675715333822,4,1,0,100,0,1
246713,-72.6515565959258,4,1,0,100,0,1
246888,-71.0729023188245,4,1,0,100,0,1
246975,-70.3090010286207,4,1,0,100,0,1
247150,-68.8294722293728,4,1,0,100,0,1
247237,-68.1127920591382,4,1,0,100,0,1
247324,-67.4109282552232,4,1,0,100,0,1
247411,-66.7233370209098,4,1,0,100,0,1
247586,-76.998535487855,4,1,0,100,0,1
247847,-91.0145022507886,4,1,0,100,0,1
248109,-111.26861802151,4,1,0,100,0,1
248480,-143.117616919937,4,1,0,100,0,0
248828,-58.8235294117647,4,1,0,100,0,1
249068,-76.9230769230769,4,1,0,100,0,1
249177,-76.0456273764259,4,1,0,100,0,1
249243,-75.155590861982,4,1,0,100,0,1
249330,-74.3019333363054,4,1,0,100,0,1
249439,-73.2600732600733,4,1,0,100,0,1
249504,-72.6515565959258,4,1,0,100,0,1
249679,-71.0729023188245,4,1,0,100,0,1
249766,-70.3090010286207,4,1,0,100,0,1
249941,-68.8294722293728,4,1,0,100,0,1
250028,-68.1127920591382,4,1,0,100,0,1
250115,-67.4109282552232,4,1,0,100,0,1
250202,-66.7233370209098,4,1,0,100,0,1
250377,-76.998535487855,4,1,0,100,0,1
250638,-91.0145022507886,4,1,0,100,0,1
250900,-111.26861802151,4,1,0,100,0,1
251270,-143.117616919937,4,1,0,100,0,0
252644,-90.9090909090909,4,1,0,100,0,0
254040,-66.6666666666667,4,1,0,100,0,0
255435,-50,4,1,0,100,0,0
256852,-100,4,1,0,100,0,0
257201,-76.9230769230769,4,1,0,100,0,0
257222,-100,4,1,0,100,0,0
259991,-76.9230769230769,4,1,0,100,0,0
260012,-100,4,1,0,100,0,0
262782,-76.9230769230769,4,1,0,100,0,0
262803,-100,4,1,0,100,0,0
265573,-76.9230769230769,4,1,0,100,0,0
265594,-100,4,1,0,100,0,0
268363,-76.9230769230769,4,1,0,100,0,0
268384,-100,4,1,0,100,0,0
271154,-76.9230769230769,4,1,0,100,0,0
271175,-100,4,1,0,100,0,0
273945,-76.9230769230769,4,1,0,100,0,0
273966,-100,4,1,0,100,0,0
276735,-76.9230769230769,4,1,0,100,0,0
276756,-100,4,1,0,100,0,0
279526,-76.9230769230769,4,1,0,100,0,0
279547,-100,4,1,0,100,0,0
282317,-76.9230769230769,4,1,0,100,0,0
282338,-100,4,1,0,100,0,0
285108,-76.9230769230769,4,1,0,100,0,0
285129,-100,4,1,0,100,0,0
287898,-76.9230769230769,4,1,0,100,0,0
287919,-100,4,1,0,100,0,0
290689,-76.9230769230769,4,1,0,100,0,0
290710,-100,4,1,0,100,0,0
293480,-76.9230769230769,4,1,0,100,0,0
293501,-100,4,1,0,100,0,0
296270,-76.9230769230769,4,1,0,100,0,0
296291,-100,4,1,0,100,0,0
299388,-76.9230769230769,4,1,0,100,0,0
299563,-86.9565217391304,4,1,0,100,0,0
299650,-85.1063829787234,4,1,0,100,0,0
299737,-83.3333333333333,4,1,0,100,0,0
299824,-81.6326530612245,4,1,0,100,0,0
299911,-80,4,1,0,100,0,0
300064,-90.9090909090909,4,1,0,100,0,0
300151,-88.8888888888889,4,1,0,100,0,0
300238,-86.9565217391304,4,1,0,100,0,0
300325,-85.1063829787234,4,1,0,100,0,0
300412,-83.3333333333333,4,1,0,100,0,0
300587,-95.2380952380952,4,1,0,100,0,0
300674,-93.0232558139535,4,1,0,100,0,0
300761,-90.9090909090909,4,1,0,100,0,0
300848,-88.8888888888889,4,1,0,100,0,0
300935,-86.9565217391304,4,1,0,100,0,0
301132,-100,4,1,0,100,0,0
301241,-95.2380952380952,4,1,0,100,0,0
301328,-90.9090909090909,4,1,0,100,0,0
301416,-86.9565217391304,4,1,0,100,0,0
301481,-71.4285714285714,4,1,0,100,0,0
302201,-71.4285714285714,4,1,0,95,0,0
302898,-71.4285714285714,4,1,0,90,0,0
303596,-71.4285714285714,4,1,0,85,0,0
304294,-71.4285714285714,4,1,0,80,0,0
304991,-71.4285714285714,4,1,0,75,0,0
305689,-71.4285714285714,4,1,0,67,0,0
306387,-71.4285714285714,4,1,0,64,0,0
307084,-71.4285714285714,4,1,0,61,0,0
307782,-71.4285714285714,4,1,0,58,0,0
308480,-71.4285714285714,4,1,0,55,0,0
309177,-71.4285714285714,4,1,0,52,0,0
309875,-71.4285714285714,4,1,0,49,0,0
310573,-71.4285714285714,4,1,0,46,0,0
311270,-71.4285714285714,4,1,0,43,0,0
311968,-71.4285714285714,4,1,0,40,0,0
312666,-71.4285714285714,4,1,0,35,0,0
313363,-71.4285714285714,4,1,0,31,0,0
314061,-71.4285714285714,4,1,0,27,0,0
314759,-71.4285714285714,4,1,0,23,0,0
315456,-71.4285714285714,4,1,0,20,0,0
316154,-71.4285714285714,4,1,0,17,0,0
316852,-71.4285714285714,4,1,0,14,0,0
317549,-71.4285714285714,4,1,0,11,0,0
318247,-71.4285714285714,4,1,0,8,0,0

[HitObjects]
193,106,108,5,4,0:0:0:0:
373,112,456,1,8,0:0:0:0:
373,112,1154,1,8,0:0:0:0:
373,112,1852,1,8,0:0:0:0:
373,112,2549,1,8,0:0:0:0:
373,112,3247,1,8,0:0:0:0:
367,112,3945,1,8,0:0:0:0:
367,112,4642,1,8,0:0:0:0:
367,112,5340,1,8,0:0:0:0:
367,112,5689,1,0,0:0:0:0:
367,112,6038,1,8,0:0:0:0:
367,112,6735,1,8,0:0:0:0:
367,112,7433,1,8,0:0:0:0:
367,112,8131,1,8,0:0:0:0:
367,112,8828,1,8,0:0:0:0:
211,113,9526,1,8,0:0:0:0:
211,113,10224,1,8,0:0:0:0:
211,113,10921,1,8,0:0:0:0:
211,113,11270,1,4,0:0:0:0:
206,108,11619,1,8,0:0:0:0:
288,29,11881,1,0,0:0:0:0:
329,175,12317,1,8,0:0:0:0:
287,39,12578,1,0,0:0:0:0:
329,175,13014,1,8,0:0:0:0:
329,175,13276,1,0,0:0:0:0:
329,175,13712,1,8,0:0:0:0:
306,145,14410,1,8,0:0:0:0:
300,131,14671,1,0,0:0:0:0:
300,131,15108,1,8,0:0:0:0:
299,131,15369,1,0,0:0:0:0:
300,131,15805,1,8,0:0:0:0:
300,131,16067,1,0,0:0:0:0:
180,181,16503,1,8,0:0:0:0:
180,181,16852,1,0,0:0:0:0:
180,181,17201,1,8,0:0:0:0:
351,202,17462,1,0,0:0:0:0:
351,202,17898,1,8,0:0:0:0:
351,202,18160,1,0,0:0:0:0:
351,202,18596,1,8,0:0:0:0:
351,202,18858,1,0,0:0:0:0:
351,202,19294,1,8,0:0:0:0:
351,202,19991,1,8,0:0:0:0:
303,85,20166,1,0,0:0:0:0:
351,202,20253,1,0,0:0:0:0:
446,241,20340,1,0,0:0:0:0:
193,141,20514,1,0,0:0:0:0:
351,202,20689,1,8,0:0:0:0:
399,227,20863,1,0,0:0:0:0:
351,202,20951,1,0,0:0:0:0:
399,227,21038,1,8,0:0:0:0:
399,227,21125,1,0,0:0:0:0:
399,227,21212,1,0,0:0:0:0:
351,202,21387,1,8,0:0:0:0:
302,179,21561,1,0,0:0:0:0:
351,202,21648,1,0,0:0:0:0:
302,179,21735,1,8,0:0:0:0:
302,179,21823,1,8,0:0:0:0:
302,179,21910,1,0,0:0:0:0:
302,179,22084,1,8,0:0:0:0:
175,153,22171,1,0,0:0:0:0:
302,179,22259,1,0,0:0:0:0:
302,179,22433,1,4,0:0:0:0:
266,174,22782,1,8,0:0:0:0:
266,174,23044,1,0,0:0:0:0:
266,174,23218,1,0,0:0:0:0:
266,174,23480,1,8,0:0:0:0:
266,174,23741,1,0,0:0:0:0:
266,174,23916,1,0,0:0:0:0:
266,174,24177,1,8,0:0:0:0:
266,174,24439,1,0,0:0:0:0:
266,174,24613,1,0,0:0:0:0:
266,174,24875,1,8,0:0:0:0:
266,174,25573,1,8,0:0:0:0:
266,174,25834,1,0,0:0:0:0:
266,174,26009,1,0,0:0:0:0:
266,174,26270,1,8,0:0:0:0:
266,174,26532,1,0,0:0:0:0:
266,174,26706,1,0,0:0:0:0:
266,174,26968,1,8,0:0:0:0:
261,162,27230,1,0,0:0:0:0:
261,161,27404,1,0,0:0:0:0:
261,161,27666,1,8,0:0:0:0:
315,107,28014,1,0,0:0:0:0:
285,88,28363,1,8,0:0:0:0:
258,155,28625,1,0,0:0:0:0:
258,155,28799,1,0,0:0:0:0:
258,155,28887,1,0,0:0:0:0:
258,155,29061,1,8,0:0:0:0:
258,155,29323,1,0,0:0:0:0:
258,155,29497,1,0,0:0:0:0:
258,155,29584,1,0,0:0:0:0:
225,168,29759,1,8,0:0:0:0:
225,168,30020,1,0,0:0:0:0:
225,168,30195,1,0,0:0:0:0:
225,168,30282,1,0,0:0:0:0:
225,168,30456,1,8,0:0:0:0:
99,179,31154,1,8,0:0:0:0:
299,193,31416,1,0,0:0:0:0:
299,193,31590,1,0,0:0:0:0:
299,193,31677,1,0,0:0:0:0:
299,193,31852,1,8,0:0:0:0:
299,193,32113,1,0,0:0:0:0:
299,193,32288,1,0,0:0:0:0:
299,193,32375,1,0,0:0:0:0:
292,122,32549,1,8,0:0:0:0:
292,122,32811,1,0,0:0:0:0:
292,122,32985,1,0,0:0:0:0:
292,122,33073,1,0,0:0:0:0:
292,122,33247,1,8,0:0:0:0:
228,143,33596,1,4,0:0:0:0:
228,143,33945,1,8,0:0:0:0:
287,191,34206,1,0,0:0:0:0:
287,191,34294,1,0,0:0:0:0:
287,191,34468,1,0,0:0:0:0:
347,106,34642,1,8,0:0:0:0:
347,106,34904,1,0,0:0:0:0:
347,106,34991,1,0,0:0:0:0:
347,106,35166,1,0,0:0:0:0:
347,106,35340,1,8,0:0:0:0:
257,136,35602,1,0,0:0:0:0:
257,136,35689,1,0,0:0:0:0:
257,136,35863,1,0,0:0:0:0:
257,136,36038,1,8,0:0:0:0:
257,136,36735,1,8,0:0:0:0:
351,227,36997,1,0,0:0:0:0:
351,227,37084,1,0,0:0:0:0:
351,227,37259,1,0,0:0:0:0:
351,227,37433,1,8,0:0:0:0:
214,152,37695,1,0,0:0:0:0:
214,152,37782,1,0,0:0:0:0:
214,152,37956,1,0,0:0:0:0:
214,152,38131,1,8,0:0:0:0:
214,152,38392,1,0,0:0:0:0:
214,152,38480,1,0,0:0:0:0:
214,152,38654,1,0,0:0:0:0:
214,152,38828,1,8,0:0:0:0:
214,152,39177,1,0,0:0:0:0:
431,291,39526,1,8,0:0:0:0:
335,175,39788,1,0,0:0:0:0:
335,175,39875,1,0,0:0:0:0:
335,175,39962,1,0,0:0:0:0:
335,175,40049,1,0,0:0:0:0:
335,175,40224,1,8,0:0:0:0:
335,175,40485,1,0,0:0:0:0:
335,175,40573,1,0,0:0:0:0:
335,175,40660,1,0,0:0:0:0:
335,175,40747,1,0,0:0:0:0:
335,175,40921,1,8,0:0:0:0:
335,175,41183,1,0,0:0:0:0:
335,175,41270,1,0,0:0:0:0:
335,175,41358,1,0,0:0:0:0:
335,175,41445,1,0,0:0:0:0:
335,175,41619,1,8,0:0:0:0:
335,175,42317,1,8,0:0:0:0:
211,161,42578,1,0,0:0:0:0:
211,161,42666,1,0,0:0:0:0:
211,161,42753,1,0,0:0:0:0:
211,161,42840,1,0,0:0:0:0:
211,161,43014,1,8,0:0:0:0:
223,177,43276,1,0,0:0:0:0:
266,109,44759,1,4,0:0:0:0:
281,178,44933,1,8,0:0:0:0:
298,172,45631,1,8,0:0:0:0:
298,172,46328,1,8,0:0:0:0:
298,172,47026,1,8,0:0:0:0:
298,172,47549,1,0,0:0:0:0:
298,172,47724,1,8,0:0:0:0:
201,122,48421,1,8,0:0:0:0:
201,122,49119,1,8,0:0:0:0:
201,122,49817,1,8,0:0:0:0:
201,122,50340,1,4,0:0:0:0:
201,122,50514,1,8,0:0:0:0:
346,148,51212,1,8,0:0:0:0:
346,148,51910,1,8,0:0:0:0:
346,148,52608,1,8,0:0:0:0:
346,148,53305,1,8,0:0:0:0:
346,148,54003,1,8,0:0:0:0:
346,148,54701,1,0,0:0:0:0:
346,148,55398,1,8,0:0:0:0:
269,76,55921,1,4,0:0:0:0:
211,184,56619,1,8,0:0:0:0:
211,184,57317,1,8,0:0:0:0:
211,184,58014,1,8,0:0:0:0:
211,184,58712,1,0,0:0:0:0:
401,179,58887,1,8,0:0:0:0:
401,179,59235,1,8,0:0:0:0:
401,179,59410,1,0,0:0:0:0:
401,179,59584,1,8,0:0:0:0:
401,179,59933,1,8,0:0:0:0:
400,183,60108,1,0,0:0:0:0:
400,183,60282,1,8,0:0:0:0:
400,183,60456,1,0,0:0:0:0:
400,183,60631,1,8,0:0:0:0:
400,183,60805,1,0,0:0:0:0:
280,113,60892,1,0,0:0:0:0:
400,183,60980,1,8,0:0:0:0:
400,183,61154,1,0,0:0:0:0:
400,183,61328,1,8,0:0:0:0:
400,183,61503,1,0,0:0:0:0:
280,113,61590,1,0,0:0:0:0:
400,183,61677,1,8,0:0:0:0:
400,183,61852,1,0,0:0:0:0:
400,183,61939,1,0,0:0:0:0:
400,183,62026,1,8,0:0:0:0:
400,183,62201,1,0,0:0:0:0:
276,130,62288,1,0,0:0:0:0:
400,183,62375,1,8,0:0:0:0:
270,80,62462,1,0,0:0:0:0:
400,183,62549,1,0,0:0:0:0:
270,80,62637,1,0,0:0:0:0:
400,183,62724,1,8,0:0:0:0:
321,162,62898,1,0,0:0:0:0:
321,162,62985,1,0,0:0:0:0:
321,162,63073,1,8,0:0:0:0:
321,162,63247,1,0,0:0:0:0:
321,162,63334,1,0,0:0:0:0:
321,162,63421,1,8,0:0:0:0:
321,162,63596,1,0,0:0:0:0:
321,162,63683,1,0,0:0:0:0:
321,162,63770,1,8,0:0:0:0:
321,162,63945,1,0,0:0:0:0:
321,162,64032,1,0,0:0:0:0:
321,162,64119,1,8,0:0:0:0:
321,162,64294,1,0,0:0:0:0:
321,162,64381,1,0,0:0:0:0:
321,162,64468,1,8,0:0:0:0:
321,162,64642,1,8,0:0:0:0:
321,162,64817,1,8,0:0:0:0:
316,165,64904,1,8,0:0:0:0:
316,166,64991,1,0,0:0:0:0:
316,166,65166,1,8,0:0:0:0:
312,166,65340,1,0,0:0:0:0:
312,166,65427,1,0,0:0:0:0:
312,166,65514,1,0,0:0:0:0:
311,167,65689,1,0,0:0:0:0:
316,166,66038,1,12,0:0:0:0:
312,166,66474,1,0,0:0:0:0:
311,167,66735,1,12,0:0:0:0:
271,137,67084,1,0,0:0:0:0:
271,137,67433,1,12,0:0:0:0:
284,115,67695,1,0,0:0:0:0:
249,169,67869,1,0,0:0:0:0:
241,54,67956,1,0,0:0:0:0:
241,54,68131,1,8,0:0:0:0:
351,159,68392,1,0,0:0:0:0:
170,91,68567,1,8,0:0:0:0:
351,159,68654,1,0,0:0:0:0:
351,159,68828,1,12,0:0:0:0:
238,137,69003,1,4,0:0:0:0:
231,169,69264,1,4,0:0:0:0:
218,151,69526,1,12,0:0:0:0:
228,86,69875,1,0,0:0:0:0:
360,119,70224,1,12,0:0:0:0:
284,108,70485,1,0,0:0:0:0:
284,108,70660,1,8,0:0:0:0:
320,103,70747,1,0,0:0:0:0:
320,103,70921,1,8,0:0:0:0:
230,177,71096,1,0,0:0:0:0:
313,82,71183,1,0,0:0:0:0:
313,82,71358,1,8,0:0:0:0:
230,177,71445,1,0,0:0:0:0:
230,177,71532,1,0,0:0:0:0:
313,82,71619,1,12,0:0:0:0:
183,102,71794,1,4,0:0:0:0:
183,102,72055,1,4,0:0:0:0:
183,102,72317,1,12,0:0:0:0:
316,72,72666,1,0,0:0:0:0:
316,72,73014,1,12,0:0:0:0:
359,167,73276,1,0,0:0:0:0:
242,157,73451,1,0,0:0:0:0:
359,167,73538,1,0,0:0:0:0:
359,167,73712,1,8,0:0:0:0:
209,167,73974,1,0,0:0:0:0:
209,167,74148,1,8,0:0:0:0:
209,167,74235,1,0,0:0:0:0:
209,167,74410,1,12,0:0:0:0:
190,153,74584,1,4,0:0:0:0:
190,153,74846,1,4,0:0:0:0:
190,153,75108,1,12,0:0:0:0:
256,138,75456,1,4,0:0:0:0:
256,138,75805,1,8,0:0:0:0:
282,109,75980,1,0,0:0:0:0:
282,109,76067,1,8,0:0:0:0:
282,109,76154,1,0,0:0:0:0:
282,109,76328,1,0,0:0:0:0:
282,109,76503,1,8,0:0:0:0:
282,109,76677,1,0,0:0:0:0:
282,109,76764,1,8,0:0:0:0:
282,109,76852,1,0,0:0:0:0:
282,109,76939,1,8,0:0:0:0:
281,114,77026,1,0,0:0:0:0:
281,114,77201,1,8,0:0:0:0:
281,114,77375,1,0,0:0:0:0:
281,114,77462,1,8,0:0:0:0:
281,114,77549,1,0,0:0:0:0:
281,114,77637,1,0,0:0:0:0:
281,114,77724,1,0,0:0:0:0:
281,114,77898,1,8,0:0:0:0:
281,114,78073,1,0,0:0:0:0:
281,114,78160,1,8,0:0:0:0:
281,114,78247,1,0,0:0:0:0:
271,137,78596,1,12,0:0:0:0:
284,115,78858,1,0,0:0:0:0:
249,169,79032,1,0,0:0:0:0:
241,54,79119,1,0,0:0:0:0:
241,54,79294,1,8,0:0:0:0:
351,159,79555,1,0,0:0:0:0:
170,91,79730,1,8,0:0:0:0:
351,159,79817,1,0,0:0:0:0:
351,159,79991,1,12,0:0:0:0:
238,137,80166,1,4,0:0:0:0:
231,169,80427,1,4,0:0:0:0:
218,151,80689,1,12,0:0:0:0:
228,86,81038,1,0,0:0:0:0:
360,119,81387,1,12,0:0:0:0:
284,108,81648,1,0,0:0:0:0:
284,108,81823,1,8,0:0:0:0:
320,103,81910,1,0,0:0:0:0:
320,103,82084,1,8,0:0:0:0:
230,177,82259,1,0,0:0:0:0:
313,82,82346,1,0,0:0:0:0:
313,82,82521,1,8,0:0:0:0:
230,177,82608,1,0,0:0:0:0:
230,177,82695,1,0,0:0:0:0:
313,82,82782,1,12,0:0:0:0:
183,102,82957,1,4,0:0:0:0:
183,102,83218,1,4,0:0:0:0:
183,102,83480,1,12,0:0:0:0:
316,72,83828,1,0,0:0:0:0:
316,72,84177,1,12,0:0:0:0:
359,167,84439,1,0,0:0:0:0:
242,157,84614,1,0,0:0:0:0:
359,167,84701,1,0,0:0:0:0:
359,167,84875,1,8,0:0:0:0:
209,167,85137,1,0,0:0:0:0:
209,167,85311,1,8,0:0:0:0:
209,167,85398,1,0,0:0:0:0:
209,167,85573,1,12,0:0:0:0:
190,153,85747,1,4,0:0:0:0:
190,153,86009,1,4,0:0:0:0:
190,153,86271,1,12,0:0:0:0:
256,138,86619,1,0,0:0:0:0:
306,161,86794,1,0,0:0:0:0:
306,161,86881,1,0,0:0:0:0:
484,176,86968,1,8,0:0:0:0:
484,176,87055,1,8,0:0:0:0:
484,176,87142,1,8,0:0:0:0:
484,176,87230,1,8,0:0:0:0:
484,176,87317,1,8,0:0:0:0:
484,176,87404,1,8,0:0:0:0:
484,176,87491,1,8,0:0:0:0:
484,176,87578,1,8,0:0:0:0:
484,176,87666,1,0,0:0:0:0:
484,176,87753,1,0,0:0:0:0:
484,176,87840,1,0,0:0:0:0:
376,185,87927,1,0,0:0:0:0:
376,185,88014,1,8,0:0:0:0:
171,102,88189,1,0,0:0:0:0:
171,102,88363,1,8,0:0:0:0:
241,94,88451,1,8,0:0:0:0:
241,94,88538,1,0,0:0:0:0:
302,100,88712,1,0,0:0:0:0:
427,5,88799,1,8,0:0:0:0:
427,5,88887,1,0,0:0:0:0:
427,5,89061,1,12,0:0:0:0:
126,84,89410,1,0,0:0:0:0:
126,84,89759,1,12,0:0:0:0:
276,142,90020,1,0,0:0:0:0:
276,142,90195,1,8,0:0:0:0:
276,142,90282,1,0,0:0:0:0:
276,142,90369,1,0,0:0:0:0:
276,142,90456,1,8,0:0:0:0:
213,113,90631,1,0,0:0:0:0:
276,142,90718,1,8,0:0:0:0:
276,142,90892,1,8,0:0:0:0:
209,170,90980,1,0,0:0:0:0:
276,142,91154,1,12,0:0:0:0:
276,142,91328,1,4,0:0:0:0:
276,142,91590,1,4,0:0:0:0:
276,142,91852,1,12,0:0:0:0:
276,142,92201,1,0,0:0:0:0:
276,142,92549,1,12,0:0:0:0:
290,177,92811,1,0,0:0:0:0:
290,177,92985,1,8,0:0:0:0:
290,177,93073,1,0,0:0:0:0:
290,177,93247,1,8,0:0:0:0:
290,177,93421,1,0,0:0:0:0:
290,177,93509,1,0,0:0:0:0:
290,177,93683,1,8,0:0:0:0:
316,238,93770,1,0,0:0:0:0:
316,238,93858,1,0,0:0:0:0:
316,238,93945,1,12,0:0:0:0:
278,137,94119,1,4,0:0:0:0:
278,137,94381,1,4,0:0:0:0:
278,137,94642,1,12,0:0:0:0:
131,198,94991,1,0,0:0:0:0:
131,198,95340,1,12,0:0:0:0:
219,126,95602,1,0,0:0:0:0:
219,126,95776,1,8,0:0:0:0:
219,126,95863,1,0,0:0:0:0:
219,126,95951,1,0,0:0:0:0:
219,126,96038,1,8,0:0:0:0:
219,126,96212,1,0,0:0:0:0:
219,126,96299,1,0,0:0:0:0:
219,126,96474,1,8,0:0:0:0:
219,126,96561,1,0,0:0:0:0:
219,126,96735,1,12,0:0:0:0:
219,126,96910,1,4,0:0:0:0:
219,126,97171,1,4,0:0:0:0:
219,126,97433,1,12,0:0:0:0:
417,113,97782,5,0,0:0:0:0:
326,136,98131,1,8,0:0:0:0:
326,136,98218,1,8,0:0:0:0:
326,136,98305,1,8,0:0:0:0:
326,136,98392,1,8,0:0:0:0:
326,136,98480,1,8,0:0:0:0:
326,136,98567,1,8,0:0:0:0:
326,136,98654,1,8,0:0:0:0:
326,136,98741,1,8,0:0:0:0:
326,136,98828,1,0,0:0:0:0:
326,136,98916,1,0,0:0:0:0:
326,136,99003,1,0,0:0:0:0:
326,136,99090,1,0,0:0:0:0:
326,136,99177,1,8,0:0:0:0:
326,136,99264,1,8,0:0:0:0:
326,136,99352,1,8,0:0:0:0:
326,136,99439,1,8,0:0:0:0:
326,136,99526,1,0,0:0:0:0:
326,136,99701,1,8,0:0:0:0:
348,99,99759,1,0,0:0:0:0:
326,136,99817,1,0,0:0:0:0:
326,136,99875,1,8,0:0:0:0:
120,103,99991,1,8,0:0:0:0:
120,103,100108,1,8,0:0:0:0:
120,103,100224,1,0,0:0:0:0:
120,103,100340,1,8,0:0:0:0:
120,103,100456,1,8,0:0:0:0:
120,103,100573,1,0,0:0:0:0:
126,84,100921,1,12,0:0:0:0:
276,142,101183,1,0,0:0:0:0:
276,142,101358,1,8,0:0:0:0:
276,142,101445,1,0,0:0:0:0:
276,142,101532,1,0,0:0:0:0:
276,142,101619,1,8,0:0:0:0:
213,113,101794,1,0,0:0:0:0:
276,142,101881,1,0,0:0:0:0:
276,142,102055,1,8,0:0:0:0:
209,170,102142,1,0,0:0:0:0:
276,142,102317,1,12,0:0:0:0:
276,142,102491,1,4,0:0:0:0:
276,142,102753,1,4,0:0:0:0:
276,142,103014,1,12,0:0:0:0:
276,142,103363,1,0,0:0:0:0:
276,142,103712,1,12,0:0:0:0:
290,177,103974,1,0,0:0:0:0:
290,177,104148,1,0,0:0:0:0:
290,177,104235,1,0,0:0:0:0:
290,177,104410,1,8,0:0:0:0:
290,177,104584,1,0,0:0:0:0:
290,177,104671,1,0,0:0:0:0:
290,177,104846,1,8,0:0:0:0:
316,238,104933,1,0,0:0:0:0:
316,238,105020,1,0,0:0:0:0:
316,238,105108,1,12,0:0:0:0:
278,137,105282,1,4,0:0:0:0:
278,137,105544,1,4,0:0:0:0:
278,137,105805,1,12,0:0:0:0:
131,198,106154,1,4,0:0:0:0:
256,192,106503,12,0,110689,0:0:0:0:
4,166,111735,5,12,0:0:0:0:
185,179,111997,1,4,0:0:0:0:
185,179,112259,1,4,0:0:0:0:
110,21,112433,1,12,0:0:0:0:
170,175,113044,1,0,0:0:0:0:
170,175,113131,1,8,0:0:0:0:
170,175,113218,1,8,0:0:0:0:
170,175,113305,1,0,0:0:0:0:
163,171,113392,1,8,0:0:0:0:
163,171,113480,1,8,0:0:0:0:
163,171,113567,1,8,0:0:0:0:
163,171,113654,1,0,0:0:0:0:
163,171,113741,1,0,0:0:0:0:
163,171,113828,1,12,0:0:0:0:
163,171,114003,1,4,0:0:0:0:
163,171,114264,1,12,0:0:0:0:
163,171,114526,1,12,0:0:0:0:
163,171,114788,1,12,0:0:0:0:
163,171,115049,1,4,0:0:0:0:
91,169,115224,1,12,0:0:0:0:
329,239,115834,1,0,0:0:0:0:
237,180,116009,1,8,0:0:0:0:
237,180,116096,1,0,0:0:0:0:
186,123,116358,1,0,0:0:0:0:
263,161,116445,1,0,0:0:0:0:
167,165,116619,1,12,0:0:0:0:
256,192,116968,12,0,117142,0:0:0:0:
454,260,117317,5,12,0:0:0:0:
118,144,117578,1,4,0:0:0:0:
118,144,117840,1,4,0:0:0:0:
118,144,118014,1,12,0:0:0:0:
171,212,118625,1,0,0:0:0:0:
171,212,118712,1,8,0:0:0:0:
171,212,118799,1,8,0:0:0:0:
171,212,118887,1,0,0:0:0:0:
171,212,118974,1,8,0:0:0:0:
171,212,119061,1,0,0:0:0:0:
171,212,119148,1,8,0:0:0:0:
171,212,119235,1,8,0:0:0:0:
171,212,119323,1,0,0:0:0:0:
171,212,119410,1,12,0:0:0:0:
168,151,119584,1,4,0:0:0:0:
168,151,119846,1,12,0:0:0:0:
168,151,120108,1,12,0:0:0:0:
168,151,120369,1,4,0:0:0:0:
168,151,120544,1,4,0:0:0:0:
168,151,120805,1,12,0:0:0:0:
401,239,120980,1,0,0:0:0:0:
401,239,121067,1,0,0:0:0:0:
401,239,121154,1,0,0:0:0:0:
401,239,121241,1,0,0:0:0:0:
401,239,121328,1,12,0:0:0:0:
401,239,121503,1,0,0:0:0:0:
401,239,121590,1,8,0:0:0:0:
401,239,121677,1,0,0:0:0:0:
401,239,121764,1,0,0:0:0:0:
401,239,121852,1,12,0:0:0:0:
401,239,122026,1,0,0:0:0:0:
401,239,122113,1,0,0:0:0:0:
401,239,122201,1,0,0:0:0:0:
401,239,122288,1,0,0:0:0:0:
401,239,122375,1,12,0:0:0:0:
401,239,122549,1,0,0:0:0:0:
401,239,122637,1,0,0:0:0:0:
401,239,122724,1,8,0:0:0:0:
214,117,122811,1,8,0:0:0:0:
401,239,122898,1,4,0:0:0:0:
401,239,123160,1,4,0:0:0:0:
401,239,123421,1,4,0:0:0:0:
401,239,123596,1,12,0:0:0:0:
272,128,124206,1,0,0:0:0:0:
250,109,124294,1,8,0:0:0:0:
250,109,124381,1,8,0:0:0:0:
250,109,124468,1,0,0:0:0:0:
250,109,124555,1,8,0:0:0:0:
250,109,124642,1,8,0:0:0:0:
250,109,124730,1,8,0:0:0:0:
250,109,124817,1,0,0:0:0:0:
250,109,124904,1,0,0:0:0:0:
250,109,124991,1,12,0:0:0:0:
250,109,125166,1,4,0:0:0:0:
250,109,125427,1,12,0:0:0:0:
250,109,125689,1,12,0:0:0:0:
250,109,125951,1,12,0:0:0:0:
250,109,126212,1,4,0:0:0:0:
250,109,126387,1,12,0:0:0:0:
387,206,126997,1,0,0:0:0:0:
351,180,127171,1,8,0:0:0:0:
335,168,127259,1,0,0:0:0:0:
263,172,127520,1,0,0:0:0:0:
244,173,127608,1,0,0:0:0:0:
314,154,127782,1,12,0:0:0:0:
256,192,128131,12,0,128305,0:0:0:0:
429,116,128480,5,12,0:0:0:0:
347,104,128741,1,4,0:0:0:0:
347,104,129003,1,4,0:0:0:0:
347,104,129177,1,12,0:0:0:0:
435,251,129788,1,0,0:0:0:0:
435,251,129875,1,8,0:0:0:0:
435,251,129962,1,8,0:0:0:0:
435,251,130049,1,0,0:0:0:0:
435,251,130137,1,8,0:0:0:0:
435,251,130224,1,0,0:0:0:0:
435,251,130311,1,8,0:0:0:0:
435,251,130398,1,8,0:0:0:0:
435,251,130485,1,0,0:0:0:0:
435,251,130573,1,12,0:0:0:0:
435,251,130747,1,4,0:0:0:0:
435,251,131009,1,12,0:0:0:0:
435,251,131270,1,12,0:0:0:0:
435,251,131532,1,4,0:0:0:0:
435,251,131706,1,4,0:0:0:0:
374,222,131968,1,0,0:0:0:0:
347,202,132201,1,8,0:0:0:0:
373,194,132317,1,0,0:0:0:0:
300,168,132433,1,8,0:0:0:0:
300,168,132666,1,0,0:0:0:0:
300,168,132898,1,8,0:0:0:0:
334,171,133014,1,0,0:0:0:0:
311,169,133131,1,8,0:0:0:0:
285,148,133247,1,0,0:0:0:0:
313,169,133363,1,8,0:0:0:0:
286,149,133480,1,0,0:0:0:0:
372,175,133596,1,8,0:0:0:0:
174,28,133712,1,8,0:0:0:0:
300,168,133828,1,0,0:0:0:0:
304,169,134061,5,12,0:0:0:0:
244,105,134323,1,4,0:0:0:0:
244,105,134584,1,4,0:0:0:0:
244,105,134759,1,12,0:0:0:0:
325,187,135108,1,8,0:0:0:0:
311,202,135195,1,0,0:0:0:0:
320,191,135369,1,0,0:0:0:0:
325,187,135456,1,0,0:0:0:0:
320,191,135631,1,8,0:0:0:0:
241,163,135718,1,0,0:0:0:0:
193,50,135892,1,0,0:0:0:0:
193,50,135980,1,0,0:0:0:0:
193,50,136154,1,12,0:0:0:0:
175,117,136328,1,4,0:0:0:0:
175,117,136590,1,12,0:0:0:0:
175,117,136852,1,12,0:0:0:0:
175,117,137113,1,12,0:0:0:0:
175,117,137375,1,4,0:0:0:0:
175,117,137549,1,12,0:0:0:0:
241,210,137985,1,8,0:0:0:0:
241,210,138160,1,0,0:0:0:0:
241,210,138247,1,8,0:0:0:0:
241,210,138334,1,8,0:0:0:0:
241,210,138421,1,0,0:0:0:0:
241,210,138509,1,8,0:0:0:0:
241,210,138596,1,8,0:0:0:0:
241,210,138683,1,8,0:0:0:0:
241,210,138770,1,0,0:0:0:0:
241,210,138858,1,0,0:0:0:0:
241,210,138945,1,12,0:0:0:0:
256,192,139294,12,0,139468,0:0:0:0:
266,175,139642,5,12,0:0:0:0:
321,117,139904,1,4,0:0:0:0:
321,117,140166,1,4,0:0:0:0:
321,117,140340,1,12,0:0:0:0:
321,117,140689,1,0,0:0:0:0:
321,117,140776,1,0,0:0:0:0:
321,117,140951,1,8,0:0:0:0:
321,117,141038,1,0,0:0:0:0:
321,117,141212,1,0,0:0:0:0:
321,117,141299,1,0,0:0:0:0:
289,88,141474,1,8,0:0:0:0:
289,88,141561,1,0,0:0:0:0:
289,88,141735,1,12,0:0:0:0:
289,88,141910,1,4,0:0:0:0:
289,88,142171,1,12,0:0:0:0:
289,88,142433,1,12,0:0:0:0:
289,88,142695,1,4,0:0:0:0:
289,88,142869,1,4,0:0:0:0:
331,137,143131,1,12,0:0:0:0:
359,169,143305,1,0,0:0:0:0:
359,169,143392,1,0,0:0:0:0:
359,169,143480,1,0,0:0:0:0:
359,169,143567,1,0,0:0:0:0:
359,169,143654,1,12,0:0:0:0:
359,169,143828,1,0,0:0:0:0:
359,169,143916,1,8,0:0:0:0:
359,169,144003,1,0,0:0:0:0:
359,169,144090,1,0,0:0:0:0:
359,169,144177,1,12,0:0:0:0:
359,169,144352,1,0,0:0:0:0:
359,169,144439,1,0,0:0:0:0:
359,169,144526,1,0,0:0:0:0:
359,169,144613,1,0,0:0:0:0:
359,169,144701,1,12,0:0:0:0:
359,169,144875,1,0,0:0:0:0:
359,169,144962,1,0,0:0:0:0:
359,169,145049,1,8,0:0:0:0:
359,169,145137,1,8,0:0:0:0:
359,169,145224,1,4,0:0:0:0:
284,146,145485,1,4,0:0:0:0:
219,126,145747,1,4,0:0:0:0:
175,115,145921,1,12,0:0:0:0:
328,181,146532,1,0,0:0:0:0:
328,181,146619,1,8,0:0:0:0:
328,181,146706,1,8,0:0:0:0:
328,181,146794,1,0,0:0:0:0:
328,181,146881,1,8,0:0:0:0:
328,181,146968,1,0,0:0:0:0:
328,181,147055,1,8,0:0:0:0:
328,181,147142,1,8,0:0:0:0:
328,181,147230,1,0,0:0:0:0:
328,181,147317,1,12,0:0:0:0:
328,181,147491,1,4,0:0:0:0:
328,181,147753,1,12,0:0:0:0:
328,181,148014,1,12,0:0:0:0:
328,181,148276,1,12,0:0:0:0:
328,181,148538,1,4,0:0:0:0:
328,181,148712,1,12,0:0:0:0:
328,181,149323,1,0,0:0:0:0:
328,181,149497,1,8,0:0:0:0:
328,181,149584,1,0,0:0:0:0:
328,181,149846,1,0,0:0:0:0:
328,181,149933,1,0,0:0:0:0:
328,181,150108,1,12,0:0:0:0:
256,192,150456,12,0,150631,0:0:0:0:
477,298,150805,5,12,0:0:0:0:
449,227,151067,1,4,0:0:0:0:
421,155,151328,1,4,0:0:0:0:
421,155,151503,1,12,0:0:0:0:
421,155,152113,1,0,0:0:0:0:
421,155,152201,1,8,0:0:0:0:
421,155,152288,1,8,0:0:0:0:
421,155,152375,1,0,0:0:0:0:
421,155,152462,1,8,0:0:0:0:
421,155,152549,1,8,0:0:0:0:
421,155,152637,1,8,0:0:0:0:
421,155,152724,1,0,0:0:0:0:
421,155,152811,1,0,0:0:0:0:
421,155,152898,1,12,0:0:0:0:
449,200,153073,1,4,0:0:0:0:
449,200,153334,1,12,0:0:0:0:
449,200,153596,1,12,0:0:0:0:
449,200,153858,1,4,0:0:0:0:
449,200,154032,1,4,0:0:0:0:
449,200,154294,1,12,0:0:0:0:
399,148,154555,1,4,0:0:0:0:
399,148,154730,1,4,0:0:0:0:
399,148,154991,1,12,0:0:0:0:
399,148,155253,1,4,0:0:0:0:
399,148,155427,1,4,0:0:0:0:
399,148,155689,1,12,0:0:0:0:
256,192,156387,12,0,159003,0:0:0:0:
256,192,159177,12,0,161968,0:0:0:0:
256,192,163363,12,0,164759,0:0:0:0:
175,101,165456,6,0,L|419:272,1,280
248,147,167549,5,4,0:0:0:0:
256,192,168247,12,0,173131,0:0:0:0:
256,192,173480,12,0,177317,0:0:0:0:
27,62,177491,5,8,0:0:0:0:
161,71,177578,1,8,0:0:0:0:
101,54,177666,1,0,0:0:0:0:
179,95,178014,1,12,0:0:0:0:
111,144,178712,1,4,0:0:0:0:
256,192,179410,12,0,184119,0:0:0:0:
38,98,184294,5,0,0:0:0:0:
38,98,184991,1,12,0:0:0:0:
40,88,185514,1,0,0:0:0:0:
40,88,185863,1,0,0:0:0:0:
40,88,186387,1,12,0:0:0:0:
40,88,186910,1,0,0:0:0:0:
40,88,187259,1,0,0:0:0:0:
40,88,187782,1,12,0:0:0:0:
98,148,189875,5,4,0:0:0:0:
191,64,190224,1,8,0:0:0:0:
89,87,192666,5,0,0:0:0:0:
89,87,193014,1,8,0:0:0:0:
108,133,195456,1,4,0:0:0:0:
108,133,195805,1,8,0:0:0:0:
192,140,198247,1,0,0:0:0:0:
192,140,198596,1,0,0:0:0:0:
139,115,201038,1,4,0:0:0:0:
139,115,201387,1,8,0:0:0:0:
155,143,203828,1,8,0:0:0:0:
155,143,204177,1,8,0:0:0:0:
119,139,206619,1,4,0:0:0:0:
119,139,206968,1,8,0:0:0:0:
256,192,207317,12,0,210631,0:0:0:0:
256,192,210805,12,0,211677,0:0:0:0:
112,65,211852,5,12,0:0:0:0:
271,137,212201,5,0,0:0:0:0:
271,137,212550,1,12,0:0:0:0:
284,115,212812,1,0,0:0:0:0:
249,169,212986,1,0,0:0:0:0:
241,54,213073,1,0,0:0:0:0:
241,54,213248,1,8,0:0:0:0:
351,159,213509,1,0,0:0:0:0:
170,91,213684,1,8,0:0:0:0:
351,159,213771,1,0,0:0:0:0:
351,159,213945,1,12,0:0:0:0:
238,137,214120,1,4,0:0:0:0:
231,169,214381,1,4,0:0:0:0:
218,151,214643,1,12,0:0:0:0:
228,86,214992,1,0,0:0:0:0:
360,119,215341,1,12,0:0:0:0:
284,108,215602,1,0,0:0:0:0:
284,108,215777,1,8,0:0:0:0:
320,103,215864,1,0,0:0:0:0:
320,103,216038,1,8,0:0:0:0:
230,177,216213,1,0,0:0:0:0:
313,82,216300,1,0,0:0:0:0:
313,82,216475,1,8,0:0:0:0:
230,177,216562,1,0,0:0:0:0:
230,177,216649,1,0,0:0:0:0:
313,82,216736,1,12,0:0:0:0:
183,102,216911,1,4,0:0:0:0:
183,102,217172,1,4,0:0:0:0:
183,102,217434,1,12,0:0:0:0:
316,72,217783,1,0,0:0:0:0:
316,72,218131,1,12,0:0:0:0:
359,167,218393,1,0,0:0:0:0:
242,157,218568,1,0,0:0:0:0:
359,167,218655,1,0,0:0:0:0:
359,167,218829,1,8,0:0:0:0:
209,167,219091,1,0,0:0:0:0:
209,167,219265,1,8,0:0:0:0:
209,167,219352,1,0,0:0:0:0:
209,167,219527,1,12,0:0:0:0:
190,153,219701,1,4,0:0:0:0:
190,153,219963,1,4,0:0:0:0:
190,153,220225,1,12,0:0:0:0:
256,138,220573,1,4,0:0:0:0:
256,138,220922,1,8,0:0:0:0:
282,109,221097,1,0,0:0:0:0:
282,109,221184,1,8,0:0:0:0:
282,109,221271,1,0,0:0:0:0:
282,109,221445,1,0,0:0:0:0:
282,109,221620,1,8,0:0:0:0:
282,109,221794,1,0,0:0:0:0:
282,109,221881,1,8,0:0:0:0:
282,109,221969,1,0,0:0:0:0:
282,109,222056,1,8,0:0:0:0:
281,114,222143,1,0,0:0:0:0:
281,114,222318,1,8,0:0:0:0:
281,114,222492,1,0,0:0:0:0:
281,114,222579,1,8,0:0:0:0:
281,114,222666,1,0,0:0:0:0:
281,114,222754,1,0,0:0:0:0:
281,114,222841,1,0,0:0:0:0:
281,114,223015,1,8,0:0:0:0:
281,114,223190,1,0,0:0:0:0:
281,114,223277,1,8,0:0:0:0:
281,114,223364,1,0,0:0:0:0:
271,137,223713,1,12,0:0:0:0:
284,115,223975,1,0,0:0:0:0:
249,169,224149,1,0,0:0:0:0:
241,54,224236,1,0,0:0:0:0:
241,54,224411,1,8,0:0:0:0:
351,159,224672,1,0,0:0:0:0:
170,91,224847,1,8,0:0:0:0:
351,159,224934,1,0,0:0:0:0:
351,159,225108,1,12,0:0:0:0:
238,137,225283,1,4,0:0:0:0:
231,169,225544,1,4,0:0:0:0:
218,151,225806,1,12,0:0:0:0:
228,86,226155,1,0,0:0:0:0:
360,119,226504,1,12,0:0:0:0:
284,108,226765,1,0,0:0:0:0:
284,108,226940,1,8,0:0:0:0:
320,103,227027,1,0,0:0:0:0:
320,103,227201,1,8,0:0:0:0:
230,177,227376,1,0,0:0:0:0:
313,82,227463,1,0,0:0:0:0:
313,82,227638,1,8,0:0:0:0:
230,177,227725,1,0,0:0:0:0:
230,177,227812,1,0,0:0:0:0:
313,82,227899,1,12,0:0:0:0:
183,102,228074,1,4,0:0:0:0:
183,102,228335,1,4,0:0:0:0:
183,102,228597,1,12,0:0:0:0:
316,72,228945,1,0,0:0:0:0:
316,72,229294,1,12,0:0:0:0:
359,167,229556,1,0,0:0:0:0:
242,157,229731,1,0,0:0:0:0:
359,167,229818,1,0,0:0:0:0:
359,167,229992,1,8,0:0:0:0:
209,167,230254,1,0,0:0:0:0:
209,167,230428,1,8,0:0:0:0:
209,167,230515,1,0,0:0:0:0:
209,167,230690,1,12,0:0:0:0:
190,153,230864,1,4,0:0:0:0:
190,153,231126,1,4,0:0:0:0:
190,153,231388,1,12,0:0:0:0:
256,138,231736,1,0,0:0:0:0:
306,161,231911,1,0,0:0:0:0:
306,161,231998,1,0,0:0:0:0:
484,176,232085,1,8,0:0:0:0:
484,176,232172,1,8,0:0:0:0:
484,176,232259,1,8,0:0:0:0:
484,176,232347,1,8,0:0:0:0:
484,176,232434,1,8,0:0:0:0:
484,176,232521,1,8,0:0:0:0:
484,176,232608,1,8,0:0:0:0:
484,176,232695,1,8,0:0:0:0:
484,176,232783,1,0,0:0:0:0:
484,176,232870,1,0,0:0:0:0:
484,176,232957,1,0,0:0:0:0:
376,185,233044,1,0,0:0:0:0:
376,185,233131,1,8,0:0:0:0:
171,102,233306,1,0,0:0:0:0:
171,102,233480,1,8,0:0:0:0:
241,94,233568,1,8,0:0:0:0:
241,94,233655,1,0,0:0:0:0:
302,100,233829,1,8,0:0:0:0:
427,5,233916,1,8,0:0:0:0:
427,5,234004,1,0,0:0:0:0:
427,5,234178,1,12,0:0:0:0:
126,84,234527,1,0,0:0:0:0:
126,84,234876,1,12,0:0:0:0:
276,142,235137,1,0,0:0:0:0:
276,142,235312,1,8,0:0:0:0:
276,142,235399,1,0,0:0:0:0:
276,142,235486,1,0,0:0:0:0:
276,142,235573,1,8,0:0:0:0:
213,113,235748,1,0,0:0:0:0:
276,142,235835,1,8,0:0:0:0:
276,142,236009,1,8,0:0:0:0:
209,170,236097,1,0,0:0:0:0:
276,142,236271,1,12,0:0:0:0:
276,142,236445,1,4,0:0:0:0:
276,142,236707,1,4,0:0:0:0:
276,142,236969,1,12,0:0:0:0:
276,142,237318,1,0,0:0:0:0:
276,142,237666,1,12,0:0:0:0:
290,177,237928,1,0,0:0:0:0:
290,177,238102,1,8,0:0:0:0:
290,177,238190,1,0,0:0:0:0:
290,177,238364,1,8,0:0:0:0:
290,177,238538,1,0,0:0:0:0:
290,177,238626,1,0,0:0:0:0:
290,177,238800,1,8,0:0:0:0:
316,238,238887,1,0,0:0:0:0:
316,238,238975,1,0,0:0:0:0:
316,238,239062,1,12,0:0:0:0:
278,137,239236,1,4,0:0:0:0:
278,137,239498,1,4,0:0:0:0:
278,137,239759,1,12,0:0:0:0:
131,198,240108,1,0,0:0:0:0:
131,198,240457,1,12,0:0:0:0:
219,126,240719,1,0,0:0:0:0:
219,126,240893,1,8,0:0:0:0:
219,126,240980,1,0,0:0:0:0:
219,126,241068,1,0,0:0:0:0:
219,126,241155,1,8,0:0:0:0:
219,126,241329,1,0,0:0:0:0:
219,126,241416,1,0,0:0:0:0:
219,126,241591,1,8,0:0:0:0:
219,126,241678,1,0,0:0:0:0:
219,126,241852,1,12,0:0:0:0:
219,126,242027,1,4,0:0:0:0:
219,126,242288,1,4,0:0:0:0:
219,126,242550,1,12,0:0:0:0:
417,113,242899,5,0,0:0:0:0:
326,136,243248,1,12,0:0:0:0:
396,186,243480,1,8,0:0:0:0:
247,126,243596,1,0,0:0:0:0:
396,186,243712,1,8,0:0:0:0:
247,126,243828,1,0,0:0:0:0:
396,186,243945,1,8,0:0:0:0:
247,126,244061,1,0,0:0:0:0:
396,186,244177,1,8,0:0:0:0:
247,126,244294,1,0,0:0:0:0:
396,186,244410,1,8,0:0:0:0:
247,126,244526,1,0,0:0:0:0:
396,186,244642,1,8,0:0:0:0:
247,126,244759,1,0,0:0:0:0:
247,126,244875,1,8,0:0:0:0:
247,126,244991,1,0,0:0:0:0:
396,186,245108,1,8,0:0:0:0:
247,126,245224,1,0,0:0:0:0:
396,186,245340,1,8,0:0:0:0:
120,103,245690,1,0,0:0:0:0:
126,84,246038,1,12,0:0:0:0:
276,142,246300,1,0,0:0:0:0:
276,142,246475,1,8,0:0:0:0:
276,142,246562,1,0,0:0:0:0:
276,142,246649,1,0,0:0:0:0:
276,142,246736,1,8,0:0:0:0:
213,113,246911,1,0,0:0:0:0:
276,142,246998,1,0,0:0:0:0:
276,142,247172,1,8,0:0:0:0:
209,170,247259,1,0,0:0:0:0:
276,142,247434,1,12,0:0:0:0:
276,142,247608,1,4,0:0:0:0:
276,142,247870,1,4,0:0:0:0:
276,142,248131,1,12,0:0:0:0:
53,66,248480,1,0,0:0:0:0:
276,142,248829,1,12,0:0:0:0:
290,177,249091,1,8,0:0:0:0:
128,158,249177,1,0,0:0:0:0:
290,177,249264,1,8,0:0:0:0:
290,177,249352,1,0,0:0:0:0:
128,158,249439,1,0,0:0:0:0:
290,177,249527,1,8,0:0:0:0:
290,177,249701,1,0,0:0:0:0:
290,177,249788,1,0,0:0:0:0:
290,177,249963,1,8,0:0:0:0:
316,238,250050,1,0,0:0:0:0:
316,238,250137,1,0,0:0:0:0:
316,238,250225,1,12,0:0:0:0:
278,137,250399,1,4,0:0:0:0:
278,137,250661,1,4,0:0:0:0:
278,137,250922,1,12,0:0:0:0:
131,198,251271,1,4,0:0:0:0:
256,192,251620,12,0,255806,0:0:0:0:
167,128,256852,5,4,0:0:0:0:
167,128,257201,1,12,0:0:0:0:
219,152,257898,1,8,0:0:0:0:
369,185,258160,1,0,0:0:0:0:
369,185,258421,1,0,0:0:0:0:
369,185,258596,1,8,0:0:0:0:
181,150,258770,1,0,0:0:0:0:
181,150,259032,1,0,0:0:0:0:
181,150,259294,1,8,0:0:0:0:
409,144,259817,1,0,0:0:0:0:
409,144,259991,1,12,0:0:0:0:
226,193,260689,1,8,0:0:0:0:
226,193,260951,1,0,0:0:0:0:
226,193,261125,1,0,0:0:0:0:
226,193,261387,1,8,0:0:0:0:
311,182,261561,1,0,0:0:0:0:
311,182,261823,1,0,0:0:0:0:
311,182,262084,1,8,0:0:0:0:
46,140,262433,1,4,0:0:0:0:
46,140,262782,1,12,0:0:0:0:
225,123,263480,1,8,0:0:0:0:
225,123,263741,1,0,0:0:0:0:
225,123,264003,1,0,0:0:0:0:
147,137,264177,1,8,0:0:0:0:
147,137,264352,1,0,0:0:0:0:
147,137,264613,1,0,0:0:0:0:
147,137,264875,1,8,0:0:0:0:
86,127,265398,1,0,0:0:0:0:
86,127,265573,1,12,0:0:0:0:
188,133,266270,1,8,0:0:0:0:
188,133,266532,1,0,0:0:0:0:
187,139,266706,1,0,0:0:0:0:
187,140,266968,1,8,0:0:0:0:
405,222,267317,1,0,0:0:0:0:
405,222,267404,1,0,0:0:0:0:
405,222,267666,1,8,0:0:0:0:
240,93,268014,1,4,0:0:0:0:
240,93,268363,1,12,0:0:0:0:
351,155,269061,1,8,0:0:0:0:
351,155,269323,1,0,0:0:0:0:
351,155,269584,1,0,0:0:0:0:
351,155,269759,1,8,0:0:0:0:
253,113,269933,1,0,0:0:0:0:
253,113,270195,1,0,0:0:0:0:
253,113,270456,1,8,0:0:0:0:
258,111,270980,1,0,0:0:0:0:
110,67,271154,1,12,0:0:0:0:
252,177,271852,1,8,0:0:0:0:
252,177,272113,1,0,0:0:0:0:
252,177,272288,1,0,0:0:0:0:
252,177,272549,1,8,0:0:0:0:
288,128,272724,1,0,0:0:0:0:
288,128,272985,1,0,0:0:0:0:
288,128,273247,1,8,0:0:0:0:
124,131,273596,1,4,0:0:0:0:
124,131,273945,1,12,0:0:0:0:
269,204,274642,1,8,0:0:0:0:
269,204,274904,1,0,0:0:0:0:
269,204,275166,1,0,0:0:0:0:
269,204,275340,1,8,0:0:0:0:
144,152,275514,1,0,0:0:0:0:
144,152,275776,1,0,0:0:0:0:
144,152,276038,1,8,0:0:0:0:
230,183,276561,1,0,0:0:0:0:
230,183,276735,1,12,0:0:0:0:
226,142,277433,1,8,0:0:0:0:
226,142,277695,1,0,0:0:0:0:
226,142,277869,1,0,0:0:0:0:
226,142,278131,1,8,0:0:0:0:
184,156,278480,1,0,0:0:0:0:
184,156,278567,1,0,0:0:0:0:
184,156,278654,1,0,0:0:0:0:
184,156,278828,1,8,0:0:0:0:
184,156,279177,1,4,0:0:0:0:
179,16,279526,1,12,0:0:0:0:
197,167,280224,1,8,0:0:0:0:
197,167,280485,1,0,0:0:0:0:
197,167,280747,1,0,0:0:0:0:
197,167,280921,1,8,0:0:0:0:
394,278,281183,1,0,0:0:0:0:
265,147,281270,1,0,0:0:0:0:
394,278,281358,1,0,0:0:0:0:
394,278,281619,1,8,0:0:0:0:
131,116,282142,1,0,0:0:0:0:
131,116,282317,1,12,0:0:0:0:
230,77,283014,1,8,0:0:0:0:
147,129,283276,1,0,0:0:0:0:
147,129,283451,1,0,0:0:0:0:
147,129,283712,1,8,0:0:0:0:
213,141,283974,1,0,0:0:0:0:
213,141,284061,1,0,0:0:0:0:
213,141,284148,1,0,0:0:0:0:
213,141,284410,1,8,0:0:0:0:
187,121,284759,1,4,0:0:0:0:
88,135,285108,1,12,0:0:0:0:
172,137,285805,1,8,0:0:0:0:
172,137,286067,1,0,0:0:0:0:
172,137,286328,1,0,0:0:0:0:
172,137,286503,1,8,0:0:0:0:
135,134,286764,1,0,0:0:0:0:
135,134,286852,1,0,0:0:0:0:
135,134,286939,1,0,0:0:0:0:
135,134,287201,1,8,0:0:0:0:
213,85,287724,1,0,0:0:0:0:
213,85,287898,1,12,0:0:0:0:
190,201,288596,1,8,0:0:0:0:
190,201,288858,1,0,0:0:0:0:
190,201,289032,1,0,0:0:0:0:
191,195,289294,1,8,0:0:0:0:
197,135,289555,1,0,0:0:0:0:
191,195,289642,1,0,0:0:0:0:
197,135,289730,1,0,0:0:0:0:
197,135,289991,1,8,0:0:0:0:
146,104,290340,1,4,0:0:0:0:
105,61,290689,1,12,0:0:0:0:
238,132,291387,1,8,0:0:0:0:
238,132,291648,1,0,0:0:0:0:
238,132,291910,1,0,0:0:0:0:
188,127,292084,1,8,0:0:0:0:
188,127,292346,1,0,0:0:0:0:
188,127,292433,1,0,0:0:0:0:
188,127,292520,1,0,0:0:0:0:
188,127,292782,1,8,0:0:0:0:
279,145,293305,1,0,0:0:0:0:
279,145,293480,1,12,0:0:0:0:
279,145,294177,1,8,0:0:0:0:
279,145,294439,1,0,0:0:0:0:
279,145,294613,1,0,0:0:0:0:
279,145,294875,1,8,0:0:0:0:
279,145,295137,1,0,0:0:0:0:
279,145,295224,1,0,0:0:0:0:
279,145,295311,1,0,0:0:0:0:
279,145,295573,1,8,0:0:0:0:
151,131,295921,1,4,0:0:0:0:
151,131,296270,1,12,0:0:0:0:
328,169,296968,1,8,0:0:0:0:
328,169,297230,1,0,0:0:0:0:
328,169,297491,1,0,0:0:0:0:
328,169,297666,1,8,0:0:0:0:
328,169,297927,1,0,0:0:0:0:
328,169,298014,1,0,0:0:0:0:
328,169,298102,1,0,0:0:0:0:
328,169,298363,1,8,0:0:0:0:
307,129,298887,1,0,0:0:0:0:
307,129,299061,1,8,0:0:0:0:
307,129,299410,1,12,0:0:0:0:
307,129,299584,1,0,0:0:0:0:
307,129,299671,1,0,0:0:0:0:
307,129,299759,1,0,0:0:0:0:
307,129,299846,1,0,0:0:0:0:
307,129,299933,1,12,0:0:0:0:
307,129,300108,1,0,0:0:0:0:
307,129,300195,1,8,0:0:0:0:
307,129,300282,1,0,0:0:0:0:
307,129,300369,1,0,0:0:0:0:
307,129,300456,1,12,0:0:0:0:
307,129,300631,1,0,0:0:0:0:
307,129,300718,1,0,0:0:0:0:
307,129,300805,1,0,0:0:0:0:
307,129,300892,1,0,0:0:0:0:
307,129,300980,1,12,0:0:0:0:
307,129,301154,1,0,0:0:0:0:
307,129,301241,1,0,0:0:0:0:
307,129,301328,1,8,0:0:0:0:
307,129,301416,1,8,0:0:0:0:
256,192,301503,12,0,318247,0:0:0:0:
