osu file format v14

[General]
AudioFilename: audio.mp3
AudioLeadIn: 0
PreviewTime: 69910
Countdown: 0
SampleSet: Normal
StackLeniency: 0.7
Mode: 1
LetterboxInBreaks: 0
WidescreenStoryboard: 0

[Editor]
Bookmarks: 25258,47584,69909,92235,114560,136886,159211,181537,203863,226188,248514
DistanceSpacing: 1.2
BeatDivisor: 12
GridSize: 32
TimelineZoom: 3.099999

[Metadata]
Title:Flame Fetish
TitleUnicode:Flame Fetish
Artist:Task Horizon
ArtistUnicode:Task Horizon
Creator:Cynplytholowazy
Version:Muzukashii
Source:osu!
Tags:Electronic Drum n' and Bass Instrumental Organimatronics EP neurofunk chamber dnb d&b featured artist FA
BeatmapID:2452388
BeatmapSetID:1175776

[Difficulty]
HPDrainRate:6.6
CircleSize:10
OverallDifficulty:4.4
ApproachRate:10
SliderMultiplier:1.4
SliderTickRate:1

[Events]
//Background and Video events
0,0,"fire-2777580_1920.jpg",0,0
//Break Periods
2,49677,57352
2,60142,63631
2,173165,175433
//Storyboard Layer 0 (Background)
//Storyboard Layer 1 (Fail)
//Storyboard Layer 2 (Pass)
//Storyboard Layer 3 (Foreground)
//Storyboard Layer 4 (Overlay)
//Storyboard Sound Samples

[TimingPoints]
-2648,348.837209302326,4,1,0,5,1,0
1187,-100,4,1,0,10,0,0
1361,-100,4,1,0,15,0,0
1536,-100,4,1,0,20,0,0
1710,-100,4,1,0,25,0,0
1885,-100,4,1,0,30,0,0
2059,-100,4,1,0,35,0,0
2233,-100,4,1,0,40,0,0
2408,-100,4,1,0,45,0,0
2582,-100,4,1,0,50,0,0
2758,-100,4,1,0,80,0,0
47933,-133.333333333333,4,1,0,60,0,0
57700,-100,4,1,0,60,0,0
59445,-133.333333333333,4,1,0,60,0,0
64939,-133.333333333333,4,1,0,70,0,0
68340,-117.647058823529,4,1,0,80,0,0
69735,-100,4,1,0,90,0,0
69910,-100,4,1,0,90,0,1
78631,-100,4,1,0,90,0,0
81072,-100,4,1,0,90,0,1
89445,-100,4,1,0,90,0,0
93282,-100,4,1,0,90,0,1
100956,-100,4,1,0,90,0,0
103398,-100,4,1,0,90,0,1
111770,-100,4,1,0,90,0,0
114561,-100,4,1,0,90,0,1
134096,-100,4,1,0,90,0,0
137584,-166.666666666667,4,1,0,50,0,0
148136,-166.666666666667,4,1,0,20,0,0
157729,-166.666666666667,4,1,0,70,0,0
159038,-133.333333333333,4,1,0,80,0,0
172991,-133.333333333333,4,1,0,60,0,0
175869,-133.379571584816,4,1,0,70,0,0
180055,-117.647058823529,4,1,0,80,0,0
181538,-100,4,1,0,90,0,1
190258,-100,4,1,0,90,0,0
192700,-100,4,1,0,90,0,1
201072,-100,4,1,0,90,0,0
204910,-100,4,1,0,90,0,1
212584,-100,4,1,0,90,0,0
215026,-100,4,1,0,90,0,1
223398,-100,4,1,0,90,0,0
226189,-100,4,1,0,90,0,1
245724,-100,4,1,0,90,0,0
248863,-100,4,1,0,12,0,0

[HitObjects]
256,192,142,8,6,2584,0:0:0:0:
256,192,2933,5,6,0:0:0:0:
256,192,3282,1,2,0:0:0:0:
256,192,3805,1,0,0:0:0:0:
256,192,3979,1,2,0:0:0:0:
256,192,4503,1,0,0:0:0:0:
256,192,4677,1,2,0:0:0:0:
256,192,5200,1,0,0:0:0:0:
256,192,5375,1,2,0:0:0:0:
256,192,5724,1,4,0:0:0:0:
256,192,6072,1,2,0:0:0:0:
256,192,6596,1,0,0:0:0:0:
256,192,6770,1,2,0:0:0:0:
256,192,7293,1,0,0:0:0:0:
256,192,7468,1,2,0:0:0:0:
256,192,7991,1,0,0:0:0:0:
256,192,8165,1,2,0:0:0:0:
256,192,8514,1,6,0:0:0:0:
256,192,8863,1,2,0:0:0:0:
256,192,9386,1,0,0:0:0:0:
256,192,9561,1,2,0:0:0:0:
256,192,10084,1,0,0:0:0:0:
256,192,10258,1,2,0:0:0:0:
256,192,10782,1,0,0:0:0:0:
256,192,10956,1,2,0:0:0:0:
256,192,11305,1,4,0:0:0:0:
256,192,11654,1,2,0:0:0:0:
256,192,12177,1,0,0:0:0:0:
256,192,12352,1,2,0:0:0:0:
256,192,12875,1,0,0:0:0:0:
256,192,13049,1,2,0:0:0:0:
256,192,13572,1,0,0:0:0:0:
256,192,13747,1,2,0:0:0:0:
256,192,14096,1,6,0:0:0:0:
256,192,14445,1,2,0:0:0:0:
256,192,14968,1,0,0:0:0:0:
256,192,15142,1,2,0:0:0:0:
256,192,15665,1,0,0:0:0:0:
256,192,15840,1,2,0:0:0:0:
256,192,16363,1,0,0:0:0:0:
256,192,16538,1,2,0:0:0:0:
256,192,16886,1,4,0:0:0:0:
256,192,17235,1,2,0:0:0:0:
256,192,17758,1,0,0:0:0:0:
256,192,17933,1,2,0:0:0:0:
256,192,18456,1,0,0:0:0:0:
256,192,18631,1,2,0:0:0:0:
256,192,19154,1,0,0:0:0:0:
256,192,19328,1,2,0:0:0:0:
256,192,19677,1,6,0:0:0:0:
256,192,20026,1,2,0:0:0:0:
256,192,20549,1,0,0:0:0:0:
256,192,20724,1,2,0:0:0:0:
256,192,21247,1,0,0:0:0:0:
256,192,21421,1,2,0:0:0:0:
256,192,21945,1,0,0:0:0:0:
256,192,22119,1,2,0:0:0:0:
256,192,22468,1,4,0:0:0:0:
256,192,22991,1,0,0:0:0:0:
256,192,23514,1,0,0:0:0:0:
256,192,24038,1,0,0:0:0:0:
256,192,24561,1,2,0:0:0:0:
256,192,24735,1,2,0:0:0:0:
256,192,24910,1,0,0:0:0:0:
256,192,24997,1,0,0:0:0:0:
256,192,25084,1,0,0:0:0:0:
256,192,25258,1,6,0:0:0:0:
256,192,25607,1,2,0:0:0:0:
256,192,25782,1,2,0:0:0:0:
256,192,25869,1,2,0:0:0:0:
256,192,25956,1,2,0:0:0:0:
256,192,26131,1,0,0:0:0:0:
256,192,26305,1,2,0:0:0:0:
256,192,26828,1,0,0:0:0:0:
256,192,27003,1,2,0:0:0:0:
256,192,27526,1,0,0:0:0:0:
256,192,27700,1,2,0:0:0:0:
256,192,28049,1,4,0:0:0:0:
256,192,28398,1,2,0:0:0:0:
256,192,28572,1,2,0:0:0:0:
256,192,28660,1,2,0:0:0:0:
256,192,28747,1,2,0:0:0:0:
256,192,28921,1,0,0:0:0:0:
256,192,29096,1,2,0:0:0:0:
256,192,29619,1,0,0:0:0:0:
256,192,29793,1,2,0:0:0:0:
256,192,30317,1,0,0:0:0:0:
256,192,30491,1,2,0:0:0:0:
256,192,30840,1,6,0:0:0:0:
256,192,31189,1,2,0:0:0:0:
256,192,31363,1,2,0:0:0:0:
256,192,31450,1,2,0:0:0:0:
256,192,31538,1,2,0:0:0:0:
256,192,31712,1,0,0:0:0:0:
256,192,31886,1,2,0:0:0:0:
256,192,32410,1,0,0:0:0:0:
256,192,32584,1,2,0:0:0:0:
256,192,33107,1,0,0:0:0:0:
256,192,33282,1,2,0:0:0:0:
256,192,33631,1,4,0:0:0:0:
256,192,33979,1,2,0:0:0:0:
256,192,34154,1,2,0:0:0:0:
256,192,34241,1,2,0:0:0:0:
256,192,34328,1,2,0:0:0:0:
256,192,34503,1,0,0:0:0:0:
256,192,34677,1,2,0:0:0:0:
256,192,35200,1,0,0:0:0:0:
256,192,35375,1,2,0:0:0:0:
256,192,35549,1,2,0:0:0:0:
256,192,35724,1,0,0:0:0:0:
256,192,35898,1,0,0:0:0:0:
256,192,36072,1,2,0:0:0:0:
256,192,36421,1,6,0:0:0:0:
256,192,36770,1,2,0:0:0:0:
256,192,36945,1,2,0:0:0:0:
256,192,37032,1,2,0:0:0:0:
256,192,37119,1,2,0:0:0:0:
256,192,37293,1,0,0:0:0:0:
256,192,37468,1,2,0:0:0:0:
256,192,37991,1,0,0:0:0:0:
256,192,38165,1,2,0:0:0:0:
256,192,38689,1,0,0:0:0:0:
256,192,38863,1,2,0:0:0:0:
256,192,39212,1,4,0:0:0:0:
256,192,39561,1,2,0:0:0:0:
256,192,39735,1,2,0:0:0:0:
256,192,39822,1,2,0:0:0:0:
256,192,39910,1,2,0:0:0:0:
256,192,40084,1,0,0:0:0:0:
256,192,40258,1,2,0:0:0:0:
256,192,40782,1,0,0:0:0:0:
256,192,40956,1,2,0:0:0:0:
256,192,41479,1,0,0:0:0:0:
256,192,41654,1,2,0:0:0:0:
256,192,42003,1,6,0:0:0:0:
256,192,42352,1,2,0:0:0:0:
256,192,42526,1,2,0:0:0:0:
256,192,42613,1,2,0:0:0:0:
256,192,42700,1,2,0:0:0:0:
256,192,42875,1,0,0:0:0:0:
256,192,43049,1,2,0:0:0:0:
256,192,43572,1,0,0:0:0:0:
256,192,43747,1,2,0:0:0:0:
256,192,44270,1,0,0:0:0:0:
256,192,44445,1,2,0:0:0:0:
256,192,44793,1,4,0:0:0:0:
256,192,45317,1,0,0:0:0:0:
256,192,45840,1,0,0:0:0:0:
256,192,46363,1,0,0:0:0:0:
256,192,46886,1,2,0:0:0:0:
256,192,47061,1,2,0:0:0:0:
256,192,47235,1,0,0:0:0:0:
256,192,47322,1,0,0:0:0:0:
256,192,47410,1,0,0:0:0:0:
256,192,47584,1,6,0:0:0:0:
256,192,58049,5,2,0:0:0:0:
256,192,58136,1,2,0:0:0:0:
256,192,58224,1,2,0:0:0:0:
256,192,58747,1,4,0:0:0:0:
256,192,64328,5,2,0:0:0:0:
256,192,64503,1,0,0:0:0:0:
256,192,64677,1,2,0:0:0:0:
256,192,64852,1,0,0:0:0:0:
256,192,65026,5,2,0:0:0:0:
256,192,65375,1,2,0:0:0:0:
256,192,65724,1,2,0:0:0:0:
256,192,65898,1,0,0:0:0:0:
256,192,66072,1,2,0:0:0:0:
256,192,66247,1,0,0:0:0:0:
256,192,66421,1,2,0:0:0:0:
256,192,66770,1,2,0:0:0:0:
256,192,67119,1,2,0:0:0:0:
256,192,67293,1,0,0:0:0:0:
256,192,67468,1,2,0:0:0:0:
256,192,67642,1,0,0:0:0:0:
256,192,67817,1,2,0:0:0:0:
256,192,68165,1,2,0:0:0:0:
256,192,68514,1,2,0:0:0:0:
256,192,68689,1,0,0:0:0:0:
256,192,68776,1,0,0:0:0:0:
256,192,68863,1,0,0:0:0:0:
256,192,69038,1,0,0:0:0:0:
256,192,69125,1,0,0:0:0:0:
256,192,69212,1,0,0:0:0:0:
256,192,69386,1,0,0:0:0:0:
256,192,69561,1,6,0:0:0:0:
256,192,69910,1,4,0:0:0:0:
256,192,70258,1,6,0:0:0:0:
256,192,70782,1,0,0:0:0:0:
256,192,70956,1,6,0:0:0:0:
256,192,71131,1,0,0:0:0:0:
256,192,71218,1,0,0:0:0:0:
256,192,71305,1,0,0:0:0:0:
256,192,71479,1,0,0:0:0:0:
256,192,71654,1,6,0:0:0:0:
256,192,71828,1,0,0:0:0:0:
256,192,71915,1,0,0:0:0:0:
256,192,72003,1,0,0:0:0:0:
256,192,72177,1,0,0:0:0:0:
256,192,72352,1,6,0:0:0:0:
256,192,72700,1,4,0:0:0:0:
256,192,73049,1,6,0:0:0:0:
256,192,73572,1,0,0:0:0:0:
256,192,73747,1,6,0:0:0:0:
256,192,73921,1,0,0:0:0:0:
256,192,74008,1,0,0:0:0:0:
256,192,74096,1,0,0:0:0:0:
256,192,74270,1,0,0:0:0:0:
256,192,74445,1,6,0:0:0:0:
256,192,74619,1,0,0:0:0:0:
256,192,74706,1,0,0:0:0:0:
256,192,74793,1,0,0:0:0:0:
256,192,74968,1,0,0:0:0:0:
256,192,75142,1,6,0:0:0:0:
256,192,75491,1,4,0:0:0:0:
256,192,75840,1,6,0:0:0:0:
256,192,76363,1,0,0:0:0:0:
256,192,76538,1,6,0:0:0:0:
256,192,76712,1,0,0:0:0:0:
256,192,76799,1,0,0:0:0:0:
256,192,76886,1,0,0:0:0:0:
256,192,77061,1,0,0:0:0:0:
256,192,77235,1,6,0:0:0:0:
256,192,77410,1,0,0:0:0:0:
256,192,77497,1,0,0:0:0:0:
256,192,77584,1,0,0:0:0:0:
256,192,77758,1,0,0:0:0:0:
256,192,77933,1,6,0:0:0:0:
256,192,78282,1,4,0:0:0:0:
256,192,78631,1,6,0:0:0:0:
256,192,79328,1,6,0:0:0:0:
256,192,80026,1,6,0:0:0:0:
256,192,80724,1,6,0:0:0:0:
256,192,80898,1,2,0:0:0:0:
256,192,81072,1,4,0:0:0:0:
256,192,81421,1,6,0:0:0:0:
256,192,81945,1,0,0:0:0:0:
256,192,82119,1,6,0:0:0:0:
256,192,82293,1,0,0:0:0:0:
256,192,82381,1,0,0:0:0:0:
256,192,82468,1,0,0:0:0:0:
256,192,82642,1,0,0:0:0:0:
256,192,82817,1,6,0:0:0:0:
256,192,82991,1,0,0:0:0:0:
256,192,83078,1,0,0:0:0:0:
256,192,83165,1,0,0:0:0:0:
256,192,83340,1,0,0:0:0:0:
256,192,83514,1,6,0:0:0:0:
256,192,83863,1,4,0:0:0:0:
256,192,84212,1,6,0:0:0:0:
256,192,84735,1,0,0:0:0:0:
256,192,84910,1,6,0:0:0:0:
256,192,85084,1,0,0:0:0:0:
256,192,85171,1,0,0:0:0:0:
256,192,85258,1,0,0:0:0:0:
256,192,85433,1,0,0:0:0:0:
256,192,85607,1,6,0:0:0:0:
256,192,85782,1,2,0:0:0:0:
256,192,85869,1,2,0:0:0:0:
256,192,85956,1,2,0:0:0:0:
256,192,86131,1,0,0:0:0:0:
256,192,86305,1,6,0:0:0:0:
256,192,86654,1,4,0:0:0:0:
256,192,87003,1,6,0:0:0:0:
256,192,87526,1,0,0:0:0:0:
256,192,87700,1,6,0:0:0:0:
256,192,87875,1,0,0:0:0:0:
256,192,87962,1,0,0:0:0:0:
256,192,88049,1,0,0:0:0:0:
256,192,88224,1,0,0:0:0:0:
256,192,88398,1,6,0:0:0:0:
256,192,88572,1,0,0:0:0:0:
256,192,88660,1,0,0:0:0:0:
256,192,88747,1,0,0:0:0:0:
256,192,88921,1,0,0:0:0:0:
256,192,89096,1,6,0:0:0:0:
256,192,89445,1,4,0:0:0:0:
256,192,89968,1,0,0:0:0:0:
256,192,90491,1,0,0:0:0:0:
256,192,91014,1,0,0:0:0:0:
256,192,91538,1,2,0:0:0:0:
256,192,91712,1,2,0:0:0:0:
256,192,91886,1,0,0:0:0:0:
256,192,91974,1,0,0:0:0:0:
256,192,92061,1,0,0:0:0:0:
256,192,92235,1,6,0:0:0:0:
256,192,92584,1,0,0:0:0:0:
256,192,93282,1,6,0:0:0:0:
256,192,93456,1,0,0:0:0:0:
256,192,93543,1,0,0:0:0:0:
256,192,93631,1,0,0:0:0:0:
256,192,93805,1,0,0:0:0:0:
256,192,93979,1,6,0:0:0:0:
256,192,94154,1,0,0:0:0:0:
256,192,94241,1,0,0:0:0:0:
256,192,94328,1,0,0:0:0:0:
256,192,94503,1,0,0:0:0:0:
256,192,94677,1,6,0:0:0:0:
256,192,95026,1,4,0:0:0:0:
256,192,95375,1,6,0:0:0:0:
256,192,96072,1,6,0:0:0:0:
256,192,96247,1,0,0:0:0:0:
256,192,96334,1,0,0:0:0:0:
256,192,96421,1,0,0:0:0:0:
256,192,96596,1,0,0:0:0:0:
256,192,96770,1,6,0:0:0:0:
256,192,96945,1,0,0:0:0:0:
256,192,97032,1,0,0:0:0:0:
256,192,97119,1,0,0:0:0:0:
256,192,97293,1,0,0:0:0:0:
256,192,97468,1,6,0:0:0:0:
256,192,97817,1,4,0:0:0:0:
256,192,98165,1,6,0:0:0:0:
256,192,98863,1,6,0:0:0:0:
256,192,99038,1,0,0:0:0:0:
256,192,99125,1,0,0:0:0:0:
256,192,99212,1,0,0:0:0:0:
256,192,99386,1,0,0:0:0:0:
256,192,99561,1,6,0:0:0:0:
256,192,99735,1,0,0:0:0:0:
256,192,99822,1,0,0:0:0:0:
256,192,99910,1,0,0:0:0:0:
256,192,100084,1,0,0:0:0:0:
256,192,100258,1,6,0:0:0:0:
256,192,100607,1,4,0:0:0:0:
256,192,100956,1,6,0:0:0:0:
256,192,101654,1,6,0:0:0:0:
256,192,102177,1,0,0:0:0:0:
256,192,102352,1,6,0:0:0:0:
256,192,103049,1,6,0:0:0:0:
256,192,103398,1,4,0:0:0:0:
256,192,103747,1,6,0:0:0:0:
256,192,104445,1,6,0:0:0:0:
256,192,104619,1,0,0:0:0:0:
256,192,104706,1,0,0:0:0:0:
256,192,104793,1,0,0:0:0:0:
256,192,104968,1,0,0:0:0:0:
256,192,105142,1,6,0:0:0:0:
256,192,105317,1,0,0:0:0:0:
256,192,105404,1,0,0:0:0:0:
256,192,105491,1,0,0:0:0:0:
256,192,105665,1,0,0:0:0:0:
256,192,105840,1,6,0:0:0:0:
256,192,106189,1,4,0:0:0:0:
256,192,106538,1,6,0:0:0:0:
256,192,107235,1,6,0:0:0:0:
256,192,107410,1,0,0:0:0:0:
256,192,107497,1,0,0:0:0:0:
256,192,107584,1,0,0:0:0:0:
256,192,107758,1,0,0:0:0:0:
256,192,107933,1,6,0:0:0:0:
256,192,108107,1,0,0:0:0:0:
256,192,108195,1,0,0:0:0:0:
256,192,108282,1,0,0:0:0:0:
256,192,108456,1,0,0:0:0:0:
256,192,108631,1,6,0:0:0:0:
256,192,108979,1,4,0:0:0:0:
256,192,109328,1,6,0:0:0:0:
256,192,110026,1,6,0:0:0:0:
256,192,110200,1,0,0:0:0:0:
256,192,110288,1,0,0:0:0:0:
256,192,110375,1,0,0:0:0:0:
256,192,110549,1,0,0:0:0:0:
256,192,110724,1,6,0:0:0:0:
256,192,110898,1,0,0:0:0:0:
256,192,110985,1,0,0:0:0:0:
256,192,111072,1,0,0:0:0:0:
256,192,111247,1,0,0:0:0:0:
256,192,111421,1,6,0:0:0:0:
256,192,111770,1,4,0:0:0:0:
256,192,112293,1,0,0:0:0:0:
256,192,112817,1,0,0:0:0:0:
256,192,112991,1,2,0:0:0:0:
256,192,113165,1,2,0:0:0:0:
256,192,113340,1,0,0:0:0:0:
256,192,113514,1,2,0:0:0:0:
256,192,113863,1,0,0:0:0:0:
256,192,114212,1,0,0:0:0:0:
256,192,114299,1,0,0:0:0:0:
256,192,114386,1,0,0:0:0:0:
256,192,114561,1,6,0:0:0:0:
256,192,114910,1,6,0:0:0:0:
256,192,115433,1,0,0:0:0:0:
256,192,115607,1,6,0:0:0:0:
256,192,115782,1,0,0:0:0:0:
256,192,115869,1,0,0:0:0:0:
256,192,115956,1,0,0:0:0:0:
256,192,116131,1,0,0:0:0:0:
256,192,116305,1,6,0:0:0:0:
256,192,116479,1,0,0:0:0:0:
256,192,116567,1,0,0:0:0:0:
256,192,116654,1,0,0:0:0:0:
256,192,116828,1,0,0:0:0:0:
256,192,117003,1,6,0:0:0:0:
256,192,117352,1,4,0:0:0:0:
256,192,117700,1,6,0:0:0:0:
256,192,118224,1,0,0:0:0:0:
256,192,118398,1,6,0:0:0:0:
256,192,118572,1,0,0:0:0:0:
256,192,118660,1,0,0:0:0:0:
256,192,118747,1,0,0:0:0:0:
256,192,118921,1,0,0:0:0:0:
256,192,119096,1,6,0:0:0:0:
256,192,119270,1,0,0:0:0:0:
256,192,119357,1,0,0:0:0:0:
256,192,119445,1,0,0:0:0:0:
256,192,119619,1,0,0:0:0:0:
256,192,119793,1,6,0:0:0:0:
256,192,120142,1,4,0:0:0:0:
256,192,120491,1,6,0:0:0:0:
256,192,121014,1,0,0:0:0:0:
256,192,121189,1,6,0:0:0:0:
256,192,121363,1,0,0:0:0:0:
256,192,121450,1,0,0:0:0:0:
256,192,121538,1,0,0:0:0:0:
256,192,121712,1,0,0:0:0:0:
256,192,121886,1,6,0:0:0:0:
256,192,122061,1,0,0:0:0:0:
256,192,122148,1,0,0:0:0:0:
256,192,122235,1,0,0:0:0:0:
256,192,122410,1,0,0:0:0:0:
256,192,122584,1,6,0:0:0:0:
256,192,122933,1,4,0:0:0:0:
256,192,123282,1,6,0:0:0:0:
256,192,123805,1,0,0:0:0:0:
256,192,123979,1,6,0:0:0:0:
256,192,124154,1,0,0:0:0:0:
256,192,124328,1,2,0:0:0:0:
256,192,124415,1,2,0:0:0:0:
256,192,124503,1,2,0:0:0:0:
256,192,124677,1,6,0:0:0:0:
256,192,124852,1,0,0:0:0:0:
256,192,125026,1,2,0:0:0:0:
256,192,125113,1,2,0:0:0:0:
256,192,125200,1,2,0:0:0:0:
256,192,125375,1,6,0:0:0:0:
256,192,125724,1,4,0:0:0:0:
256,192,126072,1,6,0:0:0:0:
256,192,126596,1,0,0:0:0:0:
256,192,126770,1,6,0:0:0:0:
256,192,126945,1,0,0:0:0:0:
256,192,127032,1,0,0:0:0:0:
256,192,127119,1,0,0:0:0:0:
256,192,127293,1,0,0:0:0:0:
256,192,127468,1,6,0:0:0:0:
256,192,127642,1,0,0:0:0:0:
256,192,127729,1,0,0:0:0:0:
256,192,127817,1,0,0:0:0:0:
256,192,127991,1,0,0:0:0:0:
256,192,128165,1,6,0:0:0:0:
256,192,128514,1,4,0:0:0:0:
256,192,128863,1,6,0:0:0:0:
256,192,129386,1,0,0:0:0:0:
256,192,129561,1,6,0:0:0:0:
256,192,129735,1,0,0:0:0:0:
256,192,129822,1,0,0:0:0:0:
256,192,129910,1,0,0:0:0:0:
256,192,130084,1,0,0:0:0:0:
256,192,130258,1,6,0:0:0:0:
256,192,130433,1,0,0:0:0:0:
256,192,130520,1,0,0:0:0:0:
256,192,130607,1,0,0:0:0:0:
256,192,130782,1,0,0:0:0:0:
256,192,130956,1,6,0:0:0:0:
256,192,131305,1,4,0:0:0:0:
256,192,131654,1,6,0:0:0:0:
256,192,132177,1,0,0:0:0:0:
256,192,132352,1,6,0:0:0:0:
256,192,132526,1,0,0:0:0:0:
256,192,132613,1,0,0:0:0:0:
256,192,132700,1,0,0:0:0:0:
256,192,132875,1,0,0:0:0:0:
256,192,133049,1,6,0:0:0:0:
256,192,133224,1,0,0:0:0:0:
256,192,133311,1,0,0:0:0:0:
256,192,133398,1,0,0:0:0:0:
256,192,133572,1,0,0:0:0:0:
256,192,133747,1,6,0:0:0:0:
256,192,134096,1,4,0:0:0:0:
256,192,134619,1,0,0:0:0:0:
256,192,135142,1,0,0:0:0:0:
256,192,135665,1,0,0:0:0:0:
256,192,136189,1,0,0:0:0:0:
256,192,136538,1,0,0:0:0:0:
256,192,136625,1,0,0:0:0:0:
256,192,136712,1,0,0:0:0:0:
256,192,136886,1,2,0:0:0:0:
256,192,138282,1,2,0:0:0:0:
256,192,139183,1,2,0:0:0:0:
256,192,142468,1,6,0:0:0:0:
256,192,145433,1,0,0:0:0:0:
256,192,148049,1,2,0:0:0:0:
256,192,148224,12,2,157642,0:0:0:0:
256,192,157817,5,4,0:0:0:0:
256,192,159212,1,6,0:0:0:0:
256,192,162003,1,4,0:0:0:0:
256,192,164445,1,0,0:0:0:0:
256,192,164619,1,2,0:0:0:0:
256,192,164793,1,6,0:0:0:0:
256,192,166189,1,6,0:0:0:0:
256,192,166538,1,6,0:0:0:0:
256,192,167584,1,4,0:0:0:0:
256,192,169503,1,2,0:0:0:0:
256,192,170026,1,2,0:0:0:0:
256,192,170200,1,0,0:0:0:0:
256,192,170375,1,6,0:0:0:0:
256,192,171770,1,2,0:0:0:0:
256,192,172119,1,2,0:0:0:0:
256,192,175956,5,2,0:0:0:0:
256,192,176131,1,0,0:0:0:0:
256,192,176305,1,2,0:0:0:0:
256,192,176479,1,0,0:0:0:0:
256,192,176654,1,2,0:0:0:0:
256,192,177003,1,2,0:0:0:0:
256,192,177352,1,2,0:0:0:0:
256,192,177526,1,0,0:0:0:0:
256,192,177700,1,2,0:0:0:0:
256,192,177875,1,0,0:0:0:0:
256,192,178049,1,2,0:0:0:0:
256,192,178398,1,2,0:0:0:0:
256,192,178747,1,2,0:0:0:0:
256,192,178921,1,0,0:0:0:0:
256,192,179096,1,2,0:0:0:0:
256,192,179270,1,0,0:0:0:0:
256,192,179445,1,2,0:0:0:0:
256,192,179793,1,2,0:0:0:0:
256,192,180142,1,2,0:0:0:0:
256,192,180317,1,0,0:0:0:0:
256,192,180404,1,0,0:0:0:0:
256,192,180491,1,0,0:0:0:0:
256,192,180665,1,0,0:0:0:0:
256,192,180753,1,0,0:0:0:0:
256,192,180840,1,0,0:0:0:0:
256,192,181014,1,0,0:0:0:0:
256,192,181189,1,6,0:0:0:0:
256,192,181538,1,4,0:0:0:0:
256,192,181886,1,6,0:0:0:0:
256,192,182410,1,0,0:0:0:0:
256,192,182584,1,6,0:0:0:0:
256,192,182758,1,0,0:0:0:0:
256,192,182846,1,0,0:0:0:0:
256,192,182933,1,0,0:0:0:0:
256,192,183107,1,0,0:0:0:0:
256,192,183282,1,6,0:0:0:0:
256,192,183456,1,0,0:0:0:0:
256,192,183543,1,0,0:0:0:0:
256,192,183631,1,0,0:0:0:0:
256,192,183805,1,0,0:0:0:0:
256,192,183979,1,6,0:0:0:0:
256,192,184328,1,4,0:0:0:0:
256,192,184677,1,6,0:0:0:0:
256,192,185200,1,0,0:0:0:0:
256,192,185375,1,6,0:0:0:0:
256,192,185549,1,0,0:0:0:0:
256,192,185636,1,0,0:0:0:0:
256,192,185724,1,0,0:0:0:0:
256,192,185898,1,0,0:0:0:0:
256,192,186072,1,6,0:0:0:0:
256,192,186247,1,0,0:0:0:0:
256,192,186334,1,0,0:0:0:0:
256,192,186421,1,0,0:0:0:0:
256,192,186596,1,0,0:0:0:0:
256,192,186770,1,6,0:0:0:0:
256,192,187119,1,4,0:0:0:0:
256,192,187468,1,6,0:0:0:0:
256,192,187991,1,0,0:0:0:0:
256,192,188165,1,6,0:0:0:0:
256,192,188340,1,0,0:0:0:0:
256,192,188427,1,0,0:0:0:0:
256,192,188514,1,0,0:0:0:0:
256,192,188689,1,0,0:0:0:0:
256,192,188863,1,6,0:0:0:0:
256,192,189038,1,0,0:0:0:0:
256,192,189125,1,0,0:0:0:0:
256,192,189212,1,0,0:0:0:0:
256,192,189386,1,0,0:0:0:0:
256,192,189561,1,6,0:0:0:0:
256,192,189910,1,4,0:0:0:0:
256,192,190258,1,6,0:0:0:0:
256,192,190956,1,6,0:0:0:0:
256,192,191654,1,6,0:0:0:0:
256,192,192352,1,6,0:0:0:0:
256,192,192526,1,0,0:0:0:0:
256,192,192700,1,4,0:0:0:0:
256,192,193049,1,6,0:0:0:0:
256,192,193572,1,0,0:0:0:0:
256,192,193747,1,6,0:0:0:0:
256,192,193921,1,0,0:0:0:0:
256,192,194008,1,0,0:0:0:0:
256,192,194096,1,0,0:0:0:0:
256,192,194270,1,0,0:0:0:0:
256,192,194445,1,6,0:0:0:0:
256,192,194619,1,0,0:0:0:0:
256,192,194706,1,0,0:0:0:0:
256,192,194793,1,0,0:0:0:0:
256,192,194968,1,0,0:0:0:0:
256,192,195142,1,6,0:0:0:0:
256,192,195491,1,4,0:0:0:0:
256,192,195840,1,6,0:0:0:0:
256,192,196363,1,0,0:0:0:0:
256,192,196538,1,6,0:0:0:0:
256,192,196712,1,0,0:0:0:0:
256,192,196799,1,0,0:0:0:0:
256,192,196886,1,0,0:0:0:0:
256,192,197061,1,0,0:0:0:0:
256,192,197235,1,6,0:0:0:0:
256,192,197410,1,2,0:0:0:0:
256,192,197497,1,2,0:0:0:0:
256,192,197584,1,2,0:0:0:0:
256,192,197758,1,0,0:0:0:0:
256,192,197933,1,6,0:0:0:0:
256,192,198282,1,4,0:0:0:0:
256,192,198631,1,6,0:0:0:0:
256,192,199154,1,0,0:0:0:0:
256,192,199328,1,6,0:0:0:0:
256,192,199503,1,0,0:0:0:0:
256,192,199590,1,0,0:0:0:0:
256,192,199677,1,0,0:0:0:0:
256,192,199852,1,0,0:0:0:0:
256,192,200026,1,6,0:0:0:0:
256,192,200200,1,0,0:0:0:0:
256,192,200288,1,0,0:0:0:0:
256,192,200375,1,0,0:0:0:0:
256,192,200549,1,0,0:0:0:0:
256,192,200724,1,6,0:0:0:0:
256,192,201072,1,4,0:0:0:0:
256,192,201596,1,0,0:0:0:0:
256,192,202119,1,0,0:0:0:0:
256,192,202642,1,0,0:0:0:0:
256,192,203165,1,2,0:0:0:0:
256,192,203340,1,2,0:0:0:0:
256,192,203514,1,0,0:0:0:0:
256,192,203602,1,0,0:0:0:0:
256,192,203689,1,0,0:0:0:0:
256,192,203863,1,6,0:0:0:0:
256,192,204212,1,0,0:0:0:0:
256,192,204910,1,6,0:0:0:0:
256,192,205084,1,0,0:0:0:0:
256,192,205171,1,0,0:0:0:0:
256,192,205258,1,0,0:0:0:0:
256,192,205433,1,0,0:0:0:0:
256,192,205607,1,6,0:0:0:0:
256,192,205782,1,0,0:0:0:0:
256,192,205869,1,0,0:0:0:0:
256,192,205956,1,0,0:0:0:0:
256,192,206131,1,0,0:0:0:0:
256,192,206305,1,6,0:0:0:0:
256,192,206654,1,4,0:0:0:0:
256,192,207003,1,6,0:0:0:0:
256,192,207700,1,6,0:0:0:0:
256,192,207875,1,0,0:0:0:0:
256,192,207962,1,0,0:0:0:0:
256,192,208049,1,0,0:0:0:0:
256,192,208224,1,0,0:0:0:0:
256,192,208398,1,6,0:0:0:0:
256,192,208572,1,0,0:0:0:0:
256,192,208660,1,0,0:0:0:0:
256,192,208747,1,0,0:0:0:0:
256,192,208921,1,0,0:0:0:0:
256,192,209096,1,6,0:0:0:0:
256,192,209445,1,4,0:0:0:0:
256,192,209793,1,6,0:0:0:0:
256,192,210491,1,6,0:0:0:0:
256,192,210665,1,0,0:0:0:0:
256,192,210753,1,0,0:0:0:0:
256,192,210840,1,0,0:0:0:0:
256,192,211014,1,0,0:0:0:0:
256,192,211189,1,6,0:0:0:0:
256,192,211363,1,0,0:0:0:0:
256,192,211450,1,0,0:0:0:0:
256,192,211538,1,0,0:0:0:0:
256,192,211712,1,0,0:0:0:0:
256,192,211886,1,6,0:0:0:0:
256,192,212235,1,4,0:0:0:0:
256,192,212584,1,6,0:0:0:0:
256,192,213282,1,6,0:0:0:0:
256,192,213805,1,0,0:0:0:0:
256,192,213979,1,6,0:0:0:0:
256,192,214677,1,6,0:0:0:0:
256,192,215026,1,4,0:0:0:0:
256,192,215375,1,6,0:0:0:0:
256,192,216072,1,6,0:0:0:0:
256,192,216247,1,0,0:0:0:0:
256,192,216334,1,0,0:0:0:0:
256,192,216421,1,0,0:0:0:0:
256,192,216596,1,0,0:0:0:0:
256,192,216770,1,6,0:0:0:0:
256,192,216945,1,0,0:0:0:0:
256,192,217032,1,0,0:0:0:0:
256,192,217119,1,0,0:0:0:0:
256,192,217293,1,0,0:0:0:0:
256,192,217468,1,6,0:0:0:0:
256,192,217817,1,4,0:0:0:0:
256,192,218165,1,6,0:0:0:0:
256,192,218863,1,6,0:0:0:0:
256,192,219038,1,0,0:0:0:0:
256,192,219125,1,0,0:0:0:0:
256,192,219212,1,0,0:0:0:0:
256,192,219386,1,0,0:0:0:0:
256,192,219561,1,6,0:0:0:0:
256,192,219735,1,0,0:0:0:0:
256,192,219822,1,0,0:0:0:0:
256,192,219910,1,0,0:0:0:0:
256,192,220084,1,0,0:0:0:0:
256,192,220258,1,6,0:0:0:0:
256,192,220607,1,4,0:0:0:0:
256,192,220956,1,6,0:0:0:0:
256,192,221654,1,6,0:0:0:0:
256,192,221828,1,0,0:0:0:0:
256,192,221915,1,0,0:0:0:0:
256,192,222003,1,0,0:0:0:0:
256,192,222177,1,0,0:0:0:0:
256,192,222352,1,6,0:0:0:0:
256,192,222526,1,0,0:0:0:0:
256,192,222613,1,0,0:0:0:0:
256,192,222700,1,0,0:0:0:0:
256,192,222875,1,0,0:0:0:0:
256,192,223049,1,6,0:0:0:0:
256,192,223398,1,4,0:0:0:0:
256,192,223921,1,0,0:0:0:0:
256,192,224445,1,0,0:0:0:0:
256,192,224619,1,2,0:0:0:0:
256,192,224793,1,2,0:0:0:0:
256,192,224968,1,0,0:0:0:0:
256,192,225142,1,2,0:0:0:0:
256,192,225491,1,0,0:0:0:0:
256,192,225840,1,0,0:0:0:0:
256,192,225927,1,0,0:0:0:0:
256,192,226014,1,0,0:0:0:0:
256,192,226189,1,6,0:0:0:0:
256,192,226538,1,6,0:0:0:0:
256,192,227061,1,0,0:0:0:0:
256,192,227235,1,6,0:0:0:0:
256,192,227410,1,0,0:0:0:0:
256,192,227497,1,0,0:0:0:0:
256,192,227584,1,0,0:0:0:0:
256,192,227758,1,0,0:0:0:0:
256,192,227933,1,6,0:0:0:0:
256,192,228107,1,0,0:0:0:0:
256,192,228195,1,0,0:0:0:0:
256,192,228282,1,0,0:0:0:0:
256,192,228456,1,0,0:0:0:0:
256,192,228631,1,6,0:0:0:0:
256,192,228979,1,4,0:0:0:0:
256,192,229328,1,6,0:0:0:0:
256,192,229852,1,0,0:0:0:0:
256,192,230026,1,6,0:0:0:0:
256,192,230200,1,0,0:0:0:0:
256,192,230288,1,0,0:0:0:0:
256,192,230375,1,0,0:0:0:0:
256,192,230549,1,0,0:0:0:0:
256,192,230724,1,6,0:0:0:0:
256,192,230898,1,0,0:0:0:0:
256,192,230985,1,0,0:0:0:0:
256,192,231072,1,0,0:0:0:0:
256,192,231247,1,0,0:0:0:0:
256,192,231421,1,6,0:0:0:0:
256,192,231770,1,4,0:0:0:0:
256,192,232119,1,6,0:0:0:0:
256,192,232642,1,0,0:0:0:0:
256,192,232817,1,6,0:0:0:0:
256,192,232991,1,0,0:0:0:0:
256,192,233078,1,0,0:0:0:0:
256,192,233165,1,0,0:0:0:0:
256,192,233340,1,0,0:0:0:0:
256,192,233514,1,6,0:0:0:0:
256,192,233689,1,0,0:0:0:0:
256,192,233776,1,0,0:0:0:0:
256,192,233863,1,0,0:0:0:0:
256,192,234038,1,0,0:0:0:0:
256,192,234212,1,6,0:0:0:0:
256,192,234561,1,4,0:0:0:0:
256,192,234910,1,6,0:0:0:0:
256,192,235433,1,0,0:0:0:0:
256,192,235607,1,6,0:0:0:0:
256,192,235782,1,0,0:0:0:0:
256,192,235956,1,2,0:0:0:0:
256,192,236043,1,2,0:0:0:0:
256,192,236131,1,2,0:0:0:0:
256,192,236305,1,6,0:0:0:0:
256,192,236479,1,0,0:0:0:0:
256,192,236654,1,2,0:0:0:0:
256,192,236741,1,2,0:0:0:0:
256,192,236828,1,2,0:0:0:0:
256,192,237003,1,6,0:0:0:0:
256,192,237352,1,4,0:0:0:0:
256,192,237700,1,6,0:0:0:0:
256,192,238224,1,0,0:0:0:0:
256,192,238398,1,6,0:0:0:0:
256,192,238572,1,0,0:0:0:0:
256,192,238660,1,0,0:0:0:0:
256,192,238747,1,0,0:0:0:0:
256,192,238921,1,0,0:0:0:0:
256,192,239096,1,6,0:0:0:0:
256,192,239270,1,0,0:0:0:0:
256,192,239357,1,0,0:0:0:0:
256,192,239445,1,0,0:0:0:0:
256,192,239619,1,0,0:0:0:0:
256,192,239793,1,6,0:0:0:0:
256,192,240142,1,4,0:0:0:0:
256,192,240491,1,6,0:0:0:0:
256,192,241014,1,0,0:0:0:0:
256,192,241189,1,6,0:0:0:0:
256,192,241363,1,0,0:0:0:0:
256,192,241450,1,0,0:0:0:0:
256,192,241538,1,0,0:0:0:0:
256,192,241712,1,0,0:0:0:0:
256,192,241886,1,6,0:0:0:0:
256,192,242061,1,0,0:0:0:0:
256,192,242148,1,0,0:0:0:0:
256,192,242235,1,0,0:0:0:0:
256,192,242410,1,0,0:0:0:0:
256,192,242584,1,6,0:0:0:0:
256,192,242933,1,4,0:0:0:0:
256,192,243282,1,6,0:0:0:0:
256,192,243805,1,0,0:0:0:0:
256,192,243979,1,6,0:0:0:0:
256,192,244154,1,0,0:0:0:0:
256,192,244241,1,0,0:0:0:0:
256,192,244328,1,0,0:0:0:0:
256,192,244503,1,0,0:0:0:0:
256,192,244677,1,6,0:0:0:0:
256,192,244852,1,0,0:0:0:0:
256,192,244939,1,0,0:0:0:0:
256,192,245026,1,0,0:0:0:0:
256,192,245200,1,0,0:0:0:0:
256,192,245375,1,6,0:0:0:0:
256,192,245724,1,4,0:0:0:0:
256,192,246247,1,0,0:0:0:0:
256,192,246770,1,0,0:0:0:0:
256,192,247293,1,0,0:0:0:0:
256,192,247817,1,0,0:0:0:0:
256,192,248165,1,0,0:0:0:0:
256,192,248253,1,0,0:0:0:0:
256,192,248340,1,0,0:0:0:0:
256,192,248514,1,2,0:0:0:0:
256,192,249212,12,0,252700,0:0:0:0:
