osu file format v14

[General]
AudioFilename: audio.mp3
AudioLeadIn: 0
PreviewTime: 69910
Countdown: 0
SampleSet: Normal
StackLeniency: 0.7
Mode: 1
LetterboxInBreaks: 0
WidescreenStoryboard: 0

[Editor]
Bookmarks: 25258,47584,69909,92235,114560,136886,159211,181537,203863,226188,248514
DistanceSpacing: 1
BeatDivisor: 7
GridSize: 32
TimelineZoom: 1.3

[Metadata]
Title:Flame Fetish
TitleUnicode:Flame Fetish
Artist:Task Horizon
ArtistUnicode:Task Horizon
Creator:Cynplytholowazy
Version:Burn
Source:osu!
Tags:Electronic Drum n' and Bass Instrumental Organimatronics EP neurofunk chamber dnb d&b featured artist FA
BeatmapID:2452385
BeatmapSetID:1175776

[Difficulty]
HPDrainRate:6.6
CircleSize:10
OverallDifficulty:6.6
ApproachRate:10
SliderMultiplier:1.4
SliderTickRate:1

[Events]
//Background and Video events
0,0,"fire-2777580_1920.jpg",0,0
//Break Periods
2,49677,52715
//Storyboard Layer 0 (Background)
//Storyboard Layer 1 (Fail)
//Storyboard Layer 2 (Pass)
//Storyboard Layer 3 (Foreground)
//Storyboard Layer 4 (Overlay)
//Storyboard Sound Samples

[TimingPoints]
-2648,348.837209302326,4,1,0,5,1,0
1187,-100,4,1,0,10,0,0
1361,-100,4,1,0,15,0,0
1536,-100,4,1,0,20,0,0
1710,-100,4,1,0,25,0,0
1885,-100,4,1,0,30,0,0
2059,-100,4,1,0,35,0,0
2233,-100,4,1,0,40,0,0
2408,-100,4,1,0,45,0,0
2582,-100,4,1,0,50,0,0
2758,-100,4,1,0,80,0,0
22991,-111.111111111111,4,1,0,80,0,0
23514,-125,4,1,0,80,0,0
23863,-136.363636983471,4,1,0,80,0,0
24038,-142.857142857143,4,1,0,80,0,0
24561,-83.3333333333333,4,1,0,80,0,0
24997,-86.9565217391304,4,1,0,80,0,0
25084,-90.9090909090909,4,1,0,80,0,0
25171,-95.2380952380952,4,1,0,80,0,0
25258,-100,4,1,0,80,0,0
45316,-111.111111111111,4,1,0,80,0,0
45839,-125,4,1,0,80,0,0
46188,-136.363636983471,4,1,0,80,0,0
46363,-142.857142857143,4,1,0,80,0,0
46886,-83.3333333333333,4,1,0,80,0,0
47322,-86.9565217391304,4,1,0,80,0,0
47409,-90.9090909090909,4,1,0,80,0,0
47496,-95.2380952380952,4,1,0,80,0,0
47583,-100,4,1,0,80,0,0
47933,-100,4,1,0,60,0,0
48107,-111.111111111111,4,1,0,60,0,0
48631,-125,4,1,0,60,0,0
48979,-136.363636363636,4,1,0,60,0,0
49154,-142.857142857143,4,1,0,60,0,0
49677,-166.666666666667,4,1,0,60,0,0
50200,-200,4,1,0,60,0,0
53165,-200,4,1,0,60,0,0
53340,-198.583701044153,4,1,0,60,0,0
53514,-197.18732006657,4,1,0,60,0,0
53689,-195.81043982941,4,1,0,60,0,0
53863,-194.452654667641,4,1,0,60,0,0
54038,-193.113197162781,4,1,0,60,0,0
54212,-191.792434555627,4,1,0,60,0,0
54386,-190.489615458613,4,1,0,60,0,0
54561,-189.204376675641,4,1,0,60,0,0
54735,-187.936364746897,4,1,0,60,0,0
54910,-186.68523562477,4,1,0,60,0,0
55084,-185.450654362634,4,1,0,60,0,0
55258,-184.232294815887,4,1,0,60,0,0
55433,-183.029504356102,4,1,0,60,0,0
55607,-181.842647919902,4,1,0,60,0,0
55782,-180.671084676924,4,1,0,60,0,0
55956,-179.514520929598,4,1,0,60,0,0
56131,-178.372670452924,4,1,0,60,0,0
56305,-177.245254258317,4,1,0,60,0,0
56479,-176.132000366355,4,1,0,60,0,0
56654,-175.032643588029,4,1,0,60,0,0
56828,-173.946622739346,4,1,0,60,0,0
57003,-172.874294456786,4,1,0,60,0,0
57177,-171.815106327779,4,1,0,60,0,0
57352,-170.768818296854,4,1,0,60,0,0
57526,-169.735196120532,4,1,0,60,0,0
57700,-168.714011192488,4,1,0,60,0,0
57875,-167.705040374988,4,1,0,60,0,0
57962,-133.333333333333,4,1,0,80,0,0
58834,-166.666666666667,4,1,0,60,0,0
59096,-165.485924594684,4,1,0,60,0,0
59270,-164.322064673878,4,1,0,60,0,0
59445,-163.174194980109,4,1,0,60,0,0
59619,-162.042513473835,4,1,0,60,0,0
59793,-160.926162248975,4,1,0,60,0,0
59968,-159.825087424323,4,1,0,60,0,0
60142,-158.739229543275,4,1,0,60,0,0
60317,-157.667778224503,4,1,0,60,0,0
60491,-156.610694004629,4,1,0,60,0,0
60665,-155.5679318488,4,1,0,60,0,0
60840,-154.538725086426,4,1,0,60,0,0
61014,-153.523282573419,4,1,0,60,0,0
61189,-152.520864854312,4,1,0,60,0,0
61363,-151.531452625964,4,1,0,60,0,0
61538,-150.555021085231,4,1,0,60,0,0
61712,-149.590868973358,4,1,0,60,0,0
61886,-148.638987114486,4,1,0,60,0,0
62061,-147.699360904865,4,1,0,60,0,0
62235,-146.771324405723,4,1,0,60,0,0
62410,-145.855090050933,4,1,0,60,0,0
62584,-144.950013987676,4,1,0,60,0,0
62758,-144.056101208054,4,1,0,60,0,0
62933,-143.173351430445,4,1,0,60,0,0
63107,-142.301151927825,4,1,0,60,0,0
63282,-141.439714857535,4,1,0,60,0,0
63456,-140.588447003779,4,1,0,60,0,0
63631,-139.74736471407,4,1,0,60,0,0
63805,-138.916479245183,4,1,0,60,0,0
63979,-138.095224943312,4,1,0,60,0,0
64154,-137.283623848362,4,1,0,60,0,0
64328,-136.481693028106,4,1,0,60,0,0
64503,-135.688892507259,4,1,0,60,0,0
64677,-134.905431292664,4,1,0,60,0,0
64852,-134.130785563772,4,1,0,60,0,0
64939,-133.333333333333,4,1,0,70,0,0
65200,-131.648235913639,4,1,0,70,0,0
65375,-130.005200208008,4,1,0,70,0,0
65549,-128.402670775552,4,1,0,70,0,0
65724,-126.839167935058,4,1,0,70,0,0
65898,-125.31328320802,4,1,0,70,0,0
66072,-123.823675086677,4,1,0,70,0,0
66247,-122.369065100343,4,1,0,70,0,0
66421,-120.948234155781,4,1,0,70,0,0
66596,-119.560019129603,4,1,0,70,0,0
66770,-118.203309692671,4,1,0,70,0,0
66945,-116.877045348294,4,1,0,70,0,0
67119,-115.580212667591,4,1,0,70,0,0
67293,-114.311842706904,4,1,0,70,0,0
67468,-113.071008593397,4,1,0,70,0,0
67642,-111.856823266219,4,1,0,70,0,0
67817,-110.668437361664,4,1,0,70,0,0
67991,-109.505037231713,4,1,0,70,0,0
68165,-108.365843086259,4,1,0,70,0,0
68340,-107.250107250107,4,1,0,70,0,0
68427,-106.157112526539,4,1,0,80,0,0
68602,-105.618926911703,4,1,0,80,0,0
68689,-105.086170659941,4,1,0,80,0,0
68776,-104.558762024258,4,1,0,80,0,0
68863,-104.036620890553,4,1,0,80,0,0
68950,-103.51966873706,4,1,0,80,0,0
69038,-103.007828594973,4,1,0,80,0,0
69125,-102.50102501025,4,1,0,80,0,0
69212,-101.999184006528,4,1,0,80,0,0
69299,-101.502233049127,4,1,0,80,0,0
69386,-101.010101010101,4,1,0,80,0,0
69474,-100.522718134298,4,1,0,80,0,0
69735,-100.522718134298,4,1,0,90,0,0
69910,-90.9421607857403,4,1,0,90,0,1
70258,-83.3611203734578,4,1,0,90,0,1
70433,-90.9421607857403,4,1,0,90,0,1
70956,-80,4,1,0,90,0,1
71043,-80.6013505562299,4,1,0,90,0,1
71131,-81.2118760999134,4,1,0,90,0,1
71218,-81.8316542841735,4,1,0,90,0,1
71305,-82.4610330388375,4,1,0,90,0,1
71392,-83.1000990553181,4,1,0,90,0,1
71479,-83.749217991677,4,1,0,90,0,1
71567,-84.4084864292256,4,1,0,90,0,1
71654,-85.078216658485,4,1,0,90,0,1
71741,-85.7587332405996,4,1,0,90,0,1
71828,-86.4501493858581,4,1,0,90,0,1
71915,-87.1528809692098,4,1,0,90,0,1
72003,-87.8670536331709,4,1,0,90,0,1
72090,-88.5931060388605,4,1,0,90,0,1
72177,-89.3311774742503,4,1,0,90,0,1
72264,-90.0816500075669,4,1,0,90,0,1
72352,-90.8449213600938,4,1,0,90,0,1
73048,-83.3611203734578,4,1,0,90,0,1
73223,-90.9421607857403,4,1,0,90,0,1
73746,-80,4,1,0,90,0,1
73833,-80.6013505562299,4,1,0,90,0,1
73921,-81.2118760999134,4,1,0,90,0,1
74008,-81.8316542841735,4,1,0,90,0,1
74095,-82.4610330388375,4,1,0,90,0,1
74182,-83.1000990553181,4,1,0,90,0,1
74269,-83.749217991677,4,1,0,90,0,1
74357,-84.4084864292256,4,1,0,90,0,1
74444,-85.078216658485,4,1,0,90,0,1
74531,-85.7587332405996,4,1,0,90,0,1
74618,-86.4501493858581,4,1,0,90,0,1
74705,-87.1528809692098,4,1,0,90,0,1
74793,-87.8670536331709,4,1,0,90,0,1
74880,-88.5931060388605,4,1,0,90,0,1
74967,-89.3311774742503,4,1,0,90,0,1
75054,-90.0816500075669,4,1,0,90,0,1
75142,-90.8449213600938,4,1,0,90,0,1
75838,-83.3611203734578,4,1,0,90,0,1
76013,-90.9421607857403,4,1,0,90,0,1
76536,-80,4,1,0,90,0,1
76623,-80.6013505562299,4,1,0,90,0,1
76711,-81.2118760999134,4,1,0,90,0,1
76798,-81.8316542841735,4,1,0,90,0,1
76885,-82.4610330388375,4,1,0,90,0,1
76972,-83.1000990553181,4,1,0,90,0,1
77059,-83.749217991677,4,1,0,90,0,1
77147,-84.4084864292256,4,1,0,90,0,1
77234,-85.078216658485,4,1,0,90,0,1
77321,-85.7587332405996,4,1,0,90,0,1
77408,-86.4501493858581,4,1,0,90,0,1
77495,-87.1528809692098,4,1,0,90,0,1
77583,-87.8670536331709,4,1,0,90,0,1
77670,-88.5931060388605,4,1,0,90,0,1
77757,-89.3311774742503,4,1,0,90,0,1
77844,-90.0816500075669,4,1,0,90,0,1
77932,-90.8449213600938,4,1,0,90,0,1
78631,-80,4,1,0,90,0,0
79328,-83.3333333333333,4,1,0,90,0,0
79677,-85.1063829787234,4,1,0,90,0,0
80026,-86.9565217391304,4,1,0,90,0,0
80724,-89.5522120739665,4,1,0,90,0,0
80811,-89.8876404494382,4,1,0,90,0,0
80898,-90.2255910452905,4,1,0,90,0,0
80985,-90.5660103951667,4,1,0,90,0,0
81072,-90.9090909090909,4,1,0,90,0,1
81421,-83.3611203734578,4,1,0,90,0,1
81596,-90.9421607857403,4,1,0,90,0,1
82119,-80,4,1,0,90,0,1
82206,-80.6013505562299,4,1,0,90,0,1
82293,-81.2118760999134,4,1,0,90,0,1
82381,-81.8316542841735,4,1,0,90,0,1
82468,-82.4610330388375,4,1,0,90,0,1
82555,-83.1000990553181,4,1,0,90,0,1
82642,-83.749217991677,4,1,0,90,0,1
82729,-84.4084864292256,4,1,0,90,0,1
82817,-85.078216658485,4,1,0,90,0,1
82904,-85.7587332405996,4,1,0,90,0,1
82991,-86.4501493858581,4,1,0,90,0,1
83078,-87.1528809692098,4,1,0,90,0,1
83165,-87.8670536331709,4,1,0,90,0,1
83253,-88.5931060388605,4,1,0,90,0,1
83340,-89.3311774742503,4,1,0,90,0,1
83427,-90.0816500075669,4,1,0,90,0,1
83514,-90.8449213600938,4,1,0,90,0,1
84211,-83.3611203734578,4,1,0,90,0,1
84386,-90.9421607857403,4,1,0,90,0,1
84909,-80,4,1,0,90,0,1
84996,-80.6013505562299,4,1,0,90,0,1
85084,-81.2118760999134,4,1,0,90,0,1
85171,-81.8316542841735,4,1,0,90,0,1
85258,-82.4610330388375,4,1,0,90,0,1
85345,-83.1000990553181,4,1,0,90,0,1
85432,-83.749217991677,4,1,0,90,0,1
85520,-84.4084864292256,4,1,0,90,0,1
85607,-80,4,1,0,90,0,1
85695,-80.8024654448256,4,1,0,90,0,1
85782,-81.6211927794628,4,1,0,90,0,1
85869,-82.4566133914488,4,1,0,90,0,1
85956,-83.3093818860411,4,1,0,90,0,1
86043,-84.1799734159644,4,1,0,90,0,1
86131,-85.068952639562,4,1,0,90,0,1
86218,-85.9769083219629,4,1,0,90,0,1
86305,-86.9043791116634,4,1,0,90,0,1
86392,-87.8521553647797,4,1,0,90,0,1
86479,-88.8208323933129,4,1,0,90,0,1
86567,-89.8111092749729,4,1,0,90,0,1
86654,-90.8237166154724,4,1,0,90,0,1
87001,-83.3611203734578,4,1,0,90,0,1
87176,-90.9421607857403,4,1,0,90,0,1
87699,-80,4,1,0,90,0,1
87786,-80.6013505562299,4,1,0,90,0,1
87874,-81.2118760999134,4,1,0,90,0,1
87961,-81.8316542841735,4,1,0,90,0,1
88048,-82.4610330388375,4,1,0,90,0,1
88135,-83.1000990553181,4,1,0,90,0,1
88222,-83.749217991677,4,1,0,90,0,1
88310,-84.4084864292256,4,1,0,90,0,1
88397,-85.078216658485,4,1,0,90,0,1
88484,-85.7587332405996,4,1,0,90,0,1
88571,-86.4501493858581,4,1,0,90,0,1
88658,-87.1528809692098,4,1,0,90,0,1
88746,-87.8670536331709,4,1,0,90,0,1
88833,-88.5931060388605,4,1,0,90,0,1
88920,-89.3311774742503,4,1,0,90,0,1
89007,-90.0816500075669,4,1,0,90,0,1
89095,-90.8449213600938,4,1,0,90,0,1
89445,-90.8449213600938,4,1,0,90,0,0
89968,-97.5609756097561,4,1,0,90,0,0
90491,-105.263157894737,4,1,0,90,0,0
90840,-111.111111111111,4,1,0,90,0,0
91014,-114.285714285714,4,1,0,90,0,0
91538,-83.3333333333333,4,1,0,90,0,0
91974,-85.1063829787234,4,1,0,90,0,0
92061,-86.9565217391304,4,1,0,90,0,0
92148,-88.8888888888889,4,1,0,90,0,0
92235,-90.9090909090909,4,1,0,90,0,0
92410,-86.9565217391304,4,1,0,90,0,0
93282,-80,4,1,0,90,0,1
93367,-80.6013505562299,4,1,0,90,0,1
93455,-81.2118760999134,4,1,0,90,0,1
93542,-81.8316542841735,4,1,0,90,0,1
93629,-82.4610330388375,4,1,0,90,0,1
93716,-83.1000990553181,4,1,0,90,0,1
93803,-83.749217991677,4,1,0,90,0,1
93891,-84.4084864292256,4,1,0,90,0,1
93978,-85.078216658485,4,1,0,90,0,1
94065,-85.7587332405996,4,1,0,90,0,1
94152,-86.4501493858581,4,1,0,90,0,1
94239,-87.1528809692098,4,1,0,90,0,1
94327,-87.8670536331709,4,1,0,90,0,1
94414,-88.5931060388605,4,1,0,90,0,1
94501,-89.3311774742503,4,1,0,90,0,1
94588,-90.0816500075669,4,1,0,90,0,1
94676,-90.8449213600938,4,1,0,90,0,1
95200,-86.9565217391304,4,1,0,90,0,1
96070,-80,4,1,0,90,0,1
96157,-80.6013505562299,4,1,0,90,0,1
96245,-81.2118760999134,4,1,0,90,0,1
96332,-81.8316542841735,4,1,0,90,0,1
96419,-82.4610330388375,4,1,0,90,0,1
96506,-83.1000990553181,4,1,0,90,0,1
96593,-83.749217991677,4,1,0,90,0,1
96681,-84.4084864292256,4,1,0,90,0,1
96768,-85.078216658485,4,1,0,90,0,1
96855,-85.7587332405996,4,1,0,90,0,1
96942,-86.4501493858581,4,1,0,90,0,1
97029,-87.1528809692098,4,1,0,90,0,1
97117,-87.8670536331709,4,1,0,90,0,1
97204,-88.5931060388605,4,1,0,90,0,1
97291,-89.3311774742503,4,1,0,90,0,1
97378,-90.0816500075669,4,1,0,90,0,1
97466,-90.8449213600938,4,1,0,90,0,1
97990,-86.9565217391304,4,1,0,90,0,1
98860,-80,4,1,0,90,0,1
98947,-80.6013505562299,4,1,0,90,0,1
99035,-81.2118760999134,4,1,0,90,0,1
99122,-81.8316542841735,4,1,0,90,0,1
99209,-82.4610330388375,4,1,0,90,0,1
99296,-83.1000990553181,4,1,0,90,0,1
99383,-83.749217991677,4,1,0,90,0,1
99471,-84.4084864292256,4,1,0,90,0,1
99558,-85.078216658485,4,1,0,90,0,1
99645,-85.7587332405996,4,1,0,90,0,1
99732,-86.4501493858581,4,1,0,90,0,1
99819,-87.1528809692098,4,1,0,90,0,1
99907,-87.8670536331709,4,1,0,90,0,1
99994,-88.5931060388605,4,1,0,90,0,1
100081,-89.3311774742503,4,1,0,90,0,1
100168,-90.0816500075669,4,1,0,90,0,1
100256,-90.8449213600938,4,1,0,90,0,1
100956,-80,4,1,0,90,0,0
103398,-90.9090909090909,4,1,0,90,0,1
103572,-86.9565217391304,4,1,0,90,0,1
104442,-80,4,1,0,90,0,1
104529,-80.6013505562299,4,1,0,90,0,1
104617,-81.2118760999134,4,1,0,90,0,1
104704,-81.8316542841735,4,1,0,90,0,1
104791,-82.4610330388375,4,1,0,90,0,1
104878,-83.1000990553181,4,1,0,90,0,1
104965,-83.749217991677,4,1,0,90,0,1
105053,-84.4084864292256,4,1,0,90,0,1
105140,-85.078216658485,4,1,0,90,0,1
105227,-85.7587332405996,4,1,0,90,0,1
105314,-86.4501493858581,4,1,0,90,0,1
105401,-87.1528809692098,4,1,0,90,0,1
105489,-87.8670536331709,4,1,0,90,0,1
105576,-88.5931060388605,4,1,0,90,0,1
105663,-89.3311774742503,4,1,0,90,0,1
105750,-90.0816500075669,4,1,0,90,0,1
105838,-90.8449213600938,4,1,0,90,0,1
106362,-86.9565217391304,4,1,0,90,0,1
107232,-80,4,1,0,90,0,1
107319,-80.6013505562299,4,1,0,90,0,1
107407,-81.2118760999134,4,1,0,90,0,1
107494,-81.8316542841735,4,1,0,90,0,1
107581,-82.4610330388375,4,1,0,90,0,1
107668,-83.1000990553181,4,1,0,90,0,1
107755,-83.749217991677,4,1,0,90,0,1
107843,-84.4084864292256,4,1,0,90,0,1
107930,-85.078216658485,4,1,0,90,0,1
108017,-85.7587332405996,4,1,0,90,0,1
108104,-86.4501493858581,4,1,0,90,0,1
108191,-87.1528809692098,4,1,0,90,0,1
108279,-87.8670536331709,4,1,0,90,0,1
108366,-88.5931060388605,4,1,0,90,0,1
108453,-89.3311774742503,4,1,0,90,0,1
108540,-90.0816500075669,4,1,0,90,0,1
108628,-87.719298245614,4,1,0,90,0,1
108718,-88.4955752212389,4,1,0,90,0,1
108805,-89.2857142857143,4,1,0,90,0,1
108892,-90.0900900900901,4,1,0,90,0,1
108979,-90.8449213600938,4,1,0,90,0,1
109152,-86.9565217391304,4,1,0,90,0,1
110022,-80,4,1,0,90,0,1
110109,-80.6013505562299,4,1,0,90,0,1
110197,-81.2118760999134,4,1,0,90,0,1
110284,-81.8316542841735,4,1,0,90,0,1
110371,-82.4610330388375,4,1,0,90,0,1
110458,-83.1000990553181,4,1,0,90,0,1
110545,-83.749217991677,4,1,0,90,0,1
110633,-84.4084864292256,4,1,0,90,0,1
110720,-85.078216658485,4,1,0,90,0,1
110807,-85.7587332405996,4,1,0,90,0,1
110894,-86.4501493858581,4,1,0,90,0,1
110981,-87.1528809692098,4,1,0,90,0,1
111069,-87.8670536331709,4,1,0,90,0,1
111156,-88.5931060388605,4,1,0,90,0,1
111243,-89.3311774742503,4,1,0,90,0,1
111330,-90.0816500075669,4,1,0,90,0,1
111418,-90.8449213600938,4,1,0,90,0,1
111770,-90.8449213600938,4,1,0,90,0,0
112293,-86.9565217391304,4,1,0,90,0,0
112817,-93.7162328698441,4,1,0,90,0,0
112991,-96.2092589866664,4,1,0,90,0,0
113165,-98.8385482198683,4,1,0,90,0,0
113340,-101.615586205074,4,1,0,90,0,0
113514,-104.553077415281,4,1,0,90,0,0
113863,-110.969070700614,4,1,0,90,0,0
114212,-95.2380952380952,4,1,0,90,0,0
114561,-86.9565217391304,4,1,0,90,0,1
132090,-86.9565217391304,4,1,0,90,0,1
132177,-86.6301895815069,4,1,0,90,0,1
132264,-86.3062975979231,4,1,0,90,0,1
132352,-85.984818520442,4,1,0,90,0,1
132439,-85.6656520997936,4,1,0,90,0,1
132526,-85.3489191839619,4,1,0,90,0,1
132613,-85.0345197632979,4,1,0,90,0,1
132700,-84.7224281447906,4,1,0,90,0,1
132788,-84.4126190112412,4,1,0,90,0,1
132875,-84.1050674144168,4,1,0,90,0,1
132962,-83.7997487683532,4,1,0,90,0,1
133049,-83.4966388428034,4,1,0,90,0,1
133136,-83.195644541617,4,1,0,90,0,1
133224,-82.8968812535335,4,1,0,90,0,1
133311,-82.6002560607938,4,1,0,90,0,1
133398,-82.3057460933578,4,1,0,90,0,1
133485,-82.0133288061976,4,1,0,90,0,1
133572,-81.7229819735446,4,1,0,90,0,1
133660,-81.4346836832582,4,1,0,90,0,1
133747,-81.1484123313127,4,1,0,90,0,1
133834,-80.8640812263523,4,1,0,90,0,1
133921,-80.5818006003344,4,1,0,90,0,1
134008,-80.3014838911208,4,1,0,90,0,1
134096,-80.0231106743628,4,1,0,90,0,0
134619,-93.0232558139535,4,1,0,90,0,0
135142,-100,4,1,0,90,0,0
135491,-105.263157894737,4,1,0,90,0,0
135665,-108.108108108108,4,1,0,90,0,0
136189,-117.647058823529,4,1,0,90,0,0
136538,-106.951871657754,4,1,0,90,0,0
136886,-100,4,1,0,90,0,0
137584,-166.666666666667,4,1,0,50,0,0
148136,-166.666666666667,4,1,0,20,0,0
157729,-166.666666666667,4,1,0,70,0,0
159038,-133.333333333333,4,1,0,80,0,0
172991,-153.846153846154,4,1,0,60,0,0
173340,-152.384667664278,4,1,0,60,0,0
173514,-150.950687429431,4,1,0,60,0,0
173689,-149.543667498628,4,1,0,60,0,0
173863,-148.162415640025,4,1,0,60,0,0
174038,-146.80644597743,4,1,0,60,0,0
174212,-145.475070664516,4,1,0,60,0,0
174386,-144.167834426126,4,1,0,60,0,0
174561,-142.883678397417,4,1,0,60,0,0
174735,-141.622197296716,4,1,0,60,0,0
174910,-140.382795807608,4,1,0,60,0,0
175084,-139.165092941407,4,1,0,60,0,0
175258,-137.968143155745,4,1,0,60,0,0
175433,-136.791607561293,4,1,0,60,0,0
175607,-135.634968322453,4,1,0,60,0,0
175782,-134.497905867606,4,1,0,60,0,0
175869,-133.379571584816,4,1,0,70,0,0
176131,-131.870102674062,4,1,0,70,0,0
176305,-130.438639055416,4,1,0,70,0,0
176479,-129.038085590962,4,1,0,70,0,0
176654,-127.667125842763,4,1,0,70,0,0
176828,-126.324991251994,4,1,0,70,0,0
177003,-125.010782179963,4,1,0,70,0,0
177177,-123.723789115276,4,1,0,70,0,0
177352,-122.462875379329,4,1,0,70,0,0
177526,-121.227403212041,4,1,0,70,0,0
177700,-120.016610298865,4,1,0,70,0,0
177875,-118.829764479407,4,1,0,70,0,0
178049,-117.666300724471,4,1,0,70,0,0
178224,-116.525263259701,4,1,0,70,0,0
178398,-115.406143068996,4,1,0,70,0,0
178572,-114.308314672501,4,1,0,70,0,0
178747,-113.231304379334,4,1,0,70,0,0
178921,-112.174273952012,4,1,0,70,0,0
179096,-111.136796059534,4,1,0,70,0,0
179270,-110.118333160815,4,1,0,70,0,0
179445,-109.118367240047,4,1,0,70,0,0
179619,-108.136515863086,4,1,0,70,0,0
179793,-107.172061529624,4,1,0,70,0,0
179968,-106.22465877984,4,1,0,70,0,0
180055,-105.293859367416,4,1,0,80,0,0
180229,-104.834660015956,4,1,0,80,0,0
180317,-104.379339571043,4,1,0,80,0,0
180404,-103.92795714011,4,1,0,80,0,0
180491,-103.480461853997,4,1,0,80,0,0
180578,-103.036803715919,4,1,0,80,0,0
180665,-102.596933582849,4,1,0,80,0,0
180753,-102.16080314737,4,1,0,80,0,0
180840,-101.728364919991,4,1,0,80,0,0
180927,-101.299572211907,4,1,0,80,0,0
181014,-100.874480874703,4,1,0,80,0,0
181102,-100.452841409072,4,1,0,80,0,0
181189,-100.03471204508,4,1,0,80,0,0
181538,-90.9421607857403,4,1,0,90,0,1
181885,-83.3611203734578,4,1,0,90,0,1
182060,-90.9421607857403,4,1,0,90,0,1
182583,-80,4,1,0,90,0,1
182670,-80.6013505562299,4,1,0,90,0,1
182758,-81.2118760999134,4,1,0,90,0,1
182845,-81.8316542841735,4,1,0,90,0,1
182932,-82.4610330388375,4,1,0,90,0,1
183019,-83.1000990553181,4,1,0,90,0,1
183106,-83.749217991677,4,1,0,90,0,1
183194,-84.4084864292256,4,1,0,90,0,1
183281,-85.078216658485,4,1,0,90,0,1
183368,-85.7587332405996,4,1,0,90,0,1
183455,-86.4501493858581,4,1,0,90,0,1
183542,-87.1528809692098,4,1,0,90,0,1
183630,-87.8670536331709,4,1,0,90,0,1
183717,-88.5931060388605,4,1,0,90,0,1
183804,-89.3311774742503,4,1,0,90,0,1
183891,-90.0816500075669,4,1,0,90,0,1
183979,-90.8449213600938,4,1,0,90,0,1
184675,-83.3611203734578,4,1,0,90,0,1
184850,-90.9421607857403,4,1,0,90,0,1
185373,-80,4,1,0,90,0,1
185460,-80.6013505562299,4,1,0,90,0,1
185548,-81.2118760999134,4,1,0,90,0,1
185635,-81.8316542841735,4,1,0,90,0,1
185722,-82.4610330388375,4,1,0,90,0,1
185809,-83.1000990553181,4,1,0,90,0,1
185896,-83.749217991677,4,1,0,90,0,1
185984,-84.4084864292256,4,1,0,90,0,1
186071,-85.078216658485,4,1,0,90,0,1
186158,-85.7587332405996,4,1,0,90,0,1
186245,-86.4501493858581,4,1,0,90,0,1
186332,-87.1528809692098,4,1,0,90,0,1
186420,-87.8670536331709,4,1,0,90,0,1
186507,-88.5931060388605,4,1,0,90,0,1
186594,-89.3311774742503,4,1,0,90,0,1
186681,-90.0816500075669,4,1,0,90,0,1
186769,-90.8449213600938,4,1,0,90,0,1
187465,-83.3611203734578,4,1,0,90,0,1
187640,-90.9421607857403,4,1,0,90,0,1
188163,-80,4,1,0,90,0,1
188250,-80.6013505562299,4,1,0,90,0,1
188338,-81.2118760999134,4,1,0,90,0,1
188425,-81.8316542841735,4,1,0,90,0,1
188512,-82.4610330388375,4,1,0,90,0,1
188599,-83.1000990553181,4,1,0,90,0,1
188686,-83.749217991677,4,1,0,90,0,1
188774,-84.4084864292256,4,1,0,90,0,1
188861,-85.078216658485,4,1,0,90,0,1
188948,-85.7587332405996,4,1,0,90,0,1
189035,-86.4501493858581,4,1,0,90,0,1
189122,-87.1528809692098,4,1,0,90,0,1
189210,-87.8670536331709,4,1,0,90,0,1
189297,-88.5931060388605,4,1,0,90,0,1
189384,-89.3311774742503,4,1,0,90,0,1
189471,-90.0816500075669,4,1,0,90,0,1
189559,-90.8449213600938,4,1,0,90,0,1
190258,-80,4,1,0,90,0,0
190955,-83.3333333333333,4,1,0,90,0,0
191304,-85.1063829787234,4,1,0,90,0,0
191653,-86.9565217391304,4,1,0,90,0,0
192351,-89.5522120739665,4,1,0,90,0,0
192438,-89.8876404494382,4,1,0,90,0,0
192525,-90.2255910452905,4,1,0,90,0,0
192612,-90.5660103951667,4,1,0,90,0,0
192700,-90.9090909090909,4,1,0,90,0,1
193048,-83.3611203734578,4,1,0,90,0,1
193223,-90.9421607857403,4,1,0,90,0,1
193746,-80,4,1,0,90,0,1
193833,-80.6013505562299,4,1,0,90,0,1
193920,-81.2118760999134,4,1,0,90,0,1
194008,-81.8316542841735,4,1,0,90,0,1
194095,-82.4610330388375,4,1,0,90,0,1
194182,-83.1000990553181,4,1,0,90,0,1
194269,-83.749217991677,4,1,0,90,0,1
194356,-84.4084864292256,4,1,0,90,0,1
194444,-85.078216658485,4,1,0,90,0,1
194531,-85.7587332405996,4,1,0,90,0,1
194618,-86.4501493858581,4,1,0,90,0,1
194705,-87.1528809692098,4,1,0,90,0,1
194792,-87.8670536331709,4,1,0,90,0,1
194880,-88.5931060388605,4,1,0,90,0,1
194967,-89.3311774742503,4,1,0,90,0,1
195054,-90.0816500075669,4,1,0,90,0,1
195141,-90.8449213600938,4,1,0,90,0,1
195838,-83.3611203734578,4,1,0,90,0,1
196013,-90.9421607857403,4,1,0,90,0,1
196536,-80,4,1,0,90,0,1
196623,-80.6013505562299,4,1,0,90,0,1
196711,-81.2118760999134,4,1,0,90,0,1
196798,-81.8316542841735,4,1,0,90,0,1
196885,-82.4610330388375,4,1,0,90,0,1
196972,-83.1000990553181,4,1,0,90,0,1
197059,-83.749217991677,4,1,0,90,0,1
197147,-84.4084864292256,4,1,0,90,0,1
197234,-80,4,1,0,90,0,1
197322,-80.8024654448256,4,1,0,90,0,1
197409,-81.6211927794628,4,1,0,90,0,1
197496,-82.4566133914488,4,1,0,90,0,1
197583,-83.3093818860411,4,1,0,90,0,1
197670,-84.1799734159644,4,1,0,90,0,1
197758,-85.068952639562,4,1,0,90,0,1
197845,-85.9769083219629,4,1,0,90,0,1
197932,-86.9043791116634,4,1,0,90,0,1
198019,-87.8521553647797,4,1,0,90,0,1
198106,-88.8208323933129,4,1,0,90,0,1
198194,-89.8111092749729,4,1,0,90,0,1
198281,-90.8237166154724,4,1,0,90,0,1
198628,-83.3611203734578,4,1,0,90,0,1
198803,-90.9421607857403,4,1,0,90,0,1
199326,-80,4,1,0,90,0,1
199413,-80.6013505562299,4,1,0,90,0,1
199501,-81.2118760999134,4,1,0,90,0,1
199588,-81.8316542841735,4,1,0,90,0,1
199675,-82.4610330388375,4,1,0,90,0,1
199762,-83.1000990553181,4,1,0,90,0,1
199849,-83.749217991677,4,1,0,90,0,1
199937,-84.4084864292256,4,1,0,90,0,1
200024,-85.078216658485,4,1,0,90,0,1
200111,-85.7587332405996,4,1,0,90,0,1
200198,-86.4501493858581,4,1,0,90,0,1
200285,-87.1528809692098,4,1,0,90,0,1
200373,-87.8670536331709,4,1,0,90,0,1
200460,-88.5931060388605,4,1,0,90,0,1
200547,-89.3311774742503,4,1,0,90,0,1
200634,-90.0816500075669,4,1,0,90,0,1
200722,-90.8449213600938,4,1,0,90,0,1
201072,-90.8449213600938,4,1,0,90,0,0
201595,-97.5609756097561,4,1,0,90,0,0
202118,-105.263157894737,4,1,0,90,0,0
202467,-111.111111111111,4,1,0,90,0,0
202641,-114.285714285714,4,1,0,90,0,0
203165,-83.3333333333333,4,1,0,90,0,0
203601,-85.1063829787234,4,1,0,90,0,0
203688,-86.9565217391304,4,1,0,90,0,0
203775,-88.8888888888889,4,1,0,90,0,0
203863,-90.9090909090909,4,1,0,90,0,0
204037,-86.9565217391304,4,1,0,90,0,0
204910,-80,4,1,0,90,0,1
204994,-80.6013505562299,4,1,0,90,0,1
205082,-81.2118760999134,4,1,0,90,0,1
205169,-81.8316542841735,4,1,0,90,0,1
205256,-82.4610330388375,4,1,0,90,0,1
205343,-83.1000990553181,4,1,0,90,0,1
205430,-83.749217991677,4,1,0,90,0,1
205518,-84.4084864292256,4,1,0,90,0,1
205605,-85.078216658485,4,1,0,90,0,1
205692,-85.7587332405996,4,1,0,90,0,1
205779,-86.4501493858581,4,1,0,90,0,1
205866,-87.1528809692098,4,1,0,90,0,1
205954,-87.8670536331709,4,1,0,90,0,1
206041,-88.5931060388605,4,1,0,90,0,1
206128,-89.3311774742503,4,1,0,90,0,1
206215,-90.0816500075669,4,1,0,90,0,1
206303,-90.8449213600938,4,1,0,90,0,1
206827,-86.9565217391304,4,1,0,90,0,1
207697,-80,4,1,0,90,0,1
207784,-80.6013505562299,4,1,0,90,0,1
207872,-81.2118760999134,4,1,0,90,0,1
207959,-81.8316542841735,4,1,0,90,0,1
208046,-82.4610330388375,4,1,0,90,0,1
208133,-83.1000990553181,4,1,0,90,0,1
208220,-83.749217991677,4,1,0,90,0,1
208308,-84.4084864292256,4,1,0,90,0,1
208395,-85.078216658485,4,1,0,90,0,1
208482,-85.7587332405996,4,1,0,90,0,1
208569,-86.4501493858581,4,1,0,90,0,1
208656,-87.1528809692098,4,1,0,90,0,1
208744,-87.8670536331709,4,1,0,90,0,1
208831,-88.5931060388605,4,1,0,90,0,1
208918,-89.3311774742503,4,1,0,90,0,1
209005,-90.0816500075669,4,1,0,90,0,1
209093,-90.8449213600938,4,1,0,90,0,1
209617,-86.9565217391304,4,1,0,90,0,1
210487,-80,4,1,0,90,0,1
210574,-80.6013505562299,4,1,0,90,0,1
210662,-81.2118760999134,4,1,0,90,0,1
210749,-81.8316542841735,4,1,0,90,0,1
210836,-82.4610330388375,4,1,0,90,0,1
210923,-83.1000990553181,4,1,0,90,0,1
211010,-83.749217991677,4,1,0,90,0,1
211098,-84.4084864292256,4,1,0,90,0,1
211185,-85.078216658485,4,1,0,90,0,1
211272,-85.7587332405996,4,1,0,90,0,1
211359,-86.4501493858581,4,1,0,90,0,1
211446,-87.1528809692098,4,1,0,90,0,1
211534,-87.8670536331709,4,1,0,90,0,1
211621,-88.5931060388605,4,1,0,90,0,1
211708,-89.3311774742503,4,1,0,90,0,1
211795,-90.0816500075669,4,1,0,90,0,1
211883,-90.8449213600938,4,1,0,90,0,1
212584,-80,4,1,0,90,0,0
215026,-90.9090909090909,4,1,0,90,0,1
215199,-86.9565217391304,4,1,0,90,0,1
216069,-80,4,1,0,90,0,1
216156,-80.6013505562299,4,1,0,90,0,1
216244,-81.2118760999134,4,1,0,90,0,1
216331,-81.8316542841735,4,1,0,90,0,1
216418,-82.4610330388375,4,1,0,90,0,1
216505,-83.1000990553181,4,1,0,90,0,1
216592,-83.749217991677,4,1,0,90,0,1
216680,-84.4084864292256,4,1,0,90,0,1
216767,-85.078216658485,4,1,0,90,0,1
216854,-85.7587332405996,4,1,0,90,0,1
216941,-86.4501493858581,4,1,0,90,0,1
217028,-87.1528809692098,4,1,0,90,0,1
217116,-87.8670536331709,4,1,0,90,0,1
217203,-88.5931060388605,4,1,0,90,0,1
217290,-89.3311774742503,4,1,0,90,0,1
217377,-90.0816500075669,4,1,0,90,0,1
217465,-90.8449213600938,4,1,0,90,0,1
217989,-86.9565217391304,4,1,0,90,0,1
218859,-80,4,1,0,90,0,1
218946,-80.6013505562299,4,1,0,90,0,1
219034,-81.2118760999134,4,1,0,90,0,1
219121,-81.8316542841735,4,1,0,90,0,1
219208,-82.4610330388375,4,1,0,90,0,1
219295,-83.1000990553181,4,1,0,90,0,1
219382,-83.749217991677,4,1,0,90,0,1
219470,-84.4084864292256,4,1,0,90,0,1
219557,-85.078216658485,4,1,0,90,0,1
219644,-85.7587332405996,4,1,0,90,0,1
219731,-86.4501493858581,4,1,0,90,0,1
219818,-87.1528809692098,4,1,0,90,0,1
219906,-87.8670536331709,4,1,0,90,0,1
219993,-88.5931060388605,4,1,0,90,0,1
220080,-89.3311774742503,4,1,0,90,0,1
220167,-90.0816500075669,4,1,0,90,0,1
220255,-87.719298245614,4,1,0,90,0,1
220345,-88.4955752212389,4,1,0,90,0,1
220432,-89.2857142857143,4,1,0,90,0,1
220519,-90.0900900900901,4,1,0,90,0,1
220606,-90.8449213600938,4,1,0,90,0,1
220779,-86.9565217391304,4,1,0,90,0,1
221649,-80,4,1,0,90,0,1
221736,-80.6013505562299,4,1,0,90,0,1
221824,-81.2118760999134,4,1,0,90,0,1
221911,-81.8316542841735,4,1,0,90,0,1
221998,-82.4610330388375,4,1,0,90,0,1
222085,-83.1000990553181,4,1,0,90,0,1
222172,-83.749217991677,4,1,0,90,0,1
222260,-84.4084864292256,4,1,0,90,0,1
222347,-85.078216658485,4,1,0,90,0,1
222434,-85.7587332405996,4,1,0,90,0,1
222521,-86.4501493858581,4,1,0,90,0,1
222608,-87.1528809692098,4,1,0,90,0,1
222696,-87.8670536331709,4,1,0,90,0,1
222783,-88.5931060388605,4,1,0,90,0,1
222870,-89.3311774742503,4,1,0,90,0,1
222957,-90.0816500075669,4,1,0,90,0,1
223045,-90.8449213600938,4,1,0,90,0,1
223398,-90.8449213600938,4,1,0,90,0,0
223920,-86.9565217391304,4,1,0,90,0,0
224444,-93.7162328698441,4,1,0,90,0,0
224618,-96.2092589866664,4,1,0,90,0,0
224792,-98.8385482198683,4,1,0,90,0,0
224967,-101.615586205074,4,1,0,90,0,0
225141,-104.553077415281,4,1,0,90,0,0
225490,-110.969070700614,4,1,0,90,0,0
225839,-95.2380952380952,4,1,0,90,0,0
226189,-86.9565217391304,4,1,0,90,0,1
243674,-86.9565217391304,4,1,0,90,0,1
243761,-86.6301895815069,4,1,0,90,0,1
243848,-86.3062975979231,4,1,0,90,0,1
243936,-85.984818520442,4,1,0,90,0,1
244023,-85.6656520997936,4,1,0,90,0,1
244110,-85.3489191839619,4,1,0,90,0,1
244197,-85.0345197632979,4,1,0,90,0,1
244284,-84.7224281447906,4,1,0,90,0,1
244372,-84.4126190112412,4,1,0,90,0,1
244459,-84.1050674144168,4,1,0,90,0,1
244546,-83.7997487683532,4,1,0,90,0,1
244633,-83.4966388428034,4,1,0,90,0,1
244720,-83.195644541617,4,1,0,90,0,1
244808,-82.8968812535335,4,1,0,90,0,1
244895,-82.6002560607938,4,1,0,90,0,1
244982,-82.3057460933578,4,1,0,90,0,1
245069,-82.0133288061976,4,1,0,90,0,1
245156,-81.7229819735446,4,1,0,90,0,1
245244,-81.4346836832582,4,1,0,90,0,1
245331,-81.1484123313127,4,1,0,90,0,1
245418,-80.8640812263523,4,1,0,90,0,1
245505,-80.5818006003344,4,1,0,90,0,1
245592,-80.3014838911208,4,1,0,90,0,1
245724,-80.0231106743628,4,1,0,90,0,0
246246,-93.0232558139535,4,1,0,90,0,0
246769,-100,4,1,0,90,0,0
247118,-105.263157894737,4,1,0,90,0,0
247292,-108.108108108108,4,1,0,90,0,0
247816,-117.647058823529,4,1,0,90,0,0
248165,-106.951871657754,4,1,0,90,0,0
248513,-100,4,1,0,90,0,0
248863,-100,4,1,0,12,0,0

[HitObjects]
256,192,142,8,6,2584,0:0:0:0:
256,192,2933,5,6,0:0:0:0:
256,192,3282,1,2,0:0:0:0:
256,192,3805,1,0,0:0:0:0:
256,192,3979,1,2,0:0:0:0:
256,192,4503,1,0,0:0:0:0:
256,192,4677,1,2,0:0:0:0:
256,192,5200,1,0,0:0:0:0:
256,192,5375,1,2,0:0:0:0:
256,192,5724,1,4,0:0:0:0:
256,192,6072,1,2,0:0:0:0:
256,192,6596,1,0,0:0:0:0:
256,192,6770,1,2,0:0:0:0:
256,192,7293,1,0,0:0:0:0:
256,192,7468,1,2,0:0:0:0:
256,192,7991,1,0,0:0:0:0:
256,192,8165,1,2,0:0:0:0:
256,192,8514,1,6,0:0:0:0:
256,192,8863,1,2,0:0:0:0:
256,192,9386,1,0,0:0:0:0:
256,192,9561,1,2,0:0:0:0:
256,192,10084,1,0,0:0:0:0:
256,192,10258,1,2,0:0:0:0:
256,192,10782,1,0,0:0:0:0:
256,192,10956,1,2,0:0:0:0:
256,192,11305,1,4,0:0:0:0:
256,192,11654,1,2,0:0:0:0:
256,192,12177,1,0,0:0:0:0:
256,192,12352,1,2,0:0:0:0:
256,192,12875,1,0,0:0:0:0:
256,192,13049,1,2,0:0:0:0:
256,192,13572,1,0,0:0:0:0:
256,192,13747,1,2,0:0:0:0:
256,192,14096,1,6,0:0:0:0:
256,192,14445,1,2,0:0:0:0:
256,192,14968,1,0,0:0:0:0:
256,192,15142,1,2,0:0:0:0:
256,192,15665,1,0,0:0:0:0:
256,192,15840,1,2,0:0:0:0:
256,192,16363,1,0,0:0:0:0:
256,192,16538,1,2,0:0:0:0:
256,192,16886,1,4,0:0:0:0:
256,192,17235,1,2,0:0:0:0:
256,192,17758,1,0,0:0:0:0:
256,192,17933,1,2,0:0:0:0:
256,192,18456,1,0,0:0:0:0:
256,192,18631,1,2,0:0:0:0:
256,192,19154,1,0,0:0:0:0:
256,192,19328,1,2,0:0:0:0:
256,192,19677,1,6,0:0:0:0:
256,192,20026,1,2,0:0:0:0:
256,192,20549,1,0,0:0:0:0:
256,192,20724,1,2,0:0:0:0:
256,192,21247,1,0,0:0:0:0:
256,192,21421,1,2,0:0:0:0:
256,192,21945,1,0,0:0:0:0:
256,192,22119,1,2,0:0:0:0:
256,192,22468,1,4,0:0:0:0:
256,192,22991,1,0,0:0:0:0:
256,192,23514,1,0,0:0:0:0:
256,192,24038,1,0,0:0:0:0:
256,192,24561,1,0,0:0:0:0:
256,192,24619,1,0,0:0:0:0:
256,192,24677,1,2,0:0:0:0:
256,192,24735,1,0,0:0:0:0:
256,192,24910,1,0,0:0:0:0:
256,192,24997,1,0,0:0:0:0:
256,192,25084,1,0,0:0:0:0:
256,192,25171,1,0,0:0:0:0:
256,192,25258,1,6,0:0:0:0:
256,192,25433,1,0,0:0:0:0:
256,192,25607,1,2,0:0:0:0:
256,192,25695,1,0,0:0:0:0:
256,192,25782,1,2,0:0:0:0:
256,192,25869,1,2,0:0:0:0:
256,192,25956,1,2,0:0:0:0:
256,192,26043,1,2,0:0:0:0:
256,192,26131,1,0,0:0:0:0:
256,192,26305,1,2,0:0:0:0:
256,192,26828,1,0,0:0:0:0:
256,192,27003,1,2,0:0:0:0:
256,192,27526,1,0,0:0:0:0:
256,192,27700,1,2,0:0:0:0:
256,192,28049,1,4,0:0:0:0:
256,192,28224,1,2,0:0:0:0:
256,192,28398,1,2,0:0:0:0:
256,192,28485,1,0,0:0:0:0:
256,192,28572,1,2,0:0:0:0:
256,192,28660,1,2,0:0:0:0:
256,192,28747,1,2,0:0:0:0:
256,192,28834,1,2,0:0:0:0:
256,192,28921,1,0,0:0:0:0:
256,192,29096,1,2,0:0:0:0:
256,192,29619,1,0,0:0:0:0:
256,192,29793,1,2,0:0:0:0:
256,192,30317,1,0,0:0:0:0:
256,192,30491,1,2,0:0:0:0:
256,192,30840,1,6,0:0:0:0:
256,192,31014,1,0,0:0:0:0:
256,192,31189,1,2,0:0:0:0:
256,192,31276,1,0,0:0:0:0:
256,192,31363,1,2,0:0:0:0:
256,192,31450,1,2,0:0:0:0:
256,192,31538,1,2,0:0:0:0:
256,192,31625,1,2,0:0:0:0:
256,192,31712,1,0,0:0:0:0:
256,192,31886,1,2,0:0:0:0:
256,192,32410,1,0,0:0:0:0:
256,192,32584,1,2,0:0:0:0:
256,192,33107,1,0,0:0:0:0:
256,192,33282,1,2,0:0:0:0:
256,192,33631,1,4,0:0:0:0:
256,192,33805,1,2,0:0:0:0:
256,192,33979,1,2,0:0:0:0:
256,192,34067,1,0,0:0:0:0:
256,192,34154,1,2,0:0:0:0:
256,192,34241,1,2,0:0:0:0:
256,192,34328,1,2,0:0:0:0:
256,192,34415,1,2,0:0:0:0:
256,192,34503,1,0,0:0:0:0:
256,192,34677,1,2,0:0:0:0:
256,192,35200,1,0,0:0:0:0:
256,192,35375,1,2,0:0:0:0:
256,192,35549,1,2,0:0:0:0:
256,192,35724,1,0,0:0:0:0:
256,192,35811,1,0,0:0:0:0:
256,192,35898,1,0,0:0:0:0:
256,192,36072,1,2,0:0:0:0:
256,192,36247,1,2,0:0:0:0:
256,192,36334,1,0,0:0:0:0:
256,192,36421,1,6,0:0:0:0:
256,192,36596,1,0,0:0:0:0:
256,192,36770,1,2,0:0:0:0:
256,192,36857,1,0,0:0:0:0:
256,192,36945,1,2,0:0:0:0:
256,192,37032,1,2,0:0:0:0:
256,192,37119,1,2,0:0:0:0:
256,192,37206,1,2,0:0:0:0:
256,192,37293,1,0,0:0:0:0:
256,192,37468,1,2,0:0:0:0:
256,192,37991,1,0,0:0:0:0:
256,192,38165,1,2,0:0:0:0:
256,192,38689,1,0,0:0:0:0:
256,192,38863,1,2,0:0:0:0:
256,192,39212,1,4,0:0:0:0:
256,192,39386,1,2,0:0:0:0:
256,192,39561,1,2,0:0:0:0:
256,192,39648,1,0,0:0:0:0:
256,192,39735,1,2,0:0:0:0:
256,192,39822,1,2,0:0:0:0:
256,192,39910,1,2,0:0:0:0:
256,192,39997,1,2,0:0:0:0:
256,192,40084,1,0,0:0:0:0:
256,192,40258,1,2,0:0:0:0:
256,192,40782,1,0,0:0:0:0:
256,192,40956,1,2,0:0:0:0:
256,192,41479,1,0,0:0:0:0:
256,192,41654,1,2,0:0:0:0:
256,192,42003,1,6,0:0:0:0:
256,192,42177,1,0,0:0:0:0:
256,192,42352,1,2,0:0:0:0:
256,192,42439,1,0,0:0:0:0:
256,192,42526,1,2,0:0:0:0:
256,192,42613,1,2,0:0:0:0:
256,192,42700,1,2,0:0:0:0:
256,192,42788,1,2,0:0:0:0:
256,192,42875,1,0,0:0:0:0:
256,192,43049,1,2,0:0:0:0:
256,192,43572,1,0,0:0:0:0:
256,192,43747,1,2,0:0:0:0:
256,192,44270,1,0,0:0:0:0:
256,192,44445,1,2,0:0:0:0:
256,192,44793,1,4,0:0:0:0:
256,192,45317,1,0,0:0:0:0:
256,192,45840,1,0,0:0:0:0:
256,192,46363,1,0,0:0:0:0:
256,192,46886,1,0,0:0:0:0:
256,192,46945,1,0,0:0:0:0:
256,192,47003,1,2,0:0:0:0:
256,192,47060,1,0,0:0:0:0:
256,192,47235,1,0,0:0:0:0:
256,192,47322,1,0,0:0:0:0:
256,192,47410,1,0,0:0:0:0:
256,192,47497,1,0,0:0:0:0:
256,192,47584,1,6,0:0:0:0:
256,192,53165,5,0,0:0:0:0:
256,192,53340,1,0,0:0:0:0:
256,192,53514,1,0,0:0:0:0:
256,192,53689,1,0,0:0:0:0:
256,192,53863,1,2,0:0:0:0:
256,192,54038,1,0,0:0:0:0:
256,192,54212,1,0,0:0:0:0:
256,192,54386,1,0,0:0:0:0:
256,192,54561,1,0,0:0:0:0:
256,192,54735,1,0,0:0:0:0:
256,192,54910,1,0,0:0:0:0:
256,192,55084,1,0,0:0:0:0:
256,192,55258,1,2,0:0:0:0:
256,192,55433,1,0,0:0:0:0:
256,192,55607,1,0,0:0:0:0:
256,192,55782,1,0,0:0:0:0:
256,192,55956,1,0,0:0:0:0:
256,192,56131,1,0,0:0:0:0:
256,192,56305,1,0,0:0:0:0:
256,192,56479,1,0,0:0:0:0:
256,192,56654,1,2,0:0:0:0:
256,192,56828,1,0,0:0:0:0:
256,192,57003,1,0,0:0:0:0:
256,192,57177,1,0,0:0:0:0:
256,192,57352,1,0,0:0:0:0:
256,192,57526,1,0,0:0:0:0:
256,192,57700,1,0,0:0:0:0:
256,192,57875,1,0,0:0:0:0:
256,192,58049,1,0,0:0:0:0:
256,192,58107,1,0,0:0:0:0:
256,192,58165,1,2,0:0:0:0:
256,192,58224,1,0,0:0:0:0:
256,192,58747,1,4,0:0:0:0:
256,192,58921,1,0,0:0:0:0:
256,192,59096,1,0,0:0:0:0:
256,192,59270,1,2,0:0:0:0:
256,192,59445,1,2,0:0:0:0:
256,192,59619,1,0,0:0:0:0:
256,192,59793,1,0,0:0:0:0:
256,192,59968,1,0,0:0:0:0:
256,192,60142,1,0,0:0:0:0:
256,192,60317,1,0,0:0:0:0:
256,192,60491,1,0,0:0:0:0:
256,192,60665,1,0,0:0:0:0:
256,192,60840,1,2,0:0:0:0:
256,192,61014,1,0,0:0:0:0:
256,192,61189,1,0,0:0:0:0:
256,192,61363,1,0,0:0:0:0:
256,192,61538,1,0,0:0:0:0:
256,192,61712,1,0,0:0:0:0:
256,192,61886,1,0,0:0:0:0:
256,192,62061,1,0,0:0:0:0:
256,192,62235,1,2,0:0:0:0:
256,192,62410,1,0,0:0:0:0:
256,192,62584,1,0,0:0:0:0:
256,192,62758,1,0,0:0:0:0:
256,192,62933,1,0,0:0:0:0:
256,192,63107,1,0,0:0:0:0:
256,192,63282,1,0,0:0:0:0:
256,192,63456,1,0,0:0:0:0:
256,192,63631,1,2,0:0:0:0:
256,192,63805,1,0,0:0:0:0:
256,192,63979,1,0,0:0:0:0:
256,192,64154,1,0,0:0:0:0:
256,192,64328,1,2,0:0:0:0:
256,192,64503,1,0,0:0:0:0:
256,192,64677,1,2,0:0:0:0:
256,192,64852,1,0,0:0:0:0:
256,192,65026,1,2,0:0:0:0:
256,192,65200,1,0,0:0:0:0:
256,192,65375,1,2,0:0:0:0:
256,192,65549,1,0,0:0:0:0:
256,192,65724,1,2,0:0:0:0:
256,192,65898,1,0,0:0:0:0:
256,192,66072,1,2,0:0:0:0:
256,192,66247,1,0,0:0:0:0:
256,192,66421,1,2,0:0:0:0:
256,192,66596,1,0,0:0:0:0:
256,192,66770,1,2,0:0:0:0:
256,192,66945,1,0,0:0:0:0:
256,192,67119,1,2,0:0:0:0:
256,192,67293,1,0,0:0:0:0:
256,192,67468,1,2,0:0:0:0:
256,192,67642,1,0,0:0:0:0:
256,192,67817,1,2,0:0:0:0:
256,192,67991,1,0,0:0:0:0:
256,192,68165,1,2,0:0:0:0:
256,192,68340,1,0,0:0:0:0:
256,192,68514,1,2,0:0:0:0:
256,192,68602,1,0,0:0:0:0:
256,192,68689,1,0,0:0:0:0:
256,192,68776,1,0,0:0:0:0:
256,192,68863,1,2,0:0:0:0:
256,192,68950,1,0,0:0:0:0:
256,192,69038,1,0,0:0:0:0:
256,192,69125,1,0,0:0:0:0:
256,192,69212,1,2,0:0:0:0:
256,192,69299,1,0,0:0:0:0:
256,192,69386,1,0,0:0:0:0:
256,192,69474,1,0,0:0:0:0:
256,192,69561,1,6,0:0:0:0:
256,192,69910,1,4,0:0:0:0:
256,192,70258,1,6,0:0:0:0:
256,192,70433,1,0,0:0:0:0:
256,192,70520,1,0,0:0:0:0:
256,192,70607,1,0,0:0:0:0:
256,192,70695,1,2,0:0:0:0:
256,192,70782,1,0,0:0:0:0:
256,192,70869,1,0,0:0:0:0:
256,192,70956,1,6,0:0:0:0:
256,192,71043,1,0,0:0:0:0:
256,192,71131,1,0,0:0:0:0:
256,192,71218,1,0,0:0:0:0:
256,192,71305,1,2,0:0:0:0:
256,192,71392,1,2,0:0:0:0:
256,192,71479,1,0,0:0:0:0:
256,192,71567,1,0,0:0:0:0:
256,192,71654,1,6,0:0:0:0:
256,192,71741,1,0,0:0:0:0:
256,192,71828,1,0,0:0:0:0:
256,192,71915,1,0,0:0:0:0:
256,192,72003,1,2,0:0:0:0:
256,192,72090,1,0,0:0:0:0:
256,192,72177,1,0,0:0:0:0:
256,192,72264,1,0,0:0:0:0:
256,192,72352,1,6,0:0:0:0:
256,192,72439,1,0,0:0:0:0:
256,192,72526,1,0,0:0:0:0:
256,192,72613,1,2,0:0:0:0:
256,192,72700,1,4,0:0:0:0:
256,192,73049,1,6,0:0:0:0:
256,192,73224,1,0,0:0:0:0:
256,192,73311,1,0,0:0:0:0:
256,192,73398,1,0,0:0:0:0:
256,192,73485,1,2,0:0:0:0:
256,192,73572,1,0,0:0:0:0:
256,192,73660,1,0,0:0:0:0:
256,192,73747,1,6,0:0:0:0:
256,192,73834,1,0,0:0:0:0:
256,192,73921,1,0,0:0:0:0:
256,192,74008,1,0,0:0:0:0:
256,192,74096,1,2,0:0:0:0:
256,192,74183,1,2,0:0:0:0:
256,192,74270,1,0,0:0:0:0:
256,192,74357,1,0,0:0:0:0:
256,192,74445,1,6,0:0:0:0:
256,192,74532,1,0,0:0:0:0:
256,192,74619,1,0,0:0:0:0:
256,192,74706,1,0,0:0:0:0:
256,192,74793,1,2,0:0:0:0:
256,192,74881,1,0,0:0:0:0:
256,192,74968,1,0,0:0:0:0:
256,192,75055,1,0,0:0:0:0:
256,192,75142,1,6,0:0:0:0:
256,192,75229,1,0,0:0:0:0:
256,192,75317,1,2,0:0:0:0:
256,192,75404,1,2,0:0:0:0:
256,192,75491,1,4,0:0:0:0:
256,192,75840,1,6,0:0:0:0:
256,192,76014,1,0,0:0:0:0:
256,192,76102,1,0,0:0:0:0:
256,192,76189,1,0,0:0:0:0:
256,192,76276,1,2,0:0:0:0:
256,192,76363,1,0,0:0:0:0:
256,192,76450,1,0,0:0:0:0:
256,192,76538,1,6,0:0:0:0:
256,192,76625,1,0,0:0:0:0:
256,192,76712,1,0,0:0:0:0:
256,192,76799,1,0,0:0:0:0:
256,192,76886,1,2,0:0:0:0:
256,192,76974,1,2,0:0:0:0:
256,192,77061,1,0,0:0:0:0:
256,192,77148,1,0,0:0:0:0:
256,192,77235,1,6,0:0:0:0:
256,192,77322,1,0,0:0:0:0:
256,192,77410,1,0,0:0:0:0:
256,192,77497,1,0,0:0:0:0:
256,192,77584,1,2,0:0:0:0:
256,192,77671,1,0,0:0:0:0:
256,192,77758,1,0,0:0:0:0:
256,192,77846,1,0,0:0:0:0:
256,192,77933,1,6,0:0:0:0:
256,192,78020,1,0,0:0:0:0:
256,192,78107,1,0,0:0:0:0:
256,192,78195,1,2,0:0:0:0:
256,192,78282,1,4,0:0:0:0:
256,192,78456,1,0,0:0:0:0:
256,192,78631,1,6,0:0:0:0:
256,192,79328,1,6,0:0:0:0:
256,192,80026,1,6,0:0:0:0:
256,192,80724,1,6,0:0:0:0:
256,192,80811,1,0,0:0:0:0:
256,192,80898,1,2,0:0:0:0:
256,192,80985,1,2,0:0:0:0:
256,192,81072,1,4,0:0:0:0:
256,192,81421,1,6,0:0:0:0:
256,192,81596,1,0,0:0:0:0:
256,192,81683,1,0,0:0:0:0:
256,192,81770,1,0,0:0:0:0:
256,192,81857,1,2,0:0:0:0:
256,192,81945,1,0,0:0:0:0:
256,192,82032,1,0,0:0:0:0:
256,192,82119,1,6,0:0:0:0:
256,192,82206,1,0,0:0:0:0:
256,192,82293,1,0,0:0:0:0:
256,192,82381,1,0,0:0:0:0:
256,192,82468,1,2,0:0:0:0:
256,192,82555,1,2,0:0:0:0:
256,192,82642,1,0,0:0:0:0:
256,192,82729,1,0,0:0:0:0:
256,192,82817,1,6,0:0:0:0:
256,192,82904,1,0,0:0:0:0:
256,192,82991,1,0,0:0:0:0:
256,192,83078,1,0,0:0:0:0:
256,192,83165,1,2,0:0:0:0:
256,192,83253,1,0,0:0:0:0:
256,192,83340,1,0,0:0:0:0:
256,192,83427,1,0,0:0:0:0:
256,192,83514,1,6,0:0:0:0:
256,192,83602,1,0,0:0:0:0:
256,192,83689,1,0,0:0:0:0:
256,192,83776,1,2,0:0:0:0:
256,192,83863,1,4,0:0:0:0:
256,192,84212,1,6,0:0:0:0:
256,192,84386,1,0,0:0:0:0:
256,192,84474,1,0,0:0:0:0:
256,192,84561,1,0,0:0:0:0:
256,192,84648,1,2,0:0:0:0:
256,192,84735,1,0,0:0:0:0:
256,192,84822,1,0,0:0:0:0:
256,192,84910,1,6,0:0:0:0:
256,192,84997,1,0,0:0:0:0:
256,192,85084,1,0,0:0:0:0:
256,192,85171,1,0,0:0:0:0:
256,192,85258,1,2,0:0:0:0:
256,192,85346,1,2,0:0:0:0:
256,192,85433,1,0,0:0:0:0:
256,192,85520,1,0,0:0:0:0:
256,192,85607,1,6,0:0:0:0:
256,192,85695,1,0,0:0:0:0:
256,192,85782,1,2,0:0:0:0:
256,192,85869,1,2,0:0:0:0:
256,192,85956,1,2,0:0:0:0:
256,192,86043,1,0,0:0:0:0:
256,192,86131,1,0,0:0:0:0:
256,192,86218,1,0,0:0:0:0:
256,192,86305,1,6,0:0:0:0:
256,192,86392,1,0,0:0:0:0:
256,192,86479,1,2,0:0:0:0:
256,192,86567,1,2,0:0:0:0:
256,192,86654,1,4,0:0:0:0:
256,192,87003,1,6,0:0:0:0:
256,192,87177,1,0,0:0:0:0:
256,192,87264,1,0,0:0:0:0:
256,192,87352,1,0,0:0:0:0:
256,192,87439,1,2,0:0:0:0:
256,192,87526,1,0,0:0:0:0:
256,192,87613,1,0,0:0:0:0:
256,192,87700,1,6,0:0:0:0:
256,192,87788,1,0,0:0:0:0:
256,192,87875,1,0,0:0:0:0:
256,192,87962,1,0,0:0:0:0:
256,192,88049,1,2,0:0:0:0:
256,192,88136,1,2,0:0:0:0:
256,192,88224,1,0,0:0:0:0:
256,192,88311,1,0,0:0:0:0:
256,192,88398,1,6,0:0:0:0:
256,192,88485,1,0,0:0:0:0:
256,192,88572,1,0,0:0:0:0:
256,192,88660,1,0,0:0:0:0:
256,192,88747,1,2,0:0:0:0:
256,192,88834,1,0,0:0:0:0:
256,192,88921,1,0,0:0:0:0:
256,192,89008,1,0,0:0:0:0:
256,192,89096,1,6,0:0:0:0:
256,192,89183,1,0,0:0:0:0:
256,192,89270,1,0,0:0:0:0:
256,192,89357,1,2,0:0:0:0:
256,192,89445,1,4,0:0:0:0:
256,192,89968,1,0,0:0:0:0:
256,192,90491,1,0,0:0:0:0:
256,192,91014,1,0,0:0:0:0:
256,192,91538,1,0,0:0:0:0:
256,192,91596,1,0,0:0:0:0:
256,192,91654,1,2,0:0:0:0:
256,192,91712,1,0,0:0:0:0:
256,192,91886,1,0,0:0:0:0:
256,192,91974,1,0,0:0:0:0:
256,192,92061,1,0,0:0:0:0:
256,192,92148,1,0,0:0:0:0:
256,192,92235,1,6,0:0:0:0:
256,192,92410,1,2,0:0:0:0:
256,192,92584,1,2,0:0:0:0:
256,192,92846,1,2,0:0:0:0:
256,192,93020,1,2,0:0:0:0:
256,192,93195,1,0,0:0:0:0:
256,192,93282,1,6,0:0:0:0:
256,192,93369,1,0,0:0:0:0:
256,192,93456,1,0,0:0:0:0:
256,192,93543,1,0,0:0:0:0:
256,192,93631,1,2,0:0:0:0:
256,192,93718,1,2,0:0:0:0:
256,192,93805,1,0,0:0:0:0:
256,192,93892,1,0,0:0:0:0:
256,192,93979,1,6,0:0:0:0:
256,192,94067,1,0,0:0:0:0:
256,192,94154,1,0,0:0:0:0:
256,192,94241,1,0,0:0:0:0:
256,192,94328,1,2,0:0:0:0:
256,192,94415,1,0,0:0:0:0:
256,192,94503,1,0,0:0:0:0:
256,192,94590,1,0,0:0:0:0:
256,192,94677,1,6,0:0:0:0:
256,192,94764,1,0,0:0:0:0:
256,192,94852,1,0,0:0:0:0:
256,192,94939,1,2,0:0:0:0:
256,192,95026,1,4,0:0:0:0:
256,192,95200,1,2,0:0:0:0:
256,192,95375,1,6,0:0:0:0:
256,192,95549,1,0,0:0:0:0:
256,192,95636,1,2,0:0:0:0:
256,192,95724,1,0,0:0:0:0:
256,192,95811,1,2,0:0:0:0:
256,192,95898,1,0,0:0:0:0:
256,192,95985,1,0,0:0:0:0:
256,192,96072,1,6,0:0:0:0:
256,192,96160,1,0,0:0:0:0:
256,192,96247,1,0,0:0:0:0:
256,192,96334,1,0,0:0:0:0:
256,192,96421,1,2,0:0:0:0:
256,192,96508,1,2,0:0:0:0:
256,192,96596,1,0,0:0:0:0:
256,192,96683,1,0,0:0:0:0:
256,192,96770,1,6,0:0:0:0:
256,192,96857,1,0,0:0:0:0:
256,192,96945,1,0,0:0:0:0:
256,192,97032,1,0,0:0:0:0:
256,192,97119,1,2,0:0:0:0:
256,192,97206,1,0,0:0:0:0:
256,192,97293,1,0,0:0:0:0:
256,192,97381,1,0,0:0:0:0:
256,192,97468,1,6,0:0:0:0:
256,192,97555,1,0,0:0:0:0:
256,192,97642,1,2,0:0:0:0:
256,192,97729,1,2,0:0:0:0:
256,192,97817,1,4,0:0:0:0:
256,192,97991,1,2,0:0:0:0:
256,192,98165,1,6,0:0:0:0:
256,192,98340,1,0,0:0:0:0:
256,192,98427,1,2,0:0:0:0:
256,192,98514,1,0,0:0:0:0:
256,192,98602,1,2,0:0:0:0:
256,192,98689,1,0,0:0:0:0:
256,192,98776,1,0,0:0:0:0:
256,192,98863,1,6,0:0:0:0:
256,192,98950,1,0,0:0:0:0:
256,192,99038,1,0,0:0:0:0:
256,192,99125,1,0,0:0:0:0:
256,192,99212,1,2,0:0:0:0:
256,192,99299,1,2,0:0:0:0:
256,192,99386,1,0,0:0:0:0:
256,192,99474,1,0,0:0:0:0:
256,192,99561,1,6,0:0:0:0:
256,192,99648,1,0,0:0:0:0:
256,192,99735,1,0,0:0:0:0:
256,192,99822,1,0,0:0:0:0:
256,192,99910,1,2,0:0:0:0:
256,192,99997,1,0,0:0:0:0:
256,192,100084,1,0,0:0:0:0:
256,192,100171,1,0,0:0:0:0:
256,192,100258,1,6,0:0:0:0:
256,192,100346,1,0,0:0:0:0:
256,192,100433,1,0,0:0:0:0:
256,192,100520,1,2,0:0:0:0:
256,192,100607,1,4,0:0:0:0:
256,192,100782,1,0,0:0:0:0:
256,192,100956,1,6,0:0:0:0:
256,192,101654,1,6,0:0:0:0:
256,192,102177,1,0,0:0:0:0:
256,192,102264,1,0,0:0:0:0:
256,192,102308,1,0,0:0:0:0:
256,192,102352,1,6,0:0:0:0:
256,192,103049,1,6,0:0:0:0:
256,192,103398,1,4,0:0:0:0:
256,192,103572,1,2,0:0:0:0:
256,192,103747,1,6,0:0:0:0:
256,192,103921,1,0,0:0:0:0:
256,192,104008,1,2,0:0:0:0:
256,192,104096,1,0,0:0:0:0:
256,192,104183,1,2,0:0:0:0:
256,192,104270,1,0,0:0:0:0:
256,192,104357,1,0,0:0:0:0:
256,192,104445,1,6,0:0:0:0:
256,192,104532,1,0,0:0:0:0:
256,192,104619,1,0,0:0:0:0:
256,192,104706,1,0,0:0:0:0:
256,192,104793,1,2,0:0:0:0:
256,192,104881,1,2,0:0:0:0:
256,192,104968,1,0,0:0:0:0:
256,192,105055,1,0,0:0:0:0:
256,192,105142,1,6,0:0:0:0:
256,192,105229,1,0,0:0:0:0:
256,192,105317,1,0,0:0:0:0:
256,192,105404,1,0,0:0:0:0:
256,192,105491,1,2,0:0:0:0:
256,192,105578,1,0,0:0:0:0:
256,192,105665,1,0,0:0:0:0:
256,192,105753,1,0,0:0:0:0:
256,192,105840,1,6,0:0:0:0:
256,192,105927,1,0,0:0:0:0:
256,192,106014,1,0,0:0:0:0:
256,192,106102,1,2,0:0:0:0:
256,192,106189,1,4,0:0:0:0:
256,192,106363,1,2,0:0:0:0:
256,192,106538,1,6,0:0:0:0:
256,192,106712,1,0,0:0:0:0:
256,192,106799,1,2,0:0:0:0:
256,192,106886,1,0,0:0:0:0:
256,192,106974,1,2,0:0:0:0:
256,192,107061,1,0,0:0:0:0:
256,192,107148,1,0,0:0:0:0:
256,192,107235,1,6,0:0:0:0:
256,192,107322,1,0,0:0:0:0:
256,192,107410,1,0,0:0:0:0:
256,192,107497,1,0,0:0:0:0:
256,192,107584,1,2,0:0:0:0:
256,192,107671,1,2,0:0:0:0:
256,192,107758,1,0,0:0:0:0:
256,192,107846,1,0,0:0:0:0:
256,192,107933,1,6,0:0:0:0:
256,192,108020,1,0,0:0:0:0:
256,192,108107,1,0,0:0:0:0:
256,192,108195,1,0,0:0:0:0:
256,192,108282,1,2,0:0:0:0:
256,192,108369,1,0,0:0:0:0:
256,192,108456,1,0,0:0:0:0:
256,192,108543,1,0,0:0:0:0:
256,192,108631,1,6,0:0:0:0:
256,192,108718,1,0,0:0:0:0:
256,192,108805,1,2,0:0:0:0:
256,192,108892,1,2,0:0:0:0:
256,192,108979,1,4,0:0:0:0:
256,192,109154,1,2,0:0:0:0:
256,192,109328,1,6,0:0:0:0:
256,192,109503,1,0,0:0:0:0:
256,192,109590,1,2,0:0:0:0:
256,192,109677,1,0,0:0:0:0:
256,192,109764,1,2,0:0:0:0:
256,192,109852,1,0,0:0:0:0:
256,192,109939,1,0,0:0:0:0:
256,192,110026,1,6,0:0:0:0:
256,192,110113,1,0,0:0:0:0:
256,192,110200,1,0,0:0:0:0:
256,192,110288,1,0,0:0:0:0:
256,192,110375,1,2,0:0:0:0:
256,192,110462,1,2,0:0:0:0:
256,192,110549,1,0,0:0:0:0:
256,192,110636,1,0,0:0:0:0:
256,192,110724,1,6,0:0:0:0:
256,192,110811,1,0,0:0:0:0:
256,192,110898,1,0,0:0:0:0:
256,192,110985,1,0,0:0:0:0:
256,192,111072,1,2,0:0:0:0:
256,192,111160,1,0,0:0:0:0:
256,192,111247,1,0,0:0:0:0:
256,192,111334,1,0,0:0:0:0:
256,192,111421,1,6,0:0:0:0:
256,192,111508,1,0,0:0:0:0:
256,192,111596,1,0,0:0:0:0:
256,192,111683,1,2,0:0:0:0:
256,192,111770,1,4,0:0:0:0:
256,192,112293,1,0,0:0:0:0:
256,192,112817,1,0,0:0:0:0:
256,192,112991,1,2,0:0:0:0:
256,192,113165,1,2,0:0:0:0:
256,192,113340,1,0,0:0:0:0:
256,192,113514,1,2,0:0:0:0:
256,192,113863,1,0,0:0:0:0:
256,192,114212,1,0,0:0:0:0:
256,192,114299,1,0,0:0:0:0:
256,192,114386,1,0,0:0:0:0:
256,192,114474,1,0,0:0:0:0:
256,192,114561,1,6,0:0:0:0:
256,192,114910,1,6,0:0:0:0:
256,192,115084,1,0,0:0:0:0:
256,192,115171,1,2,0:0:0:0:
256,192,115258,1,0,0:0:0:0:
256,192,115346,1,2,0:0:0:0:
256,192,115433,1,0,0:0:0:0:
256,192,115520,1,0,0:0:0:0:
256,192,115607,1,6,0:0:0:0:
256,192,115695,1,0,0:0:0:0:
256,192,115782,1,0,0:0:0:0:
256,192,115869,1,2,0:0:0:0:
256,192,115956,1,0,0:0:0:0:
256,192,116043,1,2,0:0:0:0:
256,192,116131,1,2,0:0:0:0:
256,192,116218,1,0,0:0:0:0:
256,192,116305,1,6,0:0:0:0:
256,192,116392,1,0,0:0:0:0:
256,192,116479,1,0,0:0:0:0:
256,192,116567,1,2,0:0:0:0:
256,192,116654,1,0,0:0:0:0:
256,192,116741,1,2,0:0:0:0:
256,192,116828,1,0,0:0:0:0:
256,192,116915,1,0,0:0:0:0:
256,192,117003,1,6,0:0:0:0:
256,192,117090,1,0,0:0:0:0:
256,192,117177,1,0,0:0:0:0:
256,192,117264,1,2,0:0:0:0:
256,192,117352,1,4,0:0:0:0:
256,192,117700,1,6,0:0:0:0:
256,192,117875,1,0,0:0:0:0:
256,192,117962,1,2,0:0:0:0:
256,192,118049,1,0,0:0:0:0:
256,192,118136,1,2,0:0:0:0:
256,192,118224,1,0,0:0:0:0:
256,192,118311,1,0,0:0:0:0:
256,192,118398,1,6,0:0:0:0:
256,192,118485,1,0,0:0:0:0:
256,192,118572,1,0,0:0:0:0:
256,192,118660,1,2,0:0:0:0:
256,192,118747,1,0,0:0:0:0:
256,192,118834,1,2,0:0:0:0:
256,192,118921,1,2,0:0:0:0:
256,192,119008,1,0,0:0:0:0:
256,192,119096,1,6,0:0:0:0:
256,192,119183,1,0,0:0:0:0:
256,192,119270,1,0,0:0:0:0:
256,192,119357,1,2,0:0:0:0:
256,192,119445,1,0,0:0:0:0:
256,192,119532,1,2,0:0:0:0:
256,192,119619,1,0,0:0:0:0:
256,192,119706,1,0,0:0:0:0:
256,192,119793,1,6,0:0:0:0:
256,192,119881,1,0,0:0:0:0:
256,192,119968,1,0,0:0:0:0:
256,192,120055,1,2,0:0:0:0:
256,192,120142,1,4,0:0:0:0:
256,192,120491,1,6,0:0:0:0:
256,192,120665,1,0,0:0:0:0:
256,192,120753,1,2,0:0:0:0:
256,192,120840,1,0,0:0:0:0:
256,192,120927,1,2,0:0:0:0:
256,192,121014,1,0,0:0:0:0:
256,192,121102,1,0,0:0:0:0:
256,192,121189,1,6,0:0:0:0:
256,192,121276,1,0,0:0:0:0:
256,192,121363,1,0,0:0:0:0:
256,192,121450,1,2,0:0:0:0:
256,192,121538,1,0,0:0:0:0:
256,192,121625,1,2,0:0:0:0:
256,192,121712,1,2,0:0:0:0:
256,192,121799,1,0,0:0:0:0:
256,192,121886,1,6,0:0:0:0:
256,192,121974,1,0,0:0:0:0:
256,192,122061,1,0,0:0:0:0:
256,192,122148,1,2,0:0:0:0:
256,192,122235,1,0,0:0:0:0:
256,192,122322,1,2,0:0:0:0:
256,192,122410,1,0,0:0:0:0:
256,192,122497,1,0,0:0:0:0:
256,192,122584,1,6,0:0:0:0:
256,192,122671,1,0,0:0:0:0:
256,192,122758,1,0,0:0:0:0:
256,192,122846,1,2,0:0:0:0:
256,192,122933,1,4,0:0:0:0:
256,192,123107,1,0,0:0:0:0:
256,192,123282,1,6,0:0:0:0:
256,192,123456,1,0,0:0:0:0:
256,192,123543,1,2,0:0:0:0:
256,192,123631,1,0,0:0:0:0:
256,192,123718,1,2,0:0:0:0:
256,192,123805,1,0,0:0:0:0:
256,192,123892,1,0,0:0:0:0:
256,192,123979,1,6,0:0:0:0:
256,192,124154,1,0,0:0:0:0:
256,192,124241,1,2,0:0:0:0:
256,192,124328,1,0,0:0:0:0:
256,192,124415,1,2,0:0:0:0:
256,192,124503,1,2,0:0:0:0:
256,192,124590,1,0,0:0:0:0:
256,192,124677,1,6,0:0:0:0:
256,192,124764,1,0,0:0:0:0:
256,192,124852,1,0,0:0:0:0:
256,192,124939,1,0,0:0:0:0:
256,192,125026,1,2,0:0:0:0:
256,192,125113,1,2,0:0:0:0:
256,192,125200,1,2,0:0:0:0:
256,192,125288,1,0,0:0:0:0:
256,192,125375,1,6,0:0:0:0:
256,192,125462,1,0,0:0:0:0:
256,192,125549,1,2,0:0:0:0:
256,192,125636,1,2,0:0:0:0:
256,192,125724,1,4,0:0:0:0:
256,192,126072,1,6,0:0:0:0:
256,192,126247,1,0,0:0:0:0:
256,192,126334,1,2,0:0:0:0:
256,192,126421,1,0,0:0:0:0:
256,192,126508,1,2,0:0:0:0:
256,192,126596,1,0,0:0:0:0:
256,192,126683,1,0,0:0:0:0:
256,192,126770,1,6,0:0:0:0:
256,192,126857,1,0,0:0:0:0:
256,192,126945,1,0,0:0:0:0:
256,192,127032,1,2,0:0:0:0:
256,192,127119,1,0,0:0:0:0:
256,192,127206,1,2,0:0:0:0:
256,192,127293,1,2,0:0:0:0:
256,192,127381,1,0,0:0:0:0:
256,192,127468,1,6,0:0:0:0:
256,192,127555,1,0,0:0:0:0:
256,192,127642,1,0,0:0:0:0:
256,192,127729,1,2,0:0:0:0:
256,192,127817,1,0,0:0:0:0:
256,192,127904,1,2,0:0:0:0:
256,192,127991,1,0,0:0:0:0:
256,192,128078,1,0,0:0:0:0:
256,192,128165,1,6,0:0:0:0:
256,192,128253,1,0,0:0:0:0:
256,192,128340,1,0,0:0:0:0:
256,192,128427,1,2,0:0:0:0:
256,192,128514,1,4,0:0:0:0:
256,192,128863,1,6,0:0:0:0:
256,192,129038,1,0,0:0:0:0:
256,192,129125,1,2,0:0:0:0:
256,192,129212,1,0,0:0:0:0:
256,192,129299,1,2,0:0:0:0:
256,192,129386,1,0,0:0:0:0:
256,192,129474,1,0,0:0:0:0:
256,192,129561,1,6,0:0:0:0:
256,192,129648,1,0,0:0:0:0:
256,192,129735,1,0,0:0:0:0:
256,192,129822,1,2,0:0:0:0:
256,192,129910,1,0,0:0:0:0:
256,192,129997,1,2,0:0:0:0:
256,192,130084,1,2,0:0:0:0:
256,192,130171,1,0,0:0:0:0:
256,192,130258,1,6,0:0:0:0:
256,192,130346,1,0,0:0:0:0:
256,192,130433,1,0,0:0:0:0:
256,192,130520,1,2,0:0:0:0:
256,192,130607,1,0,0:0:0:0:
256,192,130695,1,2,0:0:0:0:
256,192,130782,1,0,0:0:0:0:
256,192,130869,1,0,0:0:0:0:
256,192,130956,1,6,0:0:0:0:
256,192,131043,1,0,0:0:0:0:
256,192,131131,1,0,0:0:0:0:
256,192,131218,1,2,0:0:0:0:
256,192,131305,1,4,0:0:0:0:
256,192,131654,1,6,0:0:0:0:
256,192,131828,1,0,0:0:0:0:
256,192,131915,1,2,0:0:0:0:
256,192,132003,1,0,0:0:0:0:
256,192,132090,1,2,0:0:0:0:
256,192,132177,1,0,0:0:0:0:
256,192,132264,1,0,0:0:0:0:
256,192,132352,1,6,0:0:0:0:
256,192,132439,1,0,0:0:0:0:
256,192,132526,1,0,0:0:0:0:
256,192,132613,1,2,0:0:0:0:
256,192,132700,1,0,0:0:0:0:
256,192,132788,1,2,0:0:0:0:
256,192,132875,1,2,0:0:0:0:
256,192,132962,1,0,0:0:0:0:
256,192,133049,1,6,0:0:0:0:
256,192,133136,1,0,0:0:0:0:
256,192,133224,1,0,0:0:0:0:
256,192,133311,1,2,0:0:0:0:
256,192,133398,1,0,0:0:0:0:
256,192,133485,1,2,0:0:0:0:
256,192,133572,1,0,0:0:0:0:
256,192,133660,1,0,0:0:0:0:
256,192,133747,1,6,0:0:0:0:
256,192,133834,1,0,0:0:0:0:
256,192,133921,1,0,0:0:0:0:
256,192,134008,1,2,0:0:0:0:
256,192,134096,1,4,0:0:0:0:
256,192,134619,1,0,0:0:0:0:
256,192,135142,1,0,0:0:0:0:
256,192,135665,1,0,0:0:0:0:
256,192,136189,1,0,0:0:0:0:
256,192,136538,1,0,0:0:0:0:
256,192,136625,1,0,0:0:0:0:
256,192,136712,1,0,0:0:0:0:
256,192,136799,1,0,0:0:0:0:
256,192,136886,1,2,0:0:0:0:
256,192,138282,1,2,0:0:0:0:
256,192,139183,1,2,0:0:0:0:
256,192,142468,1,6,0:0:0:0:
256,192,145433,1,0,0:0:0:0:
256,192,148049,1,2,0:0:0:0:
256,192,148224,8,2,157642,0:0:0:0:
256,192,157817,5,4,0:0:0:0:
256,192,159212,1,6,0:0:0:0:
256,192,159386,1,2,0:0:0:0:
256,192,159561,1,0,0:0:0:0:
256,192,159735,1,2,0:0:0:0:
256,192,159910,1,2,0:0:0:0:
256,192,160084,1,0,0:0:0:0:
256,192,160258,1,2,0:0:0:0:
256,192,160433,1,2,0:0:0:0:
256,192,160607,1,0,0:0:0:0:
256,192,160782,1,2,0:0:0:0:
256,192,160956,1,2,0:0:0:0:
256,192,161131,1,0,0:0:0:0:
256,192,161305,1,2,0:0:0:0:
256,192,161479,1,0,0:0:0:0:
256,192,161654,1,2,0:0:0:0:
256,192,161828,1,2,0:0:0:0:
256,192,162003,1,4,0:0:0:0:
256,192,162177,1,2,0:0:0:0:
256,192,162352,1,0,0:0:0:0:
256,192,162526,1,2,0:0:0:0:
256,192,162700,1,2,0:0:0:0:
256,192,162875,1,0,0:0:0:0:
256,192,163049,1,2,0:0:0:0:
256,192,163224,1,2,0:0:0:0:
256,192,163398,1,0,0:0:0:0:
256,192,163572,1,2,0:0:0:0:
256,192,163747,1,2,0:0:0:0:
256,192,163921,1,0,0:0:0:0:
256,192,164096,1,2,0:0:0:0:
256,192,164270,1,0,0:0:0:0:
256,192,164445,1,0,0:0:0:0:
256,192,164619,1,2,0:0:0:0:
256,192,164793,1,6,0:0:0:0:
256,192,164968,1,2,0:0:0:0:
256,192,165142,1,0,0:0:0:0:
256,192,165317,1,2,0:0:0:0:
256,192,165491,1,2,0:0:0:0:
256,192,165665,1,0,0:0:0:0:
256,192,165840,1,2,0:0:0:0:
256,192,166014,1,2,0:0:0:0:
256,192,166189,1,6,0:0:0:0:
256,192,166363,1,2,0:0:0:0:
256,192,166538,1,6,0:0:0:0:
256,192,166712,1,0,0:0:0:0:
256,192,166886,1,2,0:0:0:0:
256,192,167061,1,0,0:0:0:0:
256,192,167235,1,2,0:0:0:0:
256,192,167410,1,2,0:0:0:0:
256,192,167584,1,4,0:0:0:0:
256,192,167758,1,2,0:0:0:0:
256,192,167933,1,0,0:0:0:0:
256,192,168107,1,2,0:0:0:0:
256,192,168282,1,2,0:0:0:0:
256,192,168456,1,0,0:0:0:0:
256,192,168631,1,2,0:0:0:0:
256,192,168805,1,2,0:0:0:0:
256,192,168979,1,0,0:0:0:0:
256,192,169154,1,2,0:0:0:0:
256,192,169328,1,2,0:0:0:0:
256,192,169503,1,0,0:0:0:0:
256,192,169677,1,2,0:0:0:0:
256,192,169852,1,0,0:0:0:0:
256,192,170026,1,2,0:0:0:0:
256,192,170200,1,0,0:0:0:0:
256,192,170375,1,6,0:0:0:0:
256,192,171770,1,2,0:0:0:0:
256,192,172119,1,2,0:0:0:0:
256,192,173165,1,0,0:0:0:0:
256,192,173340,1,0,0:0:0:0:
256,192,173514,1,0,0:0:0:0:
256,192,173689,1,0,0:0:0:0:
256,192,173863,1,0,0:0:0:0:
256,192,174038,1,0,0:0:0:0:
256,192,174212,1,0,0:0:0:0:
256,192,174386,1,0,0:0:0:0:
256,192,174561,1,0,0:0:0:0:
256,192,174735,1,0,0:0:0:0:
256,192,174910,1,0,0:0:0:0:
256,192,175084,1,0,0:0:0:0:
256,192,175258,1,0,0:0:0:0:
256,192,175433,1,0,0:0:0:0:
256,192,175607,1,0,0:0:0:0:
256,192,175782,1,0,0:0:0:0:
256,192,175956,1,2,0:0:0:0:
256,192,176131,1,0,0:0:0:0:
256,192,176305,1,2,0:0:0:0:
256,192,176479,1,0,0:0:0:0:
256,192,176654,1,2,0:0:0:0:
256,192,176828,1,0,0:0:0:0:
256,192,177003,1,2,0:0:0:0:
256,192,177177,1,0,0:0:0:0:
256,192,177352,1,2,0:0:0:0:
256,192,177526,1,0,0:0:0:0:
256,192,177700,1,2,0:0:0:0:
256,192,177875,1,0,0:0:0:0:
256,192,178049,1,2,0:0:0:0:
256,192,178224,1,0,0:0:0:0:
256,192,178398,1,2,0:0:0:0:
256,192,178572,1,0,0:0:0:0:
256,192,178747,1,2,0:0:0:0:
256,192,178921,1,0,0:0:0:0:
256,192,179096,1,2,0:0:0:0:
256,192,179270,1,0,0:0:0:0:
256,192,179445,1,2,0:0:0:0:
256,192,179619,1,0,0:0:0:0:
256,192,179793,1,2,0:0:0:0:
256,192,179968,1,0,0:0:0:0:
256,192,180142,1,2,0:0:0:0:
256,192,180229,1,0,0:0:0:0:
256,192,180317,1,0,0:0:0:0:
256,192,180404,1,0,0:0:0:0:
256,192,180491,1,2,0:0:0:0:
256,192,180578,1,0,0:0:0:0:
256,192,180665,1,0,0:0:0:0:
256,192,180753,1,0,0:0:0:0:
256,192,180840,1,2,0:0:0:0:
256,192,180927,1,0,0:0:0:0:
256,192,181014,1,0,0:0:0:0:
256,192,181102,1,0,0:0:0:0:
256,192,181189,1,6,0:0:0:0:
256,192,181538,1,4,0:0:0:0:
256,192,181886,1,6,0:0:0:0:
256,192,182061,1,0,0:0:0:0:
256,192,182148,1,0,0:0:0:0:
256,192,182235,1,0,0:0:0:0:
256,192,182322,1,2,0:0:0:0:
256,192,182410,1,0,0:0:0:0:
256,192,182497,1,0,0:0:0:0:
256,192,182584,1,6,0:0:0:0:
256,192,182671,1,0,0:0:0:0:
256,192,182758,1,0,0:0:0:0:
256,192,182846,1,0,0:0:0:0:
256,192,182933,1,2,0:0:0:0:
256,192,183020,1,2,0:0:0:0:
256,192,183107,1,0,0:0:0:0:
256,192,183195,1,0,0:0:0:0:
256,192,183282,1,6,0:0:0:0:
256,192,183369,1,0,0:0:0:0:
256,192,183456,1,0,0:0:0:0:
256,192,183543,1,0,0:0:0:0:
256,192,183631,1,2,0:0:0:0:
256,192,183718,1,0,0:0:0:0:
256,192,183805,1,0,0:0:0:0:
256,192,183892,1,0,0:0:0:0:
256,192,183979,1,6,0:0:0:0:
256,192,184067,1,0,0:0:0:0:
256,192,184154,1,0,0:0:0:0:
256,192,184241,1,2,0:0:0:0:
256,192,184328,1,4,0:0:0:0:
256,192,184677,1,6,0:0:0:0:
256,192,184852,1,0,0:0:0:0:
256,192,184939,1,0,0:0:0:0:
256,192,185026,1,0,0:0:0:0:
256,192,185113,1,2,0:0:0:0:
256,192,185200,1,0,0:0:0:0:
256,192,185288,1,0,0:0:0:0:
256,192,185375,1,6,0:0:0:0:
256,192,185462,1,0,0:0:0:0:
256,192,185549,1,0,0:0:0:0:
256,192,185636,1,0,0:0:0:0:
256,192,185724,1,2,0:0:0:0:
256,192,185811,1,2,0:0:0:0:
256,192,185898,1,0,0:0:0:0:
256,192,185985,1,0,0:0:0:0:
256,192,186072,1,6,0:0:0:0:
256,192,186160,1,0,0:0:0:0:
256,192,186247,1,0,0:0:0:0:
256,192,186334,1,0,0:0:0:0:
256,192,186421,1,2,0:0:0:0:
256,192,186508,1,0,0:0:0:0:
256,192,186596,1,0,0:0:0:0:
256,192,186683,1,0,0:0:0:0:
256,192,186770,1,6,0:0:0:0:
256,192,186857,1,0,0:0:0:0:
256,192,186945,1,2,0:0:0:0:
256,192,187032,1,2,0:0:0:0:
256,192,187119,1,4,0:0:0:0:
256,192,187468,1,6,0:0:0:0:
256,192,187642,1,0,0:0:0:0:
256,192,187729,1,0,0:0:0:0:
256,192,187817,1,0,0:0:0:0:
256,192,187904,1,2,0:0:0:0:
256,192,187991,1,0,0:0:0:0:
256,192,188078,1,0,0:0:0:0:
256,192,188165,1,6,0:0:0:0:
256,192,188253,1,0,0:0:0:0:
256,192,188340,1,0,0:0:0:0:
256,192,188427,1,0,0:0:0:0:
256,192,188514,1,2,0:0:0:0:
256,192,188602,1,2,0:0:0:0:
256,192,188689,1,0,0:0:0:0:
256,192,188776,1,0,0:0:0:0:
256,192,188863,1,6,0:0:0:0:
256,192,188950,1,0,0:0:0:0:
256,192,189038,1,0,0:0:0:0:
256,192,189125,1,0,0:0:0:0:
256,192,189212,1,2,0:0:0:0:
256,192,189299,1,0,0:0:0:0:
256,192,189386,1,0,0:0:0:0:
256,192,189474,1,0,0:0:0:0:
256,192,189561,1,6,0:0:0:0:
256,192,189648,1,0,0:0:0:0:
256,192,189735,1,0,0:0:0:0:
256,192,189822,1,2,0:0:0:0:
256,192,189910,1,4,0:0:0:0:
256,192,190084,1,0,0:0:0:0:
256,192,190258,1,6,0:0:0:0:
256,192,190956,1,6,0:0:0:0:
256,192,191654,1,6,0:0:0:0:
256,192,192352,1,6,0:0:0:0:
256,192,192439,1,0,0:0:0:0:
256,192,192526,1,2,0:0:0:0:
256,192,192613,1,2,0:0:0:0:
256,192,192700,1,4,0:0:0:0:
256,192,193049,1,6,0:0:0:0:
256,192,193224,1,0,0:0:0:0:
256,192,193311,1,0,0:0:0:0:
256,192,193398,1,0,0:0:0:0:
256,192,193485,1,2,0:0:0:0:
256,192,193572,1,0,0:0:0:0:
256,192,193660,1,0,0:0:0:0:
256,192,193747,1,6,0:0:0:0:
256,192,193834,1,0,0:0:0:0:
256,192,193921,1,0,0:0:0:0:
256,192,194008,1,0,0:0:0:0:
256,192,194096,1,2,0:0:0:0:
256,192,194183,1,2,0:0:0:0:
256,192,194270,1,0,0:0:0:0:
256,192,194357,1,0,0:0:0:0:
256,192,194445,1,6,0:0:0:0:
256,192,194532,1,0,0:0:0:0:
256,192,194619,1,0,0:0:0:0:
256,192,194706,1,0,0:0:0:0:
256,192,194793,1,2,0:0:0:0:
256,192,194881,1,0,0:0:0:0:
256,192,194968,1,0,0:0:0:0:
256,192,195055,1,0,0:0:0:0:
256,192,195142,1,6,0:0:0:0:
256,192,195229,1,0,0:0:0:0:
256,192,195317,1,0,0:0:0:0:
256,192,195404,1,2,0:0:0:0:
256,192,195491,1,4,0:0:0:0:
256,192,195840,1,6,0:0:0:0:
256,192,196014,1,0,0:0:0:0:
256,192,196102,1,0,0:0:0:0:
256,192,196189,1,0,0:0:0:0:
256,192,196276,1,2,0:0:0:0:
256,192,196363,1,0,0:0:0:0:
256,192,196450,1,0,0:0:0:0:
256,192,196538,1,6,0:0:0:0:
256,192,196625,1,0,0:0:0:0:
256,192,196712,1,0,0:0:0:0:
256,192,196799,1,0,0:0:0:0:
256,192,196886,1,2,0:0:0:0:
256,192,196974,1,2,0:0:0:0:
256,192,197061,1,0,0:0:0:0:
256,192,197148,1,0,0:0:0:0:
256,192,197235,1,6,0:0:0:0:
256,192,197322,1,0,0:0:0:0:
256,192,197410,1,2,0:0:0:0:
256,192,197497,1,2,0:0:0:0:
256,192,197584,1,2,0:0:0:0:
256,192,197671,1,0,0:0:0:0:
256,192,197758,1,0,0:0:0:0:
256,192,197846,1,0,0:0:0:0:
256,192,197933,1,6,0:0:0:0:
256,192,198020,1,0,0:0:0:0:
256,192,198107,1,2,0:0:0:0:
256,192,198195,1,2,0:0:0:0:
256,192,198282,1,4,0:0:0:0:
256,192,198631,1,6,0:0:0:0:
256,192,198805,1,0,0:0:0:0:
256,192,198892,1,0,0:0:0:0:
256,192,198979,1,0,0:0:0:0:
256,192,199067,1,2,0:0:0:0:
256,192,199154,1,0,0:0:0:0:
256,192,199241,1,0,0:0:0:0:
256,192,199328,1,6,0:0:0:0:
256,192,199415,1,0,0:0:0:0:
256,192,199503,1,0,0:0:0:0:
256,192,199590,1,0,0:0:0:0:
256,192,199677,1,2,0:0:0:0:
256,192,199764,1,2,0:0:0:0:
256,192,199852,1,0,0:0:0:0:
256,192,199939,1,0,0:0:0:0:
256,192,200026,1,6,0:0:0:0:
256,192,200113,1,0,0:0:0:0:
256,192,200200,1,0,0:0:0:0:
256,192,200288,1,0,0:0:0:0:
256,192,200375,1,2,0:0:0:0:
256,192,200462,1,0,0:0:0:0:
256,192,200549,1,0,0:0:0:0:
256,192,200636,1,0,0:0:0:0:
256,192,200724,1,6,0:0:0:0:
256,192,200811,1,0,0:0:0:0:
256,192,200898,1,0,0:0:0:0:
256,192,200985,1,2,0:0:0:0:
256,192,201072,1,4,0:0:0:0:
256,192,201596,1,0,0:0:0:0:
256,192,202119,1,0,0:0:0:0:
256,192,202642,1,0,0:0:0:0:
256,192,203165,1,0,0:0:0:0:
256,192,203224,1,0,0:0:0:0:
256,192,203282,1,2,0:0:0:0:
256,192,203340,1,0,0:0:0:0:
256,192,203514,1,0,0:0:0:0:
256,192,203602,1,0,0:0:0:0:
256,192,203689,1,0,0:0:0:0:
256,192,203776,1,0,0:0:0:0:
256,192,203863,1,6,0:0:0:0:
256,192,204038,1,2,0:0:0:0:
256,192,204212,1,2,0:0:0:0:
256,192,204474,1,2,0:0:0:0:
256,192,204648,1,2,0:0:0:0:
256,192,204822,1,0,0:0:0:0:
256,192,204910,1,6,0:0:0:0:
256,192,204997,1,0,0:0:0:0:
256,192,205084,1,0,0:0:0:0:
256,192,205171,1,0,0:0:0:0:
256,192,205258,1,2,0:0:0:0:
256,192,205346,1,2,0:0:0:0:
256,192,205433,1,0,0:0:0:0:
256,192,205520,1,0,0:0:0:0:
256,192,205607,1,6,0:0:0:0:
256,192,205695,1,0,0:0:0:0:
256,192,205782,1,0,0:0:0:0:
256,192,205869,1,0,0:0:0:0:
256,192,205956,1,2,0:0:0:0:
256,192,206043,1,0,0:0:0:0:
256,192,206131,1,0,0:0:0:0:
256,192,206218,1,0,0:0:0:0:
256,192,206305,1,6,0:0:0:0:
256,192,206392,1,0,0:0:0:0:
256,192,206479,1,0,0:0:0:0:
256,192,206567,1,2,0:0:0:0:
256,192,206654,1,4,0:0:0:0:
256,192,206828,1,2,0:0:0:0:
256,192,207003,1,6,0:0:0:0:
256,192,207177,1,0,0:0:0:0:
256,192,207264,1,2,0:0:0:0:
256,192,207352,1,0,0:0:0:0:
256,192,207439,1,2,0:0:0:0:
256,192,207526,1,0,0:0:0:0:
256,192,207613,1,0,0:0:0:0:
256,192,207700,1,6,0:0:0:0:
256,192,207788,1,0,0:0:0:0:
256,192,207875,1,0,0:0:0:0:
256,192,207962,1,0,0:0:0:0:
256,192,208049,1,2,0:0:0:0:
256,192,208136,1,2,0:0:0:0:
256,192,208224,1,0,0:0:0:0:
256,192,208311,1,0,0:0:0:0:
256,192,208398,1,6,0:0:0:0:
256,192,208485,1,0,0:0:0:0:
256,192,208572,1,0,0:0:0:0:
256,192,208660,1,0,0:0:0:0:
256,192,208747,1,2,0:0:0:0:
256,192,208834,1,0,0:0:0:0:
256,192,208921,1,0,0:0:0:0:
256,192,209008,1,0,0:0:0:0:
256,192,209096,1,6,0:0:0:0:
256,192,209183,1,0,0:0:0:0:
256,192,209270,1,2,0:0:0:0:
256,192,209357,1,2,0:0:0:0:
256,192,209445,1,4,0:0:0:0:
256,192,209619,1,2,0:0:0:0:
256,192,209793,1,6,0:0:0:0:
256,192,209968,1,0,0:0:0:0:
256,192,210055,1,2,0:0:0:0:
256,192,210142,1,0,0:0:0:0:
256,192,210229,1,2,0:0:0:0:
256,192,210317,1,0,0:0:0:0:
256,192,210404,1,0,0:0:0:0:
256,192,210491,1,6,0:0:0:0:
256,192,210578,1,0,0:0:0:0:
256,192,210665,1,0,0:0:0:0:
256,192,210753,1,0,0:0:0:0:
256,192,210840,1,2,0:0:0:0:
256,192,210927,1,2,0:0:0:0:
256,192,211014,1,0,0:0:0:0:
256,192,211102,1,0,0:0:0:0:
256,192,211189,1,6,0:0:0:0:
256,192,211276,1,0,0:0:0:0:
256,192,211363,1,0,0:0:0:0:
256,192,211450,1,0,0:0:0:0:
256,192,211538,1,2,0:0:0:0:
256,192,211625,1,0,0:0:0:0:
256,192,211712,1,0,0:0:0:0:
256,192,211799,1,0,0:0:0:0:
256,192,211886,1,6,0:0:0:0:
256,192,211974,1,0,0:0:0:0:
256,192,212061,1,0,0:0:0:0:
256,192,212148,1,2,0:0:0:0:
256,192,212235,1,4,0:0:0:0:
256,192,212410,1,0,0:0:0:0:
256,192,212584,1,6,0:0:0:0:
256,192,213282,1,6,0:0:0:0:
256,192,213805,1,0,0:0:0:0:
256,192,213892,1,0,0:0:0:0:
256,192,213936,1,0,0:0:0:0:
256,192,213979,1,6,0:0:0:0:
256,192,214677,1,6,0:0:0:0:
256,192,215026,1,4,0:0:0:0:
256,192,215200,1,2,0:0:0:0:
256,192,215375,1,6,0:0:0:0:
256,192,215549,1,0,0:0:0:0:
256,192,215636,1,2,0:0:0:0:
256,192,215724,1,0,0:0:0:0:
256,192,215811,1,2,0:0:0:0:
256,192,215898,1,0,0:0:0:0:
256,192,215985,1,0,0:0:0:0:
256,192,216072,1,6,0:0:0:0:
256,192,216160,1,0,0:0:0:0:
256,192,216247,1,0,0:0:0:0:
256,192,216334,1,0,0:0:0:0:
256,192,216421,1,2,0:0:0:0:
256,192,216508,1,2,0:0:0:0:
256,192,216596,1,0,0:0:0:0:
256,192,216683,1,0,0:0:0:0:
256,192,216770,1,6,0:0:0:0:
256,192,216857,1,0,0:0:0:0:
256,192,216945,1,0,0:0:0:0:
256,192,217032,1,0,0:0:0:0:
256,192,217119,1,2,0:0:0:0:
256,192,217206,1,0,0:0:0:0:
256,192,217293,1,0,0:0:0:0:
256,192,217381,1,0,0:0:0:0:
256,192,217468,1,6,0:0:0:0:
256,192,217555,1,0,0:0:0:0:
256,192,217642,1,0,0:0:0:0:
256,192,217729,1,2,0:0:0:0:
256,192,217817,1,4,0:0:0:0:
256,192,217991,1,2,0:0:0:0:
256,192,218165,1,6,0:0:0:0:
256,192,218340,1,0,0:0:0:0:
256,192,218427,1,2,0:0:0:0:
256,192,218514,1,0,0:0:0:0:
256,192,218602,1,2,0:0:0:0:
256,192,218689,1,0,0:0:0:0:
256,192,218776,1,0,0:0:0:0:
256,192,218863,1,6,0:0:0:0:
256,192,218950,1,0,0:0:0:0:
256,192,219038,1,0,0:0:0:0:
256,192,219125,1,0,0:0:0:0:
256,192,219212,1,2,0:0:0:0:
256,192,219299,1,2,0:0:0:0:
256,192,219386,1,0,0:0:0:0:
256,192,219474,1,0,0:0:0:0:
256,192,219561,1,6,0:0:0:0:
256,192,219648,1,0,0:0:0:0:
256,192,219735,1,0,0:0:0:0:
256,192,219822,1,0,0:0:0:0:
256,192,219910,1,2,0:0:0:0:
256,192,219997,1,0,0:0:0:0:
256,192,220084,1,0,0:0:0:0:
256,192,220171,1,0,0:0:0:0:
256,192,220258,1,6,0:0:0:0:
256,192,220346,1,0,0:0:0:0:
256,192,220433,1,2,0:0:0:0:
256,192,220520,1,2,0:0:0:0:
256,192,220607,1,4,0:0:0:0:
256,192,220782,1,2,0:0:0:0:
256,192,220956,1,6,0:0:0:0:
256,192,221131,1,0,0:0:0:0:
256,192,221218,1,2,0:0:0:0:
256,192,221305,1,0,0:0:0:0:
256,192,221392,1,2,0:0:0:0:
256,192,221479,1,0,0:0:0:0:
256,192,221567,1,0,0:0:0:0:
256,192,221654,1,6,0:0:0:0:
256,192,221741,1,0,0:0:0:0:
256,192,221828,1,0,0:0:0:0:
256,192,221915,1,0,0:0:0:0:
256,192,222003,1,2,0:0:0:0:
256,192,222090,1,2,0:0:0:0:
256,192,222177,1,0,0:0:0:0:
256,192,222264,1,0,0:0:0:0:
256,192,222352,1,6,0:0:0:0:
256,192,222439,1,0,0:0:0:0:
256,192,222526,1,0,0:0:0:0:
256,192,222613,1,0,0:0:0:0:
256,192,222700,1,2,0:0:0:0:
256,192,222788,1,0,0:0:0:0:
256,192,222875,1,0,0:0:0:0:
256,192,222962,1,0,0:0:0:0:
256,192,223049,1,6,0:0:0:0:
256,192,223136,1,0,0:0:0:0:
256,192,223224,1,0,0:0:0:0:
256,192,223311,1,2,0:0:0:0:
256,192,223398,1,4,0:0:0:0:
256,192,223921,1,0,0:0:0:0:
256,192,224445,1,0,0:0:0:0:
256,192,224619,1,2,0:0:0:0:
256,192,224793,1,2,0:0:0:0:
256,192,224968,1,0,0:0:0:0:
256,192,225142,1,2,0:0:0:0:
256,192,225491,1,0,0:0:0:0:
256,192,225840,1,0,0:0:0:0:
256,192,225927,1,0,0:0:0:0:
256,192,226014,1,0,0:0:0:0:
256,192,226102,1,0,0:0:0:0:
256,192,226189,1,6,0:0:0:0:
256,192,226538,1,6,0:0:0:0:
256,192,226712,1,0,0:0:0:0:
256,192,226799,1,2,0:0:0:0:
256,192,226886,1,0,0:0:0:0:
256,192,226974,1,2,0:0:0:0:
256,192,227061,1,0,0:0:0:0:
256,192,227148,1,0,0:0:0:0:
256,192,227235,1,6,0:0:0:0:
256,192,227322,1,0,0:0:0:0:
256,192,227410,1,0,0:0:0:0:
256,192,227497,1,2,0:0:0:0:
256,192,227584,1,0,0:0:0:0:
256,192,227671,1,2,0:0:0:0:
256,192,227758,1,2,0:0:0:0:
256,192,227846,1,0,0:0:0:0:
256,192,227933,1,6,0:0:0:0:
256,192,228020,1,0,0:0:0:0:
256,192,228107,1,0,0:0:0:0:
256,192,228195,1,2,0:0:0:0:
256,192,228282,1,0,0:0:0:0:
256,192,228369,1,2,0:0:0:0:
256,192,228456,1,0,0:0:0:0:
256,192,228543,1,0,0:0:0:0:
256,192,228631,1,6,0:0:0:0:
256,192,228718,1,0,0:0:0:0:
256,192,228805,1,0,0:0:0:0:
256,192,228892,1,2,0:0:0:0:
256,192,228979,1,4,0:0:0:0:
256,192,229328,1,6,0:0:0:0:
256,192,229503,1,0,0:0:0:0:
256,192,229590,1,2,0:0:0:0:
256,192,229677,1,0,0:0:0:0:
256,192,229764,1,2,0:0:0:0:
256,192,229852,1,0,0:0:0:0:
256,192,229939,1,0,0:0:0:0:
256,192,230026,1,6,0:0:0:0:
256,192,230113,1,0,0:0:0:0:
256,192,230200,1,0,0:0:0:0:
256,192,230288,1,2,0:0:0:0:
256,192,230375,1,0,0:0:0:0:
256,192,230462,1,2,0:0:0:0:
256,192,230549,1,2,0:0:0:0:
256,192,230636,1,0,0:0:0:0:
256,192,230724,1,6,0:0:0:0:
256,192,230811,1,0,0:0:0:0:
256,192,230898,1,0,0:0:0:0:
256,192,230985,1,2,0:0:0:0:
256,192,231072,1,0,0:0:0:0:
256,192,231160,1,2,0:0:0:0:
256,192,231247,1,0,0:0:0:0:
256,192,231334,1,0,0:0:0:0:
256,192,231421,1,6,0:0:0:0:
256,192,231508,1,0,0:0:0:0:
256,192,231596,1,0,0:0:0:0:
256,192,231683,1,2,0:0:0:0:
256,192,231770,1,4,0:0:0:0:
256,192,232119,1,6,0:0:0:0:
256,192,232293,1,0,0:0:0:0:
256,192,232381,1,2,0:0:0:0:
256,192,232468,1,0,0:0:0:0:
256,192,232555,1,2,0:0:0:0:
256,192,232642,1,0,0:0:0:0:
256,192,232729,1,0,0:0:0:0:
256,192,232817,1,6,0:0:0:0:
256,192,232904,1,0,0:0:0:0:
256,192,232991,1,0,0:0:0:0:
256,192,233078,1,2,0:0:0:0:
256,192,233165,1,0,0:0:0:0:
256,192,233253,1,2,0:0:0:0:
256,192,233340,1,2,0:0:0:0:
256,192,233427,1,0,0:0:0:0:
256,192,233514,1,6,0:0:0:0:
256,192,233602,1,0,0:0:0:0:
256,192,233689,1,0,0:0:0:0:
256,192,233776,1,2,0:0:0:0:
256,192,233863,1,0,0:0:0:0:
256,192,233950,1,2,0:0:0:0:
256,192,234038,1,0,0:0:0:0:
256,192,234125,1,0,0:0:0:0:
256,192,234212,1,6,0:0:0:0:
256,192,234299,1,0,0:0:0:0:
256,192,234386,1,0,0:0:0:0:
256,192,234474,1,2,0:0:0:0:
256,192,234561,1,4,0:0:0:0:
256,192,234735,1,0,0:0:0:0:
256,192,234910,1,6,0:0:0:0:
256,192,235084,1,0,0:0:0:0:
256,192,235171,1,2,0:0:0:0:
256,192,235258,1,0,0:0:0:0:
256,192,235346,1,2,0:0:0:0:
256,192,235433,1,0,0:0:0:0:
256,192,235520,1,0,0:0:0:0:
256,192,235607,1,6,0:0:0:0:
256,192,235782,1,0,0:0:0:0:
256,192,235869,1,2,0:0:0:0:
256,192,235956,1,0,0:0:0:0:
256,192,236043,1,2,0:0:0:0:
256,192,236131,1,2,0:0:0:0:
256,192,236218,1,0,0:0:0:0:
256,192,236305,1,6,0:0:0:0:
256,192,236392,1,0,0:0:0:0:
256,192,236479,1,0,0:0:0:0:
256,192,236567,1,0,0:0:0:0:
256,192,236654,1,2,0:0:0:0:
256,192,236741,1,2,0:0:0:0:
256,192,236828,1,2,0:0:0:0:
256,192,236915,1,0,0:0:0:0:
256,192,237003,1,6,0:0:0:0:
256,192,237090,1,0,0:0:0:0:
256,192,237177,1,2,0:0:0:0:
256,192,237264,1,2,0:0:0:0:
256,192,237352,1,4,0:0:0:0:
256,192,237700,1,6,0:0:0:0:
256,192,237875,1,0,0:0:0:0:
256,192,237962,1,2,0:0:0:0:
256,192,238049,1,0,0:0:0:0:
256,192,238136,1,2,0:0:0:0:
256,192,238224,1,0,0:0:0:0:
256,192,238311,1,0,0:0:0:0:
256,192,238398,1,6,0:0:0:0:
256,192,238485,1,0,0:0:0:0:
256,192,238572,1,0,0:0:0:0:
256,192,238660,1,2,0:0:0:0:
256,192,238747,1,0,0:0:0:0:
256,192,238834,1,2,0:0:0:0:
256,192,238921,1,2,0:0:0:0:
256,192,239008,1,0,0:0:0:0:
256,192,239096,1,6,0:0:0:0:
256,192,239183,1,0,0:0:0:0:
256,192,239270,1,0,0:0:0:0:
256,192,239357,1,2,0:0:0:0:
256,192,239445,1,0,0:0:0:0:
256,192,239532,1,2,0:0:0:0:
256,192,239619,1,0,0:0:0:0:
256,192,239706,1,0,0:0:0:0:
256,192,239793,1,6,0:0:0:0:
256,192,239881,1,0,0:0:0:0:
256,192,239968,1,0,0:0:0:0:
256,192,240055,1,2,0:0:0:0:
256,192,240142,1,4,0:0:0:0:
256,192,240491,1,6,0:0:0:0:
256,192,240665,1,0,0:0:0:0:
256,192,240753,1,2,0:0:0:0:
256,192,240840,1,0,0:0:0:0:
256,192,240927,1,2,0:0:0:0:
256,192,241014,1,0,0:0:0:0:
256,192,241102,1,0,0:0:0:0:
256,192,241189,1,6,0:0:0:0:
256,192,241276,1,0,0:0:0:0:
256,192,241363,1,0,0:0:0:0:
256,192,241450,1,2,0:0:0:0:
256,192,241538,1,0,0:0:0:0:
256,192,241625,1,2,0:0:0:0:
256,192,241712,1,2,0:0:0:0:
256,192,241799,1,0,0:0:0:0:
256,192,241886,1,6,0:0:0:0:
256,192,241974,1,0,0:0:0:0:
256,192,242061,1,0,0:0:0:0:
256,192,242148,1,2,0:0:0:0:
256,192,242235,1,0,0:0:0:0:
256,192,242322,1,2,0:0:0:0:
256,192,242410,1,0,0:0:0:0:
256,192,242497,1,0,0:0:0:0:
256,192,242584,1,6,0:0:0:0:
256,192,242671,1,0,0:0:0:0:
256,192,242758,1,0,0:0:0:0:
256,192,242846,1,2,0:0:0:0:
256,192,242933,1,4,0:0:0:0:
256,192,243282,1,6,0:0:0:0:
256,192,243456,1,0,0:0:0:0:
256,192,243543,1,2,0:0:0:0:
256,192,243631,1,0,0:0:0:0:
256,192,243718,1,2,0:0:0:0:
256,192,243805,1,0,0:0:0:0:
256,192,243892,1,0,0:0:0:0:
256,192,243979,1,6,0:0:0:0:
256,192,244067,1,0,0:0:0:0:
256,192,244154,1,0,0:0:0:0:
256,192,244241,1,2,0:0:0:0:
256,192,244328,1,0,0:0:0:0:
256,192,244415,1,2,0:0:0:0:
256,192,244503,1,2,0:0:0:0:
256,192,244590,1,0,0:0:0:0:
256,192,244677,1,6,0:0:0:0:
256,192,244764,1,0,0:0:0:0:
256,192,244852,1,0,0:0:0:0:
256,192,244939,1,2,0:0:0:0:
256,192,245026,1,0,0:0:0:0:
256,192,245113,1,2,0:0:0:0:
256,192,245200,1,0,0:0:0:0:
256,192,245288,1,0,0:0:0:0:
256,192,245375,1,6,0:0:0:0:
256,192,245462,1,0,0:0:0:0:
256,192,245549,1,0,0:0:0:0:
256,192,245636,1,2,0:0:0:0:
256,192,245724,1,4,0:0:0:0:
256,192,246247,1,0,0:0:0:0:
256,192,246770,1,0,0:0:0:0:
256,192,247293,1,0,0:0:0:0:
256,192,247817,1,0,0:0:0:0:
256,192,248165,1,0,0:0:0:0:
256,192,248253,1,0,0:0:0:0:
256,192,248340,1,0,0:0:0:0:
256,192,248427,1,0,0:0:0:0:
256,192,248514,1,2,0:0:0:0:
256,192,249212,8,0,252700,0:0:0:0:
