osu file format v14

[General]
AudioFilename: mp3.mp3
AudioLeadIn: 0
PreviewTime: 244235
Countdown: 0
SampleSet: Normal
StackLeniency: 0.7
Mode: 1
LetterboxInBreaks: 0
WidescreenStoryboard: 1

[Editor]
Bookmarks: 332,22657,44983,67308,89634,111959,134285,156611,178936,201262,220797,245913,268238,290564
DistanceSpacing: 0.7
BeatDivisor: 2
GridSize: 32
TimelineZoom: 2.2

[Metadata]
Title:Enigma Machine
TitleUnicode:Enigma Machine
Artist:Task Horizon & Neonlight
ArtistUnicode:Task Horizon & Neonlight
Creator:Capu
Version:Inner Oni
Source:
Tags:electronic instrumental overclocking reality ep eatbrain 052 dnb drum and bass
BeatmapID:2443596
BeatmapSetID:1165587

[Difficulty]
HPDrainRate:5.5
CircleSize:2
OverallDifficulty:6.5
ApproachRate:10
SliderMultiplier:1.4
SliderTickRate:1

[Events]
//Background and Video events
0,0,"fantasy-2543658_1920.jpg",0,0
//Break Periods
2,179202,189715
2,301993,306924
//Storyboard Layer 0 (Background)
//Storyboard Layer 1 (Fail)
//Storyboard Layer 2 (Pass)
//Storyboard Layer 3 (Foreground)
//Storyboard Layer 4 (Overlay)
//Storyboard Sound Samples

[TimingPoints]
398,348.837209302326,4,1,0,100,1,0
67374,-100,4,1,0,100,0,1
77142,-100,4,1,0,100,0,0
78537,-100,4,1,0,100,0,1
87258,-100,4,1,0,100,0,0
89700,-100,4,1,0,100,0,1
99816,-100,4,1,0,100,0,0
100863,-100,4,1,0,100,0,1
109584,-100,4,1,0,100,0,0
112025,-100,4,1,0,100,0,1
123188,-100,4,1,0,100,0,0
124235,-100,4,1,0,100,0,1
134351,-100,4,1,0,100,0,0
223653,-100,4,1,0,100,0,1
233770,-100,4,1,0,100,0,0
234816,-100,4,1,0,100,0,1
243537,-100,4,1,0,100,0,0
245979,-100,4,1,0,100,0,1
257142,-100,4,1,0,100,0,0
258188,-100,4,1,0,100,0,1
268304,-100,4,1,0,100,0,0
296037,-100,4,1,0,70,0,0
301618,-100,4,1,0,40,0,0
307200,-100,4,1,0,70,0,0
312781,-100,4,1,0,60,0,0
313130,-100,4,1,0,50,0,0
313479,-100,4,1,0,40,0,0

[HitObjects]
256,192,45049,5,4,0:0:0:0:
256,192,45310,5,0,0:0:0:0:
256,192,45572,5,0,0:0:0:0:
256,192,45834,5,0,0:0:0:0:
256,192,46444,5,8,0:0:0:0:
256,192,46706,1,0,0:0:0:0:
256,192,46967,5,0,0:0:0:0:
256,192,47229,1,0,0:0:0:0:
256,192,47839,5,8,0:0:0:0:
256,192,48101,1,0,0:0:0:0:
256,192,48363,5,0,0:0:0:0:
256,192,48624,1,0,0:0:0:0:
256,192,49235,5,8,0:0:0:0:
256,192,49496,1,0,0:0:0:0:
256,192,49758,1,8,0:0:0:0:
256,192,50020,1,8,0:0:0:0:
256,192,50630,5,8,0:0:0:0:
256,192,50892,5,8,0:0:0:0:
256,192,51153,5,0,0:0:0:0:
256,192,51415,5,0,0:0:0:0:
256,192,51677,1,0,0:0:0:0:
256,192,52025,5,8,0:0:0:0:
256,192,52287,5,0,0:0:0:0:
256,192,52549,5,0,0:0:0:0:
256,192,52810,5,0,0:0:0:0:
256,192,53072,1,0,0:0:0:0:
256,192,53421,5,8,0:0:0:0:
256,192,53682,5,0,0:0:0:0:
256,192,53944,5,0,0:0:0:0:
256,192,54206,5,0,0:0:0:0:
256,192,54467,1,0,0:0:0:0:
256,192,54816,5,8,0:0:0:0:
256,192,55078,5,0,0:0:0:0:
256,192,55339,5,8,0:0:0:0:
256,192,55601,5,0,0:0:0:0:
256,192,55863,1,8,0:0:0:0:
256,192,56211,5,4,0:0:0:0:
256,192,56473,5,0,0:0:0:0:
256,192,56735,5,0,0:0:0:0:
256,192,56996,5,0,0:0:0:0:
256,192,57258,5,0,0:0:0:0:
256,192,57607,5,0,0:0:0:0:
256,192,57868,5,0,0:0:0:0:
256,192,58130,5,0,0:0:0:0:
256,192,58392,5,0,0:0:0:0:
256,192,58653,5,0,0:0:0:0:
256,192,58915,1,0,0:0:0:0:
256,192,59002,5,0,0:0:0:0:
256,192,59264,5,0,0:0:0:0:
256,192,59525,5,0,0:0:0:0:
256,192,59787,5,0,0:0:0:0:
256,192,60049,5,0,0:0:0:0:
256,192,60398,5,0,0:0:0:0:
256,192,60659,5,0,0:0:0:0:
256,192,60921,5,0,0:0:0:0:
256,192,61182,5,0,0:0:0:0:
256,192,61444,5,0,0:0:0:0:
256,192,61793,5,8,0:0:0:0:
256,192,61967,5,8,0:0:0:0:
256,192,62142,5,0,0:0:0:0:
256,192,62316,5,0,0:0:0:0:
256,192,62491,5,8,0:0:0:0:
256,192,62578,1,0,0:0:0:0:
256,192,62665,5,8,0:0:0:0:
256,192,62839,5,0,0:0:0:0:
256,192,63014,1,0,0:0:0:0:
256,192,63188,5,8,0:0:0:0:
256,192,63363,5,0,0:0:0:0:
256,192,63450,1,0,0:0:0:0:
256,192,63537,5,8,0:0:0:0:
256,192,63711,5,0,0:0:0:0:
256,192,63886,5,8,0:0:0:0:
256,192,63973,1,0,0:0:0:0:
256,192,64060,5,8,0:0:0:0:
256,192,64235,5,0,0:0:0:0:
256,192,64409,1,0,0:0:0:0:
256,192,64584,5,8,0:0:0:0:
256,192,64671,1,0,0:0:0:0:
256,192,64758,1,8,0:0:0:0:
256,192,64845,1,8,0:0:0:0:
256,192,64932,1,0,0:0:0:0:
256,192,65020,1,0,0:0:0:0:
256,192,65107,1,8,0:0:0:0:
256,192,65194,1,0,0:0:0:0:
256,192,65281,5,8,0:0:0:0:
256,192,65368,1,0,0:0:0:0:
256,192,65456,1,8,0:0:0:0:
256,192,65543,1,8,0:0:0:0:
256,192,65630,1,0,0:0:0:0:
256,192,65717,1,0,0:0:0:0:
256,192,65804,1,8,0:0:0:0:
256,192,65892,1,0,0:0:0:0:
256,192,65979,1,8,0:0:0:0:
256,192,66066,1,8,0:0:0:0:
256,192,66153,1,8,0:0:0:0:
256,192,66241,1,8,0:0:0:0:
256,192,66328,1,0,0:0:0:0:
256,192,66415,1,0,0:0:0:0:
256,192,66502,5,0,0:0:0:0:
256,192,66589,1,0,0:0:0:0:
256,192,66677,5,8,0:0:0:0:
256,192,66764,5,0,0:0:0:0:
256,192,66851,5,8,0:0:0:0:
256,192,66938,1,8,0:0:0:0:
256,192,67025,1,0,0:0:0:0:
256,192,67374,5,4,0:0:0:0:
256,192,67549,1,0,0:0:0:0:
256,192,67636,1,0,0:0:0:0:
256,192,67723,1,8,0:0:0:0:
256,192,67898,1,8,0:0:0:0:
256,192,67985,5,0,0:0:0:0:
256,192,68159,1,8,0:0:0:0:
256,192,68246,1,0,0:0:0:0:
256,192,68334,1,0,0:0:0:0:
256,192,68421,5,8,0:0:0:0:
256,192,68595,1,0,0:0:0:0:
256,192,68682,1,8,0:0:0:0:
256,192,68857,1,8,0:0:0:0:
256,192,69031,1,0,0:0:0:0:
256,192,69118,1,8,0:0:0:0:
256,192,69206,1,8,0:0:0:0:
256,192,69293,1,0,0:0:0:0:
256,192,69467,1,8,0:0:0:0:
256,192,69554,1,0,0:0:0:0:
256,192,69729,1,0,0:0:0:0:
256,192,69816,5,8,0:0:0:0:
256,192,69903,5,0,0:0:0:0:
64,64,70165,5,4,0:0:0:0:
256,256,70339,1,0,0:0:0:0:
256,256,70427,1,0,0:0:0:0:
256,192,70514,1,8,0:0:0:0:
256,192,70688,1,8,0:0:0:0:
256,192,70775,1,0,0:0:0:0:
256,192,70950,1,8,0:0:0:0:
256,192,71037,5,0,0:0:0:0:
256,192,71124,1,0,0:0:0:0:
256,192,71211,5,8,0:0:0:0:
256,192,71386,1,0,0:0:0:0:
256,192,71473,1,8,0:0:0:0:
256,192,71648,1,8,0:0:0:0:
256,192,71822,1,0,0:0:0:0:
256,192,71909,1,8,0:0:0:0:
256,192,71996,1,8,0:0:0:0:
256,192,72084,1,0,0:0:0:0:
256,192,72258,1,0,0:0:0:0:
256,192,72345,5,8,0:0:0:0:
256,192,72520,5,0,0:0:0:0:
256,192,72607,5,8,0:0:0:0:
256,192,72694,5,8,0:0:0:0:
256,192,72781,5,0,0:0:0:0:
256,192,72868,1,0,0:0:0:0:
32,64,72956,5,12,0:0:0:0:
224,192,73130,1,0,0:0:0:0:
256,192,73217,1,0,0:0:0:0:
256,192,73304,5,8,0:0:0:0:
256,192,73479,5,8,0:0:0:0:
256,192,73566,1,0,0:0:0:0:
256,192,73741,1,8,0:0:0:0:
256,192,73828,5,0,0:0:0:0:
256,192,73915,1,0,0:0:0:0:
256,192,74002,5,8,0:0:0:0:
256,192,74177,5,0,0:0:0:0:
256,192,74264,5,8,0:0:0:0:
256,192,74438,5,8,0:0:0:0:
256,192,74613,5,0,0:0:0:0:
256,192,74700,5,8,0:0:0:0:
256,192,74787,1,8,0:0:0:0:
256,192,74874,5,0,0:0:0:0:
256,192,75049,1,0,0:0:0:0:
256,192,75136,5,8,0:0:0:0:
256,192,75310,1,0,0:0:0:0:
256,192,75398,5,8,0:0:0:0:
256,192,75485,5,0,0:0:0:0:
96,64,75746,5,4,0:0:0:0:
256,192,75921,1,0,0:0:0:0:
256,192,76008,5,8,0:0:0:0:
256,192,76095,5,0,0:0:0:0:
256,192,76182,1,0,0:0:0:0:
256,192,76270,1,8,0:0:0:0:
256,192,76444,5,0,0:0:0:0:
256,192,76531,5,8,0:0:0:0:
256,192,76618,1,8,0:0:0:0:
256,192,76706,5,0,0:0:0:0:
256,192,76793,5,8,0:0:0:0:
256,192,77054,5,8,0:0:0:0:
256,192,77142,5,0,0:0:0:0:
256,192,77316,5,0,0:0:0:0:
256,192,77491,5,8,0:0:0:0:
256,192,77578,5,0,0:0:0:0:
256,192,77752,5,0,0:0:0:0:
256,192,77927,5,0,0:0:0:0:
256,192,78014,5,8,0:0:0:0:
256,192,78101,5,0,0:0:0:0:
256,192,78188,5,8,0:0:0:0:
256,192,78537,5,4,0:0:0:0:
256,192,78711,1,0,0:0:0:0:
256,192,78799,1,0,0:0:0:0:
256,192,78886,1,8,0:0:0:0:
256,192,79060,1,8,0:0:0:0:
256,192,79148,5,0,0:0:0:0:
256,192,79322,1,8,0:0:0:0:
256,192,79409,1,0,0:0:0:0:
256,192,79496,1,0,0:0:0:0:
256,192,79584,5,8,0:0:0:0:
256,192,79758,1,0,0:0:0:0:
256,192,79845,1,8,0:0:0:0:
256,192,80020,1,8,0:0:0:0:
256,192,80194,1,0,0:0:0:0:
256,192,80281,1,8,0:0:0:0:
256,192,80368,1,8,0:0:0:0:
256,192,80456,1,0,0:0:0:0:
256,192,80630,1,8,0:0:0:0:
256,192,80717,1,0,0:0:0:0:
256,192,80892,1,0,0:0:0:0:
256,192,80979,5,8,0:0:0:0:
256,192,81066,5,0,0:0:0:0:
64,64,81328,5,4,0:0:0:0:
256,256,81502,1,0,0:0:0:0:
256,256,81589,1,0,0:0:0:0:
256,192,81677,1,8,0:0:0:0:
256,192,81851,1,8,0:0:0:0:
256,192,81938,1,0,0:0:0:0:
256,192,82113,1,8,0:0:0:0:
256,192,82200,5,0,0:0:0:0:
256,192,82287,1,0,0:0:0:0:
256,192,82374,5,8,0:0:0:0:
256,192,82549,1,0,0:0:0:0:
256,192,82636,1,8,0:0:0:0:
256,192,82810,1,8,0:0:0:0:
256,192,82985,1,0,0:0:0:0:
256,192,83072,1,8,0:0:0:0:
256,192,83159,1,8,0:0:0:0:
256,192,83246,1,0,0:0:0:0:
256,192,83421,1,8,0:0:0:0:
256,192,83508,5,0,0:0:0:0:
256,192,83682,5,0,0:0:0:0:
256,192,83770,5,8,0:0:0:0:
256,192,83857,5,8,0:0:0:0:
256,192,83944,5,0,0:0:0:0:
256,192,84031,1,0,0:0:0:0:
32,64,84118,5,12,0:0:0:0:
224,192,84293,1,0,0:0:0:0:
256,192,84380,1,0,0:0:0:0:
256,192,84467,5,8,0:0:0:0:
256,192,84642,5,8,0:0:0:0:
256,192,84729,1,0,0:0:0:0:
256,192,84903,1,8,0:0:0:0:
256,192,84991,5,0,0:0:0:0:
256,192,85078,1,0,0:0:0:0:
256,192,85165,5,8,0:0:0:0:
256,192,85339,5,0,0:0:0:0:
256,192,85427,5,8,0:0:0:0:
256,192,85601,5,8,0:0:0:0:
256,192,85775,5,0,0:0:0:0:
256,192,85863,5,8,0:0:0:0:
256,192,85950,1,8,0:0:0:0:
256,192,86037,5,0,0:0:0:0:
256,192,86211,1,0,0:0:0:0:
256,192,86299,5,8,0:0:0:0:
256,192,86473,1,0,0:0:0:0:
256,192,86560,5,8,0:0:0:0:
256,192,86648,5,0,0:0:0:0:
96,64,86909,5,4,0:0:0:0:
128,192,87258,1,12,0:0:0:0:
256,192,87956,1,0,0:0:0:0:
256,192,88043,1,0,0:0:0:0:
256,192,88130,1,8,0:0:0:0:
256,192,88304,5,0,0:0:0:0:
256,192,88653,5,8,0:0:0:0:
256,192,88828,5,0,0:0:0:0:
256,192,89089,5,0,0:0:0:0:
256,192,89177,5,8,0:0:0:0:
256,192,89351,1,8,0:0:0:0:
256,192,89438,1,8,0:0:0:0:
256,192,89525,1,0,0:0:0:0:
256,192,89700,5,8,0:0:0:0:
256,192,89787,1,8,0:0:0:0:
256,192,89874,1,0,0:0:0:0:
256,192,89961,1,0,0:0:0:0:
256,192,90049,1,8,0:0:0:0:
256,192,90136,1,0,0:0:0:0:
256,192,90223,1,8,0:0:0:0:
256,192,90310,1,8,0:0:0:0:
256,192,90398,1,0,0:0:0:0:
256,192,90485,1,0,0:0:0:0:
256,192,90572,1,8,0:0:0:0:
256,192,90746,5,8,0:0:0:0:
256,192,90921,1,0,0:0:0:0:
256,192,91095,1,0,0:0:0:0:
256,192,91182,1,0,0:0:0:0:
256,192,91270,1,8,0:0:0:0:
256,192,91357,1,0,0:0:0:0:
256,192,91444,1,8,0:0:0:0:
256,192,91531,1,8,0:0:0:0:
256,192,91618,5,0,0:0:0:0:
256,192,91706,1,8,0:0:0:0:
256,192,91793,1,0,0:0:0:0:
256,192,91880,5,0,0:0:0:0:
256,192,91967,5,8,0:0:0:0:
256,192,92142,5,8,0:0:0:0:
256,192,92316,1,0,0:0:0:0:
256,192,92491,5,8,0:0:0:0:
256,192,92578,1,8,0:0:0:0:
256,192,92665,1,0,0:0:0:0:
256,192,92752,1,0,0:0:0:0:
256,192,92839,1,8,0:0:0:0:
256,192,92927,1,0,0:0:0:0:
256,192,93014,1,8,0:0:0:0:
256,192,93101,1,0,0:0:0:0:
256,192,93188,1,8,0:0:0:0:
256,192,93275,1,8,0:0:0:0:
256,192,93363,1,0,0:0:0:0:
256,192,93537,1,8,0:0:0:0:
256,192,93711,1,0,0:0:0:0:
256,192,93886,5,0,0:0:0:0:
256,192,93973,5,8,0:0:0:0:
256,192,94060,5,8,0:0:0:0:
256,192,94148,5,0,0:0:0:0:
256,192,94235,5,8,0:0:0:0:
256,192,94322,1,0,0:0:0:0:
256,192,94409,5,0,0:0:0:0:
256,192,94496,1,8,0:0:0:0:
256,192,94584,1,8,0:0:0:0:
256,192,94671,1,0,0:0:0:0:
256,192,94758,1,8,0:0:0:0:
256,192,94932,5,8,0:0:0:0:
256,192,95107,1,0,0:0:0:0:
256,192,95281,1,8,0:0:0:0:
256,192,95368,1,8,0:0:0:0:
256,192,95456,1,0,0:0:0:0:
256,192,95543,1,0,0:0:0:0:
256,192,95630,1,8,0:0:0:0:
256,192,95717,1,0,0:0:0:0:
256,192,95804,1,0,0:0:0:0:
256,192,95892,1,0,0:0:0:0:
256,192,95979,1,8,0:0:0:0:
256,192,96066,1,8,0:0:0:0:
256,192,96153,1,0,0:0:0:0:
256,192,96241,1,0,0:0:0:0:
256,192,96328,1,8,0:0:0:0:
256,192,96502,1,0,0:0:0:0:
256,192,96677,5,8,0:0:0:0:
256,192,96764,1,8,0:0:0:0:
256,192,96851,5,0,0:0:0:0:
256,192,96938,1,0,0:0:0:0:
256,192,97025,5,8,0:0:0:0:
256,192,97113,5,8,0:0:0:0:
256,192,97200,1,0,0:0:0:0:
256,192,97287,1,8,0:0:0:0:
256,192,97374,5,0,0:0:0:0:
256,192,97461,1,0,0:0:0:0:
256,192,97549,5,8,0:0:0:0:
256,192,97723,5,8,0:0:0:0:
256,192,97898,1,0,0:0:0:0:
256,192,98072,5,8,0:0:0:0:
256,192,98159,1,0,0:0:0:0:
256,192,98246,5,0,0:0:0:0:
256,192,98334,5,0,0:0:0:0:
256,192,98421,5,8,0:0:0:0:
256,192,98508,1,0,0:0:0:0:
256,192,98595,5,8,0:0:0:0:
256,192,98682,1,8,0:0:0:0:
256,192,98770,1,8,0:0:0:0:
256,192,98857,1,0,0:0:0:0:
256,192,98944,5,0,0:0:0:0:
256,192,99031,5,0,0:0:0:0:
256,192,99118,5,8,0:0:0:0:
256,192,99293,1,0,0:0:0:0:
256,192,99380,1,8,0:0:0:0:
256,192,99467,1,8,0:0:0:0:
256,192,99554,5,0,0:0:0:0:
256,192,99642,5,0,0:0:0:0:
256,192,99816,5,8,0:0:0:0:
256,192,99991,5,0,0:0:0:0:
256,192,100252,5,0,0:0:0:0:
256,192,100339,5,0,0:0:0:0:
256,192,100427,1,0,0:0:0:0:
256,192,100514,5,8,0:0:0:0:
256,192,100863,5,8,0:0:0:0:
256,192,100950,1,8,0:0:0:0:
256,192,101037,1,0,0:0:0:0:
256,192,101124,1,0,0:0:0:0:
256,192,101211,1,8,0:0:0:0:
256,192,101299,1,0,0:0:0:0:
256,192,101386,1,8,0:0:0:0:
256,192,101473,1,8,0:0:0:0:
256,192,101560,1,0,0:0:0:0:
256,192,101648,1,0,0:0:0:0:
256,192,101735,1,8,0:0:0:0:
256,192,101909,5,8,0:0:0:0:
256,192,102084,1,0,0:0:0:0:
256,192,102258,1,0,0:0:0:0:
256,192,102345,1,0,0:0:0:0:
256,192,102432,1,8,0:0:0:0:
256,192,102520,1,0,0:0:0:0:
256,192,102607,1,8,0:0:0:0:
256,192,102694,1,8,0:0:0:0:
256,192,102781,5,0,0:0:0:0:
256,192,102868,1,8,0:0:0:0:
256,192,102956,1,0,0:0:0:0:
256,192,103043,5,0,0:0:0:0:
256,192,103130,5,8,0:0:0:0:
256,192,103304,5,8,0:0:0:0:
256,192,103479,1,0,0:0:0:0:
256,192,103653,5,8,0:0:0:0:
256,192,103741,1,8,0:0:0:0:
256,192,103828,1,0,0:0:0:0:
256,192,103915,1,0,0:0:0:0:
256,192,104002,1,8,0:0:0:0:
256,192,104089,1,0,0:0:0:0:
256,192,104177,1,8,0:0:0:0:
256,192,104264,1,0,0:0:0:0:
256,192,104351,1,8,0:0:0:0:
256,192,104438,1,8,0:0:0:0:
256,192,104525,1,0,0:0:0:0:
256,192,104700,1,8,0:0:0:0:
256,192,104874,1,0,0:0:0:0:
256,192,105049,5,0,0:0:0:0:
256,192,105136,5,8,0:0:0:0:
256,192,105223,5,8,0:0:0:0:
256,192,105310,5,0,0:0:0:0:
256,192,105398,5,8,0:0:0:0:
256,192,105485,1,0,0:0:0:0:
256,192,105572,5,0,0:0:0:0:
256,192,105659,1,8,0:0:0:0:
256,192,105746,1,8,0:0:0:0:
256,192,105834,1,0,0:0:0:0:
256,192,105921,1,8,0:0:0:0:
256,192,106095,5,8,0:0:0:0:
256,192,106270,1,0,0:0:0:0:
256,192,106444,1,8,0:0:0:0:
256,192,106531,1,8,0:0:0:0:
256,192,106618,1,0,0:0:0:0:
256,192,106706,1,0,0:0:0:0:
256,192,106793,1,8,0:0:0:0:
256,192,106880,1,0,0:0:0:0:
256,192,106967,1,0,0:0:0:0:
256,192,107054,1,0,0:0:0:0:
256,192,107142,1,8,0:0:0:0:
256,192,107229,1,8,0:0:0:0:
256,192,107316,1,0,0:0:0:0:
256,192,107403,1,0,0:0:0:0:
256,192,107491,1,8,0:0:0:0:
256,192,107665,1,0,0:0:0:0:
256,192,107839,5,8,0:0:0:0:
256,192,107927,1,8,0:0:0:0:
256,192,108014,5,0,0:0:0:0:
256,192,108101,1,0,0:0:0:0:
256,192,108188,5,8,0:0:0:0:
256,192,108275,5,8,0:0:0:0:
256,192,108363,1,0,0:0:0:0:
256,192,108450,1,8,0:0:0:0:
256,192,108537,5,0,0:0:0:0:
256,192,108624,5,0,0:0:0:0:
256,192,108711,5,8,0:0:0:0:
256,192,108886,5,8,0:0:0:0:
256,192,109060,1,0,0:0:0:0:
256,192,109235,5,8,0:0:0:0:
256,192,109322,1,0,0:0:0:0:
256,192,109584,5,4,0:0:0:0:
256,192,110281,1,8,0:0:0:0:
256,192,110368,1,0,0:0:0:0:
256,192,110630,5,8,0:0:0:0:
256,192,110804,5,0,0:0:0:0:
256,192,110979,1,0,0:0:0:0:
256,192,111153,5,8,0:0:0:0:
256,192,111328,5,0,0:0:0:0:
256,192,111415,1,0,0:0:0:0:
256,192,111502,1,0,0:0:0:0:
256,192,111677,5,8,0:0:0:0:
256,192,111764,1,0,0:0:0:0:
256,192,111851,5,0,0:0:0:0:
256,192,111938,1,0,0:0:0:0:
256,192,112025,1,12,0:0:0:0:
256,192,112287,5,0,0:0:0:0:
256,192,112374,5,8,0:0:0:0:
256,192,112549,5,0,0:0:0:0:
256,192,112636,1,0,0:0:0:0:
256,192,112810,5,0,0:0:0:0:
256,192,112898,5,0,0:0:0:0:
256,192,113072,5,8,0:0:0:0:
256,192,113159,5,0,0:0:0:0:
256,192,113246,1,0,0:0:0:0:
256,192,113334,5,8,0:0:0:0:
256,192,113508,1,0,0:0:0:0:
256,192,113595,5,8,0:0:0:0:
256,192,113770,5,8,0:0:0:0:
256,192,113857,5,0,0:0:0:0:
256,192,114031,5,0,0:0:0:0:
256,192,114118,5,0,0:0:0:0:
256,192,114293,1,8,0:0:0:0:
256,192,114380,5,0,0:0:0:0:
256,192,114467,1,8,0:0:0:0:
256,192,114554,1,8,0:0:0:0:
256,192,114642,5,4,0:0:0:0:
256,192,114903,5,4,0:0:0:0:
256,192,115165,5,8,0:0:0:0:
256,192,115252,1,0,0:0:0:0:
256,192,115427,5,0,0:0:0:0:
256,192,115514,1,8,0:0:0:0:
256,192,115688,5,8,0:0:0:0:
256,192,115863,5,8,0:0:0:0:
256,192,115950,5,0,0:0:0:0:
256,192,116124,1,8,0:0:0:0:
256,192,116211,5,0,0:0:0:0:
256,192,116386,1,0,0:0:0:0:
256,192,116473,5,0,0:0:0:0:
256,192,116560,5,8,0:0:0:0:
256,192,116735,5,8,0:0:0:0:
256,192,116822,1,0,0:0:0:0:
256,192,116996,5,8,0:0:0:0:
256,192,117084,1,0,0:0:0:0:
256,192,117258,5,8,0:0:0:0:
256,192,117345,5,8,0:0:0:0:
256,192,117432,5,8,0:0:0:0:
256,192,117520,5,8,0:0:0:0:
256,192,117607,5,4,0:0:0:0:
256,192,117868,5,0,0:0:0:0:
256,192,117956,5,8,0:0:0:0:
256,192,118130,5,0,0:0:0:0:
256,192,118217,1,0,0:0:0:0:
256,192,118392,5,0,0:0:0:0:
256,192,118479,5,0,0:0:0:0:
256,192,118653,5,8,0:0:0:0:
256,192,118741,5,0,0:0:0:0:
256,192,118828,1,0,0:0:0:0:
256,192,118915,5,8,0:0:0:0:
256,192,119089,1,0,0:0:0:0:
256,192,119177,5,8,0:0:0:0:
256,192,119351,5,8,0:0:0:0:
256,192,119438,5,0,0:0:0:0:
256,192,119613,5,0,0:0:0:0:
256,192,119700,5,0,0:0:0:0:
256,192,119874,1,8,0:0:0:0:
256,192,119961,5,0,0:0:0:0:
256,192,120049,1,8,0:0:0:0:
256,192,120136,1,8,0:0:0:0:
256,192,120223,5,4,0:0:0:0:
256,192,120485,5,4,0:0:0:0:
256,192,120746,5,8,0:0:0:0:
256,192,120834,1,0,0:0:0:0:
256,192,121008,5,0,0:0:0:0:
256,192,121095,1,8,0:0:0:0:
256,192,121270,5,8,0:0:0:0:
256,192,121444,5,8,0:0:0:0:
256,192,121531,5,0,0:0:0:0:
256,192,121706,1,8,0:0:0:0:
256,192,121793,5,0,0:0:0:0:
256,192,121967,1,0,0:0:0:0:
256,192,122054,5,0,0:0:0:0:
256,192,122142,5,8,0:0:0:0:
256,192,122316,5,8,0:0:0:0:
256,192,122403,1,0,0:0:0:0:
256,192,122578,5,8,0:0:0:0:
256,192,122665,1,0,0:0:0:0:
256,192,122839,5,8,0:0:0:0:
256,192,122927,1,0,0:0:0:0:
256,192,123014,1,0,0:0:0:0:
256,192,123101,5,8,0:0:0:0:
256,192,123188,5,4,0:0:0:0:
256,192,123450,1,0,0:0:0:0:
256,192,123537,5,8,0:0:0:0:
256,192,123711,1,0,0:0:0:0:
256,192,123886,1,0,0:0:0:0:
256,192,123973,1,0,0:0:0:0:
256,192,124148,1,0,0:0:0:0:
256,192,124235,5,8,0:0:0:0:
256,192,124496,5,8,0:0:0:0:
256,192,124671,1,0,0:0:0:0:
256,192,124758,5,8,0:0:0:0:
256,192,124932,5,8,0:0:0:0:
256,192,125020,5,0,0:0:0:0:
256,192,125194,5,0,0:0:0:0:
256,192,125281,5,0,0:0:0:0:
256,192,125456,1,8,0:0:0:0:
256,192,125543,5,0,0:0:0:0:
256,192,125630,1,8,0:0:0:0:
256,192,125717,1,8,0:0:0:0:
256,192,125804,5,4,0:0:0:0:
256,192,126066,5,4,0:0:0:0:
256,192,126328,5,8,0:0:0:0:
256,192,126415,1,0,0:0:0:0:
256,192,126589,5,0,0:0:0:0:
256,192,126677,1,8,0:0:0:0:
256,192,126851,5,8,0:0:0:0:
256,192,127025,5,8,0:0:0:0:
256,192,127113,5,0,0:0:0:0:
256,192,127287,1,8,0:0:0:0:
256,192,127374,5,0,0:0:0:0:
256,192,127549,1,0,0:0:0:0:
256,192,127636,5,0,0:0:0:0:
256,192,127723,5,8,0:0:0:0:
256,192,127898,5,8,0:0:0:0:
256,192,127985,1,0,0:0:0:0:
256,192,128159,5,8,0:0:0:0:
256,192,128246,1,0,0:0:0:0:
256,192,128421,5,8,0:0:0:0:
256,192,128508,5,8,0:0:0:0:
256,192,128595,5,8,0:0:0:0:
256,192,128682,5,8,0:0:0:0:
256,192,128770,5,4,0:0:0:0:
256,192,129031,5,0,0:0:0:0:
256,192,129118,5,8,0:0:0:0:
256,192,129293,5,0,0:0:0:0:
256,192,129380,1,0,0:0:0:0:
256,192,129554,5,0,0:0:0:0:
256,192,129642,5,0,0:0:0:0:
256,192,129816,5,8,0:0:0:0:
256,192,129903,5,0,0:0:0:0:
256,192,129991,1,0,0:0:0:0:
256,192,130078,5,8,0:0:0:0:
256,192,130252,1,0,0:0:0:0:
256,192,130339,5,8,0:0:0:0:
256,192,130514,5,8,0:0:0:0:
256,192,130601,5,0,0:0:0:0:
256,192,130775,5,0,0:0:0:0:
256,192,130863,5,0,0:0:0:0:
256,192,131037,1,8,0:0:0:0:
256,192,131124,5,0,0:0:0:0:
256,192,131211,1,8,0:0:0:0:
256,192,131299,1,8,0:0:0:0:
256,192,131386,5,4,0:0:0:0:
256,192,131648,5,4,0:0:0:0:
256,192,131909,5,8,0:0:0:0:
256,192,131996,1,0,0:0:0:0:
256,192,132171,5,0,0:0:0:0:
256,192,132258,1,8,0:0:0:0:
256,192,132432,5,8,0:0:0:0:
256,192,132607,5,8,0:0:0:0:
256,192,132694,5,0,0:0:0:0:
256,192,132956,1,0,0:0:0:0:
256,192,134351,1,4,0:0:0:0:
256,192,134613,1,0,0:0:0:0:
256,192,134700,5,8,0:0:0:0:
256,192,134874,5,0,0:0:0:0:
256,192,135136,5,0,0:0:0:0:
256,192,135223,5,0,0:0:0:0:
256,192,135398,5,8,0:0:0:0:
256,192,135485,1,0,0:0:0:0:
256,192,135659,5,0,0:0:0:0:
256,192,135746,5,0,0:0:0:0:
256,192,135921,1,0,0:0:0:0:
256,192,136095,5,8,0:0:0:0:
256,192,136182,1,0,0:0:0:0:
256,192,136357,5,0,0:0:0:0:
256,192,136531,1,0,0:0:0:0:
256,192,136618,5,0,0:0:0:0:
256,192,136793,5,8,0:0:0:0:
256,192,136880,5,8,0:0:0:0:
256,192,136967,5,4,0:0:0:0:
256,192,137229,5,4,0:0:0:0:
256,192,137491,5,8,0:0:0:0:
256,192,137578,1,0,0:0:0:0:
256,192,137752,5,0,0:0:0:0:
256,192,137839,5,0,0:0:0:0:
256,192,138014,5,0,0:0:0:0:
256,192,138188,5,8,0:0:0:0:
256,192,138275,1,0,0:0:0:0:
256,192,138450,1,0,0:0:0:0:
256,192,138537,1,8,0:0:0:0:
256,192,138711,5,0,0:0:0:0:
256,192,138886,5,8,0:0:0:0:
256,192,138973,1,8,0:0:0:0:
256,192,139060,5,0,0:0:0:0:
256,192,139235,1,8,0:0:0:0:
256,192,139322,5,0,0:0:0:0:
256,192,139496,1,0,0:0:0:0:
256,192,139584,5,8,0:0:0:0:
256,192,139758,5,0,0:0:0:0:
256,192,139932,5,12,0:0:0:0:
256,192,140194,1,0,0:0:0:0:
256,192,140281,5,8,0:0:0:0:
256,192,140456,5,0,0:0:0:0:
256,192,140717,5,0,0:0:0:0:
256,192,140804,5,0,0:0:0:0:
256,192,140979,5,8,0:0:0:0:
256,192,141066,1,0,0:0:0:0:
256,192,141241,5,0,0:0:0:0:
256,192,141328,5,0,0:0:0:0:
256,192,141502,1,0,0:0:0:0:
256,192,141677,5,8,0:0:0:0:
256,192,141764,1,0,0:0:0:0:
256,192,141938,5,0,0:0:0:0:
256,192,142113,1,0,0:0:0:0:
256,192,142200,5,0,0:0:0:0:
256,192,142374,5,8,0:0:0:0:
256,192,142461,5,8,0:0:0:0:
256,192,142549,5,4,0:0:0:0:
256,192,142810,5,4,0:0:0:0:
256,192,143072,5,8,0:0:0:0:
256,192,143159,1,0,0:0:0:0:
256,192,143334,5,0,0:0:0:0:
256,192,143421,5,0,0:0:0:0:
256,192,143595,5,0,0:0:0:0:
256,192,143770,5,8,0:0:0:0:
256,192,143857,1,0,0:0:0:0:
256,192,144031,1,0,0:0:0:0:
256,192,144118,1,8,0:0:0:0:
256,192,144293,5,0,0:0:0:0:
256,192,144467,5,8,0:0:0:0:
256,192,144554,1,8,0:0:0:0:
256,192,144642,5,0,0:0:0:0:
256,192,144816,1,8,0:0:0:0:
256,192,144903,5,0,0:0:0:0:
256,192,145078,1,0,0:0:0:0:
256,192,145165,5,8,0:0:0:0:
256,192,145339,5,0,0:0:0:0:
256,192,145514,5,12,0:0:0:0:
256,192,145775,1,0,0:0:0:0:
256,192,145863,5,8,0:0:0:0:
256,192,146037,5,0,0:0:0:0:
256,192,146299,5,0,0:0:0:0:
256,192,146386,5,0,0:0:0:0:
256,192,146560,5,8,0:0:0:0:
256,192,146648,1,0,0:0:0:0:
256,192,146822,5,0,0:0:0:0:
256,192,146909,5,0,0:0:0:0:
256,192,147084,1,0,0:0:0:0:
256,192,147258,5,8,0:0:0:0:
256,192,147345,1,0,0:0:0:0:
256,192,147520,5,0,0:0:0:0:
256,192,147694,1,0,0:0:0:0:
256,192,147781,5,0,0:0:0:0:
256,192,147956,5,8,0:0:0:0:
256,192,148043,5,8,0:0:0:0:
256,192,148130,5,4,0:0:0:0:
256,192,148392,5,4,0:0:0:0:
256,192,148653,5,8,0:0:0:0:
256,192,148741,1,0,0:0:0:0:
256,192,148915,5,0,0:0:0:0:
256,192,149002,5,0,0:0:0:0:
256,192,149177,5,0,0:0:0:0:
256,192,149351,5,8,0:0:0:0:
256,192,149438,1,0,0:0:0:0:
256,192,149613,1,0,0:0:0:0:
256,192,149700,1,8,0:0:0:0:
256,192,149874,5,0,0:0:0:0:
256,192,150049,5,8,0:0:0:0:
256,192,150136,1,8,0:0:0:0:
256,192,150223,5,0,0:0:0:0:
256,192,150398,1,8,0:0:0:0:
256,192,150485,5,0,0:0:0:0:
256,192,150659,1,0,0:0:0:0:
256,192,150746,5,8,0:0:0:0:
256,192,150921,5,0,0:0:0:0:
256,192,151095,5,12,0:0:0:0:
256,192,151357,1,0,0:0:0:0:
256,192,151444,5,8,0:0:0:0:
256,192,151618,5,0,0:0:0:0:
256,192,151880,5,0,0:0:0:0:
256,192,151967,5,0,0:0:0:0:
256,192,152142,5,8,0:0:0:0:
256,192,152229,1,0,0:0:0:0:
256,192,152403,5,0,0:0:0:0:
256,192,152491,5,0,0:0:0:0:
256,192,152665,1,0,0:0:0:0:
256,192,152839,5,8,0:0:0:0:
256,192,152927,1,0,0:0:0:0:
256,192,153101,5,0,0:0:0:0:
256,192,153275,1,0,0:0:0:0:
256,192,153363,5,0,0:0:0:0:
256,192,153537,5,8,0:0:0:0:
256,192,153624,5,8,0:0:0:0:
256,192,153711,5,4,0:0:0:0:
256,192,153973,5,4,0:0:0:0:
256,192,154235,5,8,0:0:0:0:
256,192,154322,1,0,0:0:0:0:
256,192,154496,5,0,0:0:0:0:
256,192,154584,5,0,0:0:0:0:
256,192,154758,5,0,0:0:0:0:
256,192,154932,5,8,0:0:0:0:
256,192,155020,1,0,0:0:0:0:
256,192,155194,1,0,0:0:0:0:
256,192,155281,1,8,0:0:0:0:
256,192,155368,1,8,0:0:0:0:
256,192,155456,5,0,0:0:0:0:
256,192,155630,1,8,0:0:0:0:
256,192,155804,1,0,0:0:0:0:
256,192,155979,1,8,0:0:0:0:
256,192,156066,1,0,0:0:0:0:
256,192,156241,1,0,0:0:0:0:
256,192,156328,1,8,0:0:0:0:
256,192,156415,1,8,0:0:0:0:
256,192,156502,1,8,0:0:0:0:
256,192,156589,1,8,0:0:0:0:
256,192,156677,1,4,0:0:0:0:
256,192,157025,5,8,0:0:0:0:
256,192,157200,5,0,0:0:0:0:
256,192,157549,5,8,0:0:0:0:
256,192,158072,5,8,0:0:0:0:
256,192,158421,5,0,0:0:0:0:
256,192,158944,5,0,0:0:0:0:
256,192,159467,5,8,0:0:0:0:
256,192,159816,5,0,0:0:0:0:
256,192,160339,5,0,0:0:0:0:
256,192,160601,5,8,0:0:0:0:
256,192,160863,5,0,0:0:0:0:
256,192,161211,5,8,0:0:0:0:
256,192,161386,5,0,0:0:0:0:
256,192,161735,5,8,0:0:0:0:
256,192,161909,5,0,0:0:0:0:
256,192,162258,5,8,0:0:0:0:
256,192,162607,5,8,0:0:0:0:
256,192,162781,5,0,0:0:0:0:
256,192,163130,5,8,0:0:0:0:
256,192,163653,5,8,0:0:0:0:
256,192,164002,5,0,0:0:0:0:
256,192,164525,5,0,0:0:0:0:
256,192,164787,5,8,0:0:0:0:
256,192,165049,5,8,0:0:0:0:
256,192,165398,5,0,0:0:0:0:
256,192,165921,5,0,0:0:0:0:
256,192,166444,5,0,0:0:0:0:
256,192,166793,5,8,0:0:0:0:
256,192,166967,5,0,0:0:0:0:
256,192,167316,5,8,0:0:0:0:
256,192,167491,5,0,0:0:0:0:
256,192,167578,5,0,0:0:0:0:
256,192,167665,5,0,0:0:0:0:
256,192,167752,5,0,0:0:0:0:
256,192,167839,5,12,0:0:0:0:
256,192,168014,5,0,0:0:0:0:
256,192,168188,5,8,0:0:0:0:
256,192,168363,5,0,0:0:0:0:
256,192,168450,1,0,0:0:0:0:
256,192,168537,5,0,0:0:0:0:
256,192,168711,5,8,0:0:0:0:
256,192,168886,1,0,0:0:0:0:
256,192,169060,1,0,0:0:0:0:
256,192,169235,5,8,0:0:0:0:
256,192,169409,5,0,0:0:0:0:
256,192,169496,1,0,0:0:0:0:
256,192,169584,5,0,0:0:0:0:
256,192,169758,5,8,0:0:0:0:
256,192,169932,1,0,0:0:0:0:
256,192,170107,5,8,0:0:0:0:
256,192,170368,5,8,0:0:0:0:
256,192,170630,5,0,0:0:0:0:
256,192,170804,5,0,0:0:0:0:
256,192,170979,5,8,0:0:0:0:
256,192,171153,5,8,0:0:0:0:
256,192,171328,5,0,0:0:0:0:
256,192,171502,5,8,0:0:0:0:
256,192,171677,1,0,0:0:0:0:
256,192,171851,1,0,0:0:0:0:
256,192,172025,5,8,0:0:0:0:
256,192,172200,5,0,0:0:0:0:
256,192,172287,1,0,0:0:0:0:
256,192,172374,5,0,0:0:0:0:
256,192,172549,5,8,0:0:0:0:
256,192,172723,5,0,0:0:0:0:
256,192,172810,1,0,0:0:0:0:
256,192,172898,5,0,0:0:0:0:
256,192,173072,5,8,0:0:0:0:
256,192,173246,5,8,0:0:0:0:
256,192,173334,1,8,0:0:0:0:
256,192,173421,5,4,0:0:0:0:
256,192,173595,5,8,0:0:0:0:
256,192,173770,5,8,0:0:0:0:
256,192,173944,5,0,0:0:0:0:
256,192,174118,5,0,0:0:0:0:
256,192,174293,5,8,0:0:0:0:
256,192,174467,1,0,0:0:0:0:
256,192,174642,1,0,0:0:0:0:
256,192,174816,1,8,0:0:0:0:
256,192,174991,5,0,0:0:0:0:
256,192,175165,5,8,0:0:0:0:
256,192,175339,5,0,0:0:0:0:
256,192,175427,1,0,0:0:0:0:
256,192,175514,5,0,0:0:0:0:
256,192,175688,5,8,0:0:0:0:
256,192,175863,5,8,0:0:0:0:
256,192,176037,1,0,0:0:0:0:
256,192,176211,5,4,0:0:0:0:
256,192,176560,12,0,178304,0:0:0:0:
256,192,179002,5,0,0:0:0:0:
256,192,190165,5,4,0:0:0:0:
256,192,190427,5,8,0:0:0:0:
256,192,190514,5,8,0:0:0:0:
256,192,190688,5,0,0:0:0:0:
256,192,190950,5,8,0:0:0:0:
256,192,191037,5,8,0:0:0:0:
256,192,191211,5,0,0:0:0:0:
256,192,191299,5,0,0:0:0:0:
256,192,191386,5,8,0:0:0:0:
256,192,191473,5,8,0:0:0:0:
256,192,191560,5,0,0:0:0:0:
256,192,191822,5,8,0:0:0:0:
256,192,191909,5,0,0:0:0:0:
256,192,192084,5,0,0:0:0:0:
256,192,192345,5,8,0:0:0:0:
256,192,192432,5,0,0:0:0:0:
256,192,192607,5,8,0:0:0:0:
256,192,192694,5,8,0:0:0:0:
256,192,192781,5,0,0:0:0:0:
256,192,192868,5,0,0:0:0:0:
256,192,192956,5,8,0:0:0:0:
288,192,193217,5,0,0:0:0:0:
256,192,193304,5,8,0:0:0:0:
256,192,193479,5,0,0:0:0:0:
256,192,193741,5,0,0:0:0:0:
256,192,193828,5,8,0:0:0:0:
256,192,194002,5,8,0:0:0:0:
256,192,194089,5,0,0:0:0:0:
256,192,194177,5,8,0:0:0:0:
256,192,194264,5,8,0:0:0:0:
256,192,194351,5,0,0:0:0:0:
256,192,194525,5,0,0:0:0:0:
256,192,194613,5,0,0:0:0:0:
256,192,194700,5,8,0:0:0:0:
256,192,194874,5,0,0:0:0:0:
256,192,195136,5,8,0:0:0:0:
256,192,195223,5,8,0:0:0:0:
256,192,195398,5,0,0:0:0:0:
256,192,195485,5,0,0:0:0:0:
256,192,195572,5,8,0:0:0:0:
256,192,195659,5,8,0:0:0:0:
256,192,195746,5,4,0:0:0:0:
256,192,196008,5,8,0:0:0:0:
256,192,196095,5,8,0:0:0:0:
256,192,196270,5,0,0:0:0:0:
256,192,196531,5,8,0:0:0:0:
256,192,196618,5,8,0:0:0:0:
256,192,196793,5,8,0:0:0:0:
256,192,196880,5,0,0:0:0:0:
256,192,196967,5,0,0:0:0:0:
256,192,197054,5,0,0:0:0:0:
256,192,197142,5,8,0:0:0:0:
256,192,197403,5,8,0:0:0:0:
256,192,197491,5,0,0:0:0:0:
256,192,197665,5,0,0:0:0:0:
256,192,197927,5,8,0:0:0:0:
256,192,198014,5,0,0:0:0:0:
256,192,198188,5,8,0:0:0:0:
256,192,198275,5,8,0:0:0:0:
256,192,198363,5,8,0:0:0:0:
256,192,198450,5,8,0:0:0:0:
256,192,198537,5,0,0:0:0:0:
256,192,198711,12,0,200979,0:0:0:0:
256,192,201328,5,4,0:0:0:0:
256,192,201589,5,0,0:0:0:0:
256,192,201677,1,0,0:0:0:0:
256,192,201851,5,0,0:0:0:0:
256,192,202025,5,8,0:0:0:0:
256,192,202113,5,0,0:0:0:0:
256,192,202374,5,0,0:0:0:0:
256,192,202549,5,0,0:0:0:0:
256,192,202636,5,8,0:0:0:0:
256,192,202723,5,0,0:0:0:0:
256,192,202898,1,8,0:0:0:0:
256,192,202985,5,0,0:0:0:0:
256,192,203246,5,0,0:0:0:0:
256,192,203421,1,8,0:0:0:0:
256,192,203508,1,0,0:0:0:0:
256,192,203770,5,8,0:0:0:0:
256,192,203857,5,8,0:0:0:0:
256,192,203944,5,8,0:0:0:0:
256,192,204031,5,8,0:0:0:0:
256,192,204118,5,0,0:0:0:0:
256,192,204380,5,0,0:0:0:0:
256,192,204467,1,8,0:0:0:0:
256,192,204642,5,0,0:0:0:0:
256,192,204816,5,8,0:0:0:0:
256,192,204903,5,0,0:0:0:0:
256,192,205165,5,0,0:0:0:0:
256,192,205339,5,8,0:0:0:0:
256,192,205427,5,8,0:0:0:0:
256,192,205514,5,4,0:0:0:0:
256,192,205688,1,8,0:0:0:0:
256,192,205775,5,4,0:0:0:0:
256,192,205950,1,8,0:0:0:0:
256,192,206037,5,4,0:0:0:0:
256,192,206211,1,8,0:0:0:0:
256,192,206299,5,4,0:0:0:0:
256,192,206473,5,0,0:0:0:0:
256,192,206560,5,8,0:0:0:0:
256,192,206648,5,8,0:0:0:0:
256,192,206735,5,8,0:0:0:0:
256,192,206909,5,4,0:0:0:0:
256,192,207171,5,0,0:0:0:0:
256,192,207258,1,0,0:0:0:0:
256,192,207432,5,0,0:0:0:0:
256,192,207607,5,8,0:0:0:0:
256,192,207694,5,0,0:0:0:0:
256,192,207868,1,0,0:0:0:0:
256,192,207956,5,0,0:0:0:0:
256,192,208130,5,0,0:0:0:0:
256,192,208217,5,8,0:0:0:0:
256,192,208304,5,0,0:0:0:0:
256,192,208566,5,0,0:0:0:0:
256,192,208741,1,0,0:0:0:0:
256,192,208828,1,0,0:0:0:0:
256,192,209002,5,8,0:0:0:0:
256,192,209089,5,0,0:0:0:0:
256,192,209351,5,0,0:0:0:0:
256,192,209438,5,0,0:0:0:0:
256,192,209525,5,0,0:0:0:0:
256,192,209613,5,8,0:0:0:0:
256,192,209700,5,0,0:0:0:0:
256,192,209961,5,0,0:0:0:0:
256,192,210049,1,0,0:0:0:0:
256,192,210223,5,8,0:0:0:0:
256,192,210398,5,8,0:0:0:0:
256,192,210485,5,0,0:0:0:0:
256,192,210572,1,0,0:0:0:0:
256,192,210746,5,0,0:0:0:0:
256,192,210921,5,8,0:0:0:0:
256,192,211008,5,8,0:0:0:0:
256,192,211095,5,0,0:0:0:0:
256,192,211270,1,0,0:0:0:0:
256,192,211357,5,0,0:0:0:0:
256,192,211444,5,8,0:0:0:0:
256,192,211531,5,8,0:0:0:0:
256,192,211618,5,0,0:0:0:0:
256,192,211706,1,0,0:0:0:0:
256,192,211793,5,8,0:0:0:0:
256,192,211880,5,0,0:0:0:0:
256,192,211967,5,8,0:0:0:0:
256,192,212054,5,8,0:0:0:0:
256,192,212491,5,0,0:0:0:0:
256,192,212578,1,8,0:0:0:0:
256,192,212665,5,0,0:0:0:0:
256,192,212752,1,8,0:0:0:0:
256,192,212839,5,8,0:0:0:0:
256,192,212927,1,0,0:0:0:0:
256,192,213014,1,8,0:0:0:0:
256,192,213101,1,0,0:0:0:0:
256,192,213188,1,8,0:0:0:0:
256,192,213275,1,8,0:0:0:0:
256,192,213363,1,0,0:0:0:0:
256,192,213450,1,0,0:0:0:0:
256,192,213537,1,8,0:0:0:0:
256,192,213886,1,0,0:0:0:0:
256,192,214060,5,8,0:0:0:0:
256,192,214148,5,0,0:0:0:0:
256,192,214409,5,0,0:0:0:0:
256,192,214584,5,0,0:0:0:0:
256,192,214671,5,8,0:0:0:0:
256,192,214932,5,8,0:0:0:0:
256,192,215020,5,8,0:0:0:0:
256,192,215107,5,8,0:0:0:0:
256,192,215194,5,8,0:0:0:0:
256,192,215281,5,0,0:0:0:0:
256,192,215543,5,8,0:0:0:0:
256,192,215804,5,8,0:0:0:0:
256,192,215979,5,8,0:0:0:0:
256,192,216066,5,0,0:0:0:0:
256,192,216328,5,0,0:0:0:0:
256,192,216415,5,0,0:0:0:0:
256,192,216502,5,0,0:0:0:0:
256,192,216589,5,8,0:0:0:0:
256,192,216677,5,4,0:0:0:0:
256,192,216851,5,8,0:0:0:0:
256,192,216938,5,4,0:0:0:0:
256,192,217113,5,8,0:0:0:0:
256,192,217200,5,4,0:0:0:0:
256,192,217374,5,8,0:0:0:0:
256,192,217461,5,4,0:0:0:0:
256,192,217636,5,0,0:0:0:0:
256,192,217723,5,8,0:0:0:0:
256,192,217810,5,8,0:0:0:0:
256,192,217898,5,8,0:0:0:0:
256,192,218072,5,4,0:0:0:0:
256,192,218246,1,0,0:0:0:0:
256,192,218334,5,0,0:0:0:0:
256,192,218508,1,0,0:0:0:0:
256,192,218595,5,8,0:0:0:0:
256,192,218770,5,8,0:0:0:0:
256,192,218857,5,0,0:0:0:0:
256,192,219118,5,0,0:0:0:0:
256,192,219206,5,0,0:0:0:0:
256,192,219293,5,8,0:0:0:0:
256,192,219380,5,8,0:0:0:0:
256,192,219467,5,0,0:0:0:0:
256,192,219729,5,8,0:0:0:0:
256,192,219816,1,0,0:0:0:0:
256,192,219991,5,0,0:0:0:0:
256,192,220165,5,8,0:0:0:0:
256,192,220252,5,0,0:0:0:0:
256,192,220514,5,0,0:0:0:0:
256,192,220601,5,0,0:0:0:0:
256,192,220688,5,0,0:0:0:0:
256,192,220775,5,0,0:0:0:0:
256,192,220863,5,8,0:0:0:0:
256,192,221037,5,0,0:0:0:0:
256,192,221211,5,8,0:0:0:0:
256,192,221299,5,0,0:0:0:0:
256,192,221560,5,0,0:0:0:0:
256,192,221822,5,0,0:0:0:0:
256,192,222084,5,0,0:0:0:0:
256,192,222258,12,0,223304,0:0:0:0:
256,192,223653,5,8,0:0:0:0:
256,192,223741,1,8,0:0:0:0:
256,192,223828,1,0,0:0:0:0:
256,192,223915,1,0,0:0:0:0:
256,192,224002,1,8,0:0:0:0:
256,192,224089,1,0,0:0:0:0:
256,192,224177,1,8,0:0:0:0:
256,192,224264,1,8,0:0:0:0:
256,192,224351,1,0,0:0:0:0:
256,192,224438,1,0,0:0:0:0:
256,192,224525,1,8,0:0:0:0:
256,192,224700,5,8,0:0:0:0:
256,192,224874,1,0,0:0:0:0:
256,192,225049,1,0,0:0:0:0:
256,192,225136,1,0,0:0:0:0:
256,192,225223,1,8,0:0:0:0:
256,192,225310,1,0,0:0:0:0:
256,192,225398,1,8,0:0:0:0:
256,192,225485,1,8,0:0:0:0:
256,192,225572,5,0,0:0:0:0:
256,192,225659,1,8,0:0:0:0:
256,192,225746,1,0,0:0:0:0:
256,192,225834,5,0,0:0:0:0:
256,192,225921,5,8,0:0:0:0:
256,192,226095,5,8,0:0:0:0:
256,192,226270,1,0,0:0:0:0:
256,192,226444,5,8,0:0:0:0:
256,192,226531,1,8,0:0:0:0:
256,192,226618,1,0,0:0:0:0:
256,192,226706,1,0,0:0:0:0:
256,192,226793,1,8,0:0:0:0:
256,192,226880,1,0,0:0:0:0:
256,192,226967,1,8,0:0:0:0:
256,192,227054,1,0,0:0:0:0:
256,192,227142,1,8,0:0:0:0:
256,192,227229,1,8,0:0:0:0:
256,192,227316,1,0,0:0:0:0:
256,192,227491,1,8,0:0:0:0:
256,192,227665,1,0,0:0:0:0:
256,192,227839,5,0,0:0:0:0:
256,192,227927,5,8,0:0:0:0:
256,192,228014,5,8,0:0:0:0:
256,192,228101,5,0,0:0:0:0:
256,192,228188,5,8,0:0:0:0:
256,192,228275,1,0,0:0:0:0:
256,192,228363,5,0,0:0:0:0:
256,192,228450,1,8,0:0:0:0:
256,192,228537,1,8,0:0:0:0:
256,192,228624,1,0,0:0:0:0:
256,192,228711,1,8,0:0:0:0:
256,192,228886,5,8,0:0:0:0:
256,192,229060,1,0,0:0:0:0:
256,192,229235,1,8,0:0:0:0:
256,192,229322,1,8,0:0:0:0:
256,192,229409,1,0,0:0:0:0:
256,192,229496,1,0,0:0:0:0:
256,192,229584,1,8,0:0:0:0:
256,192,229671,1,0,0:0:0:0:
256,192,229758,1,0,0:0:0:0:
256,192,229845,1,0,0:0:0:0:
256,192,229932,1,8,0:0:0:0:
256,192,230020,1,8,0:0:0:0:
256,192,230107,1,0,0:0:0:0:
256,192,230194,1,0,0:0:0:0:
256,192,230281,1,8,0:0:0:0:
256,192,230456,1,0,0:0:0:0:
256,192,230630,5,8,0:0:0:0:
256,192,230717,1,8,0:0:0:0:
256,192,230804,5,0,0:0:0:0:
256,192,230892,1,0,0:0:0:0:
256,192,230979,5,8,0:0:0:0:
256,192,231066,5,8,0:0:0:0:
256,192,231153,1,0,0:0:0:0:
256,192,231241,1,8,0:0:0:0:
256,192,231328,5,0,0:0:0:0:
256,192,231415,1,0,0:0:0:0:
256,192,231502,5,8,0:0:0:0:
256,192,231677,5,8,0:0:0:0:
256,192,231851,1,0,0:0:0:0:
256,192,232025,5,8,0:0:0:0:
256,192,232113,1,0,0:0:0:0:
256,192,232200,5,0,0:0:0:0:
256,192,232287,5,0,0:0:0:0:
256,192,232374,5,8,0:0:0:0:
256,192,232461,1,0,0:0:0:0:
256,192,232549,5,8,0:0:0:0:
256,192,232636,1,8,0:0:0:0:
256,192,232723,1,8,0:0:0:0:
256,192,232810,1,0,0:0:0:0:
256,192,232898,5,0,0:0:0:0:
256,192,232985,5,0,0:0:0:0:
256,192,233072,5,8,0:0:0:0:
256,192,233246,1,0,0:0:0:0:
256,192,233334,1,8,0:0:0:0:
256,192,233421,1,8,0:0:0:0:
256,192,233508,5,0,0:0:0:0:
256,192,233595,5,0,0:0:0:0:
256,192,233770,5,8,0:0:0:0:
256,192,233944,5,0,0:0:0:0:
256,192,234206,5,0,0:0:0:0:
256,192,234293,5,0,0:0:0:0:
256,192,234380,1,0,0:0:0:0:
256,192,234467,5,8,0:0:0:0:
256,192,234816,5,8,0:0:0:0:
256,192,234903,1,8,0:0:0:0:
256,192,234991,1,0,0:0:0:0:
256,192,235078,1,0,0:0:0:0:
256,192,235165,1,8,0:0:0:0:
256,192,235252,1,0,0:0:0:0:
256,192,235339,1,8,0:0:0:0:
256,192,235427,1,8,0:0:0:0:
256,192,235514,1,0,0:0:0:0:
256,192,235601,1,0,0:0:0:0:
256,192,235688,1,8,0:0:0:0:
256,192,235863,5,8,0:0:0:0:
256,192,236037,1,0,0:0:0:0:
256,192,236211,1,0,0:0:0:0:
256,192,236299,1,0,0:0:0:0:
256,192,236386,1,8,0:0:0:0:
256,192,236473,1,0,0:0:0:0:
256,192,236560,1,8,0:0:0:0:
256,192,236648,1,8,0:0:0:0:
256,192,236735,5,0,0:0:0:0:
256,192,236822,1,8,0:0:0:0:
256,192,236909,1,0,0:0:0:0:
256,192,236996,5,0,0:0:0:0:
256,192,237084,5,8,0:0:0:0:
256,192,237258,5,8,0:0:0:0:
256,192,237432,1,0,0:0:0:0:
256,192,237607,5,8,0:0:0:0:
256,192,237694,1,8,0:0:0:0:
256,192,237781,1,0,0:0:0:0:
256,192,237868,1,0,0:0:0:0:
256,192,237956,1,8,0:0:0:0:
256,192,238043,1,0,0:0:0:0:
256,192,238130,1,8,0:0:0:0:
256,192,238217,1,0,0:0:0:0:
256,192,238304,1,8,0:0:0:0:
256,192,238392,1,8,0:0:0:0:
256,192,238479,1,0,0:0:0:0:
256,192,238653,1,8,0:0:0:0:
256,192,238828,1,0,0:0:0:0:
256,192,239002,5,0,0:0:0:0:
256,192,239089,5,8,0:0:0:0:
256,192,239177,5,8,0:0:0:0:
256,192,239264,5,0,0:0:0:0:
256,192,239351,5,8,0:0:0:0:
256,192,239438,1,0,0:0:0:0:
256,192,239525,5,0,0:0:0:0:
256,192,239613,1,8,0:0:0:0:
256,192,239700,1,8,0:0:0:0:
256,192,239787,1,0,0:0:0:0:
256,192,239874,1,8,0:0:0:0:
256,192,240049,5,8,0:0:0:0:
256,192,240223,1,0,0:0:0:0:
256,192,240398,1,8,0:0:0:0:
256,192,240485,1,8,0:0:0:0:
256,192,240572,1,0,0:0:0:0:
256,192,240659,1,0,0:0:0:0:
256,192,240746,1,8,0:0:0:0:
256,192,240834,1,0,0:0:0:0:
256,192,240921,1,0,0:0:0:0:
256,192,241008,1,0,0:0:0:0:
256,192,241095,1,8,0:0:0:0:
256,192,241182,1,8,0:0:0:0:
256,192,241270,1,0,0:0:0:0:
256,192,241357,1,0,0:0:0:0:
256,192,241444,1,8,0:0:0:0:
256,192,241618,1,0,0:0:0:0:
256,192,241793,5,8,0:0:0:0:
256,192,241880,1,8,0:0:0:0:
256,192,241967,5,0,0:0:0:0:
256,192,242054,1,0,0:0:0:0:
256,192,242142,5,8,0:0:0:0:
256,192,242229,5,8,0:0:0:0:
256,192,242316,1,0,0:0:0:0:
256,192,242403,1,8,0:0:0:0:
256,192,242491,5,0,0:0:0:0:
256,192,242578,5,0,0:0:0:0:
256,192,242665,5,8,0:0:0:0:
256,192,242839,5,8,0:0:0:0:
256,192,243014,1,0,0:0:0:0:
256,192,243188,5,8,0:0:0:0:
256,192,243275,1,0,0:0:0:0:
256,192,243537,5,12,0:0:0:0:
256,192,244584,5,0,0:0:0:0:
256,192,244932,5,8,0:0:0:0:
256,192,245107,5,0,0:0:0:0:
256,192,245456,5,8,0:0:0:0:
256,192,245630,5,0,0:0:0:0:
256,192,245979,1,12,0:0:0:0:
256,192,246241,5,0,0:0:0:0:
256,192,246328,5,8,0:0:0:0:
256,192,246502,5,0,0:0:0:0:
256,192,246589,1,0,0:0:0:0:
256,192,246764,5,0,0:0:0:0:
256,192,246851,5,0,0:0:0:0:
256,192,247025,5,8,0:0:0:0:
256,192,247113,5,0,0:0:0:0:
256,192,247200,1,0,0:0:0:0:
256,192,247287,5,8,0:0:0:0:
256,192,247461,1,0,0:0:0:0:
256,192,247549,5,8,0:0:0:0:
256,192,247723,5,8,0:0:0:0:
256,192,247810,5,0,0:0:0:0:
256,192,247985,5,0,0:0:0:0:
256,192,248072,5,0,0:0:0:0:
256,192,248246,1,8,0:0:0:0:
256,192,248334,5,0,0:0:0:0:
256,192,248421,1,8,0:0:0:0:
256,192,248508,1,8,0:0:0:0:
256,192,248595,5,4,0:0:0:0:
256,192,248857,5,4,0:0:0:0:
256,192,249118,5,8,0:0:0:0:
256,192,249206,1,0,0:0:0:0:
256,192,249380,5,0,0:0:0:0:
256,192,249467,1,8,0:0:0:0:
256,192,249642,5,8,0:0:0:0:
256,192,249816,5,8,0:0:0:0:
256,192,249903,5,0,0:0:0:0:
256,192,250078,1,8,0:0:0:0:
256,192,250165,5,0,0:0:0:0:
256,192,250339,1,0,0:0:0:0:
256,192,250427,5,0,0:0:0:0:
256,192,250514,5,8,0:0:0:0:
256,192,250688,5,8,0:0:0:0:
256,192,250775,1,0,0:0:0:0:
256,192,250950,5,8,0:0:0:0:
256,192,251037,1,0,0:0:0:0:
256,192,251211,5,8,0:0:0:0:
256,192,251299,5,8,0:0:0:0:
256,192,251386,5,8,0:0:0:0:
256,192,251473,5,8,0:0:0:0:
256,192,251560,5,4,0:0:0:0:
256,192,251822,5,0,0:0:0:0:
256,192,251909,5,8,0:0:0:0:
256,192,252084,5,0,0:0:0:0:
256,192,252171,1,0,0:0:0:0:
256,192,252345,5,0,0:0:0:0:
256,192,252432,5,0,0:0:0:0:
256,192,252607,5,8,0:0:0:0:
256,192,252694,5,0,0:0:0:0:
256,192,252781,1,0,0:0:0:0:
256,192,252868,5,8,0:0:0:0:
256,192,253043,1,0,0:0:0:0:
256,192,253130,5,8,0:0:0:0:
256,192,253304,5,8,0:0:0:0:
256,192,253392,5,0,0:0:0:0:
256,192,253566,5,0,0:0:0:0:
256,192,253653,5,0,0:0:0:0:
256,192,253828,1,8,0:0:0:0:
256,192,253915,5,0,0:0:0:0:
256,192,254002,1,8,0:0:0:0:
256,192,254089,1,8,0:0:0:0:
256,192,254177,5,4,0:0:0:0:
256,192,254438,5,4,0:0:0:0:
256,192,254700,5,8,0:0:0:0:
256,192,254787,1,0,0:0:0:0:
256,192,254961,5,0,0:0:0:0:
256,192,255049,1,8,0:0:0:0:
256,192,255223,5,8,0:0:0:0:
256,192,255398,5,8,0:0:0:0:
256,192,255485,5,0,0:0:0:0:
256,192,255659,1,8,0:0:0:0:
256,192,255746,5,0,0:0:0:0:
256,192,255921,1,0,0:0:0:0:
256,192,256008,5,0,0:0:0:0:
256,192,256095,5,8,0:0:0:0:
256,192,256270,5,8,0:0:0:0:
256,192,256357,1,0,0:0:0:0:
256,192,256531,5,8,0:0:0:0:
256,192,256618,1,0,0:0:0:0:
256,192,256793,5,8,0:0:0:0:
256,192,256880,1,0,0:0:0:0:
256,192,256967,1,0,0:0:0:0:
256,192,257054,5,8,0:0:0:0:
256,192,257142,5,4,0:0:0:0:
256,192,257403,1,0,0:0:0:0:
256,192,257491,5,8,0:0:0:0:
256,192,257665,1,0,0:0:0:0:
256,192,257839,1,0,0:0:0:0:
256,192,257927,1,0,0:0:0:0:
256,192,258101,1,0,0:0:0:0:
256,192,258188,5,8,0:0:0:0:
256,192,258450,5,8,0:0:0:0:
256,192,258624,1,0,0:0:0:0:
256,192,258711,5,8,0:0:0:0:
256,192,258886,5,8,0:0:0:0:
256,192,258973,5,0,0:0:0:0:
256,192,259148,5,0,0:0:0:0:
256,192,259235,5,0,0:0:0:0:
256,192,259409,1,8,0:0:0:0:
256,192,259496,5,0,0:0:0:0:
256,192,259584,1,8,0:0:0:0:
256,192,259671,1,8,0:0:0:0:
256,192,259758,5,4,0:0:0:0:
256,192,260020,5,4,0:0:0:0:
256,192,260281,5,8,0:0:0:0:
256,192,260368,1,0,0:0:0:0:
256,192,260543,5,0,0:0:0:0:
256,192,260630,1,8,0:0:0:0:
256,192,260804,5,8,0:0:0:0:
256,192,260979,5,8,0:0:0:0:
256,192,261066,5,0,0:0:0:0:
256,192,261241,1,8,0:0:0:0:
256,192,261328,5,0,0:0:0:0:
256,192,261502,1,0,0:0:0:0:
256,192,261589,5,0,0:0:0:0:
256,192,261677,5,8,0:0:0:0:
256,192,261851,5,8,0:0:0:0:
256,192,261938,1,0,0:0:0:0:
256,192,262113,5,8,0:0:0:0:
256,192,262200,1,0,0:0:0:0:
256,192,262374,5,8,0:0:0:0:
256,192,262461,5,8,0:0:0:0:
256,192,262549,5,8,0:0:0:0:
256,192,262636,5,8,0:0:0:0:
256,192,262723,5,4,0:0:0:0:
256,192,262985,5,0,0:0:0:0:
256,192,263072,5,8,0:0:0:0:
256,192,263246,5,0,0:0:0:0:
256,192,263334,1,0,0:0:0:0:
256,192,263508,5,0,0:0:0:0:
256,192,263595,5,0,0:0:0:0:
256,192,263770,5,8,0:0:0:0:
256,192,263857,5,0,0:0:0:0:
256,192,263944,1,0,0:0:0:0:
256,192,264031,5,8,0:0:0:0:
256,192,264206,1,0,0:0:0:0:
256,192,264293,5,8,0:0:0:0:
256,192,264467,5,8,0:0:0:0:
256,192,264554,5,0,0:0:0:0:
256,192,264729,5,0,0:0:0:0:
256,192,264816,5,0,0:0:0:0:
256,192,264991,1,8,0:0:0:0:
256,192,265078,5,0,0:0:0:0:
256,192,265165,1,8,0:0:0:0:
256,192,265252,1,8,0:0:0:0:
256,192,265339,5,4,0:0:0:0:
256,192,265601,5,4,0:0:0:0:
256,192,265863,5,8,0:0:0:0:
256,192,265950,1,0,0:0:0:0:
256,192,266124,5,0,0:0:0:0:
256,192,266211,1,8,0:0:0:0:
256,192,266386,5,8,0:0:0:0:
256,192,266560,5,8,0:0:0:0:
256,192,266648,5,0,0:0:0:0:
256,192,266909,1,0,0:0:0:0:
256,192,268304,5,4,0:0:0:0:
256,192,268566,5,0,0:0:0:0:
256,192,268653,5,8,0:0:0:0:
256,192,268828,5,0,0:0:0:0:
256,192,269089,5,0,0:0:0:0:
256,192,269177,5,0,0:0:0:0:
256,192,269351,5,8,0:0:0:0:
256,192,269613,5,0,0:0:0:0:
256,192,269700,5,0,0:0:0:0:
256,192,269874,1,0,0:0:0:0:
256,192,270049,5,8,0:0:0:0:
256,192,270136,1,0,0:0:0:0:
256,192,270398,5,0,0:0:0:0:
256,192,270659,5,0,0:0:0:0:
256,192,270746,5,8,0:0:0:0:
256,192,270921,5,4,0:0:0:0:
256,192,271182,5,4,0:0:0:0:
256,192,271444,5,8,0:0:0:0:
256,192,271706,5,0,0:0:0:0:
256,192,271793,5,0,0:0:0:0:
256,192,271967,5,0,0:0:0:0:
256,192,272142,5,8,0:0:0:0:
256,192,272229,1,0,0:0:0:0:
256,192,272491,5,0,0:0:0:0:
256,192,272665,5,0,0:0:0:0:
256,192,272839,5,8,0:0:0:0:
256,192,273014,5,0,0:0:0:0:
256,192,273101,1,0,0:0:0:0:
256,192,273275,5,0,0:0:0:0:
256,192,273450,1,0,0:0:0:0:
256,192,273537,5,8,0:0:0:0:
256,192,273624,1,8,0:0:0:0:
256,192,273711,5,0,0:0:0:0:
256,192,273886,5,4,0:0:0:0:
256,192,274148,5,0,0:0:0:0:
256,192,274235,5,8,0:0:0:0:
256,192,274409,5,0,0:0:0:0:
256,192,274671,5,0,0:0:0:0:
256,192,274758,5,0,0:0:0:0:
256,192,274932,5,8,0:0:0:0:
256,192,275194,5,0,0:0:0:0:
256,192,275281,5,0,0:0:0:0:
256,192,275456,1,0,0:0:0:0:
256,192,275630,5,8,0:0:0:0:
256,192,275717,1,0,0:0:0:0:
256,192,275979,5,0,0:0:0:0:
256,192,276241,5,0,0:0:0:0:
256,192,276328,5,8,0:0:0:0:
256,192,276502,5,4,0:0:0:0:
256,192,276764,5,4,0:0:0:0:
256,192,277025,5,8,0:0:0:0:
256,192,277287,5,0,0:0:0:0:
256,192,277374,5,0,0:0:0:0:
256,192,277549,5,0,0:0:0:0:
256,192,277723,5,8,0:0:0:0:
256,192,277810,1,0,0:0:0:0:
256,192,278072,5,0,0:0:0:0:
256,192,278246,5,0,0:0:0:0:
256,192,278421,5,8,0:0:0:0:
256,192,278595,5,0,0:0:0:0:
256,192,278682,1,0,0:0:0:0:
256,192,278857,5,0,0:0:0:0:
256,192,279031,1,0,0:0:0:0:
256,192,279118,5,8,0:0:0:0:
256,192,279206,1,8,0:0:0:0:
256,192,279293,5,0,0:0:0:0:
256,192,279467,5,4,0:0:0:0:
256,192,279729,5,0,0:0:0:0:
256,192,279816,5,8,0:0:0:0:
256,192,279991,5,0,0:0:0:0:
256,192,280252,5,0,0:0:0:0:
256,192,280339,5,0,0:0:0:0:
256,192,280514,5,8,0:0:0:0:
256,192,280775,5,0,0:0:0:0:
256,192,280863,5,0,0:0:0:0:
256,192,281037,1,0,0:0:0:0:
256,192,281211,5,8,0:0:0:0:
256,192,281299,1,0,0:0:0:0:
256,192,281560,5,0,0:0:0:0:
256,192,281822,5,0,0:0:0:0:
256,192,281909,5,8,0:0:0:0:
256,192,282084,5,4,0:0:0:0:
256,192,282345,5,4,0:0:0:0:
256,192,282607,5,8,0:0:0:0:
256,192,282868,5,0,0:0:0:0:
256,192,282956,5,0,0:0:0:0:
256,192,283130,5,0,0:0:0:0:
256,192,283304,5,8,0:0:0:0:
256,192,283392,1,0,0:0:0:0:
256,192,283653,5,0,0:0:0:0:
256,192,283828,5,0,0:0:0:0:
256,192,284002,5,8,0:0:0:0:
256,192,284177,5,0,0:0:0:0:
256,192,284264,1,0,0:0:0:0:
256,192,284438,5,0,0:0:0:0:
256,192,284613,1,0,0:0:0:0:
256,192,284700,5,8,0:0:0:0:
256,192,284787,1,8,0:0:0:0:
256,192,284874,5,0,0:0:0:0:
256,192,285049,5,4,0:0:0:0:
256,192,285310,5,0,0:0:0:0:
256,192,285398,5,8,0:0:0:0:
256,192,285572,5,0,0:0:0:0:
256,192,285834,5,0,0:0:0:0:
256,192,285921,5,0,0:0:0:0:
256,192,286095,5,8,0:0:0:0:
256,192,286357,5,0,0:0:0:0:
256,192,286444,5,0,0:0:0:0:
256,192,286618,1,0,0:0:0:0:
256,192,286793,5,8,0:0:0:0:
256,192,286880,1,0,0:0:0:0:
256,192,287142,5,0,0:0:0:0:
256,192,287403,5,0,0:0:0:0:
256,192,287491,5,8,0:0:0:0:
256,192,287665,5,4,0:0:0:0:
256,192,287927,5,4,0:0:0:0:
256,192,288188,5,8,0:0:0:0:
256,192,288450,5,0,0:0:0:0:
256,192,288537,5,0,0:0:0:0:
256,192,288711,5,0,0:0:0:0:
256,192,288886,5,8,0:0:0:0:
256,192,288973,1,0,0:0:0:0:
256,192,289235,5,0,0:0:0:0:
256,192,289322,1,0,0:0:0:0:
256,192,289409,5,0,0:0:0:0:
256,192,289584,5,8,0:0:0:0:
256,192,289758,5,0,0:0:0:0:
256,192,289845,1,0,0:0:0:0:
256,192,289932,1,8,0:0:0:0:
256,192,290020,5,0,0:0:0:0:
256,192,290194,1,0,0:0:0:0:
256,192,290281,5,8,0:0:0:0:
256,192,290368,5,8,0:0:0:0:
256,192,290456,5,8,0:0:0:0:
256,192,290543,5,8,0:0:0:0:
256,192,290630,5,4,0:0:0:0:
256,192,290979,12,0,295863,0:0:0:0:
256,192,296211,5,4,0:0:0:0:
256,192,296560,12,0,301444,0:0:0:0:
256,192,301793,5,0,0:0:0:0:
256,192,307374,5,4,0:0:0:0:
256,192,307723,12,0,312607,0:0:0:0:
256,192,312956,5,8,0:0:0:0:
256,192,313304,5,8,0:0:0:0:
256,192,313653,5,8,0:0:0:0:
256,192,314351,5,0,0:0:0:0:
256,192,315746,5,0,0:0:0:0:
256,192,317142,5,8,0:0:0:0:
256,192,318537,5,0,0:0:0:0:
256,192,319932,5,0,0:0:0:0:
256,192,321328,5,0,0:0:0:0:
256,192,321677,12,0,335281,0:0:0:0:
