osu file format v14

[General]
AudioFilename: weak.mp3
AudioLeadIn: 0
PreviewTime: 48283
Countdown: 0
SampleSet: Normal
StackLeniency: 0.7
Mode: 1
LetterboxInBreaks: 0
WidescreenStoryboard: 1

[Editor]
DistanceSpacing: 1.4
BeatDivisor: 6
GridSize: 32
TimelineZoom: 3.399999

[Metadata]
Title:Weakness
TitleUnicode:Weakness
Artist:Tartarate
ArtistUnicode:Tartarate
Creator:Vivien
Version:Capu's Oni
Source:
Tags:lolicore japanese jp electronic j-core jcore breakcore MAISONdes ヨワネハキ Yowanehaki 和ぬか wanuka asmi capu
BeatmapID:4301397
BeatmapSetID:2057179

[Difficulty]
HPDrainRate:6
CircleSize:2
OverallDifficulty:6
ApproachRate:10
SliderMultiplier:1.4
SliderTickRate:1

[Events]
//Background and Video events
0,0,"97455307_p0_master1200 (1).jpg",0,40
//Break Periods
//Storyboard Layer 0 (Background)
//Storyboard Layer 1 (Fail)
//Storyboard Layer 2 (Pass)
//Storyboard Layer 3 (Foreground)
//Storyboard Layer 4 (Overlay)
//Storyboard Sound Samples

[TimingPoints]
580,300,4,1,0,80,1,0
10477,-100,4,1,0,80,0,0
10702,-100,4,1,0,80,0,0
10777,-100,4,1,0,80,0,0
10927,-100,4,1,0,80,0,0
11152,-100,4,1,0,80,0,0
11227,-100,4,1,0,80,0,0
11377,-100,4,1,0,80,0,0
11527,-100,4,1,0,80,0,0
11677,-100,4,1,0,80,0,0
11752,-100,4,1,0,80,0,0
11827,-100,4,1,0,80,0,0
11902,-100,4,1,0,80,0,0
11977,-100,4,1,0,80,0,0
12127,-100,4,1,0,80,0,0
12277,-100,4,1,0,80,0,0
12427,-100,4,1,0,80,0,0
12577,-100,4,1,0,80,0,0
19705,-100,4,1,0,80,0,0
19855,-100,4,1,0,80,0,0
20077,-100,4,1,0,80,0,0
20227,-100,4,1,0,80,0,0
20377,-100,4,1,0,80,0,0
20527,-100,4,1,0,80,0,0
20677,-100,4,1,0,80,0,0
20977,-100,4,1,0,80,0,0
21052,-100,4,1,0,80,0,0
21202,-100,4,1,0,80,0,0
21277,-100,4,1,0,80,0,0
21352,-100,4,1,0,80,0,0
21427,-100,4,1,0,80,0,0
21502,-100,4,1,0,80,0,0
21577,-100,4,1,0,80,0,0
21727,-100,4,1,0,80,0,0
21877,-100,4,1,0,80,0,0
22402,-100,4,1,0,80,0,0
22477,-100,4,1,0,80,0,0
22627,-100,4,1,0,80,0,0
22777,-100,4,1,0,80,0,0
22927,-100,4,1,0,80,0,0
23077,-100,4,1,0,80,0,0
23377,-100,4,1,0,80,0,0
23602,-100,4,1,0,80,0,0
23677,-100,4,1,0,80,0,0
23827,-100,4,1,0,80,0,0
23977,-100,4,1,0,80,0,0
24052,-100,4,1,0,80,0,0
24127,-100,4,1,0,80,0,0
24202,-100,4,1,0,80,0,0
24277,-100,4,1,0,80,0,0
24580,-100,4,1,0,100,0,1
31852,-100,4,1,0,100,0,1
31927,-100,4,1,0,100,0,1
32002,-100,4,1,0,100,0,1
32077,-100,4,1,0,100,0,1
32152,-100,4,1,0,100,0,1
32227,-100,4,1,0,100,0,1
32377,-100,4,1,0,100,0,1
32452,-100,4,1,0,100,0,1
32527,-100,4,1,0,100,0,1
32602,-100,4,1,0,100,0,1
32677,-100,4,1,0,100,0,1
32752,-100,4,1,0,100,0,1
32827,-100,4,1,0,100,0,1
32902,-100,4,1,0,100,0,1
32977,-100,4,1,0,100,0,1
33052,-100,4,1,0,100,0,1
33127,-100,4,1,0,100,0,1
33202,-100,4,1,0,100,0,1
33277,-100,4,1,0,100,0,1
33352,-100,4,1,0,100,0,1
33427,-100,4,1,0,100,0,1
33502,-100,4,1,0,100,0,1
33577,-100,4,1,0,100,0,1
33652,-100,4,1,0,100,0,1
33727,-100,4,1,0,100,0,1
33802,-100,4,1,0,100,0,1
33877,-100,4,1,0,100,0,1
33927,-100,4,1,0,100,0,1
33977,-100,4,1,0,100,0,1
34027,-100,4,1,0,100,0,1
34077,-100,4,1,0,100,0,1
34127,-100,4,1,0,100,0,1
34180,-100,4,1,0,80,0,0
34402,-100,4,1,0,80,0,0
34477,-100,4,1,0,80,0,0
34627,-100,4,1,0,80,0,0
34777,-100,4,1,0,80,0,0
34927,-100,4,1,0,80,0,0
35002,-100,4,1,0,80,0,0
35227,-100,4,1,0,80,0,0
35377,-100,4,1,0,80,0,0
35527,-100,4,1,0,80,0,0
35602,-100,4,1,0,80,0,0
35677,-100,4,1,0,80,0,0
35827,-100,4,1,0,80,0,0
35977,-100,4,1,0,80,0,0
36127,-100,4,1,0,80,0,0
36202,-100,4,1,0,80,0,0
36577,-100,4,1,0,80,0,0
39277,-100,4,1,0,80,0,0
39427,-100,4,1,0,80,0,0
39502,-100,4,1,0,80,0,0
39577,-100,4,1,0,80,0,0
39727,-100,4,1,0,80,0,0
39877,-100,4,1,0,80,0,0
39952,-100,4,1,0,80,0,0
40027,-100,4,1,0,80,0,0
40102,-100,4,1,0,80,0,0
40177,-100,4,1,0,80,0,0
40327,-100,4,1,0,80,0,0
40477,-100,4,1,0,80,0,0
40552,-100,4,1,0,80,0,0
40627,-100,4,1,0,80,0,0
40702,-100,4,1,0,80,0,0
40777,-100,4,1,0,80,0,0
40927,-100,4,1,0,80,0,0
41077,-100,4,1,0,80,0,0
41227,-100,4,1,0,80,0,0
41377,-100,4,1,0,80,0,0
46402,-100,4,1,0,80,0,0
46477,-100,4,1,0,80,0,0
46627,-100,4,1,0,80,0,0
46777,-100,4,1,0,80,0,0
46927,-100,4,1,0,80,0,0
47077,-100,4,1,0,80,0,0
47377,-100,4,1,0,80,0,0
47452,-100,4,1,0,80,0,0
47602,-100,4,1,0,80,0,0
47677,-100,4,1,0,80,0,0
47827,-100,4,1,0,80,0,0
47902,-100,4,1,0,80,0,0
47977,-100,4,1,0,80,0,0
48052,-100,4,1,0,80,0,0
48127,-100,4,1,0,80,0,0
48202,-100,4,1,0,80,0,0
48277,-100,4,1,0,80,0,0
48580,-100,4,1,0,100,0,1
55852,-100,4,1,0,100,0,1
55927,-100,4,1,0,100,0,1
56002,-100,4,1,0,100,0,1
56077,-100,4,1,0,100,0,1
56152,-100,4,1,0,100,0,1
56227,-100,4,1,0,100,0,1
56377,-100,4,1,0,100,0,1
56452,-100,4,1,0,100,0,1
56527,-100,4,1,0,100,0,1
56602,-100,4,1,0,100,0,1
56677,-100,4,1,0,100,0,1
56752,-100,4,1,0,100,0,1
56827,-100,4,1,0,100,0,1
56902,-100,4,1,0,100,0,1
56977,-100,4,1,0,100,0,1
57052,-100,4,1,0,100,0,1
57127,-100,4,1,0,100,0,1
57202,-100,4,1,0,100,0,1
57277,-100,4,1,0,100,0,1
57352,-100,4,1,0,100,0,1
57427,-100,4,1,0,100,0,1
57502,-100,4,1,0,100,0,1
57577,-100,4,1,0,100,0,1
57652,-100,4,1,0,100,0,1
57727,-100,4,1,0,100,0,1
57802,-100,4,1,0,100,0,1
57877,-100,4,1,0,100,0,1
57927,-100,4,1,0,100,0,1
57977,-100,4,1,0,100,0,1
58027,-100,4,1,0,100,0,1
58077,-100,4,1,0,100,0,1
58127,-100,4,1,0,100,0,1
58180,-100,4,1,0,80,0,0
58327,-100,4,1,0,80,0,0
58402,-100,4,1,0,80,0,0
58477,-100,4,1,0,80,0,0
58627,-100,4,1,0,80,0,0
58777,-100,4,1,0,80,0,0
58852,-100,4,1,0,80,0,0
58927,-100,4,1,0,80,0,0
59077,-100,4,1,0,80,0,0
59152,-100,4,1,0,80,0,0
59227,-100,4,1,0,80,0,0
59302,-100,4,1,0,80,0,0
59377,-100,4,1,0,80,0,0
59527,-100,4,1,0,80,0,0
59602,-100,4,1,0,80,0,0
59677,-100,4,1,0,80,0,0
59827,-100,4,1,0,80,0,0
59902,-100,4,1,0,80,0,0
59977,-100,4,1,0,80,0,0
60052,-100,4,1,0,80,0,0
60127,-100,4,1,0,80,0,0
60277,-100,4,1,0,80,0,0
60352,-100,4,1,0,80,0,0
60427,-100,4,1,0,80,0,0
60502,-100,4,1,0,80,0,0
60577,-100,4,1,0,80,0,0
68905,-125,4,1,0,80,0,0
73705,-100,4,1,0,80,0,0
73780,-100,4,1,0,100,0,1
78727,-100,4,1,0,100,0,1
78877,-100,4,1,0,100,0,1
79027,-100,4,1,0,100,0,1
79102,-100,4,1,0,100,0,1
79177,-100,4,1,0,100,0,1
79327,-100,4,1,0,100,0,1
79477,-100,4,1,0,100,0,1
79552,-100,4,1,0,100,0,1
79627,-100,4,1,0,100,0,1
79777,-100,4,1,0,100,0,1
79927,-100,4,1,0,100,0,1
80002,-100,4,1,0,100,0,1
80077,-100,4,1,0,100,0,1
80152,-100,4,1,0,100,0,1
80227,-100,4,1,0,100,0,1
80377,-100,4,1,0,100,0,1
80527,-100,4,1,0,100,0,1
80602,-100,4,1,0,100,0,1
80677,-100,4,1,0,100,0,1
80827,-100,4,1,0,100,0,1
80977,-100,4,1,0,100,0,1
81202,-100,4,1,0,100,0,1
81277,-100,4,1,0,100,0,1
81427,-100,4,1,0,100,0,1
81502,-100,4,1,0,100,0,1
81577,-100,4,1,0,100,0,1
81727,-100,4,1,0,100,0,1
81802,-100,4,1,0,100,0,1
81877,-100,4,1,0,100,0,1
82027,-100,4,1,0,100,0,1
82177,-100,4,1,0,100,0,1
82252,-100,4,1,0,100,0,1
82327,-100,4,1,0,100,0,1
82477,-100,4,1,0,100,0,1
82552,-100,4,1,0,100,0,1
82627,-100,4,1,0,100,0,1
82777,-100,4,1,0,100,0,1
82852,-100,4,1,0,100,0,1
82927,-100,4,1,0,100,0,1
83002,-100,4,1,0,100,0,1
83077,-100,4,1,0,100,0,1
83127,-100,4,1,0,100,0,1
83177,-100,4,1,0,100,0,1
83227,-100,4,1,0,100,0,1
83277,-100,4,1,0,100,0,1
83327,-100,4,1,0,100,0,1
83380,-100,4,1,0,80,0,0
83602,-100,4,1,0,80,0,0
83677,-100,4,1,0,80,0,0
83827,-100,4,1,0,80,0,0
83977,-100,4,1,0,80,0,0
84127,-100,4,1,0,80,0,0
84277,-100,4,1,0,80,0,0
84352,-100,4,1,0,80,0,0
84427,-100,4,1,0,80,0,0
84502,-100,4,1,0,80,0,0
84577,-100,4,1,0,80,0,0
84727,-100,4,1,0,80,0,0
84802,-100,4,1,0,80,0,0
84877,-100,4,1,0,80,0,0
85027,-100,4,1,0,80,0,0
85177,-100,4,1,0,80,0,0
85252,-100,4,1,0,80,0,0
85327,-100,4,1,0,80,0,0
85402,-100,4,1,0,80,0,0
85477,-100,4,1,0,80,0,0
85627,-100,4,1,0,80,0,0
85777,-100,4,1,0,80,0,0

[HitObjects]
256,192,580,5,12,0:0:0:0:
256,192,880,1,8,0:0:0:0:
256,192,1030,1,0,0:0:0:0:
256,192,1180,1,8,0:0:0:0:
256,192,1330,1,8,0:0:0:0:
256,192,1405,1,8,0:0:0:0:
256,192,1480,1,0,0:0:0:0:
256,192,1630,1,8,0:0:0:0:
256,192,1705,1,0,0:0:0:0:
256,192,1780,1,8,0:0:0:0:
256,192,1930,1,0,0:0:0:0:
256,192,2080,1,8,0:0:0:0:
256,192,2230,1,8,0:0:0:0:
256,192,2380,1,0,0:0:0:0:
256,192,2455,1,0,0:0:0:0:
256,192,2530,1,0,0:0:0:0:
256,192,2680,1,8,0:0:0:0:
256,192,2755,1,8,0:0:0:0:
256,192,2830,1,8,0:0:0:0:
256,192,2980,1,0,0:0:0:0:
256,192,3280,1,8,0:0:0:0:
256,192,3430,1,8,0:0:0:0:
256,192,3580,1,0,0:0:0:0:
256,192,3730,1,8,0:0:0:0:
256,192,3805,1,8,0:0:0:0:
256,192,3880,1,0,0:0:0:0:
256,192,4030,1,8,0:0:0:0:
256,192,4105,1,0,0:0:0:0:
256,192,4180,1,8,0:0:0:0:
256,192,4330,1,0,0:0:0:0:
256,192,4480,1,0,0:0:0:0:
256,192,4630,1,8,0:0:0:0:
256,192,4780,1,0,0:0:0:0:
256,192,5080,1,0,0:0:0:0:
256,192,5380,1,8,0:0:0:0:
256,192,5530,1,0,0:0:0:0:
256,192,5680,1,8,0:0:0:0:
256,192,5830,1,0,0:0:0:0:
256,192,5980,1,8,0:0:0:0:
256,192,6130,1,0,0:0:0:0:
256,192,6205,1,0,0:0:0:0:
256,192,6280,1,8,0:0:0:0:
256,192,6430,1,8,0:0:0:0:
256,192,6505,1,8,0:0:0:0:
256,192,6580,1,0,0:0:0:0:
256,192,6730,1,0,0:0:0:0:
256,192,6880,1,8,0:0:0:0:
256,192,7030,1,0,0:0:0:0:
256,192,7180,1,8,0:0:0:0:
256,192,7280,1,0,0:0:0:0:
256,192,7380,1,0,0:0:0:0:
256,192,7480,1,8,0:0:0:0:
256,192,7780,1,8,0:0:0:0:
256,192,7930,1,8,0:0:0:0:
256,192,8080,1,0,0:0:0:0:
256,192,8230,1,0,0:0:0:0:
256,192,8380,1,8,0:0:0:0:
256,192,8530,1,0,0:0:0:0:
256,192,8605,1,0,0:0:0:0:
256,192,8680,1,8,0:0:0:0:
256,192,8830,1,8,0:0:0:0:
256,192,8905,1,8,0:0:0:0:
256,192,8980,1,0,0:0:0:0:
256,192,9130,1,8,0:0:0:0:
256,192,9205,1,0,0:0:0:0:
256,192,9280,1,8,0:0:0:0:
256,192,9430,1,0,0:0:0:0:
256,192,9580,1,8,0:0:0:0:
256,192,9730,1,8,0:0:0:0:
256,192,9880,1,0,0:0:0:0:
256,192,10180,1,8,0:0:0:0:
256,192,10330,1,0,0:0:0:0:
256,192,10480,1,8,0:0:0:0:
256,192,10630,1,8,0:0:0:0:
256,192,10780,1,0,0:0:0:0:
256,192,10930,1,8,0:0:0:0:
256,192,11080,1,8,0:0:0:0:
256,192,11230,1,0,0:0:0:0:
256,192,11305,1,8,0:0:0:0:
256,192,11380,1,0,0:0:0:0:
256,192,11530,1,0,0:0:0:0:
256,192,11680,1,8,0:0:0:0:
256,192,11755,1,8,0:0:0:0:
256,192,11830,1,0,0:0:0:0:
256,192,11905,1,0,0:0:0:0:
256,192,11980,1,8,0:0:0:0:
256,192,12130,1,0,0:0:0:0:
256,192,12280,1,8,0:0:0:0:
256,192,12580,1,8,0:0:0:0:
256,192,12730,1,0,0:0:0:0:
256,192,12880,1,0,0:0:0:0:
256,192,13030,1,8,0:0:0:0:
256,192,13180,1,8,0:0:0:0:
256,192,13330,1,0,0:0:0:0:
256,192,13480,1,8,0:0:0:0:
256,192,13630,1,0,0:0:0:0:
256,192,13705,1,0,0:0:0:0:
256,192,13780,1,8,0:0:0:0:
256,192,13930,1,8,0:0:0:0:
256,192,14080,1,0,0:0:0:0:
256,192,14155,1,0,0:0:0:0:
256,192,14230,1,8,0:0:0:0:
256,192,14305,1,0,0:0:0:0:
256,192,14380,1,8,0:0:0:0:
256,192,14530,1,0,0:0:0:0:
256,192,14680,1,0,0:0:0:0:
256,192,14980,1,8,0:0:0:0:
256,192,15130,1,0,0:0:0:0:
256,192,15280,1,8,0:0:0:0:
256,192,15430,1,8,0:0:0:0:
256,192,15580,1,0,0:0:0:0:
256,192,15730,1,8,0:0:0:0:
256,192,15880,1,0,0:0:0:0:
256,192,16030,1,8,0:0:0:0:
256,192,16105,1,8,0:0:0:0:
256,192,16180,1,0,0:0:0:0:
256,192,16330,1,0,0:0:0:0:
256,192,16480,1,8,0:0:0:0:
256,192,16630,1,0,0:0:0:0:
256,192,16705,1,0,0:0:0:0:
256,192,16780,1,8,0:0:0:0:
256,192,16930,1,8,0:0:0:0:
256,192,17080,1,0,0:0:0:0:
256,192,17380,1,8,0:0:0:0:
256,192,17530,1,8,0:0:0:0:
256,192,17680,1,0,0:0:0:0:
256,192,17830,1,0,0:0:0:0:
256,192,17980,1,8,0:0:0:0:
256,192,18130,1,8,0:0:0:0:
256,192,18280,1,8,0:0:0:0:
256,192,18580,1,0,0:0:0:0:
256,192,18730,1,8,0:0:0:0:
256,192,18880,1,8,0:0:0:0:
256,192,18955,1,8,0:0:0:0:
256,192,19030,1,0,0:0:0:0:
256,192,19180,1,0,0:0:0:0:
256,192,19330,1,8,0:0:0:0:
256,192,19555,1,8,0:0:0:0:
256,192,19780,1,4,0:0:0:0:
256,192,20080,1,8,0:0:0:0:
256,192,20230,1,8,0:0:0:0:
256,192,20380,1,0,0:0:0:0:
256,192,20530,1,0,0:0:0:0:
256,192,20680,1,8,0:0:0:0:
256,192,20980,1,8,0:0:0:0:
256,192,21055,1,0,0:0:0:0:
256,192,21205,1,0,0:0:0:0:
256,192,21280,1,8,0:0:0:0:
256,192,21430,1,0,0:0:0:0:
256,192,21580,1,8,0:0:0:0:
256,192,21730,1,8,0:0:0:0:
256,192,21880,1,8,0:0:0:0:
256,192,22180,1,0,0:0:0:0:
256,192,22480,1,8,0:0:0:0:
256,192,22630,1,0,0:0:0:0:
256,192,22780,1,8,0:0:0:0:
256,192,22930,1,8,0:0:0:0:
256,192,23080,1,0,0:0:0:0:
256,192,23380,1,8,0:0:0:0:
256,192,23605,1,0,0:0:0:0:
256,192,23680,1,8,0:0:0:0:
256,192,23830,1,0,0:0:0:0:
256,192,23980,1,8,0:0:0:0:
256,192,24055,1,0,0:0:0:0:
256,192,24130,1,0,0:0:0:0:
256,192,24205,1,0,0:0:0:0:
256,192,24280,1,8,0:0:0:0:
256,192,24580,1,12,0:0:0:0:
256,192,24880,1,8,0:0:0:0:
256,192,25030,1,0,0:0:0:0:
256,192,25180,1,8,0:0:0:0:
256,192,25255,1,8,0:0:0:0:
256,192,25330,1,0,0:0:0:0:
256,192,25405,1,0,0:0:0:0:
256,192,25480,1,8,0:0:0:0:
256,192,25705,1,0,0:0:0:0:
256,192,25780,1,8,0:0:0:0:
256,192,25930,1,0,0:0:0:0:
256,192,26080,1,8,0:0:0:0:
256,192,26155,1,8,0:0:0:0:
256,192,26230,1,0,0:0:0:0:
256,192,26380,1,8,0:0:0:0:
256,192,26530,1,0,0:0:0:0:
256,192,26680,1,8,0:0:0:0:
256,192,26830,1,8,0:0:0:0:
256,192,26905,1,8,0:0:0:0:
256,192,26980,1,0,0:0:0:0:
256,192,27130,1,8,0:0:0:0:
256,192,27280,1,0,0:0:0:0:
256,192,27430,1,8,0:0:0:0:
256,192,27580,1,0,0:0:0:0:
256,192,27655,1,0,0:0:0:0:
256,192,27730,1,8,0:0:0:0:
256,192,27880,1,8,0:0:0:0:
256,192,27955,1,0,0:0:0:0:
256,192,28030,1,0,0:0:0:0:
256,192,28105,1,0,0:0:0:0:
256,192,28180,1,8,0:0:0:0:
256,192,28330,1,8,0:0:0:0:
256,192,28480,1,0,0:0:0:0:
256,192,28555,1,0,0:0:0:0:
256,192,28630,1,8,0:0:0:0:
256,192,28780,1,0,0:0:0:0:
256,192,28930,1,0,0:0:0:0:
256,192,29080,1,8,0:0:0:0:
256,192,29380,1,8,0:0:0:0:
256,192,29530,1,0,0:0:0:0:
256,192,29680,1,8,0:0:0:0:
256,192,29830,1,0,0:0:0:0:
256,192,29980,1,8,0:0:0:0:
256,192,30055,1,8,0:0:0:0:
256,192,30130,1,0,0:0:0:0:
256,192,30205,1,0,0:0:0:0:
256,192,30280,1,8,0:0:0:0:
256,192,30430,1,0,0:0:0:0:
256,192,30505,1,8,0:0:0:0:
256,192,30580,1,0,0:0:0:0:
256,192,30730,1,0,0:0:0:0:
256,192,30880,1,8,0:0:0:0:
256,192,31030,1,0,0:0:0:0:
256,192,31180,1,8,0:0:0:0:
256,192,31480,1,8,0:0:0:0:
256,192,31555,1,0,0:0:0:0:
256,192,31705,1,0,0:0:0:0:
256,192,31780,1,8,0:0:0:0:
256,192,31855,1,8,0:0:0:0:
256,192,31930,1,0,0:0:0:0:
256,192,32080,1,8,0:0:0:0:
256,192,32155,1,0,0:0:0:0:
256,192,32230,1,8,0:0:0:0:
256,192,32380,1,8,0:0:0:0:
256,192,32530,1,0,0:0:0:0:
256,192,32680,1,8,0:0:0:0:
256,192,32755,1,0,0:0:0:0:
256,192,32830,1,0,0:0:0:0:
256,192,32905,1,0,0:0:0:0:
256,192,32980,1,8,0:0:0:0:
256,192,33130,1,0,0:0:0:0:
256,192,33205,1,0,0:0:0:0:
256,192,33280,1,8,0:0:0:0:
256,192,33430,1,0,0:0:0:0:
256,192,33580,1,8,0:0:0:0:
256,192,33730,1,8,0:0:0:0:
256,192,33880,1,0,0:0:0:0:
256,192,34180,1,4,0:0:0:0:
256,192,34405,1,8,0:0:0:0:
256,192,34480,1,0,0:0:0:0:
256,192,34630,1,8,0:0:0:0:
256,192,34780,1,8,0:0:0:0:
256,192,34930,1,0,0:0:0:0:
256,192,35005,1,8,0:0:0:0:
256,192,35230,1,0,0:0:0:0:
256,192,35380,1,8,0:0:0:0:
256,192,35530,1,0,0:0:0:0:
256,192,35605,1,0,0:0:0:0:
256,192,35830,1,0,0:0:0:0:
256,192,35980,1,8,0:0:0:0:
256,192,36130,1,8,0:0:0:0:
256,192,36205,1,8,0:0:0:0:
256,192,36580,1,8,0:0:0:0:
256,192,36805,1,0,0:0:0:0:
256,192,36880,1,8,0:0:0:0:
256,192,37030,1,8,0:0:0:0:
256,192,37180,1,0,0:0:0:0:
256,192,37330,1,8,0:0:0:0:
256,192,37405,1,0,0:0:0:0:
256,192,37630,1,0,0:0:0:0:
256,192,37780,1,8,0:0:0:0:
256,192,37880,1,0,0:0:0:0:
256,192,37980,1,0,0:0:0:0:
256,192,38080,1,8,0:0:0:0:
256,192,38380,1,8,0:0:0:0:
256,192,38530,1,8,0:0:0:0:
256,192,38680,1,8,0:0:0:0:
256,192,38830,1,8,0:0:0:0:
256,192,38980,1,4,0:0:0:0:
256,192,39280,1,8,0:0:0:0:
256,192,39430,1,0,0:0:0:0:
256,192,39505,1,0,0:0:0:0:
256,192,39580,1,8,0:0:0:0:
256,192,39730,1,8,0:0:0:0:
256,192,39880,1,0,0:0:0:0:
256,192,40030,1,8,0:0:0:0:
256,192,40105,1,0,0:0:0:0:
256,192,40180,1,8,0:0:0:0:
256,192,40330,1,0,0:0:0:0:
256,192,40480,1,8,0:0:0:0:
256,192,40630,1,0,0:0:0:0:
256,192,40780,1,8,0:0:0:0:
256,192,40855,1,8,0:0:0:0:
256,192,40930,1,0,0:0:0:0:
256,192,41080,1,8,0:0:0:0:
256,192,41230,1,0,0:0:0:0:
256,192,41380,1,8,0:0:0:0:
256,192,41680,1,8,0:0:0:0:
256,192,41830,1,0,0:0:0:0:
256,192,41980,1,8,0:0:0:0:
256,192,42055,1,0,0:0:0:0:
256,192,42130,1,8,0:0:0:0:
256,192,42280,1,8,0:0:0:0:
256,192,42430,1,0,0:0:0:0:
256,192,42505,1,0,0:0:0:0:
256,192,42580,1,8,0:0:0:0:
256,192,42730,1,0,0:0:0:0:
256,192,42880,1,8,0:0:0:0:
256,192,42955,1,8,0:0:0:0:
256,192,43030,1,8,0:0:0:0:
256,192,43180,1,0,0:0:0:0:
256,192,43780,1,0,0:0:0:0:
256,192,44080,1,8,0:0:0:0:
256,192,44230,1,8,0:0:0:0:
256,192,44380,1,0,0:0:0:0:
256,192,44530,1,0,0:0:0:0:
256,192,44680,1,8,0:0:0:0:
256,192,44980,1,8,0:0:0:0:
256,192,45055,1,0,0:0:0:0:
256,192,45205,1,0,0:0:0:0:
256,192,45280,1,8,0:0:0:0:
256,192,45430,1,0,0:0:0:0:
256,192,45580,1,8,0:0:0:0:
256,192,45730,1,8,0:0:0:0:
256,192,45880,1,8,0:0:0:0:
256,192,46180,1,0,0:0:0:0:
256,192,46480,1,8,0:0:0:0:
256,192,46630,1,0,0:0:0:0:
256,192,46780,1,8,0:0:0:0:
256,192,46930,1,8,0:0:0:0:
256,192,47080,1,0,0:0:0:0:
256,192,47380,1,8,0:0:0:0:
256,192,47605,1,0,0:0:0:0:
256,192,47680,1,8,0:0:0:0:
256,192,47830,1,0,0:0:0:0:
256,192,47980,1,8,0:0:0:0:
256,192,48055,1,0,0:0:0:0:
256,192,48130,1,0,0:0:0:0:
256,192,48205,1,0,0:0:0:0:
256,192,48280,1,8,0:0:0:0:
256,192,48580,1,12,0:0:0:0:
256,192,48880,1,8,0:0:0:0:
256,192,49030,1,0,0:0:0:0:
256,192,49180,1,8,0:0:0:0:
256,192,49255,1,0,0:0:0:0:
256,192,49330,1,8,0:0:0:0:
256,192,49405,1,0,0:0:0:0:
256,192,49480,1,8,0:0:0:0:
256,192,49705,1,0,0:0:0:0:
256,192,49780,1,8,0:0:0:0:
256,192,49930,1,0,0:0:0:0:
256,192,50080,1,8,0:0:0:0:
256,192,50155,1,0,0:0:0:0:
256,192,50230,1,8,0:0:0:0:
256,192,50380,1,0,0:0:0:0:
256,192,50530,1,8,0:0:0:0:
256,192,50680,1,0,0:0:0:0:
256,192,50830,1,8,0:0:0:0:
256,192,50905,1,8,0:0:0:0:
256,192,50980,1,0,0:0:0:0:
256,192,51130,1,0,0:0:0:0:
256,192,51280,1,8,0:0:0:0:
256,192,51430,1,8,0:0:0:0:
256,192,51580,1,0,0:0:0:0:
256,192,51655,1,0,0:0:0:0:
256,192,51730,1,8,0:0:0:0:
256,192,51880,1,8,0:0:0:0:
256,192,51955,1,8,0:0:0:0:
256,192,52030,1,0,0:0:0:0:
256,192,52105,1,0,0:0:0:0:
256,192,52180,1,8,0:0:0:0:
256,192,52330,1,8,0:0:0:0:
256,192,52480,1,0,0:0:0:0:
256,192,52555,1,0,0:0:0:0:
256,192,52630,1,8,0:0:0:0:
256,192,52780,1,8,0:0:0:0:
256,192,52930,1,0,0:0:0:0:
256,192,53080,1,8,0:0:0:0:
256,192,53380,1,8,0:0:0:0:
256,192,53530,1,8,0:0:0:0:
256,192,53680,1,0,0:0:0:0:
256,192,53830,1,8,0:0:0:0:
256,192,53980,1,0,0:0:0:0:
256,192,54055,1,0,0:0:0:0:
256,192,54130,1,8,0:0:0:0:
256,192,54205,1,0,0:0:0:0:
256,192,54280,1,8,0:0:0:0:
256,192,54430,1,0,0:0:0:0:
256,192,54505,1,0,0:0:0:0:
256,192,54580,1,8,0:0:0:0:
256,192,54730,1,8,0:0:0:0:
256,192,54880,1,0,0:0:0:0:
256,192,55030,1,0,0:0:0:0:
256,192,55180,1,8,0:0:0:0:
256,192,55480,1,8,0:0:0:0:
256,192,55555,1,0,0:0:0:0:
256,192,55705,1,0,0:0:0:0:
256,192,55780,1,8,0:0:0:0:
256,192,55855,1,8,0:0:0:0:
256,192,55930,1,0,0:0:0:0:
256,192,56080,1,8,0:0:0:0:
256,192,56155,1,0,0:0:0:0:
256,192,56230,1,8,0:0:0:0:
256,192,56380,1,0,0:0:0:0:
256,192,56530,1,8,0:0:0:0:
256,192,56680,1,0,0:0:0:0:
256,192,56755,1,0,0:0:0:0:
256,192,56830,1,0,0:0:0:0:
256,192,56905,1,0,0:0:0:0:
256,192,56980,1,8,0:0:0:0:
256,192,57130,1,0,0:0:0:0:
256,192,57205,1,0,0:0:0:0:
256,192,57280,1,8,0:0:0:0:
256,192,57430,1,0,0:0:0:0:
256,192,57580,1,8,0:0:0:0:
256,192,57730,1,8,0:0:0:0:
256,192,57880,1,0,0:0:0:0:
256,192,58180,1,0,0:0:0:0:
256,192,58330,1,8,0:0:0:0:
256,192,58480,1,8,0:0:0:0:
256,192,58630,1,0,0:0:0:0:
256,192,58930,1,8,0:0:0:0:
256,192,59080,1,8,0:0:0:0:
256,192,59155,1,8,0:0:0:0:
256,192,59230,1,0,0:0:0:0:
256,192,59380,1,0,0:0:0:0:
256,192,59530,1,8,0:0:0:0:
256,192,59680,1,8,0:0:0:0:
256,192,59830,1,0,0:0:0:0:
256,192,59980,1,8,0:0:0:0:
256,192,60055,1,0,0:0:0:0:
256,192,60130,1,8,0:0:0:0:
256,192,60280,1,8,0:0:0:0:
256,192,60430,1,0,0:0:0:0:
256,192,60505,1,0,0:0:0:0:
256,192,60580,1,8,0:0:0:0:
256,192,60730,1,8,0:0:0:0:
256,192,60880,1,0,0:0:0:0:
256,192,61180,1,8,0:0:0:0:
256,192,61330,1,0,0:0:0:0:
256,192,61480,1,8,0:0:0:0:
256,192,61780,1,0,0:0:0:0:
256,192,61930,1,8,0:0:0:0:
256,192,62005,1,0,0:0:0:0:
256,192,62080,1,8,0:0:0:0:
256,192,62230,1,0,0:0:0:0:
256,192,62380,1,8,0:0:0:0:
256,192,62455,1,8,0:0:0:0:
256,192,62530,1,0,0:0:0:0:
256,192,62680,1,8,0:0:0:0:
256,192,62830,1,0,0:0:0:0:
256,192,62980,1,12,0:0:0:0:
256,192,63280,1,0,0:0:0:0:
256,192,63430,1,0,0:0:0:0:
256,192,63580,1,8,0:0:0:0:
256,192,63730,1,0,0:0:0:0:
256,192,63880,1,8,0:0:0:0:
256,192,63980,1,0,0:0:0:0:
256,192,64080,1,0,0:0:0:0:
256,192,64180,1,8,0:0:0:0:
256,192,64380,1,0,0:0:0:0:
256,192,64480,1,8,0:0:0:0:
256,192,64580,1,0,0:0:0:0:
256,192,64680,1,0,0:0:0:0:
256,192,64780,1,8,0:0:0:0:
256,192,65080,1,8,0:0:0:0:
256,192,65230,1,0,0:0:0:0:
256,192,65380,1,8,0:0:0:0:
256,192,65530,1,0,0:0:0:0:
256,192,65605,1,8,0:0:0:0:
256,192,65755,1,8,0:0:0:0:
256,192,65830,1,0,0:0:0:0:
256,192,65980,1,8,0:0:0:0:
256,192,66130,1,8,0:0:0:0:
256,192,66280,1,0,0:0:0:0:
256,192,66430,1,8,0:0:0:0:
256,192,66505,1,8,0:0:0:0:
256,192,66580,1,0,0:0:0:0:
256,192,66880,1,0,0:0:0:0:
256,192,67030,1,8,0:0:0:0:
256,192,67105,1,8,0:0:0:0:
256,192,67180,1,0,0:0:0:0:
256,192,67330,1,8,0:0:0:0:
256,192,67480,1,8,0:0:0:0:
256,192,67630,1,0,0:0:0:0:
256,192,67780,1,4,0:0:0:0:
256,192,68980,1,0,0:0:0:0:
256,192,69580,1,0,0:0:0:0:
256,192,70180,1,0,0:0:0:0:
256,192,70780,1,8,0:0:0:0:
256,192,71080,1,8,0:0:0:0:
256,192,71380,1,8,0:0:0:0:
256,192,71980,1,0,0:0:0:0:
256,192,72580,1,0,0:0:0:0:
256,192,73180,1,8,0:0:0:0:
256,192,73780,1,12,0:0:0:0:
256,192,74080,1,8,0:0:0:0:
256,192,74230,1,8,0:0:0:0:
256,192,74380,1,0,0:0:0:0:
256,192,74455,1,0,0:0:0:0:
256,192,74530,1,8,0:0:0:0:
256,192,74605,1,0,0:0:0:0:
256,192,74680,1,8,0:0:0:0:
256,192,74905,1,0,0:0:0:0:
256,192,74980,1,8,0:0:0:0:
256,192,75130,1,0,0:0:0:0:
256,192,75280,1,8,0:0:0:0:
256,192,75355,1,8,0:0:0:0:
256,192,75430,1,0,0:0:0:0:
256,192,75580,1,8,0:0:0:0:
256,192,75730,1,8,0:0:0:0:
256,192,75880,1,0,0:0:0:0:
256,192,76030,1,8,0:0:0:0:
256,192,76105,1,0,0:0:0:0:
256,192,76180,1,8,0:0:0:0:
256,192,76330,1,0,0:0:0:0:
256,192,76480,1,8,0:0:0:0:
256,192,76630,1,8,0:0:0:0:
256,192,76780,1,0,0:0:0:0:
256,192,76855,1,0,0:0:0:0:
256,192,76930,1,8,0:0:0:0:
256,192,77080,1,8,0:0:0:0:
256,192,77155,1,8,0:0:0:0:
256,192,77230,1,0,0:0:0:0:
256,192,77380,1,8,0:0:0:0:
256,192,77530,1,8,0:0:0:0:
256,192,77680,1,0,0:0:0:0:
256,192,77755,1,0,0:0:0:0:
256,192,77830,1,8,0:0:0:0:
256,192,77980,1,8,0:0:0:0:
256,192,78130,1,0,0:0:0:0:
256,192,78280,1,8,0:0:0:0:
256,192,78580,1,0,0:0:0:0:
256,192,78730,1,0,0:0:0:0:
256,192,78880,1,8,0:0:0:0:
256,192,79030,1,0,0:0:0:0:
256,192,79180,1,8,0:0:0:0:
256,192,79330,1,0,0:0:0:0:
256,192,79405,1,8,0:0:0:0:
256,192,79630,1,8,0:0:0:0:
256,192,79780,1,0,0:0:0:0:
256,192,79930,1,8,0:0:0:0:
256,192,80005,1,8,0:0:0:0:
256,192,80080,1,0,0:0:0:0:
256,192,80230,1,8,0:0:0:0:
256,192,80380,1,8,0:0:0:0:
256,192,80455,1,0,0:0:0:0:
256,192,80530,1,8,0:0:0:0:
256,192,80605,1,8,0:0:0:0:
256,192,80980,1,0,0:0:0:0:
256,192,81205,1,8,0:0:0:0:
256,192,81280,1,0,0:0:0:0:
256,192,81430,1,8,0:0:0:0:
256,192,81580,1,0,0:0:0:0:
256,192,81730,1,0,0:0:0:0:
256,192,81805,1,8,0:0:0:0:
256,192,82030,1,8,0:0:0:0:
256,192,82180,1,0,0:0:0:0:
256,192,82255,1,0,0:0:0:0:
256,192,82330,1,8,0:0:0:0:
256,192,82480,1,0,0:0:0:0:
256,192,82555,1,0,0:0:0:0:
256,192,82630,1,8,0:0:0:0:
256,192,82780,1,0,0:0:0:0:
256,192,82930,1,0,0:0:0:0:
256,192,83080,1,0,0:0:0:0:
256,192,83230,1,0,0:0:0:0:
256,192,83380,1,8,0:0:0:0:
256,192,83605,1,0,0:0:0:0:
256,192,83680,1,8,0:0:0:0:
256,192,83830,1,0,0:0:0:0:
256,192,83980,1,8,0:0:0:0:
256,192,84130,1,8,0:0:0:0:
256,192,84205,1,0,0:0:0:0:
256,192,84430,1,0,0:0:0:0:
256,192,84580,1,8,0:0:0:0:
256,192,84730,1,0,0:0:0:0:
256,192,84805,1,0,0:0:0:0:
256,192,85030,1,0,0:0:0:0:
256,192,85180,1,8,0:0:0:0:
256,192,85255,1,0,0:0:0:0:
256,192,85330,1,8,0:0:0:0:
256,192,85405,1,8,0:0:0:0:
256,192,85780,1,0,0:0:0:0:
256,192,86005,1,8,0:0:0:0:
256,192,86080,1,8,0:0:0:0:
256,192,86230,1,0,0:0:0:0:
256,192,86380,1,8,0:0:0:0:
256,192,86530,1,0,0:0:0:0:
256,192,86605,1,8,0:0:0:0:
256,192,86830,1,0,0:0:0:0:
256,192,86980,1,8,0:0:0:0:
256,192,87080,1,0,0:0:0:0:
256,192,87180,1,0,0:0:0:0:
256,192,87280,1,8,0:0:0:0:
256,192,87580,1,8,0:0:0:0:
256,192,87730,1,8,0:0:0:0:
256,192,87880,1,8,0:0:0:0:
256,192,88030,1,8,0:0:0:0:
