osu file format v14

[General]
AudioFilename: weak.mp3
AudioLeadIn: 0
PreviewTime: 48283
Countdown: 0
SampleSet: Normal
StackLeniency: 0.7
Mode: 1
LetterboxInBreaks: 0
WidescreenStoryboard: 1

[Editor]
DistanceSpacing: 1.4
BeatDivisor: 4
GridSize: 32
TimelineZoom: 3.399999

[Metadata]
Title:Weakness
TitleUnicode:Weakness
Artist:Tartarate
ArtistUnicode:Tartarate
Creator:Vivien
Version:Capu's Kantan
Source:
Tags:lolicore japanese jp electronic j-core jcore breakcore MAISONdes ヨワネハキ Yowanehaki 和ぬか wanuka asmi capu
BeatmapID:4301396
BeatmapSetID:2057179

[Difficulty]
HPDrainRate:8
CircleSize:2
OverallDifficulty:3
ApproachRate:10
SliderMultiplier:1.4
SliderTickRate:1

[Events]
//Background and Video events
0,0,"97455307_p0_master1200 (1).jpg",0,40
//Break Periods
//Storyboard Layer 0 (Background)
//Storyboard Layer 1 (Fail)
//Storyboard Layer 2 (Pass)
//Storyboard Layer 3 (Foreground)
//Storyboard Layer 4 (Overlay)
//Storyboard Sound Samples

[TimingPoints]
580,300,4,1,0,80,1,0
10477,-100,4,1,0,80,0,0
10702,-100,4,1,0,80,0,0
10777,-100,4,1,0,80,0,0
10927,-100,4,1,0,80,0,0
11152,-100,4,1,0,80,0,0
11227,-100,4,1,0,80,0,0
11377,-100,4,1,0,80,0,0
11527,-100,4,1,0,80,0,0
11677,-100,4,1,0,80,0,0
11752,-100,4,1,0,80,0,0
11827,-100,4,1,0,80,0,0
11902,-100,4,1,0,80,0,0
11977,-100,4,1,0,80,0,0
12127,-100,4,1,0,80,0,0
12277,-100,4,1,0,80,0,0
12427,-100,4,1,0,80,0,0
12577,-100,4,1,0,80,0,0
19705,-100,4,1,0,80,0,0
19855,-100,4,1,0,80,0,0
20077,-100,4,1,0,80,0,0
20227,-100,4,1,0,80,0,0
20377,-100,4,1,0,80,0,0
20527,-100,4,1,0,80,0,0
20677,-100,4,1,0,80,0,0
20977,-100,4,1,0,80,0,0
21052,-100,4,1,0,80,0,0
21202,-100,4,1,0,80,0,0
21277,-100,4,1,0,80,0,0
21352,-100,4,1,0,80,0,0
21427,-100,4,1,0,80,0,0
21502,-100,4,1,0,80,0,0
21577,-100,4,1,0,80,0,0
21727,-100,4,1,0,80,0,0
21877,-100,4,1,0,80,0,0
22402,-100,4,1,0,80,0,0
22477,-100,4,1,0,80,0,0
22627,-100,4,1,0,80,0,0
22777,-100,4,1,0,80,0,0
22927,-100,4,1,0,80,0,0
23077,-100,4,1,0,80,0,0
23377,-100,4,1,0,80,0,0
23602,-100,4,1,0,80,0,0
23677,-100,4,1,0,80,0,0
23827,-100,4,1,0,80,0,0
23977,-100,4,1,0,80,0,0
24052,-100,4,1,0,80,0,0
24127,-100,4,1,0,80,0,0
24202,-100,4,1,0,80,0,0
24277,-100,4,1,0,80,0,0
24580,-100,4,1,0,100,0,1
31852,-100,4,1,0,100,0,1
31927,-100,4,1,0,100,0,1
32002,-100,4,1,0,100,0,1
32077,-100,4,1,0,100,0,1
32152,-100,4,1,0,100,0,1
32227,-100,4,1,0,100,0,1
32377,-100,4,1,0,100,0,1
32452,-100,4,1,0,100,0,1
32527,-100,4,1,0,100,0,1
32602,-100,4,1,0,100,0,1
32677,-100,4,1,0,100,0,1
32752,-100,4,1,0,100,0,1
32827,-100,4,1,0,100,0,1
32902,-100,4,1,0,100,0,1
32977,-100,4,1,0,100,0,1
33052,-100,4,1,0,100,0,1
33127,-100,4,1,0,100,0,1
33202,-100,4,1,0,100,0,1
33277,-100,4,1,0,100,0,1
33352,-100,4,1,0,100,0,1
33427,-100,4,1,0,100,0,1
33502,-100,4,1,0,100,0,1
33577,-100,4,1,0,100,0,1
33652,-100,4,1,0,100,0,1
33727,-100,4,1,0,100,0,1
33802,-100,4,1,0,100,0,1
33877,-100,4,1,0,100,0,1
33927,-100,4,1,0,100,0,1
33977,-100,4,1,0,100,0,1
34027,-100,4,1,0,100,0,1
34077,-100,4,1,0,100,0,1
34127,-100,4,1,0,100,0,1
34180,-100,4,1,0,80,0,0
34402,-100,4,1,0,80,0,0
34477,-100,4,1,0,80,0,0
34627,-100,4,1,0,80,0,0
34777,-100,4,1,0,80,0,0
34927,-100,4,1,0,80,0,0
35002,-100,4,1,0,80,0,0
35227,-100,4,1,0,80,0,0
35377,-100,4,1,0,80,0,0
35527,-100,4,1,0,80,0,0
35602,-100,4,1,0,80,0,0
35677,-100,4,1,0,80,0,0
35827,-100,4,1,0,80,0,0
35977,-100,4,1,0,80,0,0
36127,-100,4,1,0,80,0,0
36202,-100,4,1,0,80,0,0
36577,-100,4,1,0,80,0,0
39277,-100,4,1,0,80,0,0
39427,-100,4,1,0,80,0,0
39502,-100,4,1,0,80,0,0
39577,-100,4,1,0,80,0,0
39727,-100,4,1,0,80,0,0
39877,-100,4,1,0,80,0,0
39952,-100,4,1,0,80,0,0
40027,-100,4,1,0,80,0,0
40102,-100,4,1,0,80,0,0
40177,-100,4,1,0,80,0,0
40327,-100,4,1,0,80,0,0
40477,-100,4,1,0,80,0,0
40552,-100,4,1,0,80,0,0
40627,-100,4,1,0,80,0,0
40702,-100,4,1,0,80,0,0
40777,-100,4,1,0,80,0,0
40927,-100,4,1,0,80,0,0
41077,-100,4,1,0,80,0,0
41227,-100,4,1,0,80,0,0
41377,-100,4,1,0,80,0,0
46402,-100,4,1,0,80,0,0
46477,-100,4,1,0,80,0,0
46627,-100,4,1,0,80,0,0
46777,-100,4,1,0,80,0,0
46927,-100,4,1,0,80,0,0
47077,-100,4,1,0,80,0,0
47377,-100,4,1,0,80,0,0
47452,-100,4,1,0,80,0,0
47602,-100,4,1,0,80,0,0
47677,-100,4,1,0,80,0,0
47827,-100,4,1,0,80,0,0
47902,-100,4,1,0,80,0,0
47977,-100,4,1,0,80,0,0
48052,-100,4,1,0,80,0,0
48127,-100,4,1,0,80,0,0
48202,-100,4,1,0,80,0,0
48277,-100,4,1,0,80,0,0
48580,-100,4,1,0,100,0,1
55852,-100,4,1,0,100,0,1
55927,-100,4,1,0,100,0,1
56002,-100,4,1,0,100,0,1
56077,-100,4,1,0,100,0,1
56152,-100,4,1,0,100,0,1
56227,-100,4,1,0,100,0,1
56377,-100,4,1,0,100,0,1
56452,-100,4,1,0,100,0,1
56527,-100,4,1,0,100,0,1
56602,-100,4,1,0,100,0,1
56677,-100,4,1,0,100,0,1
56752,-100,4,1,0,100,0,1
56827,-100,4,1,0,100,0,1
56902,-100,4,1,0,100,0,1
56977,-100,4,1,0,100,0,1
57052,-100,4,1,0,100,0,1
57127,-100,4,1,0,100,0,1
57202,-100,4,1,0,100,0,1
57277,-100,4,1,0,100,0,1
57352,-100,4,1,0,100,0,1
57427,-100,4,1,0,100,0,1
57502,-100,4,1,0,100,0,1
57577,-100,4,1,0,100,0,1
57652,-100,4,1,0,100,0,1
57727,-100,4,1,0,100,0,1
57802,-100,4,1,0,100,0,1
57877,-100,4,1,0,100,0,1
57927,-100,4,1,0,100,0,1
57977,-100,4,1,0,100,0,1
58027,-100,4,1,0,100,0,1
58077,-100,4,1,0,100,0,1
58127,-100,4,1,0,100,0,1
58180,-100,4,1,0,80,0,0
58327,-100,4,1,0,80,0,0
58402,-100,4,1,0,80,0,0
58477,-100,4,1,0,80,0,0
58627,-100,4,1,0,80,0,0
58777,-100,4,1,0,80,0,0
58852,-100,4,1,0,80,0,0
58927,-100,4,1,0,80,0,0
59077,-100,4,1,0,80,0,0
59152,-100,4,1,0,80,0,0
59227,-100,4,1,0,80,0,0
59302,-100,4,1,0,80,0,0
59377,-100,4,1,0,80,0,0
59527,-100,4,1,0,80,0,0
59602,-100,4,1,0,80,0,0
59677,-100,4,1,0,80,0,0
59827,-100,4,1,0,80,0,0
59902,-100,4,1,0,80,0,0
59977,-100,4,1,0,80,0,0
60052,-100,4,1,0,80,0,0
60127,-100,4,1,0,80,0,0
60277,-100,4,1,0,80,0,0
60352,-100,4,1,0,80,0,0
60427,-100,4,1,0,80,0,0
60502,-100,4,1,0,80,0,0
60577,-100,4,1,0,80,0,0
68905,-100,4,1,0,80,0,0
73705,-100,4,1,0,80,0,0
73780,-100,4,1,0,100,0,1
78727,-100,4,1,0,100,0,1
78877,-100,4,1,0,100,0,1
79027,-100,4,1,0,100,0,1
79102,-100,4,1,0,100,0,1
79177,-100,4,1,0,100,0,1
79327,-100,4,1,0,100,0,1
79477,-100,4,1,0,100,0,1
79552,-100,4,1,0,100,0,1
79627,-100,4,1,0,100,0,1
79777,-100,4,1,0,100,0,1
79927,-100,4,1,0,100,0,1
80002,-100,4,1,0,100,0,1
80077,-100,4,1,0,100,0,1
80152,-100,4,1,0,100,0,1
80227,-100,4,1,0,100,0,1
80377,-100,4,1,0,100,0,1
80527,-100,4,1,0,100,0,1
80602,-100,4,1,0,100,0,1
80677,-100,4,1,0,100,0,1
80827,-100,4,1,0,100,0,1
80977,-100,4,1,0,100,0,1
81202,-100,4,1,0,100,0,1
81277,-100,4,1,0,100,0,1
81427,-100,4,1,0,100,0,1
81502,-100,4,1,0,100,0,1
81577,-100,4,1,0,100,0,1
81727,-100,4,1,0,100,0,1
81802,-100,4,1,0,100,0,1
81877,-100,4,1,0,100,0,1
82027,-100,4,1,0,100,0,1
82177,-100,4,1,0,100,0,1
82252,-100,4,1,0,100,0,1
82327,-100,4,1,0,100,0,1
82477,-100,4,1,0,100,0,1
82552,-100,4,1,0,100,0,1
82627,-100,4,1,0,100,0,1
82777,-100,4,1,0,100,0,1
82852,-100,4,1,0,100,0,1
82927,-100,4,1,0,100,0,1
83002,-100,4,1,0,100,0,1
83077,-100,4,1,0,100,0,1
83127,-100,4,1,0,100,0,1
83177,-100,4,1,0,100,0,1
83227,-100,4,1,0,100,0,1
83277,-100,4,1,0,100,0,1
83327,-100,4,1,0,100,0,1
83380,-100,4,1,0,80,0,0
83602,-100,4,1,0,80,0,0
83677,-100,4,1,0,80,0,0
83827,-100,4,1,0,80,0,0
83977,-100,4,1,0,80,0,0
84127,-100,4,1,0,80,0,0
84277,-100,4,1,0,80,0,0
84352,-100,4,1,0,80,0,0
84427,-100,4,1,0,80,0,0
84502,-100,4,1,0,80,0,0
84577,-100,4,1,0,80,0,0
84727,-100,4,1,0,80,0,0
84802,-100,4,1,0,80,0,0
84877,-100,4,1,0,80,0,0
85027,-100,4,1,0,80,0,0
85177,-100,4,1,0,80,0,0
85252,-100,4,1,0,80,0,0
85327,-100,4,1,0,80,0,0
85402,-100,4,1,0,80,0,0
85477,-100,4,1,0,80,0,0
85627,-100,4,1,0,80,0,0
85777,-100,4,1,0,80,0,0

[HitObjects]
256,192,580,5,4,0:0:0:0:
256,192,1180,1,8,0:0:0:0:
256,192,1780,1,0,0:0:0:0:
256,192,2080,1,0,0:0:0:0:
256,192,2380,1,8,0:0:0:0:
256,192,2980,1,8,0:0:0:0:
256,192,3580,1,0,0:0:0:0:
256,192,4180,1,8,0:0:0:0:
256,192,4480,1,8,0:0:0:0:
256,192,4780,1,0,0:0:0:0:
256,192,5380,1,8,0:0:0:0:
256,192,5980,1,0,0:0:0:0:
256,192,6580,1,8,0:0:0:0:
256,192,6880,1,0,0:0:0:0:
256,192,7180,1,8,0:0:0:0:
256,192,7780,1,0,0:0:0:0:
256,192,8380,1,8,0:0:0:0:
256,192,8980,1,0,0:0:0:0:
256,192,10180,1,12,0:0:0:0:
256,192,10780,1,0,0:0:0:0:
256,192,11380,1,8,0:0:0:0:
256,192,11980,1,0,0:0:0:0:
256,192,12280,1,0,0:0:0:0:
256,192,12580,1,8,0:0:0:0:
256,192,13180,1,0,0:0:0:0:
256,192,13780,1,8,0:0:0:0:
256,192,14380,1,8,0:0:0:0:
256,192,14680,1,0,0:0:0:0:
256,192,14980,1,8,0:0:0:0:
256,192,15580,1,0,0:0:0:0:
256,192,16180,1,8,0:0:0:0:
256,192,16780,1,0,0:0:0:0:
256,192,17080,1,8,0:0:0:0:
256,192,17380,1,8,0:0:0:0:
256,192,17980,1,0,0:0:0:0:
256,192,18580,1,8,0:0:0:0:
256,192,19780,1,12,0:0:0:0:
256,192,20380,1,0,0:0:0:0:
256,192,20680,1,0,0:0:0:0:
256,192,20980,1,8,0:0:0:0:
256,192,21580,1,8,0:0:0:0:
256,192,21880,1,0,0:0:0:0:
256,192,22180,1,8,0:0:0:0:
256,192,22780,1,0,0:0:0:0:
256,192,23380,1,8,0:0:0:0:
256,192,24280,1,0,0:0:0:0:
256,192,24580,1,12,0:0:0:0:
256,192,25180,1,0,0:0:0:0:
256,192,25480,1,0,0:0:0:0:
256,192,25780,1,8,0:0:0:0:
256,192,26080,1,8,0:0:0:0:
256,192,26380,1,0,0:0:0:0:
256,192,26980,1,8,0:0:0:0:
256,192,27280,1,0,0:0:0:0:
256,192,27580,1,8,0:0:0:0:
256,192,27880,1,0,0:0:0:0:
256,192,28180,1,8,0:0:0:0:
256,192,28780,1,0,0:0:0:0:
256,192,29380,1,8,0:0:0:0:
256,192,29680,1,8,0:0:0:0:
256,192,29980,1,0,0:0:0:0:
256,192,30580,1,8,0:0:0:0:
256,192,30880,1,0,0:0:0:0:
256,192,31180,1,8,0:0:0:0:
256,192,31780,1,0,0:0:0:0:
256,192,32380,1,8,0:0:0:0:
256,192,32680,1,0,0:0:0:0:
256,192,32980,1,8,0:0:0:0:
256,192,33280,1,8,0:0:0:0:
256,192,33580,1,0,0:0:0:0:
256,192,33880,1,0,0:0:0:0:
256,192,34180,1,8,0:0:0:0:
256,192,35380,1,0,0:0:0:0:
256,192,35980,1,8,0:0:0:0:
256,192,36280,1,8,0:0:0:0:
256,192,36580,1,0,0:0:0:0:
256,192,37180,1,8,0:0:0:0:
256,192,37780,1,0,0:0:0:0:
256,192,38980,1,12,0:0:0:0:
256,192,39580,1,0,0:0:0:0:
256,192,39880,1,0,0:0:0:0:
256,192,40180,1,8,0:0:0:0:
256,192,40780,1,8,0:0:0:0:
256,192,41080,1,0,0:0:0:0:
256,192,41380,1,8,0:0:0:0:
256,192,41980,1,0,0:0:0:0:
256,192,42580,1,8,0:0:0:0:
256,192,42880,1,8,0:0:0:0:
256,192,43180,1,0,0:0:0:0:
256,192,43780,1,8,0:0:0:0:
256,192,44380,1,0,0:0:0:0:
256,192,44980,1,8,0:0:0:0:
256,192,45280,1,8,0:0:0:0:
256,192,45580,1,0,0:0:0:0:
256,192,46180,1,8,0:0:0:0:
256,192,46780,1,0,0:0:0:0:
256,192,47080,1,8,0:0:0:0:
256,192,47380,1,0,0:0:0:0:
256,192,48280,1,0,0:0:0:0:
256,192,48580,1,12,0:0:0:0:
256,192,49180,1,0,0:0:0:0:
256,192,49480,1,0,0:0:0:0:
256,192,49780,1,8,0:0:0:0:
256,192,50080,1,8,0:0:0:0:
256,192,50380,1,0,0:0:0:0:
256,192,50980,1,8,0:0:0:0:
256,192,51280,1,0,0:0:0:0:
256,192,51580,1,8,0:0:0:0:
256,192,51880,1,0,0:0:0:0:
256,192,52180,1,8,0:0:0:0:
256,192,52780,1,8,0:0:0:0:
256,192,53080,1,8,0:0:0:0:
256,192,53380,1,0,0:0:0:0:
256,192,53980,1,8,0:0:0:0:
256,192,54580,1,0,0:0:0:0:
256,192,54880,1,0,0:0:0:0:
256,192,55180,1,8,0:0:0:0:
256,192,55480,1,0,0:0:0:0:
256,192,55780,1,8,0:0:0:0:
256,192,56380,1,8,0:0:0:0:
256,192,56680,1,0,0:0:0:0:
256,192,56980,1,8,0:0:0:0:
256,192,57280,1,8,0:0:0:0:
256,192,57580,1,0,0:0:0:0:
256,192,57880,1,0,0:0:0:0:
256,192,58180,1,8,0:0:0:0:
256,192,59080,1,0,0:0:0:0:
256,192,59380,1,8,0:0:0:0:
256,192,60280,1,8,0:0:0:0:
256,192,60580,1,0,0:0:0:0:
256,192,61180,1,0,0:0:0:0:
256,192,61480,1,8,0:0:0:0:
256,192,61780,1,8,0:0:0:0:
256,192,62080,1,0,0:0:0:0:
256,192,62380,1,0,0:0:0:0:
256,192,62980,1,8,0:0:0:0:
256,192,63880,1,8,0:0:0:0:
256,192,64180,1,0,0:0:0:0:
256,192,64480,1,0,0:0:0:0:
256,192,64780,1,8,0:0:0:0:
256,192,65380,1,0,0:0:0:0:
256,192,65830,1,8,0:0:0:0:
256,192,66280,1,8,0:0:0:0:
256,192,66580,1,0,0:0:0:0:
256,192,67180,1,8,0:0:0:0:
256,192,67780,1,4,0:0:0:0:
256,192,68980,1,0,0:0:0:0:
256,192,69580,1,0,0:0:0:0:
256,192,70180,1,0,0:0:0:0:
256,192,70780,1,8,0:0:0:0:
256,192,71080,1,8,0:0:0:0:
256,192,71380,1,8,0:0:0:0:
256,192,71980,1,0,0:0:0:0:
256,192,72580,1,8,0:0:0:0:
256,192,73780,1,12,0:0:0:0:
256,192,74380,1,0,0:0:0:0:
256,192,74680,1,8,0:0:0:0:
256,192,74980,1,0,0:0:0:0:
256,192,75280,1,0,0:0:0:0:
256,192,75580,1,8,0:0:0:0:
256,192,76180,1,8,0:0:0:0:
256,192,76480,1,0,0:0:0:0:
256,192,76780,1,8,0:0:0:0:
256,192,77080,1,8,0:0:0:0:
256,192,77380,1,0,0:0:0:0:
256,192,77980,1,8,0:0:0:0:
256,192,78580,1,0,0:0:0:0:
256,192,79180,1,8,0:0:0:0:
256,192,79480,1,0,0:0:0:0:
256,192,79780,1,8,0:0:0:0:
256,192,80380,1,8,0:0:0:0:
256,192,80680,1,8,0:0:0:0:
256,192,80980,1,0,0:0:0:0:
256,192,81580,1,8,0:0:0:0:
256,192,82180,1,0,0:0:0:0:
256,192,82480,1,0,0:0:0:0:
256,192,82780,1,8,0:0:0:0:
256,192,83080,1,8,0:0:0:0:
256,192,83380,1,0,0:0:0:0:
256,192,84580,1,8,0:0:0:0:
256,192,85180,1,0,0:0:0:0:
256,192,85780,1,8,0:0:0:0:
256,192,86980,1,8,0:0:0:0:
256,192,87280,1,8,0:0:0:0:
256,192,87580,1,0,0:0:0:0:
256,192,88030,1,0,0:0:0:0:
