osu file format v14

[General]
AudioFilename: Moment.mp3
AudioLeadIn: 0
PreviewTime: 56053
Countdown: 0
SampleSet: Normal
StackLeniency: 0.7
Mode: 1
LetterboxInBreaks: 0
WidescreenStoryboard: 1

[Editor]
Bookmarks: 4599,19368,34137,48907,56291,71060,85830,93214,109830,124599,139368,154137,168907,183676
DistanceSpacing: 1.5
BeatDivisor: 4
GridSize: 32
TimelineZoom: 4.15

[Metadata]
Title:Moment
TitleUnicode:Moment
Artist:Tartarate
ArtistUnicode:Tartarate
Creator:Capu
Version:Kantan
Source:
Tags:lolicore japanese instrumental electronic j-core jcore breakcore vivien Camellia feat. featuring Nanahira We Love Hardcore かめりあ feat. ななひら ウィー・ラヴ・ハードコア
BeatmapID:4307555
BeatmapSetID:2060652

[Difficulty]
HPDrainRate:8
CircleSize:2
OverallDifficulty:3
ApproachRate:10
SliderMultiplier:1.1
SliderTickRate:1

[Events]
//Background and Video events
0,0,"764891264.jpg",0,0
//Break Periods
//Storyboard Layer 0 (Background)
//Storyboard Layer 1 (Fail)
//Storyboard Layer 2 (Pass)
//Storyboard Layer 3 (Foreground)
//Storyboard Layer 4 (Overlay)
//Storyboard Sound Samples

[TimingPoints]
904,230.769230769231,4,1,0,80,1,0
56288,-100,4,1,0,100,0,1
70596,-100,4,1,0,100,0,0
71057,-100,4,1,0,100,0,1
81673,-100,4,1,0,100,0,0
82134,-100,4,1,0,100,0,1
85769,-100,4,1,0,20,0,1
85827,-100,4,1,0,20,0,0
90442,-100,4,1,0,40,0,0
91365,-100,4,1,0,55,0,0
92288,-100,4,1,0,65,0,0
124538,-100,4,1,0,90,0,0
154134,-100,4,1,0,100,0,1
165211,-100,4,1,0,100,0,0
168904,-100,4,1,0,100,0,1
183673,-100,4,1,0,100,0,0

[HitObjects]
256,192,4596,5,4,0:0:0:0:
256,192,5519,1,8,0:0:0:0:
256,192,5980,1,8,0:0:0:0:
256,192,6442,1,4,0:0:0:0:
256,192,6788,1,8,0:0:0:0:
256,192,8288,1,12,0:0:0:0:
256,192,8519,1,8,0:0:0:0:
256,192,8750,1,0,0:0:0:0:
256,192,9096,1,0,0:0:0:0:
256,192,9327,1,8,0:0:0:0:
256,192,9673,1,8,0:0:0:0:
256,192,10134,1,4,0:0:0:0:
256,192,10480,1,0,0:0:0:0:
256,192,10827,1,0,0:0:0:0:
256,192,11173,1,0,0:0:0:0:
256,192,11980,1,4,0:0:0:0:
256,192,12442,1,8,0:0:0:0:
256,192,12904,1,8,0:0:0:0:
256,192,13134,1,8,0:0:0:0:
256,192,13365,1,0,0:0:0:0:
256,192,13827,1,4,0:0:0:0:
256,192,14173,1,8,0:0:0:0:
256,192,14750,1,0,0:0:0:0:
256,192,15673,1,12,0:0:0:0:
256,192,16019,1,8,0:0:0:0:
256,192,16365,1,8,0:0:0:0:
256,192,16596,1,0,0:0:0:0:
256,192,16942,1,0,0:0:0:0:
256,192,17288,1,0,0:0:0:0:
256,192,17519,1,8,0:0:0:0:
256,192,17865,1,0,0:0:0:0:
256,192,18211,1,8,0:0:0:0:
256,192,18442,1,0,0:0:0:0:
256,192,19365,1,12,0:0:0:0:
256,192,19827,1,0,0:0:0:0:
256,192,20288,1,8,0:0:0:0:
256,192,20634,1,8,0:0:0:0:
256,192,21211,1,0,0:0:0:0:
256,192,21557,1,8,0:0:0:0:
256,192,21788,1,0,0:0:0:0:
256,192,22019,1,8,0:0:0:0:
256,192,22365,1,8,0:0:0:0:
256,192,22596,1,8,0:0:0:0:
256,192,22827,1,8,0:0:0:0:
256,192,23057,1,0,0:0:0:0:
256,192,23980,1,8,0:0:0:0:
256,192,24327,1,8,0:0:0:0:
256,192,24673,1,0,0:0:0:0:
256,192,24904,1,8,0:0:0:0:
256,192,25134,1,8,0:0:0:0:
256,192,25480,1,8,0:0:0:0:
256,192,25827,1,8,0:0:0:0:
256,192,26057,1,8,0:0:0:0:
256,192,26288,1,8,0:0:0:0:
256,192,26750,1,12,0:0:0:0:
256,192,27673,1,8,0:0:0:0:
256,192,28134,1,0,0:0:0:0:
256,192,28596,1,8,0:0:0:0:
256,192,28827,1,8,0:0:0:0:
256,192,29057,1,0,0:0:0:0:
256,192,29519,1,8,0:0:0:0:
256,192,29980,1,0,0:0:0:0:
256,192,30442,1,8,0:0:0:0:
256,192,30673,1,8,0:0:0:0:
256,192,30904,1,0,0:0:0:0:
256,192,31134,1,0,0:0:0:0:
256,192,31365,1,8,0:0:0:0:
256,192,31827,1,0,0:0:0:0:
256,192,32288,12,0,33673,0:0:0:0:
256,192,34134,5,12,0:0:0:0:
256,192,35057,1,4,0:0:0:0:
256,192,35404,1,12,0:0:0:0:
256,192,35980,1,4,0:0:0:0:
256,192,36904,1,12,0:0:0:0:
256,192,37250,1,12,0:0:0:0:
256,192,37827,1,4,0:0:0:0:
256,192,38750,1,12,0:0:0:0:
256,192,39096,1,12,0:0:0:0:
256,192,39673,1,0,0:0:0:0:
256,192,40134,1,8,0:0:0:0:
256,192,40596,1,0,0:0:0:0:
256,192,40827,1,0,0:0:0:0:
256,192,41057,1,8,0:0:0:0:
256,192,41288,1,0,0:0:0:0:
256,192,41519,1,12,0:0:0:0:
256,192,42442,1,12,0:0:0:0:
256,192,42788,1,4,0:0:0:0:
256,192,43365,1,12,0:0:0:0:
256,192,44288,1,12,0:0:0:0:
256,192,44634,1,12,0:0:0:0:
256,192,45211,1,4,0:0:0:0:
256,192,46134,1,4,0:0:0:0:
256,192,46480,1,12,0:0:0:0:
256,192,47057,1,8,0:0:0:0:
256,192,47519,1,0,0:0:0:0:
256,192,47980,1,8,0:0:0:0:
256,192,48211,1,0,0:0:0:0:
256,192,48442,1,0,0:0:0:0:
256,192,48904,1,0,0:0:0:0:
256,192,49365,1,8,0:0:0:0:
256,192,50288,1,8,0:0:0:0:
256,192,50519,1,0,0:0:0:0:
256,192,50750,1,0,0:0:0:0:
256,192,51211,1,8,0:0:0:0:
256,192,52134,1,8,0:0:0:0:
256,192,52596,1,0,0:0:0:0:
256,192,52827,1,0,0:0:0:0:
256,192,53057,1,8,0:0:0:0:
256,192,53519,1,8,0:0:0:0:
256,192,53750,1,0,0:0:0:0:
256,192,53980,1,8,0:0:0:0:
256,192,54442,1,8,0:0:0:0:
256,192,54673,1,8,0:0:0:0:
256,192,54904,1,8,0:0:0:0:
256,192,56288,1,12,0:0:0:0:
256,192,56750,1,0,0:0:0:0:
256,192,57211,1,8,0:0:0:0:
256,192,57442,1,8,0:0:0:0:
256,192,57673,1,8,0:0:0:0:
256,192,58134,1,0,0:0:0:0:
256,192,58596,1,0,0:0:0:0:
256,192,59057,1,8,0:0:0:0:
256,192,59288,1,0,0:0:0:0:
256,192,59519,1,8,0:0:0:0:
256,192,59980,1,0,0:0:0:0:
256,192,60442,1,0,0:0:0:0:
256,192,60904,1,8,0:0:0:0:
256,192,61134,1,0,0:0:0:0:
256,192,61365,1,8,0:0:0:0:
256,192,61827,1,8,0:0:0:0:
256,192,62173,1,8,0:0:0:0:
256,192,62519,1,8,0:0:0:0:
256,192,63673,1,12,0:0:0:0:
256,192,64134,1,8,0:0:0:0:
256,192,64365,1,8,0:0:0:0:
256,192,64596,1,0,0:0:0:0:
256,192,65057,1,0,0:0:0:0:
256,192,65288,1,8,0:0:0:0:
256,192,65519,1,0,0:0:0:0:
256,192,65980,1,8,0:0:0:0:
256,192,66211,1,8,0:0:0:0:
256,192,66442,1,0,0:0:0:0:
256,192,66904,1,8,0:0:0:0:
256,192,67365,1,4,0:0:0:0:
256,192,68288,1,12,0:0:0:0:
256,192,69211,1,0,0:0:0:0:
256,192,69442,1,0,0:0:0:0:
256,192,69673,1,8,0:0:0:0:
256,192,69904,1,8,0:0:0:0:
256,192,70134,1,8,0:0:0:0:
256,192,71057,1,12,0:0:0:0:
256,192,71519,1,0,0:0:0:0:
256,192,71980,1,8,0:0:0:0:
256,192,72211,1,8,0:0:0:0:
256,192,72442,1,0,0:0:0:0:
256,192,72904,1,8,0:0:0:0:
256,192,73134,1,0,0:0:0:0:
256,192,73480,1,0,0:0:0:0:
256,192,73827,1,8,0:0:0:0:
256,192,74057,1,8,0:0:0:0:
256,192,74288,1,8,0:0:0:0:
256,192,74750,1,0,0:0:0:0:
256,192,75211,1,8,0:0:0:0:
256,192,75673,1,0,0:0:0:0:
256,192,75904,1,0,0:0:0:0:
256,192,76134,1,8,0:0:0:0:
256,192,76596,1,8,0:0:0:0:
256,192,77057,1,0,0:0:0:0:
256,192,77288,1,0,0:0:0:0:
256,192,77519,1,8,0:0:0:0:
256,192,77980,1,0,0:0:0:0:
256,192,78673,1,12,0:0:0:0:
256,192,79134,1,8,0:0:0:0:
256,192,79365,1,0,0:0:0:0:
256,192,79596,1,8,0:0:0:0:
256,192,79827,1,8,0:0:0:0:
256,192,80288,1,0,0:0:0:0:
256,192,80519,1,8,0:0:0:0:
256,192,80750,1,0,0:0:0:0:
256,192,81211,1,8,0:0:0:0:
256,192,81442,1,8,0:0:0:0:
256,192,81673,1,0,0:0:0:0:
256,192,82134,1,8,0:0:0:0:
256,192,82596,1,0,0:0:0:0:
256,192,82827,1,0,0:0:0:0:
256,192,83057,1,8,0:0:0:0:
256,192,83519,1,8,0:0:0:0:
256,192,83750,1,0,0:0:0:0:
256,192,83980,1,8,0:0:0:0:
256,192,84327,1,8,0:0:0:0:
256,192,84673,1,8,0:0:0:0:
256,192,84904,1,0,0:0:0:0:
256,192,85827,1,0,0:0:0:0:
256,192,86288,1,8,0:0:0:0:
256,192,86980,1,0,0:0:0:0:
256,192,87211,1,8,0:0:0:0:
256,192,87904,1,0,0:0:0:0:
256,192,88134,1,8,0:0:0:0:
256,192,88827,1,8,0:0:0:0:
256,192,89519,1,0,0:0:0:0:
256,192,89980,1,8,0:0:0:0:
256,192,90673,1,0,0:0:0:0:
256,192,90904,1,8,0:0:0:0:
256,192,91596,1,0,0:0:0:0:
256,192,91827,1,8,0:0:0:0:
256,192,92519,1,8,0:0:0:0:
256,192,93211,1,0,0:0:0:0:
256,192,93442,1,0,0:0:0:0:
256,192,93673,1,8,0:0:0:0:
256,192,94365,1,0,0:0:0:0:
256,192,94596,1,8,0:0:0:0:
256,192,95057,1,0,0:0:0:0:
256,192,95288,1,0,0:0:0:0:
256,192,95519,1,8,0:0:0:0:
256,192,96211,1,0,0:0:0:0:
256,192,96442,1,8,0:0:0:0:
256,192,96904,1,8,0:0:0:0:
256,192,97134,1,0,0:0:0:0:
256,192,97365,1,8,0:0:0:0:
256,192,98057,1,8,0:0:0:0:
256,192,98288,1,8,0:0:0:0:
256,192,98750,1,8,0:0:0:0:
256,192,98980,1,0,0:0:0:0:
256,192,99211,1,8,0:0:0:0:
256,192,99904,1,8,0:0:0:0:
256,192,100134,1,8,0:0:0:0:
256,192,100596,1,0,0:0:0:0:
256,192,100827,1,8,0:0:0:0:
256,192,101057,1,0,0:0:0:0:
256,192,101519,1,8,0:0:0:0:
256,192,101750,1,0,0:0:0:0:
256,192,101980,1,8,0:0:0:0:
256,192,102442,1,0,0:0:0:0:
256,192,102673,1,0,0:0:0:0:
256,192,102904,1,8,0:0:0:0:
256,192,103365,1,8,0:0:0:0:
256,192,103596,1,0,0:0:0:0:
256,192,103827,1,8,0:0:0:0:
256,192,104288,1,8,0:0:0:0:
256,192,104519,1,8,0:0:0:0:
256,192,104750,1,0,0:0:0:0:
256,192,105442,1,0,0:0:0:0:
256,192,105673,1,8,0:0:0:0:
256,192,106134,1,0,0:0:0:0:
256,192,106365,1,0,0:0:0:0:
256,192,106596,1,8,0:0:0:0:
256,192,107057,1,8,0:0:0:0:
256,192,107288,1,0,0:0:0:0:
256,192,107519,1,8,0:0:0:0:
256,192,107980,1,0,0:0:0:0:
256,192,108211,1,0,0:0:0:0:
256,192,108442,1,0,0:0:0:0:
256,192,108673,1,0,0:0:0:0:
256,192,108904,12,0,109596,0:0:0:0:
256,192,109827,5,0,0:0:0:0:
256,192,110750,1,0,0:0:0:0:
256,192,111096,1,0,0:0:0:0:
256,192,111673,1,0,0:0:0:0:
256,192,112596,1,0,0:0:0:0:
256,192,112942,1,0,0:0:0:0:
256,192,113519,1,0,0:0:0:0:
256,192,114442,1,0,0:0:0:0:
256,192,114788,1,0,0:0:0:0:
256,192,115365,1,0,0:0:0:0:
256,192,115711,1,0,0:0:0:0:
256,192,116288,1,0,0:0:0:0:
256,192,116634,1,0,0:0:0:0:
256,192,117211,1,4,0:0:0:0:
256,192,118134,1,0,0:0:0:0:
256,192,118480,1,8,0:0:0:0:
256,192,119057,1,4,0:0:0:0:
256,192,119519,1,8,0:0:0:0:
256,192,119980,1,0,0:0:0:0:
256,192,120327,1,8,0:0:0:0:
256,192,120904,1,8,0:0:0:0:
256,192,121134,1,0,0:0:0:0:
256,192,121365,1,8,0:0:0:0:
256,192,121827,1,0,0:0:0:0:
256,192,122057,1,0,0:0:0:0:
256,192,122288,1,8,0:0:0:0:
256,192,122750,1,4,0:0:0:0:
256,192,123096,1,12,0:0:0:0:
256,192,123442,1,12,0:0:0:0:
256,192,124596,1,4,0:0:0:0:
256,192,125519,1,12,0:0:0:0:
256,192,125865,1,12,0:0:0:0:
256,192,126442,1,0,0:0:0:0:
256,192,126673,1,4,0:0:0:0:
256,192,127019,1,4,0:0:0:0:
256,192,127365,1,12,0:0:0:0:
256,192,127884,1,12,0:0:0:0:
256,192,128288,1,4,0:0:0:0:
256,192,129211,1,12,0:0:0:0:
256,192,129557,1,12,0:0:0:0:
256,192,130134,1,0,0:0:0:0:
256,192,130596,1,8,0:0:0:0:
256,192,131057,1,0,0:0:0:0:
256,192,131288,1,0,0:0:0:0:
256,192,131519,1,8,0:0:0:0:
256,192,131750,1,8,0:0:0:0:
256,192,131980,1,4,0:0:0:0:
256,192,132904,1,12,0:0:0:0:
256,192,133250,1,12,0:0:0:0:
256,192,133827,1,4,0:0:0:0:
256,192,134865,1,4,0:0:0:0:
256,192,135211,1,12,0:0:0:0:
256,192,135673,1,4,0:0:0:0:
256,192,136596,1,12,0:0:0:0:
256,192,136942,1,12,0:0:0:0:
256,192,137519,1,0,0:0:0:0:
256,192,137980,1,8,0:0:0:0:
256,192,138442,1,8,0:0:0:0:
256,192,138673,1,0,0:0:0:0:
256,192,138904,1,8,0:0:0:0:
256,192,139134,1,0,0:0:0:0:
256,192,139365,1,12,0:0:0:0:
256,192,140288,1,8,0:0:0:0:
256,192,140750,1,8,0:0:0:0:
256,192,140980,1,8,0:0:0:0:
256,192,141211,1,8,0:0:0:0:
256,192,142134,1,8,0:0:0:0:
256,192,142365,1,8,0:0:0:0:
256,192,142596,1,8,0:0:0:0:
256,192,143057,1,8,0:0:0:0:
256,192,143980,1,8,0:0:0:0:
256,192,144442,1,8,0:0:0:0:
256,192,144673,1,8,0:0:0:0:
256,192,144904,1,8,0:0:0:0:
256,192,145827,1,8,0:0:0:0:
256,192,146288,1,0,0:0:0:0:
256,192,146750,1,8,0:0:0:0:
256,192,146980,1,8,0:0:0:0:
256,192,147211,1,0,0:0:0:0:
256,192,147673,1,8,0:0:0:0:
256,192,147904,1,0,0:0:0:0:
256,192,148134,1,8,0:0:0:0:
256,192,148596,1,0,0:0:0:0:
256,192,148827,1,0,0:0:0:0:
256,192,149057,1,8,0:0:0:0:
256,192,149519,1,8,0:0:0:0:
256,192,150442,1,8,0:0:0:0:
256,192,150673,1,0,0:0:0:0:
256,192,150904,1,0,0:0:0:0:
256,192,151365,1,8,0:0:0:0:
256,192,151596,1,8,0:0:0:0:
256,192,151827,1,0,0:0:0:0:
256,192,152288,1,8,0:0:0:0:
256,192,152519,1,8,0:0:0:0:
256,192,152750,1,8,0:0:0:0:
256,192,152980,1,8,0:0:0:0:
256,192,153211,1,0,0:0:0:0:
256,192,154134,1,12,0:0:0:0:
256,192,154596,1,0,0:0:0:0:
256,192,154827,1,0,0:0:0:0:
256,192,155057,1,8,0:0:0:0:
256,192,155519,1,8,0:0:0:0:
256,192,155750,1,8,0:0:0:0:
256,192,155980,1,0,0:0:0:0:
256,192,156442,1,8,0:0:0:0:
256,192,156904,1,0,0:0:0:0:
256,192,157134,1,0,0:0:0:0:
256,192,157365,1,8,0:0:0:0:
256,192,157827,1,0,0:0:0:0:
256,192,158288,1,8,0:0:0:0:
256,192,158750,1,8,0:0:0:0:
256,192,158980,1,0,0:0:0:0:
256,192,159211,1,8,0:0:0:0:
256,192,159673,1,0,0:0:0:0:
256,192,160134,1,0,0:0:0:0:
256,192,160596,1,8,0:0:0:0:
256,192,161519,1,12,0:0:0:0:
256,192,161980,1,8,0:0:0:0:
256,192,162442,1,0,0:0:0:0:
256,192,162673,1,0,0:0:0:0:
256,192,162904,1,8,0:0:0:0:
256,192,163365,1,8,0:0:0:0:
256,192,163596,1,0,0:0:0:0:
256,192,163827,1,8,0:0:0:0:
256,192,164288,1,0,0:0:0:0:
256,192,165211,1,0,0:0:0:0:
256,192,165557,1,0,0:0:0:0:
256,192,166134,1,8,0:0:0:0:
256,192,166480,1,8,0:0:0:0:
256,192,167057,1,8,0:0:0:0:
256,192,167288,1,0,0:0:0:0:
256,192,167519,1,8,0:0:0:0:
256,192,167750,1,0,0:0:0:0:
256,192,167980,1,8,0:0:0:0:
256,192,168904,1,12,0:0:0:0:
256,192,169365,1,0,0:0:0:0:
256,192,169827,1,8,0:0:0:0:
256,192,170057,1,8,0:0:0:0:
256,192,170288,1,0,0:0:0:0:
256,192,170750,1,8,0:0:0:0:
256,192,171211,1,0,0:0:0:0:
256,192,171673,1,8,0:0:0:0:
256,192,171904,1,0,0:0:0:0:
256,192,172134,1,8,0:0:0:0:
256,192,172596,1,0,0:0:0:0:
256,192,173057,1,0,0:0:0:0:
256,192,173519,1,8,0:0:0:0:
256,192,173750,1,8,0:0:0:0:
256,192,173980,1,0,0:0:0:0:
256,192,174442,1,8,0:0:0:0:
256,192,174788,1,8,0:0:0:0:
256,192,175134,1,8,0:0:0:0:
256,192,175480,1,8,0:0:0:0:
256,192,176288,1,12,0:0:0:0:
256,192,176750,1,0,0:0:0:0:
256,192,177211,1,0,0:0:0:0:
256,192,177442,1,0,0:0:0:0:
256,192,177673,1,8,0:0:0:0:
256,192,178134,1,0,0:0:0:0:
256,192,178596,1,8,0:0:0:0:
256,192,179057,1,0,0:0:0:0:
256,192,179288,1,8,0:0:0:0:
256,192,179980,1,8,0:0:0:0:
256,192,180442,1,8,0:0:0:0:
256,192,180673,1,0,0:0:0:0:
256,192,180904,1,8,0:0:0:0:
256,192,181365,1,0,0:0:0:0:
256,192,181596,1,0,0:0:0:0:
256,192,181827,1,8,0:0:0:0:
256,192,182173,1,8,0:0:0:0:
256,192,182519,1,8,0:0:0:0:
256,192,182750,1,0,0:0:0:0:
256,192,182980,1,0,0:0:0:0:
256,192,183211,1,8,0:0:0:0:
256,192,183673,1,4,0:0:0:0:
