osu file format v14

[General]
AudioFilename: Moment.mp3
AudioLeadIn: 0
PreviewTime: 56053
Countdown: 0
SampleSet: Normal
StackLeniency: 0.7
Mode: 1
LetterboxInBreaks: 0
WidescreenStoryboard: 1

[Editor]
Bookmarks: 4599,19368,34137,48907,56291,71060,85830,93214,109830,124599,139368,154137,168907,183676
DistanceSpacing: 1.5
BeatDivisor: 3
GridSize: 32
TimelineZoom: 3.250001

[Metadata]
Title:Moment
TitleUnicode:Moment
Artist:Tartarate
ArtistUnicode:Tartarate
Creator:Capu
Version:Inner Oni
Source:
Tags:lolicore japanese instrumental electronic j-core jcore breakcore vivien Camellia feat. featuring Nanahira We Love Hardcore かめりあ feat. ななひら ウィー・ラヴ・ハードコア
BeatmapID:4309813
BeatmapSetID:2060652

[Difficulty]
HPDrainRate:6
CircleSize:2
OverallDifficulty:7
ApproachRate:10
SliderMultiplier:1.4
SliderTickRate:1

[Events]
//Background and Video events
0,0,"764891264.jpg",0,0
//Break Periods
//Storyboard Layer 0 (Background)
//Storyboard Layer 1 (Fail)
//Storyboard Layer 2 (Pass)
//Storyboard Layer 3 (Foreground)
//Storyboard Layer 4 (Overlay)
//Storyboard Sound Samples

[TimingPoints]
904,230.769230769231,4,1,0,80,1,0
56288,-100,4,1,0,100,0,1
70596,-100,4,1,0,100,0,0
71057,-100,4,1,0,100,0,1
78442,-100,4,1,0,100,0,0
78673,-100,4,1,0,100,0,1
81904,-100,4,1,0,100,0,0
82134,-100,4,1,0,100,0,1
85769,-100,4,1,0,20,0,1
85827,-100,4,1,0,20,0,0
90442,-100,4,1,0,40,0,0
91365,-100,4,1,0,55,0,0
92288,-100,4,1,0,65,0,0
124538,-100,4,1,0,90,0,0
154134,-100,4,1,0,100,0,1
165211,-100,4,1,0,100,0,0
168904,-100,4,1,0,100,0,1
183673,-100,4,1,0,90,0,0

[HitObjects]
256,192,4596,5,4,0:0:0:0:
256,192,4827,1,8,0:0:0:0:
256,192,5057,1,0,0:0:0:0:
256,192,5173,1,0,0:0:0:0:
256,192,5288,1,8,0:0:0:0:
256,192,5404,1,0,0:0:0:0:
256,192,5519,1,8,0:0:0:0:
256,192,5634,1,8,0:0:0:0:
256,192,5750,1,8,0:0:0:0:
256,192,5865,1,8,0:0:0:0:
256,192,5980,1,0,0:0:0:0:
256,192,6154,1,0,0:0:0:0:
256,192,6327,1,0,0:0:0:0:
256,192,6442,1,8,0:0:0:0:
256,192,6557,1,0,0:0:0:0:
256,192,6788,1,8,0:0:0:0:
256,192,8288,1,8,0:0:0:0:
256,192,8404,1,0,0:0:0:0:
256,192,8519,1,8,0:0:0:0:
256,192,8634,1,8,0:0:0:0:
256,192,8750,1,0,0:0:0:0:
256,192,8923,1,0,0:0:0:0:
256,192,9096,1,0,0:0:0:0:
256,192,9327,1,8,0:0:0:0:
256,192,9557,1,0,0:0:0:0:
256,192,9673,1,8,0:0:0:0:
256,192,9788,1,8,0:0:0:0:
256,192,9904,1,8,0:0:0:0:
256,192,10019,1,8,0:0:0:0:
256,192,10134,1,4,0:0:0:0:
256,192,10250,1,0,0:0:0:0:
256,192,10480,1,0,0:0:0:0:
256,192,10596,1,0,0:0:0:0:
256,192,10827,1,0,0:0:0:0:
256,192,10942,1,0,0:0:0:0:
256,192,11173,1,0,0:0:0:0:
256,192,11288,1,0,0:0:0:0:
256,192,11519,1,8,0:0:0:0:
256,192,11750,1,8,0:0:0:0:
256,192,11865,1,8,0:0:0:0:
256,192,11980,1,4,0:0:0:0:
256,192,12211,1,8,0:0:0:0:
256,192,12442,1,0,0:0:0:0:
256,192,12557,1,0,0:0:0:0:
256,192,12673,1,8,0:0:0:0:
256,192,12788,1,0,0:0:0:0:
256,192,12904,1,8,0:0:0:0:
256,192,13019,1,8,0:0:0:0:
256,192,13134,1,8,0:0:0:0:
256,192,13250,1,8,0:0:0:0:
256,192,13365,1,0,0:0:0:0:
256,192,13538,1,0,0:0:0:0:
256,192,13711,1,0,0:0:0:0:
256,192,13827,1,12,0:0:0:0:
256,192,13942,1,0,0:0:0:0:
256,192,14173,1,8,0:0:0:0:
256,192,14288,1,0,0:0:0:0:
256,192,14404,1,8,0:0:0:0:
256,192,14519,1,8,0:0:0:0:
256,192,14634,1,0,0:0:0:0:
256,192,14750,1,8,0:0:0:0:
256,192,15673,1,12,0:0:0:0:
256,192,15846,1,8,0:0:0:0:
256,192,16019,1,8,0:0:0:0:
256,192,16192,1,8,0:0:0:0:
256,192,16365,1,8,0:0:0:0:
256,192,16596,1,0,0:0:0:0:
256,192,16769,1,0,0:0:0:0:
256,192,16942,1,0,0:0:0:0:
256,192,17115,1,0,0:0:0:0:
256,192,17288,1,0,0:0:0:0:
256,192,17519,1,12,0:0:0:0:
256,192,17692,1,0,0:0:0:0:
256,192,17865,1,8,0:0:0:0:
256,192,18038,1,0,0:0:0:0:
256,192,18211,1,8,0:0:0:0:
256,192,18442,1,0,0:0:0:0:
256,192,18615,1,0,0:0:0:0:
256,192,18788,1,0,0:0:0:0:
256,192,18961,1,0,0:0:0:0:
256,192,19134,1,0,0:0:0:0:
256,192,19365,1,4,0:0:0:0:
256,192,19596,1,8,0:0:0:0:
256,192,19711,1,0,0:0:0:0:
256,192,19827,1,0,0:0:0:0:
256,192,19942,1,8,0:0:0:0:
256,192,20173,1,0,0:0:0:0:
256,192,20288,1,8,0:0:0:0:
256,192,20519,1,8,0:0:0:0:
256,192,20634,1,0,0:0:0:0:
256,192,20865,1,0,0:0:0:0:
256,192,20980,1,8,0:0:0:0:
256,192,21096,1,8,0:0:0:0:
256,192,21211,1,4,0:0:0:0:
256,192,21327,1,0,0:0:0:0:
256,192,21442,1,0,0:0:0:0:
256,192,21557,1,8,0:0:0:0:
256,192,21788,1,8,0:0:0:0:
256,192,21904,1,0,0:0:0:0:
256,192,22019,1,8,0:0:0:0:
256,192,22250,1,0,0:0:0:0:
256,192,22365,1,8,0:0:0:0:
256,192,22596,1,8,0:0:0:0:
256,192,22827,1,8,0:0:0:0:
256,192,23057,1,4,0:0:0:0:
256,192,23288,1,0,0:0:0:0:
256,192,23519,1,8,0:0:0:0:
256,192,23596,1,0,0:0:0:0:
256,192,23673,1,0,0:0:0:0:
256,192,23750,1,8,0:0:0:0:
256,192,23904,1,8,0:0:0:0:
256,192,23980,1,0,0:0:0:0:
256,192,24096,1,0,0:0:0:0:
256,192,24211,1,0,0:0:0:0:
256,192,24327,1,8,0:0:0:0:
256,192,24557,1,0,0:0:0:0:
256,192,24673,1,8,0:0:0:0:
256,192,24904,1,8,0:0:0:0:
256,192,25134,1,8,0:0:0:0:
256,192,25250,1,0,0:0:0:0:
256,192,25480,1,8,0:0:0:0:
256,192,25596,1,0,0:0:0:0:
256,192,25827,1,8,0:0:0:0:
256,192,26057,1,8,0:0:0:0:
256,192,26173,1,0,0:0:0:0:
256,192,26288,1,8,0:0:0:0:
256,192,26461,1,8,0:0:0:0:
256,192,26634,1,8,0:0:0:0:
256,192,26750,1,4,0:0:0:0:
256,192,26980,1,0,0:0:0:0:
256,192,27211,1,8,0:0:0:0:
256,192,27442,1,0,0:0:0:0:
256,192,27673,1,8,0:0:0:0:
256,192,27788,1,8,0:0:0:0:
256,192,27904,1,0,0:0:0:0:
256,192,28019,1,8,0:0:0:0:
256,192,28134,1,0,0:0:0:0:
256,192,28365,1,8,0:0:0:0:
256,192,28596,1,8,0:0:0:0:
256,192,28711,1,8,0:0:0:0:
256,192,28827,1,0,0:0:0:0:
256,192,29057,1,0,0:0:0:0:
256,192,29173,1,8,0:0:0:0:
256,192,29288,1,0,0:0:0:0:
256,192,29519,1,8,0:0:0:0:
256,192,29634,1,0,0:0:0:0:
256,192,29750,1,8,0:0:0:0:
256,192,29980,1,0,0:0:0:0:
256,192,30211,1,8,0:0:0:0:
256,192,30327,1,0,0:0:0:0:
256,192,30442,1,8,0:0:0:0:
256,192,30557,1,8,0:0:0:0:
256,192,30673,1,0,0:0:0:0:
256,192,30788,1,0,0:0:0:0:
256,192,30904,1,8,0:0:0:0:
256,192,30961,1,8,0:0:0:0:
256,192,31019,1,0,0:0:0:0:
256,192,31134,1,8,0:0:0:0:
256,192,31365,1,8,0:0:0:0:
256,192,31480,1,8,0:0:0:0:
256,192,31596,1,0,0:0:0:0:
256,192,31711,1,8,0:0:0:0:
256,192,31769,1,8,0:0:0:0:
256,192,31827,1,0,0:0:0:0:
256,192,31884,1,0,0:0:0:0:
256,192,31942,1,8,0:0:0:0:
256,192,32057,1,8,0:0:0:0:
256,192,32173,1,0,0:0:0:0:
256,192,32230,1,0,0:0:0:0:
256,192,32288,1,8,0:0:0:0:
256,192,32404,12,0,33904,0:0:0:0:
256,192,34134,5,4,0:0:0:0:
256,192,34480,1,8,0:0:0:0:
256,192,34596,1,8,0:0:0:0:
256,192,34711,1,0,0:0:0:0:
256,192,34827,1,8,0:0:0:0:
256,192,34942,1,0,0:0:0:0:
256,192,35057,1,12,0:0:0:0:
256,192,35404,1,12,0:0:0:0:
256,192,35980,1,4,0:0:0:0:
256,192,36442,1,0,0:0:0:0:
256,192,36557,1,8,0:0:0:0:
256,192,36904,1,12,0:0:0:0:
256,192,37250,1,12,0:0:0:0:
256,192,37827,1,4,0:0:0:0:
256,192,38288,1,8,0:0:0:0:
256,192,38404,1,8,0:0:0:0:
256,192,38519,1,0,0:0:0:0:
256,192,38634,1,8,0:0:0:0:
256,192,38750,1,4,0:0:0:0:
256,192,39096,1,12,0:0:0:0:
256,192,39673,1,12,0:0:0:0:
256,192,39904,1,0,0:0:0:0:
256,192,40134,1,8,0:0:0:0:
256,192,40365,1,0,0:0:0:0:
256,192,40480,1,0,0:0:0:0:
256,192,40596,1,8,0:0:0:0:
256,192,40711,1,0,0:0:0:0:
256,192,40827,1,8,0:0:0:0:
256,192,40942,1,8,0:0:0:0:
256,192,41057,1,0,0:0:0:0:
256,192,41115,1,0,0:0:0:0:
256,192,41173,1,0,0:0:0:0:
256,192,41230,1,0,0:0:0:0:
256,192,41288,1,8,0:0:0:0:
256,192,41519,1,4,0:0:0:0:
256,192,41865,1,8,0:0:0:0:
256,192,41980,1,0,0:0:0:0:
256,192,42096,1,0,0:0:0:0:
256,192,42211,1,8,0:0:0:0:
256,192,42442,1,12,0:0:0:0:
256,192,42788,1,12,0:0:0:0:
256,192,43365,1,4,0:0:0:0:
256,192,43942,1,8,0:0:0:0:
256,192,44057,1,8,0:0:0:0:
256,192,44173,1,8,0:0:0:0:
256,192,44288,1,4,0:0:0:0:
256,192,44634,1,12,0:0:0:0:
256,192,45211,1,12,0:0:0:0:
256,192,45557,1,0,0:0:0:0:
256,192,45673,1,8,0:0:0:0:
256,192,45730,1,8,0:0:0:0:
256,192,45788,1,8,0:0:0:0:
256,192,45904,1,0,0:0:0:0:
256,192,46134,1,12,0:0:0:0:
256,192,46480,1,12,0:0:0:0:
256,192,47057,1,4,0:0:0:0:
256,192,47288,1,8,0:0:0:0:
256,192,47519,1,0,0:0:0:0:
256,192,47634,1,8,0:0:0:0:
256,192,47750,1,0,0:0:0:0:
256,192,47865,1,0,0:0:0:0:
256,192,47980,1,8,0:0:0:0:
256,192,48038,1,8,0:0:0:0:
256,192,48096,1,8,0:0:0:0:
256,192,48211,1,0,0:0:0:0:
256,192,48327,1,0,0:0:0:0:
256,192,48442,1,8,0:0:0:0:
256,192,48615,1,8,0:0:0:0:
256,192,48788,1,8,0:0:0:0:
256,192,48904,1,0,0:0:0:0:
256,192,49365,1,8,0:0:0:0:
256,192,49596,1,0,0:0:0:0:
256,192,49827,1,8,0:0:0:0:
256,192,49942,1,0,0:0:0:0:
256,192,50057,1,8,0:0:0:0:
256,192,50288,1,8,0:0:0:0:
256,192,50404,1,8,0:0:0:0:
256,192,50519,1,0,0:0:0:0:
256,192,50750,1,8,0:0:0:0:
256,192,50865,1,0,0:0:0:0:
256,192,50980,1,8,0:0:0:0:
256,192,51211,1,8,0:0:0:0:
256,192,51327,1,8,0:0:0:0:
256,192,51442,1,8,0:0:0:0:
256,192,51673,1,0,0:0:0:0:
256,192,51788,1,8,0:0:0:0:
256,192,51904,1,0,0:0:0:0:
256,192,52019,1,0,0:0:0:0:
256,192,52134,1,8,0:0:0:0:
256,192,52250,1,0,0:0:0:0:
256,192,52365,1,12,0:0:0:0:
256,192,52596,1,0,0:0:0:0:
256,192,52711,1,0,0:0:0:0:
256,192,52827,1,8,0:0:0:0:
256,192,52942,1,0,0:0:0:0:
256,192,53000,1,0,0:0:0:0:
256,192,53057,1,8,0:0:0:0:
256,192,53173,1,8,0:0:0:0:
256,192,53288,1,0,0:0:0:0:
256,192,53404,1,8,0:0:0:0:
256,192,53519,1,8,0:0:0:0:
256,192,53634,1,0,0:0:0:0:
256,192,53750,1,8,0:0:0:0:
256,192,53865,1,0,0:0:0:0:
256,192,53923,1,0,0:0:0:0:
256,192,53980,1,8,0:0:0:0:
256,192,54096,1,0,0:0:0:0:
256,192,54211,1,0,0:0:0:0:
256,192,54442,1,8,0:0:0:0:
256,192,54557,1,0,0:0:0:0:
256,192,54673,1,8,0:0:0:0:
256,192,54788,1,0,0:0:0:0:
256,192,54904,1,8,0:0:0:0:
256,192,55019,12,8,55365,0:0:0:0:
256,192,56288,5,12,0:0:0:0:
256,192,56404,1,0,0:0:0:0:
256,192,56461,1,0,0:0:0:0:
256,192,56519,1,8,0:0:0:0:
256,192,56634,1,0,0:0:0:0:
256,192,56750,1,0,0:0:0:0:
256,192,56865,1,8,0:0:0:0:
256,192,56980,1,0,0:0:0:0:
256,192,57038,1,0,0:0:0:0:
256,192,57096,1,8,0:0:0:0:
256,192,57154,1,8,0:0:0:0:
256,192,57211,1,0,0:0:0:0:
256,192,57327,1,8,0:0:0:0:
256,192,57384,1,0,0:0:0:0:
256,192,57442,1,8,0:0:0:0:
256,192,57557,1,0,0:0:0:0:
256,192,57673,1,8,0:0:0:0:
256,192,57788,1,8,0:0:0:0:
256,192,57904,1,0,0:0:0:0:
256,192,58019,1,0,0:0:0:0:
256,192,58134,1,8,0:0:0:0:
256,192,58250,1,0,0:0:0:0:
256,192,58307,1,0,0:0:0:0:
256,192,58365,1,8,0:0:0:0:
256,192,58480,1,0,0:0:0:0:
256,192,58596,1,8,0:0:0:0:
256,192,58769,1,8,0:0:0:0:
256,192,58827,1,0,0:0:0:0:
256,192,59057,1,8,0:0:0:0:
256,192,59173,1,0,0:0:0:0:
256,192,59288,1,8,0:0:0:0:
256,192,59404,1,0,0:0:0:0:
256,192,59461,1,0,0:0:0:0:
256,192,59519,1,8,0:0:0:0:
256,192,59634,1,8,0:0:0:0:
256,192,59750,1,0,0:0:0:0:
256,192,59980,1,12,0:0:0:0:
256,192,60096,1,0,0:0:0:0:
256,192,60154,1,0,0:0:0:0:
256,192,60211,1,8,0:0:0:0:
256,192,60327,1,8,0:0:0:0:
256,192,60384,1,8,0:0:0:0:
256,192,60442,1,0,0:0:0:0:
256,192,60557,1,8,0:0:0:0:
256,192,60673,1,0,0:0:0:0:
256,192,60730,1,0,0:0:0:0:
256,192,60788,1,0,0:0:0:0:
256,192,60846,1,0,0:0:0:0:
256,192,60904,1,8,0:0:0:0:
256,192,61019,1,0,0:0:0:0:
256,192,61134,1,8,0:0:0:0:
256,192,61250,1,0,0:0:0:0:
256,192,61365,1,8,0:0:0:0:
256,192,61480,1,8,0:0:0:0:
256,192,61596,1,0,0:0:0:0:
256,192,61654,1,8,0:0:0:0:
256,192,61711,1,0,0:0:0:0:
256,192,61769,1,0,0:0:0:0:
256,192,61827,1,8,0:0:0:0:
256,192,61942,1,0,0:0:0:0:
256,192,62057,1,8,0:0:0:0:
256,192,62173,1,0,0:0:0:0:
256,192,62230,1,0,0:0:0:0:
256,192,62288,1,0,0:0:0:0:
256,192,62404,1,8,0:0:0:0:
256,192,62519,1,8,0:0:0:0:
256,192,62577,1,8,0:0:0:0:
256,192,62634,1,0,0:0:0:0:
256,192,62692,1,0,0:0:0:0:
256,192,62750,1,8,0:0:0:0:
256,192,62865,1,0,0:0:0:0:
256,192,62923,1,0,0:0:0:0:
256,192,62980,1,0,0:0:0:0:
256,192,63096,1,8,0:0:0:0:
256,192,63211,1,0,0:0:0:0:
256,192,63442,1,0,0:0:0:0:
256,192,63557,1,0,0:0:0:0:
256,192,63673,1,12,0:0:0:0:
256,192,63904,1,8,0:0:0:0:
256,192,64019,1,8,0:0:0:0:
256,192,64077,1,8,0:0:0:0:
256,192,64134,1,0,0:0:0:0:
256,192,64192,1,0,0:0:0:0:
256,192,64250,1,8,0:0:0:0:
256,192,64365,1,0,0:0:0:0:
256,192,64480,1,0,0:0:0:0:
256,192,64596,1,8,0:0:0:0:
256,192,64711,1,0,0:0:0:0:
256,192,64827,1,8,0:0:0:0:
256,192,64942,1,8,0:0:0:0:
256,192,65000,1,0,0:0:0:0:
256,192,65057,1,8,0:0:0:0:
256,192,65115,1,8,0:0:0:0:
256,192,65173,1,0,0:0:0:0:
256,192,65288,1,8,0:0:0:0:
256,192,65346,1,0,0:0:0:0:
256,192,65404,1,0,0:0:0:0:
256,192,65461,1,0,0:0:0:0:
256,192,65519,1,8,0:0:0:0:
256,192,65634,1,0,0:0:0:0:
256,192,65750,1,8,0:0:0:0:
256,192,65865,1,0,0:0:0:0:
256,192,65980,1,0,0:0:0:0:
256,192,66096,1,8,0:0:0:0:
256,192,66211,1,8,0:0:0:0:
256,192,66327,1,0,0:0:0:0:
256,192,66442,1,8,0:0:0:0:
256,192,66557,1,0,0:0:0:0:
256,192,66615,1,0,0:0:0:0:
256,192,66673,1,0,0:0:0:0:
256,192,66788,1,8,0:0:0:0:
256,192,66846,1,8,0:0:0:0:
256,192,66904,1,0,0:0:0:0:
256,192,67019,1,0,0:0:0:0:
256,192,67134,1,8,0:0:0:0:
256,192,67365,1,4,0:0:0:0:
256,192,67596,1,8,0:0:0:0:
256,192,67654,1,8,0:0:0:0:
256,192,67711,1,0,0:0:0:0:
256,192,67769,1,0,0:0:0:0:
256,192,67827,1,8,0:0:0:0:
256,192,67942,1,0,0:0:0:0:
256,192,68057,1,8,0:0:0:0:
256,192,68115,1,0,0:0:0:0:
256,192,68173,1,8,0:0:0:0:
256,192,68288,1,4,0:0:0:0:
256,192,68519,1,8,0:0:0:0:
256,192,68577,1,8,0:0:0:0:
256,192,68634,1,8,0:0:0:0:
256,192,68692,1,8,0:0:0:0:
256,192,68750,1,0,0:0:0:0:
256,192,68865,1,0,0:0:0:0:
256,192,68980,1,8,0:0:0:0:
256,192,69038,1,0,0:0:0:0:
256,192,69096,1,8,0:0:0:0:
256,192,69211,1,0,0:0:0:0:
256,192,69327,1,0,0:0:0:0:
256,192,69442,1,8,0:0:0:0:
256,192,69557,1,0,0:0:0:0:
256,192,69673,1,8,0:0:0:0:
256,192,69788,1,0,0:0:0:0:
256,192,69904,1,8,0:0:0:0:
256,192,69961,1,0,0:0:0:0:
256,192,70019,1,0,0:0:0:0:
256,192,70077,1,0,0:0:0:0:
256,192,70134,1,8,0:0:0:0:
256,192,70250,1,8,0:0:0:0:
256,192,70307,1,8,0:0:0:0:
256,192,70365,1,0,0:0:0:0:
256,192,70480,1,8,0:0:0:0:
256,192,70827,1,8,0:0:0:0:
256,192,71057,1,4,0:0:0:0:
256,192,71288,1,8,0:0:0:0:
256,192,71404,1,0,0:0:0:0:
256,192,71461,1,0,0:0:0:0:
256,192,71519,1,0,0:0:0:0:
256,192,71634,1,8,0:0:0:0:
256,192,71750,1,0,0:0:0:0:
256,192,71865,1,0,0:0:0:0:
256,192,71980,1,8,0:0:0:0:
256,192,72096,1,0,0:0:0:0:
256,192,72154,1,0,0:0:0:0:
256,192,72211,1,8,0:0:0:0:
256,192,72327,1,8,0:0:0:0:
256,192,72442,1,0,0:0:0:0:
256,192,72557,1,8,0:0:0:0:
256,192,72615,1,0,0:0:0:0:
256,192,72673,1,8,0:0:0:0:
256,192,72788,1,8,0:0:0:0:
256,192,72904,1,0,0:0:0:0:
256,192,73019,1,0,0:0:0:0:
256,192,73077,1,0,0:0:0:0:
256,192,73134,1,8,0:0:0:0:
256,192,73250,1,0,0:0:0:0:
256,192,73307,1,0,0:0:0:0:
256,192,73365,1,0,0:0:0:0:
256,192,73480,1,8,0:0:0:0:
256,192,73596,1,0,0:0:0:0:
256,192,73711,1,8,0:0:0:0:
256,192,73827,1,0,0:0:0:0:
256,192,73942,1,0,0:0:0:0:
256,192,74057,1,8,0:0:0:0:
256,192,74173,1,0,0:0:0:0:
256,192,74230,1,0,0:0:0:0:
256,192,74288,1,8,0:0:0:0:
256,192,74346,1,8,0:0:0:0:
256,192,74404,1,0,0:0:0:0:
256,192,74519,1,8,0:0:0:0:
256,192,74750,1,0,0:0:0:0:
256,192,74865,1,0,0:0:0:0:
256,192,74923,1,0,0:0:0:0:
256,192,74980,1,8,0:0:0:0:
256,192,75096,1,0,0:0:0:0:
256,192,75211,1,0,0:0:0:0:
256,192,75269,1,0,0:0:0:0:
256,192,75327,1,8,0:0:0:0:
256,192,75442,1,8,0:0:0:0:
256,192,75500,1,8,0:0:0:0:
256,192,75557,1,8,0:0:0:0:
256,192,75673,1,0,0:0:0:0:
256,192,75788,1,8,0:0:0:0:
256,192,75846,1,0,0:0:0:0:
256,192,75904,1,8,0:0:0:0:
256,192,76019,1,0,0:0:0:0:
256,192,76134,1,8,0:0:0:0:
256,192,76192,1,8,0:0:0:0:
256,192,76250,1,0,0:0:0:0:
256,192,76307,1,0,0:0:0:0:
256,192,76365,1,8,0:0:0:0:
256,192,76596,1,0,0:0:0:0:
256,192,76673,1,0,0:0:0:0:
256,192,76750,1,0,0:0:0:0:
256,192,76827,1,8,0:0:0:0:
256,192,76942,1,0,0:0:0:0:
256,192,77057,1,12,0:0:0:0:
256,192,77288,1,8,0:0:0:0:
256,192,77345,1,0,0:0:0:0:
256,192,77403,1,0,0:0:0:0:
256,192,77461,1,0,0:0:0:0:
256,192,77518,1,8,0:0:0:0:
256,192,77634,1,0,0:0:0:0:
256,192,77749,1,8,0:0:0:0:
256,192,77865,1,8,0:0:0:0:
256,192,77922,1,0,0:0:0:0:
256,192,77980,1,8,0:0:0:0:
256,192,78211,1,0,0:0:0:0:
256,192,78442,1,0,0:0:0:0:
256,192,78557,1,0,0:0:0:0:
256,192,78615,1,0,0:0:0:0:
256,192,78673,1,8,0:0:0:0:
256,192,78788,1,0,0:0:0:0:
256,192,78904,1,0,0:0:0:0:
256,192,79019,1,8,0:0:0:0:
256,192,79134,1,8,0:0:0:0:
256,192,79192,1,8,0:0:0:0:
256,192,79250,1,0,0:0:0:0:
256,192,79307,1,0,0:0:0:0:
256,192,79365,1,8,0:0:0:0:
256,192,79480,1,0,0:0:0:0:
256,192,79596,1,8,0:0:0:0:
256,192,79711,1,0,0:0:0:0:
256,192,79827,1,8,0:0:0:0:
256,192,79942,1,8,0:0:0:0:
256,192,80057,1,0,0:0:0:0:
256,192,80173,1,0,0:0:0:0:
256,192,80288,1,8,0:0:0:0:
256,192,80346,1,0,0:0:0:0:
256,192,80404,1,0,0:0:0:0:
256,192,80461,1,0,0:0:0:0:
256,192,80519,1,8,0:0:0:0:
256,192,80634,1,0,0:0:0:0:
256,192,80750,1,8,0:0:0:0:
256,192,80980,1,8,0:0:0:0:
256,192,81096,1,8,0:0:0:0:
256,192,81211,1,0,0:0:0:0:
256,192,81327,1,0,0:0:0:0:
256,192,81442,1,8,0:0:0:0:
256,192,81557,1,0,0:0:0:0:
256,192,81673,1,8,0:0:0:0:
256,192,81788,1,8,0:0:0:0:
256,192,81904,1,0,0:0:0:0:
256,192,82134,1,12,0:0:0:0:
256,192,82365,1,8,0:0:0:0:
256,192,82480,1,0,0:0:0:0:
256,192,82596,1,8,0:0:0:0:
256,192,82654,1,8,0:0:0:0:
256,192,82711,1,0,0:0:0:0:
256,192,82827,1,8,0:0:0:0:
256,192,82884,1,0,0:0:0:0:
256,192,82942,1,8,0:0:0:0:
256,192,83000,1,8,0:0:0:0:
256,192,83057,1,0,0:0:0:0:
256,192,83173,1,0,0:0:0:0:
256,192,83288,1,8,0:0:0:0:
256,192,83404,1,0,0:0:0:0:
256,192,83519,1,8,0:0:0:0:
256,192,83634,1,0,0:0:0:0:
256,192,83692,1,0,0:0:0:0:
256,192,83750,1,8,0:0:0:0:
256,192,83865,1,0,0:0:0:0:
256,192,83980,1,8,0:0:0:0:
256,192,84038,1,8,0:0:0:0:
256,192,84096,1,0,0:0:0:0:
256,192,84211,1,0,0:0:0:0:
256,192,84327,1,8,0:0:0:0:
256,192,84384,1,8,0:0:0:0:
256,192,84442,1,0,0:0:0:0:
256,192,84557,1,0,0:0:0:0:
256,192,84673,1,8,0:0:0:0:
256,192,84730,1,8,0:0:0:0:
256,192,84788,1,0,0:0:0:0:
256,192,84846,1,0,0:0:0:0:
256,192,84904,1,8,0:0:0:0:
256,192,85134,1,8,0:0:0:0:
256,192,85250,1,0,0:0:0:0:
256,192,85365,1,8,0:0:0:0:
256,192,85480,1,8,0:0:0:0:
256,192,85596,1,8,0:0:0:0:
256,192,85827,1,0,0:0:0:0:
256,192,86057,1,0,0:0:0:0:
256,192,86288,1,8,0:0:0:0:
256,192,86980,1,0,0:0:0:0:
256,192,87211,1,8,0:0:0:0:
256,192,87904,1,0,0:0:0:0:
256,192,88134,1,8,0:0:0:0:
256,192,88827,1,8,0:0:0:0:
256,192,89519,1,0,0:0:0:0:
256,192,89750,1,0,0:0:0:0:
256,192,89980,1,8,0:0:0:0:
256,192,90673,1,0,0:0:0:0:
256,192,90904,1,8,0:0:0:0:
256,192,91596,1,0,0:0:0:0:
256,192,91827,1,8,0:0:0:0:
256,192,92519,1,8,0:0:0:0:
256,192,93211,1,0,0:0:0:0:
256,192,93442,1,0,0:0:0:0:
256,192,93673,1,8,0:0:0:0:
256,192,94019,1,8,0:0:0:0:
256,192,94250,1,8,0:0:0:0:
256,192,94365,1,0,0:0:0:0:
256,192,94480,1,0,0:0:0:0:
256,192,94596,1,8,0:0:0:0:
256,192,94827,1,0,0:0:0:0:
256,192,94942,1,8,0:0:0:0:
256,192,95057,1,0,0:0:0:0:
256,192,95288,1,0,0:0:0:0:
256,192,95519,1,8,0:0:0:0:
256,192,95750,1,0,0:0:0:0:
256,192,95865,1,8,0:0:0:0:
256,192,95980,1,0,0:0:0:0:
256,192,96096,1,8,0:0:0:0:
256,192,96211,1,0,0:0:0:0:
256,192,96442,1,8,0:0:0:0:
256,192,96904,1,0,0:0:0:0:
256,192,97134,1,0,0:0:0:0:
256,192,97365,1,8,0:0:0:0:
256,192,97596,1,8,0:0:0:0:
256,192,97711,1,0,0:0:0:0:
256,192,97942,1,8,0:0:0:0:
256,192,98057,1,0,0:0:0:0:
256,192,98173,1,0,0:0:0:0:
256,192,98288,1,8,0:0:0:0:
256,192,98519,1,0,0:0:0:0:
256,192,98634,1,8,0:0:0:0:
256,192,98750,1,0,0:0:0:0:
256,192,98980,1,0,0:0:0:0:
256,192,99211,1,8,0:0:0:0:
256,192,99442,1,0,0:0:0:0:
256,192,99557,1,8,0:0:0:0:
256,192,99673,1,0,0:0:0:0:
256,192,99788,1,8,0:0:0:0:
256,192,99904,1,8,0:0:0:0:
256,192,100019,1,0,0:0:0:0:
256,192,100134,1,8,0:0:0:0:
256,192,100365,1,8,0:0:0:0:
256,192,100480,1,8,0:0:0:0:
256,192,100596,1,0,0:0:0:0:
256,192,100827,1,0,0:0:0:0:
256,192,100942,1,0,0:0:0:0:
256,192,101057,1,8,0:0:0:0:
256,192,101288,1,8,0:0:0:0:
256,192,101404,1,0,0:0:0:0:
256,192,101519,1,8,0:0:0:0:
256,192,101634,1,8,0:0:0:0:
256,192,101750,1,8,0:0:0:0:
256,192,101865,1,8,0:0:0:0:
256,192,102096,1,8,0:0:0:0:
256,192,102211,1,0,0:0:0:0:
256,192,102442,1,8,0:0:0:0:
256,192,102557,1,0,0:0:0:0:
256,192,102673,1,0,0:0:0:0:
256,192,102788,1,8,0:0:0:0:
256,192,103019,1,8,0:0:0:0:
256,192,103365,1,8,0:0:0:0:
256,192,103538,1,8,0:0:0:0:
256,192,103711,1,8,0:0:0:0:
256,192,103827,1,8,0:0:0:0:
256,192,104057,1,0,0:0:0:0:
256,192,104288,1,8,0:0:0:0:
256,192,104519,1,8,0:0:0:0:
256,192,104634,1,8,0:0:0:0:
256,192,104865,1,0,0:0:0:0:
256,192,105096,1,8,0:0:0:0:
256,192,105327,1,0,0:0:0:0:
256,192,105442,1,8,0:0:0:0:
256,192,105557,1,0,0:0:0:0:
256,192,105673,1,8,0:0:0:0:
256,192,105904,1,8,0:0:0:0:
256,192,106134,1,0,0:0:0:0:
256,192,106192,1,0,0:0:0:0:
256,192,106250,1,0,0:0:0:0:
256,192,106365,1,0,0:0:0:0:
256,192,106480,1,8,0:0:0:0:
256,192,106596,1,8,0:0:0:0:
256,192,106827,1,0,0:0:0:0:
256,192,106942,1,8,0:0:0:0:
256,192,107057,1,0,0:0:0:0:
256,192,107173,1,8,0:0:0:0:
256,192,107288,1,0,0:0:0:0:
256,192,107404,1,0,0:0:0:0:
256,192,107519,1,8,0:0:0:0:
256,192,107750,1,0,0:0:0:0:
256,192,107980,1,8,0:0:0:0:
256,192,108096,1,0,0:0:0:0:
256,192,108211,1,8,0:0:0:0:
256,192,108327,1,0,0:0:0:0:
256,192,108442,1,8,0:0:0:0:
256,192,108557,1,0,0:0:0:0:
256,192,108673,1,8,0:0:0:0:
256,192,108904,1,8,0:0:0:0:
256,192,109019,1,0,0:0:0:0:
256,192,109077,1,0,0:0:0:0:
256,192,109134,1,8,0:0:0:0:
256,192,109250,1,0,0:0:0:0:
256,192,109307,1,0,0:0:0:0:
256,192,109365,1,8,0:0:0:0:
256,192,109480,1,0,0:0:0:0:
256,192,109596,1,8,0:0:0:0:
256,192,109654,1,8,0:0:0:0:
256,192,109711,1,8,0:0:0:0:
256,192,109769,1,8,0:0:0:0:
256,192,109827,1,0,0:0:0:0:
256,192,110750,1,0,0:0:0:0:
256,192,111096,1,0,0:0:0:0:
256,192,111673,1,0,0:0:0:0:
256,192,112596,1,0,0:0:0:0:
256,192,112942,1,0,0:0:0:0:
256,192,113519,1,0,0:0:0:0:
256,192,114442,1,0,0:0:0:0:
256,192,114788,1,0,0:0:0:0:
256,192,115365,1,0,0:0:0:0:
256,192,115711,1,0,0:0:0:0:
256,192,116288,1,0,0:0:0:0:
256,192,116634,1,0,0:0:0:0:
256,192,117211,1,4,0:0:0:0:
256,192,117673,1,8,0:0:0:0:
256,192,118134,1,0,0:0:0:0:
256,192,118480,1,8,0:0:0:0:
256,192,118942,1,0,0:0:0:0:
256,192,119057,1,8,0:0:0:0:
256,192,119173,1,0,0:0:0:0:
256,192,119404,1,8,0:0:0:0:
256,192,119634,1,8,0:0:0:0:
256,192,119865,1,0,0:0:0:0:
256,192,120096,1,0,0:0:0:0:
256,192,120211,1,8,0:0:0:0:
256,192,120442,1,0,0:0:0:0:
256,192,120673,1,8,0:0:0:0:
256,192,120788,1,8,0:0:0:0:
256,192,120904,1,0,0:0:0:0:
256,192,121134,1,0,0:0:0:0:
256,192,121365,1,8,0:0:0:0:
256,192,121596,1,0,0:0:0:0:
256,192,121711,1,0,0:0:0:0:
256,192,121827,1,8,0:0:0:0:
256,192,122057,1,0,0:0:0:0:
256,192,122173,1,8,0:0:0:0:
256,192,122288,1,0,0:0:0:0:
256,192,122404,1,0,0:0:0:0:
256,192,122519,1,8,0:0:0:0:
256,192,122634,1,0,0:0:0:0:
256,192,122750,1,8,0:0:0:0:
256,192,122865,1,8,0:0:0:0:
256,192,123096,1,8,0:0:0:0:
256,192,123211,1,8,0:0:0:0:
256,192,123442,1,8,0:0:0:0:
256,192,123557,1,8,0:0:0:0:
256,192,124596,1,4,0:0:0:0:
256,192,124942,1,8,0:0:0:0:
256,192,125057,1,0,0:0:0:0:
256,192,125173,1,0,0:0:0:0:
256,192,125288,1,8,0:0:0:0:
256,192,125404,1,8,0:0:0:0:
256,192,125519,1,4,0:0:0:0:
256,192,125865,1,12,0:0:0:0:
256,192,126442,1,4,0:0:0:0:
256,192,126673,1,12,0:0:0:0:
256,192,127019,1,12,0:0:0:0:
256,192,127365,1,4,0:0:0:0:
256,192,127538,1,4,0:0:0:0:
256,192,127711,1,12,0:0:0:0:
256,192,127884,1,12,0:0:0:0:
256,192,128057,1,8,0:0:0:0:
256,192,128173,1,0,0:0:0:0:
256,192,128288,1,8,0:0:0:0:
256,192,128365,1,8,0:0:0:0:
256,192,128442,1,8,0:0:0:0:
256,192,128519,1,0,0:0:0:0:
256,192,128750,1,8,0:0:0:0:
256,192,128865,1,0,0:0:0:0:
256,192,128923,1,0,0:0:0:0:
256,192,128980,1,8,0:0:0:0:
256,192,129096,1,8,0:0:0:0:
256,192,129211,1,4,0:0:0:0:
256,192,129557,1,12,0:0:0:0:
256,192,129904,1,0,0:0:0:0:
256,192,129961,1,0,0:0:0:0:
256,192,130019,1,0,0:0:0:0:
256,192,130134,1,12,0:0:0:0:
256,192,130307,1,0,0:0:0:0:
256,192,130365,1,8,0:0:0:0:
256,192,130480,1,0,0:0:0:0:
256,192,130596,1,8,0:0:0:0:
256,192,130711,1,8,0:0:0:0:
256,192,130827,1,0,0:0:0:0:
256,192,131057,1,8,0:0:0:0:
256,192,131173,1,0,0:0:0:0:
256,192,131288,1,8,0:0:0:0:
256,192,131404,1,8,0:0:0:0:
256,192,131519,1,0,0:0:0:0:
256,192,131634,1,8,0:0:0:0:
256,192,131692,1,0,0:0:0:0:
256,192,131750,1,0,0:0:0:0:
256,192,131807,1,0,0:0:0:0:
256,192,131865,1,8,0:0:0:0:
256,192,131980,1,12,0:0:0:0:
256,192,132211,1,8,0:0:0:0:
256,192,132327,1,8,0:0:0:0:
256,192,132442,1,0,0:0:0:0:
256,192,132673,1,0,0:0:0:0:
256,192,132788,1,8,0:0:0:0:
256,192,132904,1,4,0:0:0:0:
256,192,133250,1,12,0:0:0:0:
256,192,133596,1,8,0:0:0:0:
256,192,133654,1,8,0:0:0:0:
256,192,133711,1,0,0:0:0:0:
256,192,133827,1,8,0:0:0:0:
256,192,133942,1,8,0:0:0:0:
256,192,134115,1,8,0:0:0:0:
256,192,134288,1,0,0:0:0:0:
256,192,134865,1,12,0:0:0:0:
256,192,134980,1,0,0:0:0:0:
256,192,135211,1,12,0:0:0:0:
256,192,135327,1,0,0:0:0:0:
256,192,135442,1,8,0:0:0:0:
256,192,135500,1,8,0:0:0:0:
256,192,135557,1,0,0:0:0:0:
256,192,135673,1,8,0:0:0:0:
256,192,136019,1,0,0:0:0:0:
256,192,136134,1,8,0:0:0:0:
256,192,136250,1,0,0:0:0:0:
256,192,136307,1,0,0:0:0:0:
256,192,136365,1,8,0:0:0:0:
256,192,136480,1,8,0:0:0:0:
256,192,136596,1,4,0:0:0:0:
256,192,136942,1,12,0:0:0:0:
256,192,137288,1,0,0:0:0:0:
256,192,137404,1,0,0:0:0:0:
256,192,137519,1,12,0:0:0:0:
256,192,137692,1,0,0:0:0:0:
256,192,137750,1,8,0:0:0:0:
256,192,137865,1,0,0:0:0:0:
256,192,137980,1,8,0:0:0:0:
256,192,138096,1,8,0:0:0:0:
256,192,138211,1,0,0:0:0:0:
256,192,138442,1,8,0:0:0:0:
256,192,138557,1,0,0:0:0:0:
256,192,138615,1,0,0:0:0:0:
256,192,138673,1,8,0:0:0:0:
256,192,138788,1,0,0:0:0:0:
256,192,138904,1,8,0:0:0:0:
256,192,138961,1,8,0:0:0:0:
256,192,139019,1,0,0:0:0:0:
256,192,139077,1,0,0:0:0:0:
256,192,139134,1,8,0:0:0:0:
256,192,139250,1,8,0:0:0:0:
256,192,139365,1,4,0:0:0:0:
256,192,139596,1,8,0:0:0:0:
256,192,139827,1,8,0:0:0:0:
256,192,140057,1,8,0:0:0:0:
256,192,140288,1,8,0:0:0:0:
256,192,140519,1,8,0:0:0:0:
256,192,140750,1,8,0:0:0:0:
256,192,140980,1,8,0:0:0:0:
256,192,141096,1,8,0:0:0:0:
256,192,141211,1,0,0:0:0:0:
256,192,141442,1,8,0:0:0:0:
256,192,141673,1,8,0:0:0:0:
256,192,141904,1,8,0:0:0:0:
256,192,142019,1,0,0:0:0:0:
256,192,142134,1,8,0:0:0:0:
256,192,142250,1,0,0:0:0:0:
256,192,142365,1,8,0:0:0:0:
256,192,142480,1,0,0:0:0:0:
256,192,142596,1,8,0:0:0:0:
256,192,142827,1,0,0:0:0:0:
256,192,142884,1,0,0:0:0:0:
256,192,142942,1,0,0:0:0:0:
256,192,143057,1,8,0:0:0:0:
256,192,143288,1,0,0:0:0:0:
256,192,143519,1,8,0:0:0:0:
256,192,143750,1,0,0:0:0:0:
256,192,143865,1,0,0:0:0:0:
256,192,143980,1,8,0:0:0:0:
256,192,144211,1,0,0:0:0:0:
256,192,144442,1,8,0:0:0:0:
256,192,144673,1,8,0:0:0:0:
256,192,144788,1,0,0:0:0:0:
256,192,144904,1,8,0:0:0:0:
256,192,145134,1,0,0:0:0:0:
256,192,145365,1,8,0:0:0:0:
256,192,145596,1,0,0:0:0:0:
256,192,145711,1,0,0:0:0:0:
256,192,145827,1,8,0:0:0:0:
256,192,145884,1,8,0:0:0:0:
256,192,145942,1,0,0:0:0:0:
256,192,146057,1,8,0:0:0:0:
256,192,146288,1,8,0:0:0:0:
256,192,146519,1,0,0:0:0:0:
256,192,146634,1,0,0:0:0:0:
256,192,146750,1,8,0:0:0:0:
256,192,146865,1,8,0:0:0:0:
256,192,146980,1,0,0:0:0:0:
256,192,147096,1,0,0:0:0:0:
256,192,147211,1,8,0:0:0:0:
256,192,147327,1,0,0:0:0:0:
256,192,147384,1,0,0:0:0:0:
256,192,147442,1,8,0:0:0:0:
256,192,147557,1,0,0:0:0:0:
256,192,147673,1,8,0:0:0:0:
256,192,147788,1,8,0:0:0:0:
256,192,147904,1,0,0:0:0:0:
256,192,148019,1,0,0:0:0:0:
256,192,148134,1,8,0:0:0:0:
256,192,148250,1,0,0:0:0:0:
256,192,148307,1,0,0:0:0:0:
256,192,148365,1,8,0:0:0:0:
256,192,148596,1,8,0:0:0:0:
256,192,148711,1,0,0:0:0:0:
256,192,148827,1,8,0:0:0:0:
256,192,148942,1,0,0:0:0:0:
256,192,149057,1,8,0:0:0:0:
256,192,149115,1,8,0:0:0:0:
256,192,149173,1,0,0:0:0:0:
256,192,149288,1,8,0:0:0:0:
256,192,149404,1,0,0:0:0:0:
256,192,149519,1,8,0:0:0:0:
256,192,149634,1,0,0:0:0:0:
256,192,149750,1,8,0:0:0:0:
256,192,149865,1,0,0:0:0:0:
256,192,149980,1,8,0:0:0:0:
256,192,150038,1,8,0:0:0:0:
256,192,150096,1,0,0:0:0:0:
256,192,150211,1,8,0:0:0:0:
256,192,150442,1,8,0:0:0:0:
256,192,150557,1,8,0:0:0:0:
256,192,150673,1,0,0:0:0:0:
256,192,150788,1,0,0:0:0:0:
256,192,150904,1,8,0:0:0:0:
256,192,150961,1,8,0:0:0:0:
256,192,151019,1,0,0:0:0:0:
256,192,151077,1,0,0:0:0:0:
256,192,151134,1,8,0:0:0:0:
256,192,151365,1,8,0:0:0:0:
256,192,151480,1,0,0:0:0:0:
256,192,151596,1,8,0:0:0:0:
256,192,151711,1,0,0:0:0:0:
256,192,151827,1,8,0:0:0:0:
256,192,151884,1,0,0:0:0:0:
256,192,151942,1,8,0:0:0:0:
256,192,152000,1,0,0:0:0:0:
256,192,152057,1,8,0:0:0:0:
256,192,152173,1,8,0:0:0:0:
256,192,152288,1,0,0:0:0:0:
256,192,152346,1,0,0:0:0:0:
256,192,152404,1,0,0:0:0:0:
256,192,152519,1,8,0:0:0:0:
256,192,152577,1,0,0:0:0:0:
256,192,152634,1,0,0:0:0:0:
256,192,152750,1,8,0:0:0:0:
256,192,152807,1,8,0:0:0:0:
256,192,152865,1,0,0:0:0:0:
256,192,152980,1,8,0:0:0:0:
256,192,153038,1,8,0:0:0:0:
256,192,153096,1,8,0:0:0:0:
256,192,153211,1,4,0:0:0:0:
256,192,153557,1,0,0:0:0:0:
256,192,153904,1,8,0:0:0:0:
256,192,154134,1,4,0:0:0:0:
256,192,154250,1,8,0:0:0:0:
256,192,154307,1,0,0:0:0:0:
256,192,154365,1,8,0:0:0:0:
256,192,154480,1,0,0:0:0:0:
256,192,154596,1,0,0:0:0:0:
256,192,154711,1,8,0:0:0:0:
256,192,154827,1,0,0:0:0:0:
256,192,154884,1,0,0:0:0:0:
256,192,154942,1,0,0:0:0:0:
256,192,155000,1,0,0:0:0:0:
256,192,155057,1,8,0:0:0:0:
256,192,155173,1,0,0:0:0:0:
256,192,155230,1,8,0:0:0:0:
256,192,155288,1,0,0:0:0:0:
256,192,155404,1,8,0:0:0:0:
256,192,155519,1,8,0:0:0:0:
256,192,155577,1,0,0:0:0:0:
256,192,155634,1,0,0:0:0:0:
256,192,155692,1,0,0:0:0:0:
256,192,155750,1,8,0:0:0:0:
256,192,155980,1,0,0:0:0:0:
256,192,156096,1,8,0:0:0:0:
256,192,156154,1,0,0:0:0:0:
256,192,156211,1,8,0:0:0:0:
256,192,156327,1,0,0:0:0:0:
256,192,156384,1,0,0:0:0:0:
256,192,156442,1,8,0:0:0:0:
256,192,156557,1,8,0:0:0:0:
256,192,156673,1,0,0:0:0:0:
256,192,156730,1,0,0:0:0:0:
256,192,156788,1,8,0:0:0:0:
256,192,156846,1,0,0:0:0:0:
256,192,156904,1,8,0:0:0:0:
256,192,157019,1,8,0:0:0:0:
256,192,157134,1,0,0:0:0:0:
256,192,157250,1,8,0:0:0:0:
256,192,157307,1,0,0:0:0:0:
256,192,157365,1,8,0:0:0:0:
256,192,157423,1,8,0:0:0:0:
256,192,157480,1,0,0:0:0:0:
256,192,157596,1,8,0:0:0:0:
256,192,157827,1,0,0:0:0:0:
256,192,157942,1,8,0:0:0:0:
256,192,158000,1,8,0:0:0:0:
256,192,158057,1,0,0:0:0:0:
256,192,158173,1,8,0:0:0:0:
256,192,158288,1,0,0:0:0:0:
256,192,158404,1,0,0:0:0:0:
256,192,158519,1,8,0:0:0:0:
256,192,158577,1,8,0:0:0:0:
256,192,158634,1,8,0:0:0:0:
256,192,158750,1,0,0:0:0:0:
256,192,158807,1,0,0:0:0:0:
256,192,158865,1,0,0:0:0:0:
256,192,158923,1,0,0:0:0:0:
256,192,158980,1,8,0:0:0:0:
256,192,159096,1,0,0:0:0:0:
256,192,159211,1,8,0:0:0:0:
256,192,159327,1,0,0:0:0:0:
256,192,159384,1,0,0:0:0:0:
256,192,159442,1,8,0:0:0:0:
256,192,159500,1,0,0:0:0:0:
256,192,159557,1,8,0:0:0:0:
256,192,159673,1,0,0:0:0:0:
256,192,159788,1,8,0:0:0:0:
256,192,159846,1,0,0:0:0:0:
256,192,159904,1,8,0:0:0:0:
256,192,159961,1,8,0:0:0:0:
256,192,160019,1,0,0:0:0:0:
256,192,160134,1,0,0:0:0:0:
256,192,160192,1,0,0:0:0:0:
256,192,160250,1,8,0:0:0:0:
256,192,160307,1,8,0:0:0:0:
256,192,160365,1,0,0:0:0:0:
256,192,160480,1,8,0:0:0:0:
256,192,160596,1,0,0:0:0:0:
256,192,160711,1,0,0:0:0:0:
256,192,160827,1,8,0:0:0:0:
256,192,160942,1,0,0:0:0:0:
256,192,161057,1,8,0:0:0:0:
256,192,161173,1,0,0:0:0:0:
256,192,161230,1,0,0:0:0:0:
256,192,161288,1,8,0:0:0:0:
256,192,161346,1,0,0:0:0:0:
256,192,161404,1,8,0:0:0:0:
256,192,161519,1,12,0:0:0:0:
256,192,161750,1,0,0:0:0:0:
256,192,161865,1,0,0:0:0:0:
256,192,161980,1,8,0:0:0:0:
256,192,162096,1,0,0:0:0:0:
256,192,162154,1,8,0:0:0:0:
256,192,162211,1,0,0:0:0:0:
256,192,162327,1,8,0:0:0:0:
256,192,162442,1,8,0:0:0:0:
256,192,162557,1,0,0:0:0:0:
256,192,162615,1,0,0:0:0:0:
256,192,162673,1,8,0:0:0:0:
256,192,162788,1,0,0:0:0:0:
256,192,162904,1,0,0:0:0:0:
256,192,162961,1,0,0:0:0:0:
256,192,163019,1,8,0:0:0:0:
256,192,163077,1,0,0:0:0:0:
256,192,163134,1,8,0:0:0:0:
256,192,163250,1,0,0:0:0:0:
256,192,163365,1,8,0:0:0:0:
256,192,163480,1,0,0:0:0:0:
256,192,163538,1,0,0:0:0:0:
256,192,163596,1,0,0:0:0:0:
256,192,163711,1,8,0:0:0:0:
256,192,163827,1,0,0:0:0:0:
256,192,163942,1,8,0:0:0:0:
256,192,164000,1,8,0:0:0:0:
256,192,164057,1,0,0:0:0:0:
256,192,164115,1,0,0:0:0:0:
256,192,164173,1,8,0:0:0:0:
256,192,164288,1,0,0:0:0:0:
256,192,164346,1,8,0:0:0:0:
256,192,164404,1,0,0:0:0:0:
256,192,164519,1,8,0:0:0:0:
256,192,164634,1,8,0:0:0:0:
256,192,164750,1,0,0:0:0:0:
256,192,164807,1,0,0:0:0:0:
256,192,164923,1,8,0:0:0:0:
256,192,164980,1,8,0:0:0:0:
256,192,165096,1,0,0:0:0:0:
256,192,165211,1,12,0:0:0:0:
256,192,165557,1,12,0:0:0:0:
256,192,166134,1,4,0:0:0:0:
256,192,166480,1,0,0:0:0:0:
256,192,166596,1,8,0:0:0:0:
256,192,166711,1,0,0:0:0:0:
256,192,166827,1,8,0:0:0:0:
256,192,166884,1,8,0:0:0:0:
256,192,166942,1,8,0:0:0:0:
256,192,167000,1,8,0:0:0:0:
256,192,167057,1,0,0:0:0:0:
256,192,167173,1,0,0:0:0:0:
256,192,167288,1,8,0:0:0:0:
256,192,167404,1,0,0:0:0:0:
256,192,167461,1,0,0:0:0:0:
256,192,167519,1,0,0:0:0:0:
256,192,167634,1,8,0:0:0:0:
256,192,167750,1,8,0:0:0:0:
256,192,167980,1,0,0:0:0:0:
256,192,168096,1,0,0:0:0:0:
256,192,168154,1,0,0:0:0:0:
256,192,168211,1,8,0:0:0:0:
256,192,168327,1,0,0:0:0:0:
256,192,168557,1,0,0:0:0:0:
256,192,168673,1,8,0:0:0:0:
256,192,168904,1,12,0:0:0:0:
256,192,169019,1,0,0:0:0:0:
256,192,169077,1,0,0:0:0:0:
256,192,169134,1,8,0:0:0:0:
256,192,169250,1,0,0:0:0:0:
256,192,169365,1,8,0:0:0:0:
256,192,169480,1,0,0:0:0:0:
256,192,169538,1,0,0:0:0:0:
256,192,169596,1,8,0:0:0:0:
256,192,169711,1,0,0:0:0:0:
256,192,169827,1,8,0:0:0:0:
256,192,169884,1,8,0:0:0:0:
256,192,169942,1,0,0:0:0:0:
256,192,170057,1,8,0:0:0:0:
256,192,170173,1,8,0:0:0:0:
256,192,170288,1,0,0:0:0:0:
256,192,170404,1,0,0:0:0:0:
256,192,170519,1,8,0:0:0:0:
256,192,170750,1,8,0:0:0:0:
256,192,170865,1,0,0:0:0:0:
256,192,170923,1,0,0:0:0:0:
256,192,170980,1,0,0:0:0:0:
256,192,171096,1,8,0:0:0:0:
256,192,171211,1,0,0:0:0:0:
256,192,171327,1,8,0:0:0:0:
256,192,171384,1,8,0:0:0:0:
256,192,171442,1,8,0:0:0:0:
256,192,171557,1,0,0:0:0:0:
256,192,171673,1,8,0:0:0:0:
256,192,171788,1,0,0:0:0:0:
256,192,171846,1,0,0:0:0:0:
256,192,171904,1,8,0:0:0:0:
256,192,172019,1,8,0:0:0:0:
256,192,172134,1,0,0:0:0:0:
256,192,172250,1,8,0:0:0:0:
256,192,172365,1,8,0:0:0:0:
256,192,172596,1,8,0:0:0:0:
256,192,172711,1,0,0:0:0:0:
256,192,172769,1,0,0:0:0:0:
256,192,172827,1,8,0:0:0:0:
256,192,172942,1,0,0:0:0:0:
256,192,173057,1,8,0:0:0:0:
256,192,173173,1,8,0:0:0:0:
256,192,173288,1,0,0:0:0:0:
256,192,173346,1,0,0:0:0:0:
256,192,173404,1,0,0:0:0:0:
256,192,173519,1,8,0:0:0:0:
256,192,173634,1,0,0:0:0:0:
256,192,173750,1,8,0:0:0:0:
256,192,173865,1,8,0:0:0:0:
256,192,173923,1,8,0:0:0:0:
256,192,173980,1,0,0:0:0:0:
256,192,174096,1,0,0:0:0:0:
256,192,174211,1,8,0:0:0:0:
256,192,174442,1,8,0:0:0:0:
256,192,174500,1,8,0:0:0:0:
256,192,174557,1,0,0:0:0:0:
256,192,174673,1,0,0:0:0:0:
256,192,174788,1,8,0:0:0:0:
256,192,174904,1,8,0:0:0:0:
256,192,175019,1,0,0:0:0:0:
256,192,175134,1,8,0:0:0:0:
256,192,175192,1,8,0:0:0:0:
256,192,175250,1,0,0:0:0:0:
256,192,175365,1,0,0:0:0:0:
256,192,175480,1,8,0:0:0:0:
256,192,175596,1,8,0:0:0:0:
256,192,175711,1,0,0:0:0:0:
256,192,175827,1,0,0:0:0:0:
256,192,175942,1,8,0:0:0:0:
256,192,176057,1,0,0:0:0:0:
256,192,176288,1,12,0:0:0:0:
256,192,176404,1,0,0:0:0:0:
256,192,176519,1,8,0:0:0:0:
256,192,176634,1,0,0:0:0:0:
256,192,176692,1,0,0:0:0:0:
256,192,176750,1,8,0:0:0:0:
256,192,176865,1,0,0:0:0:0:
256,192,176980,1,8,0:0:0:0:
256,192,177038,1,8,0:0:0:0:
256,192,177096,1,0,0:0:0:0:
256,192,177211,1,8,0:0:0:0:
256,192,177327,1,0,0:0:0:0:
256,192,177384,1,0,0:0:0:0:
256,192,177442,1,0,0:0:0:0:
256,192,177557,1,8,0:0:0:0:
256,192,177673,1,0,0:0:0:0:
256,192,177788,1,0,0:0:0:0:
256,192,177904,1,8,0:0:0:0:
256,192,178134,1,8,0:0:0:0:
256,192,178249,1,0,0:0:0:0:
256,192,178307,1,0,0:0:0:0:
256,192,178364,1,0,0:0:0:0:
256,192,178480,1,8,0:0:0:0:
256,192,178595,1,0,0:0:0:0:
256,192,178711,1,8,0:0:0:0:
256,192,178768,1,8,0:0:0:0:
256,192,178826,1,0,0:0:0:0:
256,192,178941,1,8,0:0:0:0:
256,192,179057,1,8,0:0:0:0:
256,192,179172,1,0,0:0:0:0:
256,192,179230,1,0,0:0:0:0:
256,192,179288,1,8,0:0:0:0:
256,192,179403,1,0,0:0:0:0:
256,192,179518,1,8,0:0:0:0:
256,192,179634,1,8,0:0:0:0:
256,192,179749,1,0,0:0:0:0:
256,192,179980,1,8,0:0:0:0:
256,192,180095,1,0,0:0:0:0:
256,192,180153,1,0,0:0:0:0:
256,192,180211,1,8,0:0:0:0:
256,192,180326,1,0,0:0:0:0:
256,192,180441,1,8,0:0:0:0:
256,192,180500,1,0,0:0:0:0:
256,192,180557,1,8,0:0:0:0:
256,192,180672,1,0,0:0:0:0:
256,192,180903,1,0,0:0:0:0:
256,192,181018,1,8,0:0:0:0:
256,192,181134,1,8,0:0:0:0:
256,192,181249,1,0,0:0:0:0:
256,192,181307,1,8,0:0:0:0:
256,192,181364,1,8,0:0:0:0:
256,192,181480,1,0,0:0:0:0:
256,192,181595,1,8,0:0:0:0:
256,192,181827,1,8,0:0:0:0:
256,192,181884,1,8,0:0:0:0:
256,192,181942,1,0,0:0:0:0:
256,192,182057,1,0,0:0:0:0:
256,192,182173,1,8,0:0:0:0:
256,192,182288,1,0,0:0:0:0:
256,192,182404,1,0,0:0:0:0:
256,192,182519,1,8,0:0:0:0:
256,192,182634,1,0,0:0:0:0:
256,192,182750,1,8,0:0:0:0:
256,192,182807,1,8,0:0:0:0:
256,192,182865,1,0,0:0:0:0:
256,192,182923,1,0,0:0:0:0:
256,192,182980,1,8,0:0:0:0:
256,192,183096,1,8,0:0:0:0:
256,192,183211,1,0,0:0:0:0:
256,192,183327,1,0,0:0:0:0:
256,192,183442,1,8,0:0:0:0:
256,192,183673,1,4,0:0:0:0:
