osu file format v14

[General]
AudioFilename: audio.mp3
AudioLeadIn: 0
PreviewTime: 39574
Countdown: 0
SampleSet: Normal
StackLeniency: 0.7
Mode: 1
LetterboxInBreaks: 0
WidescreenStoryboard: 1

[Editor]
Bookmarks: 1249,10849,20449,30049,39649,61249,70849,80449,90049,109249,118849,140449
DistanceSpacing: 1.9
BeatDivisor: 4
GridSize: 32
TimelineZoom: 2

[Metadata]
Title:It's rainy to bye
TitleUnicode:It's rainy to bye
Artist:Tartarate
ArtistUnicode:Tartarate
Creator:Ph0eNiiXZ
Version:dtn's Oni
Source:
Tags:phoeniixz phoenix FreezingAnimenz NekoTowel dtn Rinze ler1211 バイバイレイニー bye bye rainy vtuber virtual youtuber hololive japanese electronic pop jpop j-pop breakcore lolicore gabber remix still stellar 星街すいせい hosimati hoshimati hosimachi hoshimachi suisei
BeatmapID:3944605
BeatmapSetID:1909161

[Difficulty]
HPDrainRate:5
CircleSize:2
OverallDifficulty:6
ApproachRate:10
SliderMultiplier:1.4
SliderTickRate:1

[Events]
//Background and Video events
0,0,"101605656_p00.jpg",0,50
//Break Periods
//Storyboard Layer 0 (Background)
//Storyboard Layer 1 (Fail)
//Storyboard Layer 2 (Pass)
//Storyboard Layer 3 (Foreground)
//Storyboard Layer 4 (Overlay)
//Storyboard Sound Samples

[TimingPoints]
1249,300,4,1,0,70,1,0
1249,-100,4,1,0,70,0,0
10099,-100,4,1,0,100,0,0
10849,-100,4,1,0,100,0,1
20449,-100,4,1,0,100,0,0
30199,-100,4,1,0,80,0,0
34699,-100,4,1,0,100,0,0
39649,-100,4,1,0,100,0,1
58849,-100,4,1,0,100,0,0
60124,-100,4,1,0,60,0,0
61174,-100,4,1,0,100,0,0
61249,-100,4,1,0,100,0,1
70849,-100,4,1,0,100,0,0
70999,-100,4,1,0,70,0,0
72049,-111.111111111111,4,1,0,70,0,0
75499,-100,4,1,0,100,0,0
80599,-111.111111111111,4,1,0,70,0,0
85099,-100,4,1,0,100,0,0
90049,-100,4,1,0,100,0,1
109249,-100,4,1,0,100,0,0
109399,-111.111111111111,4,1,0,70,0,0
116374,-108.695652173913,4,1,0,70,0,0
116974,-106.382978723404,4,1,0,70,0,0
117574,-104.166666666667,4,1,0,70,0,0
118024,-102.040816326531,4,1,0,70,0,0
118174,-100,4,1,0,70,0,0
118399,-90.9090909090909,4,1,0,100,0,0
118849,-95.2380952380952,4,1,0,100,0,1
128449,-95.2380952380952,4,1,0,100,0,0
128524,-95.2380952380952,4,1,0,30,0,0
128674,-95.2380952380952,4,1,0,100,0,0
128749,-90.9090909090909,4,1,0,100,0,1
128899,-95.2380952380952,4,1,0,100,0,1
140449,-95.2380952380952,4,1,0,100,0,0

[HitObjects]
256,192,1249,5,8,0:0:0:0:
256,192,1399,1,0,0:0:0:0:
256,192,1549,1,8,0:0:0:0:
256,192,1699,1,0,0:0:0:0:
256,192,1849,1,0,0:0:0:0:
256,192,1999,1,8,0:0:0:0:
256,192,2149,1,0,0:0:0:0:
256,192,2224,1,8,0:0:0:0:
256,192,2374,1,0,0:0:0:0:
256,192,2449,1,8,0:0:0:0:
256,192,2749,1,8,0:0:0:0:
256,192,2899,1,0,0:0:0:0:
256,192,2974,1,8,0:0:0:0:
256,192,3049,1,0,0:0:0:0:
256,192,3199,1,8,0:0:0:0:
256,192,3349,1,0,0:0:0:0:
256,192,3424,1,0,0:0:0:0:
256,192,3499,1,8,0:0:0:0:
256,192,3574,1,8,0:0:0:0:
256,192,3649,1,0,0:0:0:0:
256,192,3799,1,0,0:0:0:0:
256,192,3949,1,8,0:0:0:0:
256,192,4249,1,0,0:0:0:0:
256,192,4399,1,8,0:0:0:0:
256,192,4549,1,0,0:0:0:0:
256,192,4624,1,8,0:0:0:0:
256,192,4699,1,0,0:0:0:0:
256,192,4774,1,8,0:0:0:0:
256,192,4849,1,0,0:0:0:0:
256,192,4999,1,0,0:0:0:0:
256,192,5149,1,8,0:0:0:0:
256,192,5299,1,0,0:0:0:0:
256,192,5374,1,0,0:0:0:0:
256,192,5449,1,0,0:0:0:0:
256,192,5599,1,8,0:0:0:0:
256,192,5749,1,0,0:0:0:0:
256,192,5824,1,0,0:0:0:0:
256,192,5899,1,8,0:0:0:0:
256,192,5974,1,8,0:0:0:0:
256,192,6049,1,0,0:0:0:0:
256,192,6349,1,8,0:0:0:0:
256,192,6499,1,0,0:0:0:0:
256,192,6649,1,0,0:0:0:0:
256,192,6799,1,8,0:0:0:0:
256,192,6949,1,0,0:0:0:0:
256,192,7024,1,8,0:0:0:0:
256,192,7099,1,0,0:0:0:0:
256,192,7174,1,8,0:0:0:0:
256,192,7249,1,0,0:0:0:0:
256,192,7399,1,0,0:0:0:0:
256,192,7549,1,8,0:0:0:0:
256,192,7699,1,0,0:0:0:0:
256,192,7774,1,8,0:0:0:0:
256,192,7849,1,0,0:0:0:0:
256,192,7999,1,8,0:0:0:0:
256,192,8149,1,0,0:0:0:0:
256,192,8224,1,8,0:0:0:0:
256,192,8299,1,0,0:0:0:0:
256,192,8374,1,0,0:0:0:0:
256,192,8449,1,8,0:0:0:0:
256,192,8749,1,8,0:0:0:0:
256,192,8899,1,0,0:0:0:0:
256,192,8974,1,8,0:0:0:0:
256,192,9049,1,0,0:0:0:0:
256,192,9199,1,8,0:0:0:0:
256,192,9349,1,0,0:0:0:0:
256,192,9424,1,0,0:0:0:0:
256,192,9499,1,8,0:0:0:0:
256,192,9574,1,8,0:0:0:0:
256,192,9649,1,0,0:0:0:0:
256,192,9799,1,0,0:0:0:0:
256,192,9949,1,8,0:0:0:0:
256,192,10249,1,8,0:0:0:0:
256,192,10324,1,8,0:0:0:0:
256,192,10399,1,8,0:0:0:0:
256,192,10474,1,8,0:0:0:0:
256,192,10549,1,8,0:0:0:0:
256,192,10699,1,8,0:0:0:0:
256,192,10849,1,4,0:0:0:0:
256,192,11149,1,8,0:0:0:0:
256,192,11299,1,0,0:0:0:0:
256,192,11374,1,0,0:0:0:0:
256,192,11449,1,8,0:0:0:0:
256,192,11599,1,0,0:0:0:0:
256,192,11674,1,8,0:0:0:0:
256,192,11749,1,0,0:0:0:0:
256,192,11899,1,8,0:0:0:0:
256,192,12049,1,0,0:0:0:0:
256,192,12199,1,0,0:0:0:0:
256,192,12349,1,8,0:0:0:0:
256,192,12499,1,8,0:0:0:0:
256,192,12649,1,0,0:0:0:0:
256,192,12724,1,0,0:0:0:0:
256,192,12799,1,0,0:0:0:0:
256,192,12949,1,8,0:0:0:0:
256,192,13249,1,0,0:0:0:0:
256,192,13399,1,0,0:0:0:0:
256,192,13549,1,8,0:0:0:0:
256,192,13699,1,0,0:0:0:0:
256,192,13774,1,0,0:0:0:0:
256,192,13849,1,8,0:0:0:0:
256,192,13999,1,8,0:0:0:0:
256,192,14149,1,0,0:0:0:0:
256,192,14224,1,8,0:0:0:0:
256,192,14299,1,0,0:0:0:0:
256,192,14449,1,8,0:0:0:0:
256,192,14524,1,8,0:0:0:0:
256,192,14599,1,8,0:0:0:0:
256,192,14749,1,0,0:0:0:0:
256,192,14899,1,8,0:0:0:0:
256,192,14974,1,0,0:0:0:0:
256,192,15049,1,8,0:0:0:0:
256,192,15349,1,0,0:0:0:0:
256,192,15424,1,0,0:0:0:0:
256,192,15499,1,0,0:0:0:0:
256,192,15574,1,0,0:0:0:0:
256,192,15649,1,8,0:0:0:0:
256,192,15799,1,0,0:0:0:0:
256,192,15949,1,8,0:0:0:0:
256,192,16024,1,0,0:0:0:0:
256,192,16099,1,8,0:0:0:0:
256,192,16249,1,0,0:0:0:0:
256,192,16399,1,8,0:0:0:0:
256,192,16549,1,0,0:0:0:0:
256,192,16699,1,8,0:0:0:0:
256,192,16774,1,8,0:0:0:0:
256,192,16849,1,0,0:0:0:0:
256,192,16999,1,8,0:0:0:0:
256,192,17149,1,0,0:0:0:0:
256,192,17299,1,0,0:0:0:0:
256,192,17449,1,8,0:0:0:0:
256,192,17524,1,0,0:0:0:0:
256,192,17599,1,8,0:0:0:0:
256,192,17749,1,8,0:0:0:0:
256,192,17899,1,0,0:0:0:0:
256,192,18049,1,8,0:0:0:0:
256,192,18199,1,8,0:0:0:0:
256,192,18349,1,8,0:0:0:0:
256,192,18649,1,0,0:0:0:0:
256,192,18799,1,0,0:0:0:0:
256,192,18949,1,8,0:0:0:0:
256,192,19099,1,0,0:0:0:0:
256,192,19174,1,0,0:0:0:0:
256,192,19249,1,8,0:0:0:0:
256,192,19399,1,0,0:0:0:0:
256,192,19474,1,8,0:0:0:0:
256,192,19624,1,0,0:0:0:0:
256,192,19699,1,8,0:0:0:0:
256,192,19774,1,8,0:0:0:0:
256,192,19849,1,0,0:0:0:0:
256,192,19999,1,0,0:0:0:0:
256,192,20149,1,8,0:0:0:0:
256,192,20449,1,0,0:0:0:0:
256,192,20749,1,8,0:0:0:0:
256,192,20899,1,0,0:0:0:0:
256,192,20974,1,8,0:0:0:0:
256,192,21049,1,0,0:0:0:0:
256,192,21199,1,8,0:0:0:0:
256,192,21349,1,0,0:0:0:0:
256,192,21499,1,8,0:0:0:0:
256,192,21574,1,8,0:0:0:0:
256,192,21649,1,0,0:0:0:0:
256,192,21949,1,8,0:0:0:0:
256,192,22099,1,0,0:0:0:0:
256,192,22174,1,8,0:0:0:0:
256,192,22324,1,8,0:0:0:0:
256,192,22399,1,0,0:0:0:0:
256,192,22474,1,0,0:0:0:0:
256,192,22549,1,8,0:0:0:0:
256,192,22699,1,8,0:0:0:0:
256,192,22849,1,0,0:0:0:0:
256,192,23149,1,8,0:0:0:0:
256,192,23299,1,0,0:0:0:0:
256,192,23374,1,8,0:0:0:0:
256,192,23449,1,0,0:0:0:0:
256,192,23599,1,0,0:0:0:0:
256,192,23749,1,8,0:0:0:0:
256,192,23899,1,8,0:0:0:0:
256,192,24049,1,0,0:0:0:0:
256,192,24349,1,8,0:0:0:0:
256,192,24424,1,0,0:0:0:0:
256,192,24574,1,8,0:0:0:0:
256,192,24649,1,0,0:0:0:0:
256,192,24799,1,8,0:0:0:0:
256,192,24874,1,0,0:0:0:0:
256,192,25024,1,8,0:0:0:0:
256,192,25099,1,0,0:0:0:0:
256,192,25174,1,0,0:0:0:0:
256,192,25249,1,8,0:0:0:0:
256,192,25549,1,8,0:0:0:0:
256,192,25699,1,0,0:0:0:0:
256,192,25774,1,8,0:0:0:0:
256,192,25849,1,0,0:0:0:0:
256,192,25999,1,8,0:0:0:0:
256,192,26149,1,0,0:0:0:0:
256,192,26299,1,8,0:0:0:0:
256,192,26374,1,8,0:0:0:0:
256,192,26449,1,0,0:0:0:0:
256,192,26749,1,8,0:0:0:0:
256,192,26899,1,0,0:0:0:0:
256,192,26974,1,8,0:0:0:0:
256,192,27124,1,8,0:0:0:0:
256,192,27199,1,0,0:0:0:0:
256,192,27274,1,0,0:0:0:0:
256,192,27349,1,8,0:0:0:0:
256,192,27499,1,8,0:0:0:0:
256,192,27649,1,0,0:0:0:0:
256,192,27949,1,8,0:0:0:0:
256,192,28099,1,0,0:0:0:0:
256,192,28174,1,0,0:0:0:0:
256,192,28249,1,8,0:0:0:0:
256,192,28324,1,0,0:0:0:0:
256,192,28399,1,0,0:0:0:0:
256,192,28549,1,8,0:0:0:0:
256,192,28699,1,8,0:0:0:0:
256,192,28849,1,0,0:0:0:0:
256,192,29149,1,8,0:0:0:0:
256,192,29224,1,0,0:0:0:0:
256,192,29374,1,8,0:0:0:0:
256,192,29449,1,0,0:0:0:0:
256,192,29599,1,8,0:0:0:0:
256,192,29674,1,0,0:0:0:0:
256,192,29824,1,8,0:0:0:0:
256,192,29899,1,0,0:0:0:0:
256,192,29974,1,0,0:0:0:0:
256,192,30049,1,8,0:0:0:0:
256,192,30349,1,0,0:0:0:0:
256,192,30499,1,8,0:0:0:0:
256,192,30799,1,0,0:0:0:0:
256,192,30949,1,8,0:0:0:0:
256,192,31099,1,8,0:0:0:0:
256,192,31249,1,0,0:0:0:0:
256,192,31549,1,0,0:0:0:0:
256,192,31699,1,8,0:0:0:0:
256,192,31999,1,0,0:0:0:0:
256,192,32149,1,8,0:0:0:0:
256,192,32299,1,0,0:0:0:0:
256,192,32449,1,8,0:0:0:0:
256,192,32749,1,0,0:0:0:0:
256,192,32899,1,8,0:0:0:0:
256,192,33199,1,0,0:0:0:0:
256,192,33349,1,8,0:0:0:0:
256,192,33499,1,8,0:0:0:0:
256,192,33649,1,0,0:0:0:0:
256,192,33949,1,0,0:0:0:0:
256,192,34099,1,8,0:0:0:0:
256,192,34399,1,0,0:0:0:0:
256,192,34549,1,8,0:0:0:0:
256,192,34699,1,0,0:0:0:0:
256,192,34849,1,8,0:0:0:0:
256,192,35149,1,8,0:0:0:0:
256,192,35374,1,0,0:0:0:0:
256,192,35449,1,0,0:0:0:0:
256,192,35599,1,8,0:0:0:0:
256,192,35749,1,0,0:0:0:0:
256,192,35824,1,0,0:0:0:0:
256,192,35899,1,8,0:0:0:0:
256,192,36049,1,0,0:0:0:0:
256,192,36199,1,0,0:0:0:0:
256,192,36349,1,8,0:0:0:0:
256,192,36649,1,0,0:0:0:0:
256,192,36724,1,8,0:0:0:0:
256,192,36799,1,0,0:0:0:0:
256,192,36949,1,8,0:0:0:0:
256,192,37099,1,0,0:0:0:0:
256,192,37249,1,12,0:0:0:0:
256,192,37549,1,0,0:0:0:0:
256,192,37849,1,12,0:0:0:0:
256,192,38149,1,0,0:0:0:0:
256,192,38449,1,12,0:0:0:0:
256,192,38749,1,12,0:0:0:0:
256,192,39049,1,12,0:0:0:0:
256,192,39349,1,8,0:0:0:0:
256,192,39649,1,4,0:0:0:0:
256,192,39949,1,0,0:0:0:0:
256,192,40099,1,8,0:0:0:0:
256,192,40249,1,0,0:0:0:0:
256,192,40324,1,0,0:0:0:0:
256,192,40399,1,8,0:0:0:0:
256,192,40549,1,0,0:0:0:0:
256,192,40699,1,8,0:0:0:0:
256,192,40774,1,8,0:0:0:0:
256,192,40849,1,0,0:0:0:0:
256,192,41074,1,8,0:0:0:0:
256,192,41149,1,0,0:0:0:0:
256,192,41299,1,8,0:0:0:0:
256,192,41449,1,0,0:0:0:0:
256,192,41524,1,8,0:0:0:0:
256,192,41599,1,0,0:0:0:0:
256,192,41749,1,8,0:0:0:0:
256,192,41899,1,8,0:0:0:0:
256,192,42049,1,0,0:0:0:0:
256,192,42349,1,8,0:0:0:0:
256,192,42499,1,8,0:0:0:0:
256,192,42649,1,0,0:0:0:0:
256,192,42799,1,8,0:0:0:0:
256,192,42874,1,8,0:0:0:0:
256,192,42949,1,0,0:0:0:0:
256,192,43099,1,8,0:0:0:0:
256,192,43249,1,0,0:0:0:0:
256,192,43399,1,0,0:0:0:0:
256,192,43549,1,8,0:0:0:0:
256,192,43699,1,0,0:0:0:0:
256,192,43774,1,8,0:0:0:0:
256,192,43849,1,0,0:0:0:0:
256,192,44074,1,0,0:0:0:0:
256,192,44149,1,8,0:0:0:0:
256,192,44299,1,0,0:0:0:0:
256,192,44449,1,8,0:0:0:0:
256,192,44749,1,8,0:0:0:0:
256,192,44899,1,0,0:0:0:0:
256,192,45049,1,8,0:0:0:0:
256,192,45124,1,0,0:0:0:0:
256,192,45199,1,8,0:0:0:0:
256,192,45274,1,8,0:0:0:0:
256,192,45349,1,0,0:0:0:0:
256,192,45499,1,0,0:0:0:0:
256,192,45649,1,8,0:0:0:0:
256,192,45799,1,0,0:0:0:0:
256,192,45874,1,0,0:0:0:0:
256,192,45949,1,8,0:0:0:0:
256,192,46099,1,0,0:0:0:0:
256,192,46249,1,8,0:0:0:0:
256,192,46324,1,0,0:0:0:0:
256,192,46399,1,8,0:0:0:0:
256,192,46549,1,0,0:0:0:0:
256,192,46699,1,8,0:0:0:0:
256,192,46849,1,0,0:0:0:0:
256,192,47149,1,8,0:0:0:0:
256,192,47299,1,8,0:0:0:0:
256,192,47449,1,0,0:0:0:0:
256,192,47599,1,8,0:0:0:0:
256,192,47674,1,8,0:0:0:0:
256,192,47749,1,0,0:0:0:0:
256,192,47899,1,8,0:0:0:0:
256,192,48049,1,0,0:0:0:0:
256,192,48199,1,0,0:0:0:0:
256,192,48349,1,8,0:0:0:0:
256,192,48499,1,0,0:0:0:0:
256,192,48574,1,0,0:0:0:0:
256,192,48649,1,8,0:0:0:0:
256,192,48799,1,0,0:0:0:0:
256,192,48949,1,8,0:0:0:0:
256,192,49024,1,8,0:0:0:0:
256,192,49099,1,8,0:0:0:0:
256,192,49174,1,8,0:0:0:0:
256,192,49249,1,0,0:0:0:0:
256,192,49549,1,8,0:0:0:0:
256,192,49699,1,0,0:0:0:0:
256,192,49849,1,8,0:0:0:0:
256,192,49924,1,0,0:0:0:0:
256,192,49999,1,8,0:0:0:0:
256,192,50149,1,0,0:0:0:0:
256,192,50299,1,8,0:0:0:0:
256,192,50374,1,8,0:0:0:0:
256,192,50449,1,0,0:0:0:0:
256,192,50674,1,8,0:0:0:0:
256,192,50749,1,0,0:0:0:0:
256,192,50899,1,8,0:0:0:0:
256,192,51049,1,0,0:0:0:0:
256,192,51124,1,8,0:0:0:0:
256,192,51199,1,0,0:0:0:0:
256,192,51349,1,8,0:0:0:0:
256,192,51499,1,8,0:0:0:0:
256,192,51649,1,0,0:0:0:0:
256,192,51949,1,8,0:0:0:0:
256,192,52099,1,8,0:0:0:0:
256,192,52249,1,0,0:0:0:0:
256,192,52399,1,8,0:0:0:0:
256,192,52474,1,8,0:0:0:0:
256,192,52549,1,0,0:0:0:0:
256,192,52699,1,8,0:0:0:0:
256,192,52849,1,0,0:0:0:0:
256,192,52999,1,0,0:0:0:0:
256,192,53149,1,8,0:0:0:0:
256,192,53299,1,0,0:0:0:0:
256,192,53374,1,8,0:0:0:0:
256,192,53449,1,0,0:0:0:0:
256,192,53674,1,0,0:0:0:0:
256,192,53749,1,8,0:0:0:0:
256,192,53899,1,0,0:0:0:0:
256,192,54049,1,8,0:0:0:0:
256,192,54349,1,8,0:0:0:0:
256,192,54499,1,0,0:0:0:0:
256,192,54649,1,8,0:0:0:0:
256,192,54724,1,0,0:0:0:0:
256,192,54799,1,8,0:0:0:0:
256,192,54874,1,8,0:0:0:0:
256,192,54949,1,0,0:0:0:0:
256,192,55099,1,8,0:0:0:0:
256,192,55174,1,8,0:0:0:0:
256,192,55249,1,0,0:0:0:0:
256,192,55399,1,8,0:0:0:0:
256,192,55549,1,0,0:0:0:0:
256,192,55699,1,8,0:0:0:0:
256,192,55849,1,0,0:0:0:0:
256,192,55924,1,0,0:0:0:0:
256,192,55999,1,8,0:0:0:0:
256,192,56149,1,0,0:0:0:0:
256,192,56299,1,8,0:0:0:0:
256,192,56449,1,0,0:0:0:0:
256,192,56749,1,8,0:0:0:0:
256,192,56899,1,8,0:0:0:0:
256,192,57049,1,0,0:0:0:0:
256,192,57199,1,8,0:0:0:0:
256,192,57274,1,8,0:0:0:0:
256,192,57349,1,0,0:0:0:0:
256,192,57499,1,8,0:0:0:0:
256,192,57649,1,0,0:0:0:0:
256,192,57799,1,0,0:0:0:0:
256,192,57949,1,8,0:0:0:0:
256,192,58099,1,0,0:0:0:0:
256,192,58174,1,8,0:0:0:0:
256,192,58249,1,0,0:0:0:0:
256,192,58399,1,0,0:0:0:0:
256,192,58549,1,8,0:0:0:0:
256,192,58699,1,8,0:0:0:0:
256,192,58774,1,8,0:0:0:0:
256,192,58849,1,0,0:0:0:0:
256,192,59449,1,8,0:0:0:0:
256,192,60049,1,0,0:0:0:0:
256,192,61249,1,4,0:0:0:0:
256,192,61549,1,8,0:0:0:0:
256,192,61699,1,0,0:0:0:0:
256,192,61774,1,0,0:0:0:0:
256,192,61849,1,8,0:0:0:0:
256,192,61999,1,0,0:0:0:0:
256,192,62074,1,8,0:0:0:0:
256,192,62149,1,0,0:0:0:0:
256,192,62299,1,8,0:0:0:0:
256,192,62449,1,0,0:0:0:0:
256,192,62599,1,0,0:0:0:0:
256,192,62749,1,8,0:0:0:0:
256,192,62899,1,8,0:0:0:0:
256,192,63049,1,0,0:0:0:0:
256,192,63124,1,0,0:0:0:0:
256,192,63199,1,0,0:0:0:0:
256,192,63349,1,8,0:0:0:0:
256,192,63649,1,0,0:0:0:0:
256,192,63799,1,0,0:0:0:0:
256,192,63949,1,8,0:0:0:0:
256,192,64099,1,0,0:0:0:0:
256,192,64174,1,0,0:0:0:0:
256,192,64249,1,8,0:0:0:0:
256,192,64399,1,8,0:0:0:0:
256,192,64549,1,0,0:0:0:0:
256,192,64624,1,8,0:0:0:0:
256,192,64699,1,0,0:0:0:0:
256,192,64849,1,8,0:0:0:0:
256,192,64924,1,8,0:0:0:0:
256,192,64999,1,8,0:0:0:0:
256,192,65149,1,0,0:0:0:0:
256,192,65299,1,8,0:0:0:0:
256,192,65374,1,0,0:0:0:0:
256,192,65449,1,8,0:0:0:0:
256,192,65749,1,0,0:0:0:0:
256,192,65824,1,0,0:0:0:0:
256,192,65899,1,0,0:0:0:0:
256,192,65974,1,0,0:0:0:0:
256,192,66049,1,8,0:0:0:0:
256,192,66199,1,0,0:0:0:0:
256,192,66349,1,8,0:0:0:0:
256,192,66424,1,0,0:0:0:0:
256,192,66499,1,8,0:0:0:0:
256,192,66649,1,0,0:0:0:0:
256,192,66799,1,8,0:0:0:0:
256,192,66949,1,0,0:0:0:0:
256,192,67099,1,8,0:0:0:0:
256,192,67174,1,8,0:0:0:0:
256,192,67249,1,0,0:0:0:0:
256,192,67399,1,8,0:0:0:0:
256,192,67549,1,0,0:0:0:0:
256,192,67699,1,0,0:0:0:0:
256,192,67849,1,8,0:0:0:0:
256,192,67924,1,0,0:0:0:0:
256,192,67999,1,8,0:0:0:0:
256,192,68149,1,8,0:0:0:0:
256,192,68299,1,0,0:0:0:0:
256,192,68449,1,8,0:0:0:0:
256,192,68599,1,8,0:0:0:0:
256,192,68749,1,8,0:0:0:0:
256,192,69049,1,0,0:0:0:0:
256,192,69199,1,0,0:0:0:0:
256,192,69349,1,8,0:0:0:0:
256,192,69499,1,0,0:0:0:0:
256,192,69574,1,0,0:0:0:0:
256,192,69649,1,8,0:0:0:0:
256,192,69799,1,0,0:0:0:0:
256,192,69874,1,8,0:0:0:0:
256,192,70024,1,0,0:0:0:0:
256,192,70099,1,8,0:0:0:0:
256,192,70174,1,8,0:0:0:0:
256,192,70249,1,0,0:0:0:0:
256,192,70399,1,0,0:0:0:0:
256,192,70549,1,8,0:0:0:0:
256,192,70849,1,0,0:0:0:0:
256,192,72799,1,0,0:0:0:0:
256,192,72949,1,0,0:0:0:0:
256,192,73099,1,0,0:0:0:0:
256,192,73249,1,0,0:0:0:0:
256,192,73549,1,0,0:0:0:0:
256,192,73849,1,8,0:0:0:0:
256,192,73999,1,8,0:0:0:0:
256,192,74149,1,8,0:0:0:0:
256,192,74299,1,8,0:0:0:0:
256,192,74749,1,0,0:0:0:0:
256,192,75049,1,8,0:0:0:0:
256,192,75649,1,0,0:0:0:0:
256,192,75949,1,8,0:0:0:0:
256,192,76099,1,0,0:0:0:0:
256,192,76174,1,8,0:0:0:0:
256,192,76249,1,0,0:0:0:0:
256,192,76399,1,8,0:0:0:0:
256,192,76549,1,0,0:0:0:0:
256,192,76699,1,8,0:0:0:0:
256,192,76774,1,8,0:0:0:0:
256,192,76849,1,0,0:0:0:0:
256,192,77149,1,8,0:0:0:0:
256,192,77299,1,0,0:0:0:0:
256,192,77374,1,8,0:0:0:0:
256,192,77524,1,8,0:0:0:0:
256,192,77599,1,0,0:0:0:0:
256,192,77674,1,0,0:0:0:0:
256,192,77749,1,8,0:0:0:0:
256,192,77899,1,8,0:0:0:0:
256,192,78049,1,0,0:0:0:0:
256,192,78349,1,8,0:0:0:0:
256,192,78424,1,8,0:0:0:0:
256,192,78574,1,8,0:0:0:0:
256,192,78649,1,0,0:0:0:0:
256,192,78799,1,8,0:0:0:0:
256,192,78949,1,0,0:0:0:0:
256,192,79099,1,8,0:0:0:0:
256,192,79174,1,8,0:0:0:0:
256,192,79249,1,0,0:0:0:0:
256,192,79549,1,8,0:0:0:0:
256,192,79624,1,0,0:0:0:0:
256,192,79774,1,8,0:0:0:0:
256,192,79849,1,0,0:0:0:0:
256,192,79999,1,8,0:0:0:0:
256,192,80074,1,0,0:0:0:0:
256,192,80224,1,8,0:0:0:0:
256,192,80299,1,0,0:0:0:0:
256,192,80374,1,0,0:0:0:0:
256,192,80449,1,8,0:0:0:0:
256,192,81049,1,8,0:0:0:0:
256,192,81649,1,0,0:0:0:0:
256,192,82249,1,8,0:0:0:0:
256,192,82399,1,0,0:0:0:0:
256,192,82549,1,0,0:0:0:0:
256,192,82849,1,4,0:0:0:0:
256,192,83449,1,8,0:0:0:0:
256,192,83749,1,0,0:0:0:0:
256,192,83899,1,0,0:0:0:0:
256,192,84349,1,0,0:0:0:0:
256,192,84449,1,0,0:0:0:0:
256,192,84549,1,0,0:0:0:0:
256,192,84649,1,8,0:0:0:0:
256,192,84949,1,8,0:0:0:0:
256,192,85249,1,0,0:0:0:0:
256,192,85549,1,8,0:0:0:0:
256,192,85774,1,0,0:0:0:0:
256,192,85849,1,0,0:0:0:0:
256,192,85999,1,8,0:0:0:0:
256,192,86149,1,0,0:0:0:0:
256,192,86224,1,0,0:0:0:0:
256,192,86299,1,8,0:0:0:0:
256,192,86449,1,0,0:0:0:0:
256,192,86599,1,0,0:0:0:0:
256,192,86749,1,8,0:0:0:0:
256,192,87049,1,0,0:0:0:0:
256,192,87124,1,8,0:0:0:0:
256,192,87199,1,0,0:0:0:0:
256,192,87349,1,8,0:0:0:0:
256,192,87499,1,0,0:0:0:0:
256,192,87649,1,12,0:0:0:0:
256,192,87949,1,0,0:0:0:0:
256,192,88249,1,12,0:0:0:0:
256,192,88549,1,0,0:0:0:0:
256,192,88849,1,12,0:0:0:0:
256,192,89149,1,12,0:0:0:0:
256,192,89449,1,12,0:0:0:0:
256,192,90049,1,4,0:0:0:0:
256,192,90349,1,0,0:0:0:0:
256,192,90499,1,8,0:0:0:0:
256,192,90649,1,0,0:0:0:0:
256,192,90724,1,0,0:0:0:0:
256,192,90799,1,8,0:0:0:0:
256,192,90949,1,0,0:0:0:0:
256,192,91099,1,8,0:0:0:0:
256,192,91174,1,8,0:0:0:0:
256,192,91249,1,0,0:0:0:0:
256,192,91474,1,8,0:0:0:0:
256,192,91549,1,0,0:0:0:0:
256,192,91699,1,8,0:0:0:0:
256,192,91849,1,0,0:0:0:0:
256,192,91924,1,8,0:0:0:0:
256,192,91999,1,0,0:0:0:0:
256,192,92149,1,8,0:0:0:0:
256,192,92299,1,8,0:0:0:0:
256,192,92449,1,0,0:0:0:0:
256,192,92749,1,8,0:0:0:0:
256,192,92899,1,8,0:0:0:0:
256,192,93049,1,0,0:0:0:0:
256,192,93199,1,8,0:0:0:0:
256,192,93274,1,8,0:0:0:0:
256,192,93349,1,0,0:0:0:0:
256,192,93499,1,8,0:0:0:0:
256,192,93649,1,0,0:0:0:0:
256,192,93799,1,0,0:0:0:0:
256,192,93949,1,8,0:0:0:0:
256,192,94099,1,0,0:0:0:0:
256,192,94174,1,8,0:0:0:0:
256,192,94249,1,0,0:0:0:0:
256,192,94474,1,0,0:0:0:0:
256,192,94549,1,8,0:0:0:0:
256,192,94699,1,0,0:0:0:0:
256,192,94849,1,8,0:0:0:0:
256,192,95149,1,8,0:0:0:0:
256,192,95299,1,0,0:0:0:0:
256,192,95449,1,8,0:0:0:0:
256,192,95524,1,0,0:0:0:0:
256,192,95599,1,8,0:0:0:0:
256,192,95674,1,8,0:0:0:0:
256,192,95749,1,0,0:0:0:0:
256,192,95899,1,0,0:0:0:0:
256,192,96049,1,8,0:0:0:0:
256,192,96199,1,0,0:0:0:0:
256,192,96274,1,0,0:0:0:0:
256,192,96349,1,8,0:0:0:0:
256,192,96499,1,0,0:0:0:0:
256,192,96649,1,8,0:0:0:0:
256,192,96724,1,0,0:0:0:0:
256,192,96799,1,8,0:0:0:0:
256,192,96949,1,0,0:0:0:0:
256,192,97099,1,8,0:0:0:0:
256,192,97249,1,0,0:0:0:0:
256,192,97549,1,8,0:0:0:0:
256,192,97699,1,8,0:0:0:0:
256,192,97849,1,0,0:0:0:0:
256,192,97999,1,8,0:0:0:0:
256,192,98074,1,8,0:0:0:0:
256,192,98149,1,0,0:0:0:0:
256,192,98299,1,8,0:0:0:0:
256,192,98449,1,0,0:0:0:0:
256,192,98599,1,0,0:0:0:0:
256,192,98749,1,8,0:0:0:0:
256,192,98899,1,0,0:0:0:0:
256,192,98974,1,0,0:0:0:0:
256,192,99049,1,8,0:0:0:0:
256,192,99124,1,0,0:0:0:0:
256,192,99274,1,8,0:0:0:0:
256,192,99424,1,0,0:0:0:0:
256,192,99499,1,8,0:0:0:0:
256,192,99574,1,8,0:0:0:0:
256,192,99649,1,0,0:0:0:0:
256,192,99949,1,8,0:0:0:0:
256,192,100099,1,0,0:0:0:0:
256,192,100174,1,8,0:0:0:0:
256,192,100324,1,0,0:0:0:0:
256,192,100399,1,8,0:0:0:0:
256,192,100474,1,8,0:0:0:0:
256,192,100549,1,0,0:0:0:0:
256,192,100699,1,8,0:0:0:0:
256,192,100849,1,0,0:0:0:0:
256,192,100924,1,8,0:0:0:0:
256,192,100999,1,8,0:0:0:0:
256,192,101074,1,8,0:0:0:0:
256,192,101149,1,0,0:0:0:0:
256,192,101299,1,8,0:0:0:0:
256,192,101449,1,0,0:0:0:0:
256,192,101599,1,8,0:0:0:0:
256,192,101674,1,8,0:0:0:0:
256,192,101749,1,0,0:0:0:0:
256,192,102049,1,0,0:0:0:0:
256,192,102124,1,8,0:0:0:0:
256,192,102274,1,8,0:0:0:0:
256,192,102349,1,0,0:0:0:0:
256,192,102499,1,8,0:0:0:0:
256,192,102574,1,8,0:0:0:0:
256,192,102649,1,0,0:0:0:0:
256,192,102799,1,8,0:0:0:0:
256,192,102949,1,0,0:0:0:0:
256,192,103024,1,0,0:0:0:0:
256,192,103099,1,8,0:0:0:0:
256,192,103174,1,8,0:0:0:0:
256,192,103249,1,0,0:0:0:0:
256,192,103399,1,0,0:0:0:0:
256,192,103549,1,8,0:0:0:0:
256,192,103699,1,0,0:0:0:0:
256,192,103774,1,8,0:0:0:0:
256,192,103849,1,0,0:0:0:0:
256,192,104074,1,0,0:0:0:0:
256,192,104149,1,8,0:0:0:0:
256,192,104299,1,0,0:0:0:0:
256,192,104449,1,8,0:0:0:0:
256,192,104749,1,8,0:0:0:0:
256,192,104899,1,8,0:0:0:0:
256,192,105049,1,0,0:0:0:0:
256,192,105124,1,0,0:0:0:0:
256,192,105199,1,8,0:0:0:0:
256,192,105274,1,8,0:0:0:0:
256,192,105349,1,0,0:0:0:0:
256,192,105499,1,8,0:0:0:0:
256,192,105649,1,0,0:0:0:0:
256,192,105724,1,0,0:0:0:0:
256,192,105799,1,8,0:0:0:0:
256,192,105949,1,0,0:0:0:0:
256,192,106099,1,8,0:0:0:0:
256,192,106174,1,0,0:0:0:0:
256,192,106249,1,8,0:0:0:0:
256,192,106399,1,8,0:0:0:0:
256,192,106549,1,0,0:0:0:0:
256,192,106699,1,8,0:0:0:0:
256,192,106849,1,0,0:0:0:0:
256,192,107149,1,8,0:0:0:0:
256,192,107299,1,8,0:0:0:0:
256,192,107449,1,0,0:0:0:0:
256,192,107524,1,8,0:0:0:0:
256,192,107674,1,8,0:0:0:0:
256,192,107749,1,0,0:0:0:0:
256,192,107824,1,0,0:0:0:0:
256,192,107899,1,8,0:0:0:0:
256,192,108049,1,0,0:0:0:0:
256,192,108199,1,0,0:0:0:0:
256,192,108349,1,8,0:0:0:0:
256,192,108499,1,8,0:0:0:0:
256,192,108649,1,0,0:0:0:0:
256,192,108724,1,8,0:0:0:0:
256,192,108799,1,0,0:0:0:0:
256,192,108949,1,8,0:0:0:0:
256,192,109024,1,8,0:0:0:0:
256,192,109099,1,8,0:0:0:0:
256,192,109174,1,8,0:0:0:0:
256,192,109249,1,0,0:0:0:0:
256,192,109849,1,8,0:0:0:0:
256,192,110449,1,0,0:0:0:0:
256,192,111049,1,8,0:0:0:0:
256,192,111649,1,0,0:0:0:0:
256,192,112249,1,8,0:0:0:0:
256,192,112849,1,0,0:0:0:0:
256,192,113449,1,8,0:0:0:0:
256,192,114049,1,0,0:0:0:0:
256,192,114649,1,8,0:0:0:0:
256,192,115249,1,0,0:0:0:0:
256,192,115849,1,8,0:0:0:0:
256,192,116449,1,0,0:0:0:0:
256,192,117049,1,8,0:0:0:0:
256,192,117649,1,0,0:0:0:0:
256,192,118099,1,0,0:0:0:0:
256,192,118249,1,8,0:0:0:0:
256,192,118549,1,8,0:0:0:0:
256,192,118849,1,8,0:0:0:0:
256,192,118999,1,8,0:0:0:0:
256,192,119149,1,8,0:0:0:0:
256,192,119299,1,0,0:0:0:0:
256,192,119449,1,8,0:0:0:0:
256,192,119524,1,0,0:0:0:0:
256,192,119599,1,8,0:0:0:0:
256,192,119749,1,0,0:0:0:0:
256,192,119824,1,0,0:0:0:0:
256,192,119899,1,8,0:0:0:0:
256,192,119974,1,8,0:0:0:0:
256,192,120049,1,0,0:0:0:0:
256,192,120199,1,8,0:0:0:0:
256,192,120349,1,0,0:0:0:0:
256,192,120499,1,8,0:0:0:0:
256,192,120649,1,0,0:0:0:0:
256,192,120799,1,8,0:0:0:0:
256,192,120874,1,8,0:0:0:0:
256,192,120949,1,8,0:0:0:0:
256,192,121099,1,8,0:0:0:0:
256,192,121249,1,0,0:0:0:0:
256,192,121549,1,8,0:0:0:0:
256,192,121699,1,8,0:0:0:0:
256,192,121849,1,0,0:0:0:0:
256,192,121924,1,0,0:0:0:0:
256,192,121999,1,8,0:0:0:0:
256,192,122149,1,0,0:0:0:0:
256,192,122299,1,8,0:0:0:0:
256,192,122374,1,0,0:0:0:0:
256,192,122449,1,8,0:0:0:0:
256,192,122599,1,8,0:0:0:0:
256,192,122749,1,0,0:0:0:0:
256,192,122899,1,8,0:0:0:0:
256,192,122974,1,8,0:0:0:0:
256,192,123049,1,0,0:0:0:0:
256,192,123199,1,8,0:0:0:0:
256,192,123349,1,0,0:0:0:0:
256,192,123649,1,8,0:0:0:0:
256,192,123799,1,8,0:0:0:0:
256,192,123949,1,8,0:0:0:0:
256,192,124099,1,0,0:0:0:0:
256,192,124249,1,8,0:0:0:0:
256,192,124324,1,8,0:0:0:0:
256,192,124399,1,0,0:0:0:0:
256,192,124474,1,0,0:0:0:0:
256,192,124549,1,8,0:0:0:0:
256,192,124699,1,8,0:0:0:0:
256,192,124849,1,0,0:0:0:0:
256,192,124999,1,8,0:0:0:0:
256,192,125074,1,8,0:0:0:0:
256,192,125149,1,0,0:0:0:0:
256,192,125299,1,8,0:0:0:0:
256,192,125449,1,0,0:0:0:0:
256,192,125524,1,8,0:0:0:0:
256,192,125599,1,0,0:0:0:0:
256,192,125749,1,8,0:0:0:0:
256,192,125899,1,8,0:0:0:0:
256,192,126049,1,0,0:0:0:0:
256,192,126349,1,8,0:0:0:0:
256,192,126499,1,8,0:0:0:0:
256,192,126649,1,0,0:0:0:0:
256,192,126799,1,0,0:0:0:0:
256,192,126949,1,8,0:0:0:0:
256,192,127024,1,0,0:0:0:0:
256,192,127099,1,8,0:0:0:0:
256,192,127174,1,8,0:0:0:0:
256,192,127249,1,0,0:0:0:0:
256,192,127399,1,8,0:0:0:0:
256,192,127474,1,8,0:0:0:0:
256,192,127549,1,0,0:0:0:0:
256,192,127699,1,8,0:0:0:0:
256,192,127849,1,0,0:0:0:0:
256,192,127999,1,0,0:0:0:0:
256,192,128149,1,8,0:0:0:0:
256,192,128224,1,8,0:0:0:0:
256,192,128299,1,8,0:0:0:0:
256,192,128374,1,8,0:0:0:0:
256,192,128449,1,0,0:0:0:0:
256,192,128749,1,12,0:0:0:0:
256,192,129049,1,8,0:0:0:0:
256,192,129124,1,0,0:0:0:0:
256,192,129199,1,8,0:0:0:0:
256,192,129274,1,8,0:0:0:0:
256,192,129349,1,0,0:0:0:0:
256,192,129499,1,8,0:0:0:0:
256,192,129649,1,0,0:0:0:0:
256,192,129799,1,8,0:0:0:0:
256,192,129949,1,0,0:0:0:0:
256,192,130024,1,0,0:0:0:0:
256,192,130099,1,8,0:0:0:0:
256,192,130174,1,8,0:0:0:0:
256,192,130249,1,0,0:0:0:0:
256,192,130399,1,8,0:0:0:0:
256,192,130474,1,8,0:0:0:0:
256,192,130549,1,8,0:0:0:0:
256,192,130699,1,8,0:0:0:0:
256,192,130849,1,0,0:0:0:0:
256,192,131149,1,8,0:0:0:0:
256,192,131299,1,8,0:0:0:0:
256,192,131449,1,0,0:0:0:0:
256,192,131524,1,0,0:0:0:0:
256,192,131599,1,8,0:0:0:0:
256,192,131749,1,0,0:0:0:0:
256,192,131899,1,8,0:0:0:0:
256,192,131974,1,0,0:0:0:0:
256,192,132049,1,8,0:0:0:0:
256,192,132199,1,8,0:0:0:0:
256,192,132349,1,0,0:0:0:0:
256,192,132499,1,8,0:0:0:0:
256,192,132649,1,0,0:0:0:0:
256,192,132724,1,0,0:0:0:0:
256,192,132799,1,8,0:0:0:0:
256,192,132874,1,8,0:0:0:0:
256,192,132949,1,0,0:0:0:0:
256,192,133249,1,8,0:0:0:0:
256,192,133399,1,8,0:0:0:0:
256,192,133549,1,8,0:0:0:0:
256,192,133699,1,0,0:0:0:0:
256,192,133849,1,8,0:0:0:0:
256,192,133924,1,8,0:0:0:0:
256,192,133999,1,0,0:0:0:0:
256,192,134074,1,0,0:0:0:0:
256,192,134149,1,8,0:0:0:0:
256,192,134299,1,8,0:0:0:0:
256,192,134449,1,0,0:0:0:0:
256,192,134599,1,8,0:0:0:0:
256,192,134674,1,0,0:0:0:0:
256,192,134749,1,8,0:0:0:0:
256,192,134899,1,8,0:0:0:0:
256,192,135049,1,0,0:0:0:0:
256,192,135124,1,8,0:0:0:0:
256,192,135199,1,0,0:0:0:0:
256,192,135349,1,8,0:0:0:0:
256,192,135499,1,8,0:0:0:0:
256,192,135649,1,0,0:0:0:0:
256,192,135949,1,8,0:0:0:0:
256,192,136099,1,8,0:0:0:0:
256,192,136249,1,0,0:0:0:0:
256,192,136399,1,0,0:0:0:0:
256,192,136549,1,8,0:0:0:0:
256,192,136624,1,8,0:0:0:0:
256,192,136699,1,8,0:0:0:0:
256,192,136774,1,8,0:0:0:0:
256,192,136849,1,0,0:0:0:0:
256,192,136999,1,8,0:0:0:0:
256,192,137074,1,8,0:0:0:0:
256,192,137149,1,0,0:0:0:0:
256,192,137299,1,8,0:0:0:0:
256,192,137449,1,0,0:0:0:0:
256,192,137599,1,0,0:0:0:0:
256,192,137749,1,8,0:0:0:0:
256,192,137824,1,0,0:0:0:0:
256,192,137899,1,8,0:0:0:0:
256,192,138049,1,4,0:0:0:0:
256,192,138349,1,8,0:0:0:0:
256,192,138649,1,4,0:0:0:0:
256,192,138949,1,8,0:0:0:0:
256,192,139099,1,8,0:0:0:0:
256,192,139249,1,4,0:0:0:0:
256,192,139549,1,8,0:0:0:0:
256,192,139624,1,8,0:0:0:0:
256,192,139699,1,8,0:0:0:0:
256,192,139849,1,0,0:0:0:0:
256,192,139924,1,0,0:0:0:0:
256,192,139999,1,8,0:0:0:0:
256,192,140074,1,0,0:0:0:0:
256,192,140149,1,8,0:0:0:0:
256,192,140299,1,8,0:0:0:0:
256,192,140449,1,4,0:0:0:0:
