osu file format v14

[General]
AudioFilename: audio.mp3
AudioLeadIn: 0
PreviewTime: 29519
Countdown: 0
SampleSet: Normal
StackLeniency: 0.7
Mode: 1
LetterboxInBreaks: 0
WidescreenStoryboard: 1

[Editor]
DistanceSpacing: 0.9
BeatDivisor: 4
GridSize: 4
TimelineZoom: 3.599999

[Metadata]
Title:Drop
TitleUnicode:Drop
Artist:Tartarate
ArtistUnicode:Tartarate
Creator:ler1211
Version:Futsuu
Source:
Tags:Rinze PIKASONIC & Tatsunoshin Shizuku (ft. NEONA & KOTONOHOUSE) lolicore japanese electronic jcore j-core breakcore remix bootleg feat. featuring
BeatmapID:3969788
BeatmapSetID:1922744

[Difficulty]
HPDrainRate:7
CircleSize:5
OverallDifficulty:4
ApproachRate:5
SliderMultiplier:1.3
SliderTickRate:1

[Events]
//Background and Video events
0,0,"azusaa.jpg",0,0
//Break Periods
//Storyboard Layer 0 (Background)
//Storyboard Layer 1 (Fail)
//Storyboard Layer 2 (Pass)
//Storyboard Layer 3 (Foreground)
//Storyboard Layer 4 (Overlay)
//Storyboard Sound Samples

[TimingPoints]
904,230.769230769231,4,1,0,90,1,0
15788,-100,4,1,0,90,0,0
22480,-100,4,1,0,90,0,0
30442,-100,4,1,0,90,0,1
37365,-100,4,1,0,90,0,0
37827,-100,4,1,0,90,0,1
45211,-100,4,1,0,90,0,0
58942,-100,4,1,0,40,0,0
59404,-100,4,1,0,90,0,0
60211,-100,4,1,0,90,0,0
66788,-100,4,1,0,90,0,0
73769,-100,4,1,0,70,0,0
74634,-100,4,1,0,90,0,0
82132,-100,4,1,0,90,0,0
82363,-100,4,1,0,86,0,0
82594,-100,4,1,0,83,0,0
82824,-100,4,1,0,79,0,0
83055,-100,4,1,0,75,0,0
83286,-100,4,1,0,71,0,0
83517,-100,4,1,0,68,0,0
83747,-100,4,1,0,64,0,0
83978,-100,4,1,0,60,0,0
84209,-100,4,1,0,56,0,0
84440,-100,4,1,0,53,0,0
84670,-100,4,1,0,49,0,0
84901,-100,4,1,0,45,0,0
85132,-100,4,1,0,41,0,0
85363,-100,4,1,0,38,0,0
85594,-100,4,1,0,34,0,0
85711,-100,4,1,0,80,0,0
89519,-100,4,1,0,100,0,1
104288,-100,4,1,0,100,0,0

[HitObjects]
256,192,904,5,4,0:0:0:0:
256,192,1596,1,8,0:0:0:0:
256,192,1827,1,0,0:0:0:0:
256,192,2404,1,0,0:0:0:0:
256,192,2750,1,8,0:0:0:0:
256,192,3096,1,8,0:0:0:0:
256,192,3442,1,8,0:0:0:0:
256,192,3673,1,0,0:0:0:0:
256,192,4134,1,8,0:0:0:0:
256,192,4596,1,0,0:0:0:0:
256,192,5519,1,8,0:0:0:0:
256,192,6442,1,0,0:0:0:0:
256,192,6788,1,0,0:0:0:0:
256,192,7134,1,0,0:0:0:0:
256,192,7365,1,8,0:0:0:0:
256,192,7480,1,8,0:0:0:0:
256,192,7596,1,0,0:0:0:0:
256,192,8288,1,8,0:0:0:0:
256,192,8519,1,8,0:0:0:0:
256,192,8865,1,8,0:0:0:0:
256,192,9211,1,12,0:0:0:0:
256,192,9673,1,0,0:0:0:0:
256,192,9904,1,8,0:0:0:0:
256,192,10134,1,0,0:0:0:0:
256,192,10480,1,0,0:0:0:0:
256,192,10827,1,0,0:0:0:0:
256,192,11057,1,12,0:0:0:0:
256,192,11519,1,8,0:0:0:0:
256,192,11750,1,0,0:0:0:0:
256,192,11980,1,8,0:0:0:0:
256,192,12211,1,0,0:0:0:0:
256,192,12557,1,0,0:0:0:0:
256,192,12904,1,12,0:0:0:0:
256,192,13365,1,0,0:0:0:0:
256,192,13827,1,8,0:0:0:0:
256,192,14057,1,8,0:0:0:0:
256,192,14404,1,8,0:0:0:0:
256,192,14750,1,0,0:0:0:0:
256,192,14865,1,0,0:0:0:0:
256,192,14980,1,8,0:0:0:0:
256,192,15211,1,0,0:0:0:0:
256,192,15673,1,4,0:0:0:0:
256,192,16596,1,8,0:0:0:0:
256,192,16711,1,8,0:0:0:0:
256,192,16827,1,8,0:0:0:0:
256,192,17519,1,0,0:0:0:0:
256,192,17865,1,0,0:0:0:0:
256,192,18211,1,0,0:0:0:0:
256,192,18442,1,8,0:0:0:0:
256,192,18673,1,0,0:0:0:0:
256,192,18788,1,8,0:0:0:0:
256,192,19019,1,0,0:0:0:0:
256,192,19250,1,8,0:0:0:0:
256,192,19365,1,0,0:0:0:0:
256,192,20288,1,8,0:0:0:0:
256,192,20403,1,8,0:0:0:0:
256,192,20519,1,8,0:0:0:0:
256,192,21211,1,0,0:0:0:0:
256,192,21557,1,0,0:0:0:0:
256,192,21904,1,0,0:0:0:0:
256,192,22134,1,8,0:0:0:0:
256,192,22250,1,8,0:0:0:0:
256,192,22365,1,0,0:0:0:0:
256,192,22596,1,8,0:0:0:0:
256,192,22827,1,0,0:0:0:0:
256,192,23057,1,4,0:0:0:0:
256,192,23288,1,8,0:0:0:0:
256,192,23519,1,8,0:0:0:0:
256,192,23750,1,8,0:0:0:0:
256,192,24211,1,0,0:0:0:0:
256,192,24442,1,8,0:0:0:0:
256,192,24673,1,8,0:0:0:0:
256,192,25134,1,0,0:0:0:0:
256,192,25365,1,0,0:0:0:0:
256,192,25596,1,8,0:0:0:0:
256,192,26057,1,0,0:0:0:0:
256,192,26288,1,8,0:0:0:0:
256,192,26519,1,8,0:0:0:0:
256,192,26750,1,0,0:0:0:0:
256,192,26980,1,0,0:0:0:0:
256,192,27211,1,8,0:0:0:0:
256,192,27442,1,0,0:0:0:0:
256,192,27673,1,8,0:0:0:0:
256,192,27904,1,8,0:0:0:0:
256,192,28134,1,0,0:0:0:0:
256,192,28365,1,8,0:0:0:0:
256,192,28596,1,0,0:0:0:0:
256,192,28711,1,0,0:0:0:0:
256,192,28827,1,8,0:0:0:0:
256,192,29057,1,0,0:0:0:0:
256,192,29288,1,8,0:0:0:0:
256,192,29404,1,8,0:0:0:0:
256,192,29519,1,0,0:0:0:0:
256,192,29980,1,0,0:0:0:0:
256,192,30211,1,8,0:0:0:0:
256,192,30442,1,4,0:0:0:0:
256,192,30673,1,8,0:0:0:0:
256,192,30788,1,8,0:0:0:0:
256,192,31019,1,0,0:0:0:0:
256,192,31250,1,8,0:0:0:0:
256,192,31480,1,0,0:0:0:0:
256,192,31596,1,8,0:0:0:0:
256,192,31827,1,8,0:0:0:0:
256,192,31942,1,8,0:0:0:0:
256,192,32057,1,8,0:0:0:0:
256,192,32288,1,0,0:0:0:0:
256,192,32750,1,8,0:0:0:0:
256,192,32980,1,0,0:0:0:0:
256,192,33096,1,0,0:0:0:0:
256,192,33211,1,8,0:0:0:0:
256,192,33557,1,8,0:0:0:0:
256,192,33673,1,0,0:0:0:0:
256,192,33904,1,8,0:0:0:0:
256,192,34134,1,0,0:0:0:0:
256,192,34365,1,8,0:0:0:0:
256,192,34480,1,8,0:0:0:0:
256,192,34711,1,0,0:0:0:0:
256,192,34942,1,8,0:0:0:0:
256,192,35057,1,0,0:0:0:0:
256,192,35288,1,8,0:0:0:0:
256,192,35634,1,0,0:0:0:0:
256,192,35750,1,8,0:0:0:0:
256,192,35980,1,0,0:0:0:0:
256,192,36211,1,8,0:0:0:0:
256,192,36442,1,0,0:0:0:0:
256,192,36557,1,0,0:0:0:0:
256,192,36788,1,8,0:0:0:0:
256,192,36904,1,0,0:0:0:0:
256,192,37134,1,8,0:0:0:0:
256,192,37827,1,8,0:0:0:0:
256,192,38057,1,0,0:0:0:0:
256,192,38173,1,0,0:0:0:0:
256,192,38288,1,0,0:0:0:0:
256,192,38634,1,8,0:0:0:0:
256,192,38865,1,0,0:0:0:0:
256,192,38980,1,8,0:0:0:0:
256,192,39327,1,0,0:0:0:0:
256,192,39442,1,8,0:0:0:0:
256,192,39673,1,0,0:0:0:0:
256,192,39904,1,8,0:0:0:0:
256,192,40134,1,0,0:0:0:0:
256,192,40250,1,0,0:0:0:0:
256,192,40365,1,8,0:0:0:0:
256,192,40596,1,0,0:0:0:0:
256,192,41057,1,0,0:0:0:0:
256,192,41288,1,8,0:0:0:0:
256,192,41519,1,0,0:0:0:0:
256,192,41634,1,0,0:0:0:0:
256,192,41750,1,8,0:0:0:0:
256,192,42096,1,8,0:0:0:0:
256,192,42327,1,0,0:0:0:0:
256,192,42442,1,8,0:0:0:0:
256,192,42673,1,8,0:0:0:0:
256,192,42904,1,8,0:0:0:0:
256,192,43134,1,0,0:0:0:0:
256,192,43365,1,8,0:0:0:0:
256,192,43480,1,8,0:0:0:0:
256,192,43596,1,0,0:0:0:0:
256,192,43827,1,8,0:0:0:0:
256,192,44173,1,0,0:0:0:0:
256,192,44288,1,8,0:0:0:0:
256,192,44519,1,0,0:0:0:0:
256,192,44750,1,8,0:0:0:0:
256,192,44980,1,8,0:0:0:0:
256,192,45211,1,0,0:0:0:0:
256,192,45327,1,0,0:0:0:0:
256,192,45442,1,8,0:0:0:0:
256,192,45673,1,8,0:0:0:0:
256,192,46134,1,0,0:0:0:0:
256,192,46480,1,0,0:0:0:0:
256,192,46827,1,0,0:0:0:0:
256,192,47057,1,8,0:0:0:0:
256,192,47404,1,8,0:0:0:0:
256,192,47750,1,8,0:0:0:0:
256,192,47980,1,0,0:0:0:0:
256,192,48096,1,0,0:0:0:0:
256,192,48211,1,0,0:0:0:0:
256,192,48442,1,8,0:0:0:0:
256,192,48673,1,0,0:0:0:0:
256,192,48904,1,8,0:0:0:0:
256,192,49365,1,8,0:0:0:0:
256,192,49711,1,0,0:0:0:0:
256,192,49942,1,0,0:0:0:0:
256,192,50288,1,8,0:0:0:0:
256,192,50519,1,8,0:0:0:0:
256,192,50750,1,0,0:0:0:0:
256,192,51327,1,0,0:0:0:0:
256,192,51557,1,0,0:0:0:0:
256,192,51788,1,0,0:0:0:0:
256,192,52019,1,8,0:0:0:0:
256,192,52596,1,0,0:0:0:0:
256,192,53057,1,8,0:0:0:0:
256,192,53288,1,0,0:0:0:0:
256,192,53519,1,8,0:0:0:0:
256,192,53980,1,8,0:0:0:0:
256,192,54442,1,0,0:0:0:0:
256,192,54904,1,8,0:0:0:0:
256,192,55134,1,8,0:0:0:0:
256,192,55365,1,0,0:0:0:0:
256,192,55827,1,8,0:0:0:0:
256,192,56057,1,0,0:0:0:0:
256,192,56288,1,0,0:0:0:0:
256,192,56519,1,0,0:0:0:0:
256,192,56750,1,8,0:0:0:0:
256,192,57096,1,0,0:0:0:0:
256,192,57327,1,0,0:0:0:0:
256,192,57557,1,0,0:0:0:0:
256,192,57673,1,8,0:0:0:0:
256,192,58134,1,0,0:0:0:0:
256,192,58365,1,0,0:0:0:0:
256,192,58596,1,8,0:0:0:0:
256,192,58711,1,0,0:0:0:0:
256,192,59519,1,8,0:0:0:0:
256,192,59750,1,0,0:0:0:0:
256,192,59980,1,4,0:0:0:0:
256,192,60904,1,8,0:0:0:0:
256,192,61019,1,8,0:0:0:0:
256,192,61134,1,8,0:0:0:0:
256,192,61827,1,0,0:0:0:0:
256,192,62519,1,0,0:0:0:0:
256,192,62750,1,8,0:0:0:0:
256,192,62981,1,8,0:0:0:0:
256,192,63212,1,0,0:0:0:0:
256,192,63327,1,0,0:0:0:0:
256,192,63442,1,8,0:0:0:0:
256,192,63673,1,0,0:0:0:0:
256,192,64596,1,8,0:0:0:0:
256,192,64711,1,8,0:0:0:0:
256,192,64827,1,8,0:0:0:0:
256,192,65519,1,0,0:0:0:0:
256,192,65865,1,0,0:0:0:0:
256,192,66212,1,0,0:0:0:0:
256,192,66442,1,8,0:0:0:0:
256,192,66558,1,8,0:0:0:0:
256,192,66673,1,0,0:0:0:0:
256,192,66904,1,8,0:0:0:0:
256,192,67135,1,0,0:0:0:0:
256,192,67365,1,4,0:0:0:0:
256,192,67827,1,8,0:0:0:0:
256,192,68057,1,8,0:0:0:0:
256,192,68288,1,4,0:0:0:0:
256,192,68750,1,8,0:0:0:0:
256,192,68981,1,8,0:0:0:0:
256,192,69212,1,4,0:0:0:0:
256,192,69673,1,8,0:0:0:0:
256,192,69904,1,8,0:0:0:0:
256,192,70135,1,0,0:0:0:0:
256,192,70365,1,0,0:0:0:0:
256,192,70596,1,8,0:0:0:0:
256,192,71058,1,0,0:0:0:0:
256,192,71288,1,0,0:0:0:0:
256,192,71519,1,8,0:0:0:0:
256,192,71750,1,8,0:0:0:0:
256,192,71981,1,0,0:0:0:0:
256,192,72212,1,8,0:0:0:0:
256,192,72442,1,0,0:0:0:0:
256,192,72673,1,0,0:0:0:0:
256,192,72904,1,8,0:0:0:0:
256,192,73019,1,8,0:0:0:0:
256,192,73135,1,0,0:0:0:0:
256,192,73365,1,8,0:0:0:0:
256,192,73596,1,0,0:0:0:0:
256,192,73712,1,0,0:0:0:0:
256,192,73827,1,8,0:0:0:0:
256,192,74750,1,4,0:0:0:0:
256,192,75211,1,8,0:0:0:0:
256,192,75384,1,8,0:0:0:0:
256,192,75557,1,8,0:0:0:0:
256,192,75673,1,0,0:0:0:0:
256,192,76134,1,0,0:0:0:0:
256,192,76307,1,8,0:0:0:0:
256,192,76480,1,8,0:0:0:0:
256,192,76596,1,0,0:0:0:0:
256,192,77057,1,8,0:0:0:0:
256,192,77230,1,0,0:0:0:0:
256,192,77404,1,0,0:0:0:0:
256,192,77519,1,8,0:0:0:0:
256,192,77980,1,0,0:0:0:0:
256,192,78154,1,8,0:0:0:0:
256,192,78327,1,8,0:0:0:0:
256,192,78442,1,0,0:0:0:0:
256,192,78903,1,8,0:0:0:0:
256,192,79076,1,8,0:0:0:0:
256,192,79249,1,0,0:0:0:0:
256,192,79365,1,8,0:0:0:0:
256,192,79826,1,0,0:0:0:0:
256,192,79999,1,0,0:0:0:0:
256,192,80172,1,8,0:0:0:0:
256,192,80288,1,0,0:0:0:0:
256,192,80749,1,0,0:0:0:0:
256,192,80922,1,0,0:0:0:0:
256,192,81096,1,0,0:0:0:0:
256,192,81211,1,8,0:0:0:0:
256,192,81672,1,8,0:0:0:0:
256,192,82134,1,4,0:0:0:0:
256,192,82596,1,8,0:0:0:0:
256,192,82827,1,8,0:0:0:0:
256,192,83057,1,4,0:0:0:0:
256,192,83519,1,8,0:0:0:0:
256,192,83750,1,0,0:0:0:0:
256,192,83980,1,4,0:0:0:0:
256,192,84442,1,0,0:0:0:0:
256,192,84673,1,8,0:0:0:0:
256,192,84904,1,4,0:0:0:0:
256,192,85365,1,0,0:0:0:0:
256,192,85827,1,0,0:0:0:0:
256,192,86057,1,0,0:0:0:0:
256,192,86288,1,8,0:0:0:0:
256,192,86519,1,0,0:0:0:0:
256,192,86750,1,8,0:0:0:0:
256,192,86980,1,8,0:0:0:0:
256,192,87211,1,0,0:0:0:0:
256,192,87442,1,0,0:0:0:0:
256,192,87673,1,8,0:0:0:0:
256,192,87788,1,8,0:0:0:0:
256,192,87903,1,0,0:0:0:0:
256,192,88134,1,8,0:0:0:0:
256,192,88365,1,0,0:0:0:0:
256,192,88480,1,0,0:0:0:0:
256,192,88596,1,8,0:0:0:0:
256,192,88827,1,8,0:0:0:0:
256,192,89057,1,8,0:0:0:0:
256,192,89519,1,4,0:0:0:0:
256,192,89750,1,8,0:0:0:0:
256,192,89980,1,0,0:0:0:0:
256,192,90096,1,8,0:0:0:0:
256,192,90211,1,0,0:0:0:0:
256,192,90442,1,8,0:0:0:0:
256,192,90904,1,0,0:0:0:0:
256,192,91134,1,8,0:0:0:0:
256,192,91250,1,8,0:0:0:0:
256,192,91365,1,0,0:0:0:0:
256,192,91596,1,0,0:0:0:0:
256,192,91827,1,8,0:0:0:0:
256,192,92057,1,8,0:0:0:0:
256,192,92288,1,0,0:0:0:0:
256,192,92404,1,8,0:0:0:0:
256,192,92519,1,0,0:0:0:0:
256,192,92980,1,0,0:0:0:0:
256,192,93211,1,8,0:0:0:0:
256,192,93442,1,8,0:0:0:0:
256,192,93673,1,0,0:0:0:0:
256,192,93904,1,8,0:0:0:0:
256,192,94020,1,8,0:0:0:0:
256,192,94134,1,0,0:0:0:0:
256,192,94596,1,0,0:0:0:0:
256,192,94827,1,8,0:0:0:0:
256,192,95057,1,0,0:0:0:0:
256,192,95288,1,0,0:0:0:0:
256,192,95519,1,8,0:0:0:0:
256,192,95750,1,8,0:0:0:0:
256,192,95865,1,8,0:0:0:0:
256,192,95980,1,0,0:0:0:0:
256,192,96442,1,8,0:0:0:0:
256,192,96673,1,0,0:0:0:0:
256,192,96904,1,4,0:0:0:0:
256,192,97134,1,8,0:0:0:0:
256,192,97250,1,0,0:0:0:0:
256,192,97480,1,0,0:0:0:0:
256,192,97596,1,8,0:0:0:0:
256,192,97827,1,0,0:0:0:0:
256,192,98057,1,8,0:0:0:0:
256,192,98288,1,0,0:0:0:0:
256,192,98519,1,8,0:0:0:0:
256,192,98634,1,8,0:0:0:0:
256,192,98750,1,0,0:0:0:0:
256,192,98980,1,8,0:0:0:0:
256,192,99096,1,0,0:0:0:0:
256,192,99442,1,8,0:0:0:0:
256,192,99673,1,0,0:0:0:0:
256,192,100134,1,8,0:0:0:0:
256,192,100365,1,0,0:0:0:0:
256,192,100596,1,8,0:0:0:0:
256,192,100827,1,8,0:0:0:0:
256,192,101057,1,0,0:0:0:0:
256,192,101288,1,0,0:0:0:0:
256,192,101519,1,8,0:0:0:0:
256,192,101750,1,0,0:0:0:0:
256,192,101980,1,0,0:0:0:0:
256,192,102211,1,8,0:0:0:0:
256,192,102442,1,0,0:0:0:0:
256,192,102557,1,0,0:0:0:0:
256,192,102673,1,8,0:0:0:0:
256,192,102904,1,0,0:0:0:0:
256,192,103134,1,8,0:0:0:0:
256,192,103250,1,8,0:0:0:0:
256,192,103365,1,0,0:0:0:0:
256,192,103596,1,0,0:0:0:0:
256,192,103827,1,8,0:0:0:0:
256,192,104057,1,8,0:0:0:0:
256,192,104288,1,4,0:0:0:0:
