osu file format v14

[General]
AudioFilename: audio.ogg
AudioLeadIn: 0
PreviewTime: 164973
Countdown: 0
SampleSet: Normal
StackLeniency: 0.7
Mode: 1
LetterboxInBreaks: 0
WidescreenStoryboard: 1

[Editor]
DistanceSpacing: 2
BeatDivisor: 4
GridSize: 32
TimelineZoom: 2.7

[Metadata]
Title:Dear Phantom
TitleUnicode:Dear Phantom
Artist:Tartarate
ArtistUnicode:Tartarate
Creator:Rinze
Version:Muzukashii
Source:
Tags:ler1211 Yorushika ヨルシカ Hana ni Bourei 花に亡霊 Ghost in a Flower japanese electronic lolicore breakcore jcore j-core watashi wa neko wo kaburu A Whisker Away n-buna 泣きたい私は猫をかぶる
BeatmapID:3780093
BeatmapSetID:1840413

[Difficulty]
HPDrainRate:6
CircleSize:5
OverallDifficulty:5
ApproachRate:5
SliderMultiplier:1.4
SliderTickRate:1

[Events]
//Background and Video events
0,0,"azusa.png",0,0
//Break Periods
//Storyboard Layer 0 (Background)
//Storyboard Layer 1 (Fail)
//Storyboard Layer 2 (Pass)
//Storyboard Layer 3 (Foreground)
//Storyboard Layer 4 (Overlay)
//Storyboard Sound Samples

[TimingPoints]
2373,300,4,1,0,60,1,0
11973,-100,4,1,0,70,0,0
25173,300,4,1,0,75,1,0
25173,-100,4,1,0,75,0,0
37173,300,4,1,0,100,1,1
37173,-100,4,1,0,100,0,1
45273,-100,4,1,0,90,0,0
46773,-100,4,1,0,100,0,1
56373,-100,4,1,0,90,0,0
75573,-100,4,1,0,60,0,0
85173,-100,4,1,0,70,0,0
95973,300,4,1,0,75,1,0
95973,-100,4,1,0,75,0,0
107973,300,4,1,0,100,1,1
107973,-100,4,1,0,100,0,1
116073,-100,4,1,0,90,0,0
117573,-100,4,1,0,100,0,1
127173,-100,4,1,0,80,0,0
146222,-100,4,1,0,60,0,0
151172,-100,4,1,0,50,0,0
151322,-100,4,1,0,50,0,0
151472,-100,4,1,0,51,0,0
151622,-100,4,1,0,51,0,0
151772,-100,4,1,0,52,0,0
151922,-100,4,1,0,52,0,0
152072,-100,4,1,0,52,0,0
152222,-100,4,1,0,53,0,0
152372,-100,4,1,0,53,0,0
152522,-100,4,1,0,54,0,0
152672,-100,4,1,0,54,0,0
152822,-100,4,1,0,54,0,0
152972,-100,4,1,0,55,0,0
153122,-100,4,1,0,55,0,0
153272,-100,4,1,0,55,0,0
153422,-100,4,1,0,56,0,0
153572,-100,4,1,0,56,0,0
153722,-100,4,1,0,57,0,0
153872,-100,4,1,0,57,0,0
154022,-100,4,1,0,57,0,0
154172,-100,4,1,0,58,0,0
154322,-100,4,1,0,58,0,0
154472,-100,4,1,0,59,0,0
154622,-100,4,1,0,59,0,0
154772,-100,4,1,0,59,0,0
154922,-100,4,1,0,60,0,0
155072,-100,4,1,0,60,0,0
155222,-100,4,1,0,61,0,0
155372,-100,4,1,0,61,0,0
155522,-100,4,1,0,61,0,0
155672,-100,4,1,0,62,0,0
155822,-100,4,1,0,62,0,0
155972,-100,4,1,0,63,0,0
156122,-100,4,1,0,63,0,0
156272,-100,4,1,0,63,0,0
156422,-100,4,1,0,64,0,0
156572,-100,4,1,0,64,0,0
156722,-100,4,1,0,64,0,0
156872,-100,4,1,0,65,0,0
157022,-100,4,1,0,65,0,0
157172,-100,4,1,0,66,0,0
157322,-100,4,1,0,66,0,0
157472,-100,4,1,0,66,0,0
157622,-100,4,1,0,67,0,0
157772,-100,4,1,0,67,0,0
157922,-100,4,1,0,68,0,0
158072,-100,4,1,0,68,0,0
158222,-100,4,1,0,68,0,0
158372,-100,4,1,0,69,0,0
158522,-100,4,1,0,69,0,0
158672,-100,4,1,0,70,0,0
158822,-100,4,1,0,70,0,0
158972,-100,4,1,0,70,0,0
159122,-100,4,1,0,71,0,0
159272,-100,4,1,0,71,0,0
159422,-100,4,1,0,71,0,0
159572,-100,4,1,0,72,0,0
159722,-100,4,1,0,72,0,0
159872,-100,4,1,0,73,0,0
160022,-100,4,1,0,73,0,0
160172,-100,4,1,0,73,0,0
160322,-100,4,1,0,74,0,0
160472,-100,4,1,0,74,0,0
160622,-100,4,1,0,75,0,0
160771,-100,4,1,0,70,0,0
165423,-100,4,1,0,75,0,0
173523,-100,4,1,0,90,0,0
173673,-100,4,1,0,90,0,1
174273,-100,4,1,0,90,0,0
175173,-100,4,1,0,100,0,1
184773,-100,4,1,0,90,0,0
203898,-100,4,1,0,20,0,0
206298,-100,4,1,0,40,0,0
213423,-100,4,1,0,60,0,0

[HitObjects]
256,192,2373,5,4,0:0:0:0:
256,192,2973,1,8,0:0:0:0:
256,192,3573,1,8,0:0:0:0:
256,192,3873,1,0,0:0:0:0:
256,192,4173,1,8,0:0:0:0:
256,192,4773,1,0,0:0:0:0:
256,192,5073,1,0,0:0:0:0:
256,192,5373,1,8,0:0:0:0:
256,192,5973,1,8,0:0:0:0:
256,192,6273,1,0,0:0:0:0:
256,192,6573,1,8,0:0:0:0:
256,192,7173,1,0,0:0:0:0:
256,192,7773,1,8,0:0:0:0:
256,192,8373,1,8,0:0:0:0:
256,192,8673,1,0,0:0:0:0:
256,192,8973,1,8,0:0:0:0:
256,192,9573,1,0,0:0:0:0:
256,192,9873,1,0,0:0:0:0:
256,192,10173,1,8,0:0:0:0:
256,192,10473,1,0,0:0:0:0:
256,192,10773,1,8,0:0:0:0:
256,192,11073,1,0,0:0:0:0:
256,192,11373,1,8,0:0:0:0:
256,192,11973,1,0,0:0:0:0:
256,192,12123,1,0,0:0:0:0:
256,192,12423,1,0,0:0:0:0:
256,192,12573,1,8,0:0:0:0:
256,192,12873,1,0,0:0:0:0:
256,192,13173,1,8,0:0:0:0:
256,192,13623,1,0,0:0:0:0:
256,192,13773,1,8,0:0:0:0:
256,192,14073,1,0,0:0:0:0:
256,192,14373,1,0,0:0:0:0:
256,192,14823,1,0,0:0:0:0:
256,192,14973,1,8,0:0:0:0:
256,192,15273,1,0,0:0:0:0:
256,192,15573,1,8,0:0:0:0:
256,192,16023,1,0,0:0:0:0:
256,192,16173,1,8,0:0:0:0:
256,192,16473,1,0,0:0:0:0:
256,192,16773,1,0,0:0:0:0:
256,192,17223,1,0,0:0:0:0:
256,192,17373,1,8,0:0:0:0:
256,192,17673,1,0,0:0:0:0:
256,192,17973,1,8,0:0:0:0:
256,192,18423,1,0,0:0:0:0:
256,192,18573,1,8,0:0:0:0:
256,192,18873,1,0,0:0:0:0:
256,192,19173,1,0,0:0:0:0:
256,192,19623,1,0,0:0:0:0:
256,192,19773,1,8,0:0:0:0:
256,192,20073,1,0,0:0:0:0:
256,192,20373,1,8,0:0:0:0:
256,192,20823,1,0,0:0:0:0:
256,192,20973,1,8,0:0:0:0:
256,192,21273,1,0,0:0:0:0:
256,192,21423,1,0,0:0:0:0:
256,192,25173,1,0,0:0:0:0:
256,192,25773,1,0,0:0:0:0:
256,192,26373,1,8,0:0:0:0:
256,192,26973,1,8,0:0:0:0:
256,192,27573,1,0,0:0:0:0:
256,192,28173,1,8,0:0:0:0:
256,192,28473,1,8,0:0:0:0:
256,192,28773,1,0,0:0:0:0:
256,192,29373,1,8,0:0:0:0:
256,192,29973,1,0,0:0:0:0:
256,192,30273,1,0,0:0:0:0:
256,192,30573,1,8,0:0:0:0:
256,192,30873,1,0,0:0:0:0:
256,192,31023,1,0,0:0:0:0:
256,192,31173,1,8,0:0:0:0:
256,192,31473,1,0,0:0:0:0:
256,192,31773,1,8,0:0:0:0:
256,192,32373,1,0,0:0:0:0:
256,192,32673,1,0,0:0:0:0:
256,192,32973,1,8,0:0:0:0:
256,192,33273,1,0,0:0:0:0:
256,192,33423,1,8,0:0:0:0:
256,192,33573,1,0,0:0:0:0:
256,192,33723,1,8,0:0:0:0:
256,192,33873,1,0,0:0:0:0:
256,192,34173,1,8,0:0:0:0:
256,192,34473,1,0,0:0:0:0:
256,192,34773,1,8,0:0:0:0:
256,192,36873,1,8,0:0:0:0:
256,192,37173,1,4,0:0:0:0:
256,192,37473,1,8,0:0:0:0:
256,192,37623,1,8,0:0:0:0:
256,192,37773,1,0,0:0:0:0:
256,192,37923,1,8,0:0:0:0:
256,192,38073,1,0,0:0:0:0:
256,192,38373,1,8,0:0:0:0:
256,192,38598,1,8,0:0:0:0:
256,192,38823,1,8,0:0:0:0:
256,192,38973,1,0,0:0:0:0:
256,192,39273,1,8,0:0:0:0:
256,192,39423,1,8,0:0:0:0:
256,192,39573,1,0,0:0:0:0:
256,192,39873,1,8,0:0:0:0:
256,192,40023,1,8,0:0:0:0:
256,192,40173,1,0,0:0:0:0:
256,192,40248,1,0,0:0:0:0:
256,192,40323,1,0,0:0:0:0:
256,192,40473,1,8,0:0:0:0:
256,192,40623,1,8,0:0:0:0:
256,192,40773,1,0,0:0:0:0:
256,192,41373,1,0,0:0:0:0:
256,192,41523,1,0,0:0:0:0:
256,192,41673,1,8,0:0:0:0:
256,192,41748,1,8,0:0:0:0:
256,192,41823,1,8,0:0:0:0:
256,192,41973,1,0,0:0:0:0:
256,192,42273,1,8,0:0:0:0:
256,192,42423,1,0,0:0:0:0:
256,192,42723,1,0,0:0:0:0:
256,192,42873,1,8,0:0:0:0:
256,192,43023,1,8,0:0:0:0:
256,192,43173,1,0,0:0:0:0:
256,192,43473,1,8,0:0:0:0:
256,192,43623,1,8,0:0:0:0:
256,192,43923,1,0,0:0:0:0:
256,192,44073,1,8,0:0:0:0:
256,192,44148,1,8,0:0:0:0:
256,192,44223,1,8,0:0:0:0:
256,192,44373,1,0,0:0:0:0:
256,192,44673,1,0,0:0:0:0:
256,192,44823,1,0,0:0:0:0:
256,192,44973,1,8,0:0:0:0:
256,192,45123,1,8,0:0:0:0:
256,192,45273,1,0,0:0:0:0:
256,192,45873,1,8,0:0:0:0:
256,192,46023,1,8,0:0:0:0:
256,192,46173,1,0,0:0:0:0:
256,192,46248,1,0,0:0:0:0:
256,192,46323,1,0,0:0:0:0:
256,192,46473,1,8,0:0:0:0:
256,192,46773,1,4,0:0:0:0:
256,192,47073,1,8,0:0:0:0:
256,192,47223,1,0,0:0:0:0:
256,192,47373,1,8,0:0:0:0:
256,192,47523,1,8,0:0:0:0:
256,192,47673,1,0,0:0:0:0:
256,192,47973,1,8,0:0:0:0:
256,192,48198,1,8,0:0:0:0:
256,192,48423,1,0,0:0:0:0:
256,192,48573,1,8,0:0:0:0:
256,192,48873,1,0,0:0:0:0:
256,192,49023,1,0,0:0:0:0:
256,192,49173,1,8,0:0:0:0:
256,192,49473,1,8,0:0:0:0:
256,192,49623,1,0,0:0:0:0:
256,192,49773,1,8,0:0:0:0:
256,192,49848,1,8,0:0:0:0:
256,192,49923,1,8,0:0:0:0:
256,192,50073,1,0,0:0:0:0:
256,192,50223,1,0,0:0:0:0:
256,192,50373,1,8,0:0:0:0:
256,192,50973,1,8,0:0:0:0:
256,192,51123,1,8,0:0:0:0:
256,192,51273,1,0,0:0:0:0:
256,192,51348,1,0,0:0:0:0:
256,192,51423,1,0,0:0:0:0:
256,192,51573,1,8,0:0:0:0:
256,192,51873,1,0,0:0:0:0:
256,192,52023,1,8,0:0:0:0:
256,192,52173,1,0,0:0:0:0:
256,192,52473,1,0,0:0:0:0:
256,192,52623,1,0,0:0:0:0:
256,192,52773,1,8,0:0:0:0:
256,192,52998,1,8,0:0:0:0:
256,192,53223,1,8,0:0:0:0:
256,192,53373,1,0,0:0:0:0:
256,192,53448,1,0,0:0:0:0:
256,192,53523,1,0,0:0:0:0:
256,192,53673,1,8,0:0:0:0:
256,192,53823,1,0,0:0:0:0:
256,192,54123,1,8,0:0:0:0:
256,192,54273,1,0,0:0:0:0:
256,192,54423,1,8,0:0:0:0:
256,192,54573,1,0,0:0:0:0:
256,192,54723,1,0,0:0:0:0:
256,192,54873,1,8,0:0:0:0:
256,192,55173,1,8,0:0:0:0:
256,192,55773,1,0,0:0:0:0:
256,192,55848,1,0,0:0:0:0:
256,192,55923,1,0,0:0:0:0:
256,192,56073,1,8,0:0:0:0:
256,192,56223,1,8,0:0:0:0:
256,192,56373,1,4,0:0:0:0:
256,192,56673,1,8,0:0:0:0:
256,192,56823,1,8,0:0:0:0:
256,192,56973,1,0,0:0:0:0:
256,192,57123,1,8,0:0:0:0:
256,192,57423,1,0,0:0:0:0:
256,192,57573,1,8,0:0:0:0:
256,192,57873,1,8,0:0:0:0:
256,192,58023,1,8,0:0:0:0:
256,192,58173,1,0,0:0:0:0:
256,192,58248,1,0,0:0:0:0:
256,192,58323,1,0,0:0:0:0:
256,192,58473,1,8,0:0:0:0:
256,192,58623,1,0,0:0:0:0:
256,192,58773,1,8,0:0:0:0:
256,192,59223,1,8,0:0:0:0:
256,192,59523,1,0,0:0:0:0:
256,192,59673,1,8,0:0:0:0:
256,192,59973,1,0,0:0:0:0:
256,192,60123,1,0,0:0:0:0:
256,192,60273,1,8,0:0:0:0:
256,192,60423,1,8,0:0:0:0:
256,192,60573,1,0,0:0:0:0:
256,192,60648,1,0,0:0:0:0:
256,192,60723,1,0,0:0:0:0:
256,192,60873,1,8,0:0:0:0:
256,192,61173,1,0,0:0:0:0:
256,192,61473,1,8,0:0:0:0:
256,192,61623,1,8,0:0:0:0:
256,192,61923,1,8,0:0:0:0:
256,192,62073,1,0,0:0:0:0:
256,192,62373,1,8,0:0:0:0:
256,192,62523,1,8,0:0:0:0:
256,192,62823,1,8,0:0:0:0:
256,192,62973,1,0,0:0:0:0:
256,192,63048,1,0,0:0:0:0:
256,192,63123,1,0,0:0:0:0:
256,192,63273,1,8,0:0:0:0:
256,192,63423,1,8,0:0:0:0:
256,192,63573,1,0,0:0:0:0:
256,192,63873,1,8,0:0:0:0:
256,192,64023,1,8,0:0:0:0:
256,192,64173,1,0,0:0:0:0:
256,192,64473,1,8,0:0:0:0:
256,192,65373,1,0,0:0:0:0:
256,192,65673,1,8,0:0:0:0:
256,192,65973,1,4,0:0:0:0:
256,192,66273,1,8,0:0:0:0:
256,192,66423,1,8,0:0:0:0:
256,192,66723,1,0,0:0:0:0:
256,192,66873,1,8,0:0:0:0:
256,192,67023,1,8,0:0:0:0:
256,192,67173,1,0,0:0:0:0:
256,192,67323,1,8,0:0:0:0:
256,192,67623,1,8,0:0:0:0:
256,192,67773,1,0,0:0:0:0:
256,192,67848,1,0,0:0:0:0:
256,192,67923,1,0,0:0:0:0:
256,192,68073,1,8,0:0:0:0:
256,192,68223,1,8,0:0:0:0:
256,192,68373,1,0,0:0:0:0:
256,192,68823,1,8,0:0:0:0:
256,192,69123,1,0,0:0:0:0:
256,192,69273,1,8,0:0:0:0:
256,192,69423,1,8,0:0:0:0:
256,192,69573,1,0,0:0:0:0:
256,192,69873,1,8,0:0:0:0:
256,192,70023,1,8,0:0:0:0:
256,192,70173,1,0,0:0:0:0:
256,192,70248,1,0,0:0:0:0:
256,192,70323,1,0,0:0:0:0:
256,192,70473,1,8,0:0:0:0:
256,192,70773,1,0,0:0:0:0:
256,192,70923,1,0,0:0:0:0:
256,192,71073,1,8,0:0:0:0:
256,192,71223,1,8,0:0:0:0:
256,192,71523,1,0,0:0:0:0:
256,192,71673,1,8,0:0:0:0:
256,192,71823,1,8,0:0:0:0:
256,192,71973,1,0,0:0:0:0:
256,192,72423,1,8,0:0:0:0:
256,192,72573,1,8,0:0:0:0:
256,192,72723,1,0,0:0:0:0:
256,192,72873,1,8,0:0:0:0:
256,192,72948,1,8,0:0:0:0:
256,192,73023,1,8,0:0:0:0:
256,192,73173,1,0,0:0:0:0:
256,192,73473,1,8,0:0:0:0:
256,192,73623,1,8,0:0:0:0:
256,192,73773,1,0,0:0:0:0:
256,192,73923,1,0,0:0:0:0:
256,192,74073,1,8,0:0:0:0:
256,192,74373,1,8,0:0:0:0:
256,192,74523,1,0,0:0:0:0:
256,192,74673,1,8,0:0:0:0:
256,192,74823,1,8,0:0:0:0:
256,192,74973,1,0,0:0:0:0:
256,192,75123,1,8,0:0:0:0:
256,192,75198,1,8,0:0:0:0:
256,192,75273,1,8,0:0:0:0:
256,192,75573,1,4,0:0:0:0:
256,192,76173,1,8,0:0:0:0:
256,192,76773,1,8,0:0:0:0:
256,192,77073,1,0,0:0:0:0:
256,192,77373,1,8,0:0:0:0:
256,192,77973,1,0,0:0:0:0:
256,192,78273,1,0,0:0:0:0:
256,192,78573,1,8,0:0:0:0:
256,192,79173,1,8,0:0:0:0:
256,192,79473,1,0,0:0:0:0:
256,192,79773,1,8,0:0:0:0:
256,192,80373,1,0,0:0:0:0:
256,192,80973,1,8,0:0:0:0:
256,192,81573,1,8,0:0:0:0:
256,192,81873,1,0,0:0:0:0:
256,192,82173,1,8,0:0:0:0:
256,192,82773,1,0,0:0:0:0:
256,192,83373,1,0,0:0:0:0:
256,192,83973,1,8,0:0:0:0:
256,192,84273,1,0,0:0:0:0:
256,192,84573,1,8,0:0:0:0:
256,192,85173,1,0,0:0:0:0:
256,192,85323,1,0,0:0:0:0:
256,192,85623,1,0,0:0:0:0:
256,192,85773,1,8,0:0:0:0:
256,192,86073,1,0,0:0:0:0:
256,192,86373,1,8,0:0:0:0:
256,192,86823,1,0,0:0:0:0:
256,192,86973,1,8,0:0:0:0:
256,192,87273,1,0,0:0:0:0:
256,192,87573,1,0,0:0:0:0:
256,192,88023,1,0,0:0:0:0:
256,192,88173,1,8,0:0:0:0:
256,192,88473,1,0,0:0:0:0:
256,192,88773,1,8,0:0:0:0:
256,192,89223,1,0,0:0:0:0:
256,192,89373,1,8,0:0:0:0:
256,192,89673,1,0,0:0:0:0:
256,192,89973,1,0,0:0:0:0:
256,192,90423,1,0,0:0:0:0:
256,192,90573,1,8,0:0:0:0:
256,192,90873,1,0,0:0:0:0:
256,192,91173,1,8,0:0:0:0:
256,192,91623,1,0,0:0:0:0:
256,192,91773,1,8,0:0:0:0:
256,192,92073,1,0,0:0:0:0:
256,192,92373,1,0,0:0:0:0:
256,192,92823,1,0,0:0:0:0:
256,192,92973,1,8,0:0:0:0:
256,192,93273,1,0,0:0:0:0:
256,192,93573,1,8,0:0:0:0:
256,192,94023,1,0,0:0:0:0:
256,192,94173,1,8,0:0:0:0:
256,192,94473,1,0,0:0:0:0:
256,192,94623,1,0,0:0:0:0:
256,192,95223,1,0,0:0:0:0:
256,192,95373,1,8,0:0:0:0:
256,192,95673,1,8,0:0:0:0:
256,192,95973,1,0,0:0:0:0:
256,192,96573,1,0,0:0:0:0:
256,192,97173,1,8,0:0:0:0:
256,192,97773,1,8,0:0:0:0:
256,192,98373,1,0,0:0:0:0:
256,192,98973,1,8,0:0:0:0:
256,192,99273,1,8,0:0:0:0:
256,192,99573,1,0,0:0:0:0:
256,192,100173,1,8,0:0:0:0:
256,192,100773,1,0,0:0:0:0:
256,192,101073,1,0,0:0:0:0:
256,192,101373,1,8,0:0:0:0:
256,192,101673,1,0,0:0:0:0:
256,192,101823,1,0,0:0:0:0:
256,192,101973,1,8,0:0:0:0:
256,192,102273,1,0,0:0:0:0:
256,192,102573,1,8,0:0:0:0:
256,192,103173,1,0,0:0:0:0:
256,192,103473,1,0,0:0:0:0:
256,192,103773,1,8,0:0:0:0:
256,192,104073,1,0,0:0:0:0:
256,192,104223,1,8,0:0:0:0:
256,192,104373,1,0,0:0:0:0:
256,192,104523,1,8,0:0:0:0:
256,192,104673,1,0,0:0:0:0:
256,192,104973,1,8,0:0:0:0:
256,192,105273,1,0,0:0:0:0:
256,192,105573,1,8,0:0:0:0:
256,192,106773,1,0,0:0:0:0:
256,192,107073,1,8,0:0:0:0:
256,192,107373,1,8,0:0:0:0:
256,192,107973,1,4,0:0:0:0:
256,192,108273,1,8,0:0:0:0:
256,192,108423,1,8,0:0:0:0:
256,192,108573,1,0,0:0:0:0:
256,192,108723,1,8,0:0:0:0:
256,192,108873,1,0,0:0:0:0:
256,192,109173,1,8,0:0:0:0:
256,192,109398,1,8,0:0:0:0:
256,192,109623,1,8,0:0:0:0:
256,192,109773,1,0,0:0:0:0:
256,192,110073,1,8,0:0:0:0:
256,192,110223,1,8,0:0:0:0:
256,192,110373,1,0,0:0:0:0:
256,192,110673,1,8,0:0:0:0:
256,192,110823,1,8,0:0:0:0:
256,192,110973,1,0,0:0:0:0:
256,192,111048,1,0,0:0:0:0:
256,192,111123,1,0,0:0:0:0:
256,192,111273,1,8,0:0:0:0:
256,192,111423,1,8,0:0:0:0:
256,192,111573,1,0,0:0:0:0:
256,192,112173,1,0,0:0:0:0:
256,192,112323,1,0,0:0:0:0:
256,192,112473,1,8,0:0:0:0:
256,192,112548,1,8,0:0:0:0:
256,192,112623,1,8,0:0:0:0:
256,192,112773,1,0,0:0:0:0:
256,192,113073,1,8,0:0:0:0:
256,192,113223,1,0,0:0:0:0:
256,192,113523,1,0,0:0:0:0:
256,192,113673,1,8,0:0:0:0:
256,192,113823,1,8,0:0:0:0:
256,192,113973,1,0,0:0:0:0:
256,192,114273,1,8,0:0:0:0:
256,192,114423,1,8,0:0:0:0:
256,192,114723,1,0,0:0:0:0:
256,192,114873,1,8,0:0:0:0:
256,192,114948,1,8,0:0:0:0:
256,192,115023,1,8,0:0:0:0:
256,192,115173,1,0,0:0:0:0:
256,192,115473,1,0,0:0:0:0:
256,192,115623,1,0,0:0:0:0:
256,192,115773,1,8,0:0:0:0:
256,192,115923,1,8,0:0:0:0:
256,192,116073,1,0,0:0:0:0:
256,192,116673,1,8,0:0:0:0:
256,192,116823,1,8,0:0:0:0:
256,192,116973,1,0,0:0:0:0:
256,192,117048,1,0,0:0:0:0:
256,192,117123,1,0,0:0:0:0:
256,192,117273,1,8,0:0:0:0:
256,192,117573,1,4,0:0:0:0:
256,192,117873,1,8,0:0:0:0:
256,192,118023,1,0,0:0:0:0:
256,192,118173,1,8,0:0:0:0:
256,192,118323,1,8,0:0:0:0:
256,192,118473,1,0,0:0:0:0:
256,192,118773,1,8,0:0:0:0:
256,192,118998,1,8,0:0:0:0:
256,192,119223,1,0,0:0:0:0:
256,192,119373,1,8,0:0:0:0:
256,192,119673,1,0,0:0:0:0:
256,192,119823,1,0,0:0:0:0:
256,192,119973,1,8,0:0:0:0:
256,192,120273,1,8,0:0:0:0:
256,192,120423,1,0,0:0:0:0:
256,192,120573,1,8,0:0:0:0:
256,192,120648,1,8,0:0:0:0:
256,192,120723,1,8,0:0:0:0:
256,192,120873,1,0,0:0:0:0:
256,192,121023,1,0,0:0:0:0:
256,192,121173,1,8,0:0:0:0:
256,192,121773,1,8,0:0:0:0:
256,192,121923,1,8,0:0:0:0:
256,192,122073,1,0,0:0:0:0:
256,192,122148,1,0,0:0:0:0:
256,192,122223,1,0,0:0:0:0:
256,192,122373,1,8,0:0:0:0:
256,192,122673,1,0,0:0:0:0:
256,192,122823,1,8,0:0:0:0:
256,192,122973,1,0,0:0:0:0:
256,192,123273,1,0,0:0:0:0:
256,192,123423,1,0,0:0:0:0:
256,192,123573,1,8,0:0:0:0:
256,192,123798,1,8,0:0:0:0:
256,192,124023,1,8,0:0:0:0:
256,192,124173,1,0,0:0:0:0:
256,192,124248,1,0,0:0:0:0:
256,192,124323,1,0,0:0:0:0:
256,192,124473,1,8,0:0:0:0:
256,192,124623,1,0,0:0:0:0:
256,192,124923,1,8,0:0:0:0:
256,192,125073,1,0,0:0:0:0:
256,192,125223,1,8,0:0:0:0:
256,192,125373,1,0,0:0:0:0:
256,192,125523,1,0,0:0:0:0:
256,192,125673,1,8,0:0:0:0:
256,192,125973,1,8,0:0:0:0:
256,192,126573,1,0,0:0:0:0:
256,192,126648,1,0,0:0:0:0:
256,192,126723,1,0,0:0:0:0:
256,192,126873,1,8,0:0:0:0:
256,192,127023,1,8,0:0:0:0:
256,192,127173,1,4,0:0:0:0:
256,192,127473,1,0,0:0:0:0:
256,192,127773,1,12,0:0:0:0:
256,192,128073,1,8,0:0:0:0:
256,192,128373,1,0,0:0:0:0:
256,192,128523,1,8,0:0:0:0:
256,192,128673,1,0,0:0:0:0:
256,192,128973,1,12,0:0:0:0:
256,192,129573,1,0,0:0:0:0:
256,192,129873,1,0,0:0:0:0:
256,192,130173,1,12,0:0:0:0:
256,192,130473,1,0,0:0:0:0:
256,192,130773,1,8,0:0:0:0:
256,192,130923,1,8,0:0:0:0:
256,192,131073,1,0,0:0:0:0:
256,192,131373,1,12,0:0:0:0:
256,192,131973,1,0,0:0:0:0:
256,192,132273,1,0,0:0:0:0:
256,192,132573,1,12,0:0:0:0:
256,192,132873,1,8,0:0:0:0:
256,192,133173,1,0,0:0:0:0:
256,192,133323,1,0,0:0:0:0:
256,192,133473,1,8,0:0:0:0:
256,192,133773,1,12,0:0:0:0:
256,192,134373,1,0,0:0:0:0:
256,192,134673,1,0,0:0:0:0:
256,192,134973,1,12,0:0:0:0:
256,192,135573,1,8,0:0:0:0:
256,192,135648,1,8,0:0:0:0:
256,192,135723,1,8,0:0:0:0:
256,192,135873,1,0,0:0:0:0:
256,192,136173,1,12,0:0:0:0:
256,192,136773,1,4,0:0:0:0:
256,192,137073,1,0,0:0:0:0:
256,192,137373,1,12,0:0:0:0:
256,192,137673,1,8,0:0:0:0:
256,192,137973,1,0,0:0:0:0:
256,192,138123,1,8,0:0:0:0:
256,192,138273,1,0,0:0:0:0:
256,192,138573,1,12,0:0:0:0:
256,192,139173,1,0,0:0:0:0:
256,192,139473,1,0,0:0:0:0:
256,192,139773,1,12,0:0:0:0:
256,192,140073,1,0,0:0:0:0:
256,192,140373,1,8,0:0:0:0:
256,192,140523,1,8,0:0:0:0:
256,192,140673,1,0,0:0:0:0:
256,192,140973,1,12,0:0:0:0:
256,192,141573,1,0,0:0:0:0:
256,192,141873,1,0,0:0:0:0:
256,192,142173,1,12,0:0:0:0:
256,192,142473,1,8,0:0:0:0:
256,192,142773,1,0,0:0:0:0:
256,192,142923,1,0,0:0:0:0:
256,192,143073,1,8,0:0:0:0:
256,192,143373,1,12,0:0:0:0:
256,192,143973,1,0,0:0:0:0:
256,192,144273,1,0,0:0:0:0:
256,192,144573,1,12,0:0:0:0:
256,192,145173,1,8,0:0:0:0:
256,192,145248,1,8,0:0:0:0:
256,192,145323,1,8,0:0:0:0:
256,192,145473,1,0,0:0:0:0:
256,192,145773,1,12,0:0:0:0:
256,192,146373,1,0,0:0:0:0:
256,192,151173,1,0,0:0:0:0:
256,192,151773,1,0,0:0:0:0:
256,192,152373,1,8,0:0:0:0:
256,192,152973,1,8,0:0:0:0:
256,192,153573,1,0,0:0:0:0:
256,192,154173,1,8,0:0:0:0:
256,192,154473,1,8,0:0:0:0:
256,192,154773,1,0,0:0:0:0:
256,192,155373,1,8,0:0:0:0:
256,192,155973,1,0,0:0:0:0:
256,192,156273,1,0,0:0:0:0:
256,192,156573,1,8,0:0:0:0:
256,192,156873,1,0,0:0:0:0:
256,192,157023,1,0,0:0:0:0:
256,192,157173,1,8,0:0:0:0:
256,192,157473,1,0,0:0:0:0:
256,192,157773,1,8,0:0:0:0:
256,192,158373,1,0,0:0:0:0:
256,192,158673,1,0,0:0:0:0:
256,192,158973,1,8,0:0:0:0:
256,192,159273,1,0,0:0:0:0:
256,192,159423,1,8,0:0:0:0:
256,192,159573,1,0,0:0:0:0:
256,192,159723,1,8,0:0:0:0:
256,192,159873,1,0,0:0:0:0:
256,192,160173,1,8,0:0:0:0:
256,192,160473,1,0,0:0:0:0:
256,192,160773,8,0,164973,0:0:0:0:
256,192,165573,5,0,0:0:0:0:
256,192,165873,1,0,0:0:0:0:
256,192,166173,1,8,0:0:0:0:
256,192,166473,1,0,0:0:0:0:
256,192,166623,1,8,0:0:0:0:
256,192,166923,1,8,0:0:0:0:
256,192,167073,1,0,0:0:0:0:
256,192,167373,1,8,0:0:0:0:
256,192,167973,1,0,0:0:0:0:
256,192,168273,1,0,0:0:0:0:
256,192,168573,1,8,0:0:0:0:
256,192,168873,1,0,0:0:0:0:
256,192,169023,1,8,0:0:0:0:
256,192,169173,1,0,0:0:0:0:
256,192,169473,1,0,0:0:0:0:
256,192,169773,1,8,0:0:0:0:
256,192,170373,1,0,0:0:0:0:
256,192,170673,1,0,0:0:0:0:
256,192,170973,1,8,0:0:0:0:
256,192,171273,1,0,0:0:0:0:
256,192,171423,1,8,0:0:0:0:
256,192,171573,1,0,0:0:0:0:
256,192,171723,1,8,0:0:0:0:
256,192,171873,1,0,0:0:0:0:
256,192,172173,1,8,0:0:0:0:
256,192,172473,1,8,0:0:0:0:
256,192,172773,1,0,0:0:0:0:
256,192,173073,1,0,0:0:0:0:
256,192,173373,1,8,0:0:0:0:
256,192,173673,1,4,0:0:0:0:
256,192,174273,1,8,0:0:0:0:
256,192,174573,1,0,0:0:0:0:
256,192,174648,1,0,0:0:0:0:
256,192,174723,1,0,0:0:0:0:
256,192,174873,1,8,0:0:0:0:
256,192,175173,1,4,0:0:0:0:
256,192,175473,1,8,0:0:0:0:
256,192,175623,1,8,0:0:0:0:
256,192,175773,1,0,0:0:0:0:
256,192,175923,1,8,0:0:0:0:
256,192,176073,1,0,0:0:0:0:
256,192,176373,1,8,0:0:0:0:
256,192,176598,1,8,0:0:0:0:
256,192,176823,1,8,0:0:0:0:
256,192,176973,1,0,0:0:0:0:
256,192,177273,1,8,0:0:0:0:
256,192,177423,1,8,0:0:0:0:
256,192,177573,1,0,0:0:0:0:
256,192,177873,1,8,0:0:0:0:
256,192,178023,1,8,0:0:0:0:
256,192,178173,1,0,0:0:0:0:
256,192,178248,1,0,0:0:0:0:
256,192,178323,1,0,0:0:0:0:
256,192,178473,1,8,0:0:0:0:
256,192,178623,1,8,0:0:0:0:
256,192,178773,1,0,0:0:0:0:
256,192,179373,1,0,0:0:0:0:
256,192,179523,1,0,0:0:0:0:
256,192,179673,1,8,0:0:0:0:
256,192,179748,1,8,0:0:0:0:
256,192,179823,1,8,0:0:0:0:
256,192,179973,1,0,0:0:0:0:
256,192,180273,1,8,0:0:0:0:
256,192,180423,1,8,0:0:0:0:
256,192,180573,1,0,0:0:0:0:
256,192,180873,1,8,0:0:0:0:
256,192,180948,1,8,0:0:0:0:
256,192,181023,1,8,0:0:0:0:
256,192,181173,1,0,0:0:0:0:
256,192,181398,1,8,0:0:0:0:
256,192,181623,1,8,0:0:0:0:
256,192,181773,1,0,0:0:0:0:
256,192,181848,1,0,0:0:0:0:
256,192,181923,1,0,0:0:0:0:
256,192,182073,1,8,0:0:0:0:
256,192,182223,1,0,0:0:0:0:
256,192,182373,1,8,0:0:0:0:
256,192,182673,1,0,0:0:0:0:
256,192,182973,1,8,0:0:0:0:
256,192,183123,1,8,0:0:0:0:
256,192,183273,1,0,0:0:0:0:
256,192,183348,1,0,0:0:0:0:
256,192,183423,1,0,0:0:0:0:
256,192,183573,1,8,0:0:0:0:
256,192,184173,1,0,0:0:0:0:
256,192,184473,1,8,0:0:0:0:
256,192,184773,1,4,0:0:0:0:
256,192,185073,1,8,0:0:0:0:
256,192,185223,1,8,0:0:0:0:
256,192,185373,1,0,0:0:0:0:
256,192,185523,1,8,0:0:0:0:
256,192,185823,1,0,0:0:0:0:
256,192,185973,1,8,0:0:0:0:
256,192,186273,1,8,0:0:0:0:
256,192,186423,1,8,0:0:0:0:
256,192,186573,1,0,0:0:0:0:
256,192,186648,1,0,0:0:0:0:
256,192,186723,1,0,0:0:0:0:
256,192,186873,1,8,0:0:0:0:
256,192,187023,1,0,0:0:0:0:
256,192,187173,1,8,0:0:0:0:
256,192,187473,1,0,0:0:0:0:
256,192,187623,1,8,0:0:0:0:
256,192,188073,1,8,0:0:0:0:
256,192,188223,1,8,0:0:0:0:
256,192,188373,1,0,0:0:0:0:
256,192,188673,1,0,0:0:0:0:
256,192,188823,1,8,0:0:0:0:
256,192,188973,1,0,0:0:0:0:
256,192,189048,1,0,0:0:0:0:
256,192,189123,1,0,0:0:0:0:
256,192,189273,1,8,0:0:0:0:
256,192,189573,1,0,0:0:0:0:
256,192,189873,1,8,0:0:0:0:
256,192,190023,1,8,0:0:0:0:
256,192,190173,1,0,0:0:0:0:
256,192,190473,1,8,0:0:0:0:
256,192,190773,1,0,0:0:0:0:
256,192,190923,1,8,0:0:0:0:
256,192,191223,1,8,0:0:0:0:
256,192,191373,1,0,0:0:0:0:
256,192,191448,1,0,0:0:0:0:
256,192,191523,1,0,0:0:0:0:
256,192,191673,1,8,0:0:0:0:
256,192,191823,1,8,0:0:0:0:
256,192,191973,1,0,0:0:0:0:
256,192,192273,1,8,0:0:0:0:
256,192,192423,1,8,0:0:0:0:
256,192,192573,1,0,0:0:0:0:
256,192,192723,1,0,0:0:0:0:
256,192,193023,1,0,0:0:0:0:
256,192,193173,1,8,0:0:0:0:
256,192,193473,1,8,0:0:0:0:
256,192,193623,1,8,0:0:0:0:
256,192,193773,1,0,0:0:0:0:
256,192,193848,1,0,0:0:0:0:
256,192,193923,1,0,0:0:0:0:
256,192,194073,1,8,0:0:0:0:
256,192,194373,1,4,0:0:0:0:
256,192,194673,1,8,0:0:0:0:
256,192,194823,1,8,0:0:0:0:
256,192,194973,1,0,0:0:0:0:
256,192,195123,1,0,0:0:0:0:
256,192,195423,1,8,0:0:0:0:
256,192,195573,1,0,0:0:0:0:
256,192,195873,1,8,0:0:0:0:
256,192,196023,1,8,0:0:0:0:
256,192,196173,1,0,0:0:0:0:
256,192,196248,1,0,0:0:0:0:
256,192,196323,1,0,0:0:0:0:
256,192,196473,1,8,0:0:0:0:
256,192,196623,1,8,0:0:0:0:
256,192,196773,1,0,0:0:0:0:
256,192,197223,1,8,0:0:0:0:
256,192,197523,1,0,0:0:0:0:
256,192,197673,1,8,0:0:0:0:
256,192,197823,1,8,0:0:0:0:
256,192,197973,1,0,0:0:0:0:
256,192,198273,1,8,0:0:0:0:
256,192,198423,1,8,0:0:0:0:
256,192,198573,1,0,0:0:0:0:
256,192,198648,1,0,0:0:0:0:
256,192,198723,1,0,0:0:0:0:
256,192,198873,1,8,0:0:0:0:
256,192,199173,1,0,0:0:0:0:
256,192,199323,1,0,0:0:0:0:
256,192,199473,1,8,0:0:0:0:
256,192,199623,1,8,0:0:0:0:
256,192,199923,1,0,0:0:0:0:
256,192,200073,1,8,0:0:0:0:
256,192,200223,1,8,0:0:0:0:
256,192,200373,1,0,0:0:0:0:
256,192,200823,1,8,0:0:0:0:
256,192,200973,1,8,0:0:0:0:
256,192,201123,1,0,0:0:0:0:
256,192,201273,1,8,0:0:0:0:
256,192,201348,1,8,0:0:0:0:
256,192,201423,1,8,0:0:0:0:
256,192,201573,1,0,0:0:0:0:
256,192,201873,1,8,0:0:0:0:
256,192,202023,1,8,0:0:0:0:
256,192,202173,1,0,0:0:0:0:
256,192,202323,1,0,0:0:0:0:
256,192,202473,1,8,0:0:0:0:
256,192,202773,1,8,0:0:0:0:
256,192,202923,1,0,0:0:0:0:
256,192,203073,1,8,0:0:0:0:
256,192,203223,1,8,0:0:0:0:
256,192,203373,1,0,0:0:0:0:
256,192,203523,1,8,0:0:0:0:
256,192,203673,1,0,0:0:0:0:
256,192,203823,1,8,0:0:0:0:
256,192,203973,1,0,0:0:0:0:
256,192,205773,8,0,206223,0:0:0:0:
256,192,206373,5,0,0:0:0:0:
256,192,206973,1,8,0:0:0:0:
256,192,207573,1,0,0:0:0:0:
256,192,207873,1,0,0:0:0:0:
256,192,208173,1,8,0:0:0:0:
256,192,208773,1,0,0:0:0:0:
256,192,209373,1,8,0:0:0:0:
256,192,209973,1,0,0:0:0:0:
256,192,210273,1,8,0:0:0:0:
256,192,210573,1,0,0:0:0:0:
275,193,211173,1,0,0:0:0:0:
275,193,211773,1,8,0:0:0:0:
275,193,212373,1,0,0:0:0:0:
275,193,212673,1,0,0:0:0:0:
275,193,212973,1,8,0:0:0:0:
275,193,213573,1,0,0:0:0:0:
275,193,213873,1,0,0:0:0:0:
275,193,214173,1,8,0:0:0:0:
275,193,214473,1,8,0:0:0:0:
275,193,214773,1,0,0:0:0:0:
275,193,214923,1,8,0:0:0:0:
275,193,215073,1,0,0:0:0:0:
275,193,215373,1,8,0:0:0:0:
