osu file format v14

[General]
AudioFilename: audio.ogg
AudioLeadIn: 0
PreviewTime: 164973
Countdown: 0
SampleSet: Normal
StackLeniency: 0.7
Mode: 1
LetterboxInBreaks: 0
WidescreenStoryboard: 0

[Editor]
DistanceSpacing: 2
BeatDivisor: 4
GridSize: 32
TimelineZoom: 2.7

[Metadata]
Title:Dear Phantom
TitleUnicode:Dear Phantom
Artist:Tartarate
ArtistUnicode:Tartarate
Creator:Rinze
Version:Dear Azusa
Source:
Tags:ler1211 Yorushika ヨルシカ Hana ni Bourei 花に亡霊 Ghost in a Flower japanese electronic lolicore breakcore jcore j-core watashi wa neko wo kaburu A Whisker Away n-buna 泣きたい私は猫をかぶる
BeatmapID:3780092
BeatmapSetID:1840413

[Difficulty]
HPDrainRate:5
CircleSize:5
OverallDifficulty:6
ApproachRate:5
SliderMultiplier:1.4
SliderTickRate:1

[Events]
//Background and Video events
0,0,"azusa.png",0,0
//Break Periods
//Storyboard Layer 0 (Background)
//Storyboard Layer 1 (Fail)
//Storyboard Layer 2 (Pass)
//Storyboard Layer 3 (Foreground)
//Storyboard Layer 4 (Overlay)
//Storyboard Sound Samples

[TimingPoints]
2373,300,4,1,0,60,1,0
2373,-125,4,1,0,60,0,0
11973,-111.111111111111,4,1,0,70,0,0
25173,300,4,1,0,75,1,0
25173,-125,4,1,0,75,0,0
32371,-125,4,1,0,75,0,0
32521,-123.268791193401,4,1,0,75,0,0
32671,-121.561559058259,4,1,0,75,0,0
32821,-119.877971525575,4,1,0,75,0,0
32971,-118.217701125397,4,1,0,75,0,0
33121,-116.580424923124,4,1,0,75,0,0
33271,-114.965824456693,4,1,0,75,0,0
33421,-113.373585674634,4,1,0,75,0,0
33571,-111.80339887499,4,1,0,75,0,0
33721,-110.254958645069,4,1,0,75,0,0
33871,-108.727963802049,4,1,0,75,0,0
34021,-107.222117334388,4,1,0,75,0,0
34171,-105.737126344057,4,1,0,75,0,0
34321,-104.272701989566,4,1,0,75,0,0
34471,-102.828559429789,4,1,0,75,0,0
34621,-101.404417768552,4,1,0,75,0,0
34771,-100,4,1,0,75,0,0
35823,-90.9090909090909,4,1,0,75,0,0
36723,-105.263157894737,4,1,0,75,0,0
37173,300,4,1,0,100,1,1
37173,-90.9090909090909,4,1,0,100,0,1
45273,-90.9090909090909,4,1,0,90,0,0
45571,-100,4,1,0,90,0,0
45646,-99.4060820831941,4,1,0,90,0,0
45721,-98.8156915513073,4,1,0,90,0,0
45796,-98.2288074545685,4,1,0,90,0,0
45871,-97.6454089676311,4,1,0,90,0,0
45946,-97.0654753888339,4,1,0,90,0,0
46021,-96.4889861394669,4,1,0,90,0,0
46096,-95.9159207630403,4,1,0,90,0,0
46171,-95.3462589245593,4,1,0,90,0,0
46246,-94.7799804098022,4,1,0,90,0,0
46321,-94.2170651246033,4,1,0,90,0,0
46396,-93.6574930941396,4,1,0,90,0,0
46471,-93.1012444622223,4,1,0,90,0,0
46546,-92.5482994905919,4,1,0,90,0,0
46621,-91.9986385582182,4,1,0,90,0,0
46696,-91.4522421606035,4,1,0,90,0,0
46773,-90.9090909090909,4,1,0,100,0,1
56373,-90.9090909090909,4,1,0,80,0,0
56523,-100,4,1,0,90,0,0
74371,-100,4,1,0,90,0,0
74446,-101.404417768551,4,1,0,90,0,0
74521,-102.828559429789,4,1,0,90,0,0
74596,-104.272701989566,4,1,0,90,0,0
74671,-105.737126344056,4,1,0,90,0,0
74746,-107.222117334388,4,1,0,90,0,0
74821,-108.727963802049,4,1,0,90,0,0
74896,-110.254958645069,4,1,0,90,0,0
74971,-111.80339887499,4,1,0,90,0,0
75046,-113.373585674634,4,1,0,90,0,0
75121,-114.965824456693,4,1,0,90,0,0
75196,-116.580424923124,4,1,0,90,0,0
75271,-118.217701125397,4,1,0,90,0,0
75346,-119.877971525575,4,1,0,90,0,0
75421,-121.561559058259,4,1,0,90,0,0
75496,-123.268791193401,4,1,0,90,0,0
75571,-125,4,1,0,90,0,0
85173,-111.111111111111,4,1,0,70,0,0
95073,-115.942028985507,4,1,0,70,0,0
95298,-117.647058823529,4,1,0,70,0,0
95448,-119.402985074627,4,1,0,70,0,0
95598,-121.212121212121,4,1,0,70,0,0
95973,300,4,1,0,75,1,0
95973,-125,4,1,0,75,0,0
103171,-125,4,1,0,75,0,0
103321,-123.268791193401,4,1,0,75,0,0
103471,-121.561559058259,4,1,0,75,0,0
103621,-119.877971525575,4,1,0,75,0,0
103771,-118.217701125397,4,1,0,75,0,0
103921,-116.580424923124,4,1,0,75,0,0
104071,-114.965824456693,4,1,0,75,0,0
104221,-113.373585674634,4,1,0,75,0,0
104371,-111.80339887499,4,1,0,75,0,0
104521,-110.254958645069,4,1,0,75,0,0
104671,-108.727963802049,4,1,0,75,0,0
104821,-107.222117334388,4,1,0,75,0,0
104971,-105.737126344057,4,1,0,75,0,0
105121,-104.272701989566,4,1,0,75,0,0
105271,-102.828559429789,4,1,0,75,0,0
105421,-101.404417768552,4,1,0,75,0,0
105571,-100,4,1,0,75,0,0
106623,-111.111111111111,4,1,0,75,0,0
107973,300,4,1,0,100,1,1
107973,-90.9090909090909,4,1,0,100,0,1
116073,-90.9090909090909,4,1,0,90,0,0
116365,-100,4,1,0,90,0,0
116440,-99.4060820831941,4,1,0,90,0,0
116515,-98.8156915513073,4,1,0,90,0,0
116590,-98.2288074545685,4,1,0,90,0,0
116665,-97.6454089676311,4,1,0,90,0,0
116740,-97.0654753888339,4,1,0,90,0,0
116815,-96.4889861394669,4,1,0,90,0,0
116890,-95.9159207630403,4,1,0,90,0,0
116965,-95.3462589245593,4,1,0,90,0,0
117040,-94.7799804098022,4,1,0,90,0,0
117115,-94.2170651246033,4,1,0,90,0,0
117190,-93.6574930941396,4,1,0,90,0,0
117265,-93.1012444622223,4,1,0,90,0,0
117340,-92.5482994905919,4,1,0,90,0,0
117415,-91.9986385582182,4,1,0,90,0,0
117490,-91.4522421606035,4,1,0,90,0,0
117573,-90.9090909090909,4,1,0,100,0,1
127173,-90.9090909090909,4,1,0,80,0,0
127323,-125,4,1,0,80,0,0
139171,-125,4,1,0,80,0,0
139246,-124.586033693852,4,1,0,80,0,0
139321,-124.173438332525,4,1,0,80,0,0
139396,-123.76220937582,4,1,0,80,0,0
139471,-123.352342298572,4,1,0,80,0,0
139546,-122.943832590603,4,1,0,80,0,0
139621,-122.536675756674,4,1,0,80,0,0
139696,-122.130867316429,4,1,0,80,0,0
139771,-121.726402804352,4,1,0,80,0,0
139846,-121.323277769715,4,1,0,80,0,0
139921,-120.921487776531,4,1,0,80,0,0
139996,-120.5210284035,4,1,0,80,0,0
140071,-120.12189524397,4,1,0,80,0,0
140146,-119.724083905877,4,1,0,80,0,0
140221,-119.327590011705,4,1,0,80,0,0
140296,-118.932409198436,4,1,0,80,0,0
140371,-118.538537117499,4,1,0,80,0,0
140446,-118.145969434725,4,1,0,80,0,0
140521,-117.7547018303,4,1,0,80,0,0
140596,-117.364729998714,4,1,0,80,0,0
140671,-116.976049648717,4,1,0,80,0,0
140746,-116.58865650327,4,1,0,80,0,0
140821,-116.202546299499,4,1,0,80,0,0
140896,-115.817714788646,4,1,0,80,0,0
140971,-115.434157736026,4,1,0,80,0,0
141046,-115.051870920976,4,1,0,80,0,0
141121,-114.670850136811,4,1,0,80,0,0
141196,-114.29109119078,4,1,0,80,0,0
141271,-113.912589904013,4,1,0,80,0,0
141346,-113.535342111482,4,1,0,80,0,0
141421,-113.159343661953,4,1,0,80,0,0
141496,-112.784590417938,4,1,0,80,0,0
141571,-112.411078255653,4,1,0,80,0,0
141646,-112.038803064968,4,1,0,80,0,0
141721,-111.667760749368,4,1,0,80,0,0
141796,-111.297947225902,4,1,0,80,0,0
141871,-110.929358425142,4,1,0,80,0,0
141946,-110.561990291137,4,1,0,80,0,0
142021,-110.195838781368,4,1,0,80,0,0
142096,-109.830899866702,4,1,0,80,0,0
142171,-109.467169531353,4,1,0,80,0,0
142246,-109.10464377283,4,1,0,80,0,0
142321,-108.7433186019,4,1,0,80,0,0
142396,-108.383190042541,4,1,0,80,0,0
142471,-108.024254131898,4,1,0,80,0,0
142546,-107.666506920239,4,1,0,80,0,0
142621,-107.309944470914,4,1,0,80,0,0
142696,-106.954562860309,4,1,0,80,0,0
142771,-106.600358177806,4,1,0,80,0,0
142846,-106.247326525734,4,1,0,80,0,0
142921,-105.895464019335,4,1,0,80,0,0
142996,-105.544766786712,4,1,0,80,0,0
143071,-105.195230968792,4,1,0,80,0,0
143146,-104.846852719284,4,1,0,80,0,0
143221,-104.499628204633,4,1,0,80,0,0
143296,-104.153553603979,4,1,0,80,0,0
143371,-103.808625109118,4,1,0,80,0,0
143446,-103.464838924456,4,1,0,80,0,0
143521,-103.122191266971,4,1,0,80,0,0
143596,-102.780678366165,4,1,0,80,0,0
143671,-102.440296464032,4,1,0,80,0,0
143746,-102.101041815009,4,1,0,80,0,0
143821,-101.762910685937,4,1,0,80,0,0
143896,-101.425899356021,4,1,0,80,0,0
143971,-101.090004116788,4,1,0,80,0,0
144046,-100.755221272046,4,1,0,80,0,0
144121,-100.421547137845,4,1,0,80,0,0
144196,-100.088978042435,4,1,0,80,0,0
144271,-99.7575103262241,4,1,0,80,0,0
144346,-99.4271403417421,4,1,0,80,0,0
144421,-99.0978644535972,4,1,0,80,0,0
144496,-98.7696790384372,4,1,0,80,0,0
144571,-98.4425804849095,4,1,0,80,0,0
144646,-98.1165651936215,4,1,0,80,0,0
144721,-97.7916295771006,4,1,0,80,0,0
144796,-97.4677700597549,4,1,0,80,0,0
144871,-97.144983077834,4,1,0,80,0,0
144946,-96.8232650793898,4,1,0,80,0,0
145021,-96.502612524237,4,1,0,80,0,0
145096,-96.1830218839148,4,1,0,80,0,0
145171,-95.8644896416474,4,1,0,80,0,0
145246,-95.5470122923058,4,1,0,80,0,0
145321,-95.2305863423689,4,1,0,80,0,0
145396,-94.9152083098853,4,1,0,80,0,0
145471,-94.6008747244349,4,1,0,80,0,0
145546,-94.2875821270907,4,1,0,80,0,0
145621,-93.9753270703805,4,1,0,80,0,0
145696,-93.6641061182496,4,1,0,80,0,0
145771,-93.3539158460223,4,1,0,80,0,0
145846,-93.0447528403646,4,1,0,80,0,0
145921,-92.7366136992464,4,1,0,80,0,0
145996,-92.4294950319045,4,1,0,80,0,0
146071,-92.1233934588048,4,1,0,80,0,0
146146,-91.8183056116052,4,1,0,80,0,0
146221,-91.5142281331188,4,1,0,80,0,0
146298,-90.9090909090909,4,1,0,60,0,0
147423,-105.263157894737,4,1,0,60,0,0
148623,-117.647058823529,4,1,0,60,0,0
149823,-129.032258064516,4,1,0,60,0,0
151171,-142.857142857143,4,1,0,50,0,0
151321,-142.063207801891,4,1,0,50,0,0
151471,-141.273685076742,4,1,0,51,0,0
151621,-140.488550159973,4,1,0,51,0,0
151771,-139.707778666138,4,1,0,52,0,0
151921,-138.931346345316,4,1,0,52,0,0
152071,-138.159229082358,4,1,0,53,0,0
152221,-137.391402896132,4,1,0,53,0,0
152371,-136.627843938785,4,1,0,54,0,0
152521,-135.868528495,4,1,0,54,0,0
152671,-135.113432981256,4,1,0,55,0,0
152821,-134.362533945101,4,1,0,55,0,0
152971,-133.61580806442,4,1,0,56,0,0
153121,-132.873232146713,4,1,0,56,0,0
153271,-132.134783128371,4,1,0,57,0,0
153421,-131.400438073965,4,1,0,57,0,0
153571,-130.670174175528,4,1,0,58,0,0
153721,-129.943968751851,4,1,0,58,0,0
153871,-129.221799247776,4,1,0,58,0,0
154021,-128.503643233497,4,1,0,59,0,0
154171,-127.789478403862,4,1,0,59,0,0
154321,-127.079282577681,4,1,0,60,0,0
154471,-126.373033697038,4,1,0,60,0,0
154621,-125.670709826604,4,1,0,61,0,0
154771,-124.972289152955,4,1,0,61,0,0
154921,-124.2777499839,4,1,0,62,0,0
155071,-123.587070747799,4,1,0,62,0,0
155221,-122.900229992901,4,1,0,63,0,0
155371,-122.217206386672,4,1,0,63,0,0
155521,-121.537978715134,4,1,0,64,0,0
155671,-120.862525882209,4,1,0,64,0,0
155821,-120.190826909059,4,1,0,65,0,0
155971,-119.522860933439,4,1,0,65,0,0
156121,-118.858607209046,4,1,0,65,0,0
156271,-118.198045104874,4,1,0,66,0,0
156421,-117.541154104576,4,1,0,66,0,0
156571,-116.887913805827,4,1,0,67,0,0
156721,-116.238303919687,4,1,0,67,0,0
156871,-115.592304269973,4,1,0,68,0,0
157021,-114.949894792632,4,1,0,68,0,0
157171,-114.311055535118,4,1,0,69,0,0
157321,-113.675766655772,4,1,0,69,0,0
157471,-113.044008423208,4,1,0,70,0,0
157621,-112.415761215694,4,1,0,70,0,0
157771,-111.79100552055,4,1,0,71,0,0
157921,-111.169721933537,4,1,0,71,0,0
158071,-110.551891158257,4,1,0,72,0,0
158221,-109.937494005552,4,1,0,72,0,0
158371,-109.326511392909,4,1,0,73,0,0
158521,-108.718924343867,4,1,0,73,0,0
158671,-108.114713987425,4,1,0,73,0,0
158821,-107.513861557463,4,1,0,74,0,0
158971,-106.916348392151,4,1,0,74,0,0
159121,-106.322155933374,4,1,0,75,0,0
159271,-105.731265726156,4,1,0,75,0,0
159421,-105.143659418083,4,1,0,76,0,0
159571,-104.559318758736,4,1,0,76,0,0
159721,-103.978225599125,4,1,0,77,0,0
159871,-103.400361891122,4,1,0,77,0,0
160021,-102.825709686905,4,1,0,78,0,0
160171,-102.254251138393,4,1,0,78,0,0
160321,-101.685968496702,4,1,0,79,0,0
160471,-101.120844111584,4,1,0,79,0,0
160621,-100.558860430886,4,1,0,70,0,0
160771,-83.3333333333333,4,1,0,70,0,0
161073,-66.6666666666667,4,1,0,70,0,0
162573,-50,4,1,0,70,0,0
163773,-33.3333333333333,4,1,0,70,0,0
165423,-125,4,1,0,75,0,0
170371,-125,4,1,0,75,0,0
170521,-123.311916455221,4,1,0,75,0,0
170671,-121.646629918876,4,1,0,75,0,0
170821,-120.003832524925,4,1,0,75,0,0
170971,-118.383220564959,4,1,0,75,0,0
171121,-116.78449443205,4,1,0,75,0,0
171271,-115.207358565362,4,1,0,75,0,0
171421,-113.651521395509,4,1,0,75,0,0
171571,-112.116695290654,4,1,0,75,0,0
171721,-110.602596503333,4,1,0,75,0,0
171871,-109.108945117996,4,1,0,75,0,0
172021,-107.635464999261,4,1,0,75,0,0
172171,-106.181883740862,4,1,0,75,0,0
172321,-104.74793261529,4,1,0,75,0,0
172471,-103.33334652411,4,1,0,75,0,0
172621,-101.937863948956,4,1,0,75,0,0
172771,-100.561226903179,4,1,0,75,0,0
172921,-99.2031808841545,4,1,0,75,0,0
173071,-97.8634748262324,4,1,0,75,0,0
173221,-96.5418610543201,4,1,0,75,0,0
173371,-95.2380952380952,4,1,0,75,0,0
173523,-95.2380952380952,4,1,0,90,0,0
173673,-76.9230769230769,4,1,0,90,0,1
173973,-105.263157894737,4,1,0,90,0,1
174273,-105.263157894737,4,1,0,90,0,0
174571,-100,4,1,0,90,0,0
174646,-98.8156915513073,4,1,0,90,0,0
174721,-97.6454089676311,4,1,0,90,0,0
174796,-96.4889861394669,4,1,0,90,0,0
174871,-95.3462589245592,4,1,0,90,0,0
174946,-94.2170651246033,4,1,0,90,0,0
175021,-93.1012444622223,4,1,0,90,0,0
175096,-91.9986385582181,4,1,0,90,0,0
175173,-90.9090909090909,4,1,0,100,0,1
184773,-83.3333333333333,4,1,0,90,0,0
193171,-83.3333333333333,4,1,0,90,0,0
193246,-84.2883557275453,4,1,0,90,0,0
193321,-85.2543229350386,4,1,0,90,0,0
193396,-86.2313603863146,4,1,0,90,0,0
193471,-87.2195949493422,4,1,0,90,0,0
193546,-88.2191549460307,4,1,0,90,0,0
193621,-89.2301701688937,4,1,0,90,0,0
193696,-90.2527718979013,4,1,0,90,0,0
193771,-91.2870929175277,4,1,0,90,0,0
193846,-92.3332675339927,4,1,0,90,0,0
193921,-93.3914315927014,4,1,0,90,0,0
193996,-94.4617224958839,4,1,0,90,0,0
194071,-95.5442792204367,4,1,0,90,0,0
194146,-96.639242335969,4,1,0,90,0,0
194221,-97.7467540230553,4,1,0,90,0,0
194296,-98.8669580916978,4,1,0,90,0,0
194371,-100,4,1,0,90,0,0
202771,-100,4,1,0,90,0,0
202846,-100.660676122253,4,1,0,90,0,0
202921,-101.325717173891,4,1,0,90,0,0
202996,-101.995151992961,4,1,0,90,0,0
203071,-102.669009608034,4,1,0,90,0,0
203146,-103.347319239468,4,1,0,90,0,0
203221,-104.030110300672,4,1,0,90,0,0
203296,-104.717412399382,4,1,0,90,0,0
203371,-105.409255338946,4,1,0,90,0,0
203446,-106.105669119615,4,1,0,90,0,0
203521,-106.806683939845,4,1,0,90,0,0
203596,-107.512330197606,4,1,0,90,0,0
203671,-108.2226384917,4,1,0,90,0,0
203746,-108.937639623087,4,1,0,90,0,0
203821,-109.657364596222,4,1,0,90,0,0
203898,-111.111111111111,4,1,0,20,0,0
206298,-125,4,1,0,40,0,0
213423,-111.111111111111,4,1,0,60,0,0

[HitObjects]
256,192,2373,5,4,0:0:0:0:
256,192,2673,1,0,0:0:0:0:
256,192,2973,1,8,0:0:0:0:
256,192,3573,1,8,0:0:0:0:
256,192,3623,1,8,0:0:0:0:
256,192,3873,1,0,0:0:0:0:
256,192,4173,1,8,0:0:0:0:
256,192,4773,1,0,0:0:0:0:
256,192,5073,1,0,0:0:0:0:
256,192,5373,1,8,0:0:0:0:
256,192,5973,1,8,0:0:0:0:
256,192,6023,1,8,0:0:0:0:
256,192,6273,1,0,0:0:0:0:
256,192,6573,1,8,0:0:0:0:
256,192,7173,1,0,0:0:0:0:
256,192,7473,1,0,0:0:0:0:
256,192,7773,1,8,0:0:0:0:
256,192,8373,1,8,0:0:0:0:
256,192,8423,1,8,0:0:0:0:
256,192,8673,1,0,0:0:0:0:
256,192,8973,1,8,0:0:0:0:
256,192,9573,1,0,0:0:0:0:
256,192,9873,1,0,0:0:0:0:
256,192,10173,1,8,0:0:0:0:
256,192,10473,1,0,0:0:0:0:
256,192,10773,1,8,0:0:0:0:
256,192,10823,1,8,0:0:0:0:
256,192,11073,1,0,0:0:0:0:
256,192,11373,1,8,0:0:0:0:
256,192,11973,1,0,0:0:0:0:
256,192,12123,1,0,0:0:0:0:
256,192,12423,1,0,0:0:0:0:
256,192,12573,1,8,0:0:0:0:
256,192,12873,1,0,0:0:0:0:
256,192,13173,1,8,0:0:0:0:
256,192,13223,1,8,0:0:0:0:
256,192,13623,1,0,0:0:0:0:
256,192,13773,1,8,0:0:0:0:
256,192,14073,1,0,0:0:0:0:
256,192,14223,1,0,0:0:0:0:
256,192,14373,1,0,0:0:0:0:
256,192,14823,1,0,0:0:0:0:
256,192,14973,1,8,0:0:0:0:
256,192,15273,1,0,0:0:0:0:
256,192,15573,1,8,0:0:0:0:
256,192,15623,1,8,0:0:0:0:
256,192,16023,1,0,0:0:0:0:
256,192,16173,1,8,0:0:0:0:
256,192,16473,1,0,0:0:0:0:
256,192,16623,1,0,0:0:0:0:
256,192,16773,1,0,0:0:0:0:
256,192,17223,1,0,0:0:0:0:
256,192,17373,1,8,0:0:0:0:
256,192,17673,1,0,0:0:0:0:
256,192,17973,1,8,0:0:0:0:
256,192,18023,1,8,0:0:0:0:
256,192,18423,1,0,0:0:0:0:
256,192,18573,1,8,0:0:0:0:
256,192,18873,1,0,0:0:0:0:
256,192,19023,1,0,0:0:0:0:
256,192,19173,1,0,0:0:0:0:
256,192,19623,1,0,0:0:0:0:
256,192,19773,1,8,0:0:0:0:
256,192,20073,1,0,0:0:0:0:
256,192,20373,1,8,0:0:0:0:
256,192,20423,1,8,0:0:0:0:
256,192,20823,1,0,0:0:0:0:
256,192,20973,1,8,0:0:0:0:
256,192,21273,1,0,0:0:0:0:
256,192,21423,1,0,0:0:0:0:
256,192,25173,1,0,0:0:0:0:
256,192,25773,1,0,0:0:0:0:
256,192,26373,1,8,0:0:0:0:
256,192,26973,1,8,0:0:0:0:
256,192,27273,1,8,0:0:0:0:
256,192,27573,1,0,0:0:0:0:
256,192,28173,1,8,0:0:0:0:
256,192,28473,1,0,0:0:0:0:
256,192,28623,1,8,0:0:0:0:
256,192,28773,1,0,0:0:0:0:
256,192,28923,1,8,0:0:0:0:
256,192,29073,1,0,0:0:0:0:
256,192,29373,1,8,0:0:0:0:
256,192,29673,1,8,0:0:0:0:
256,192,29823,1,8,0:0:0:0:
256,192,29973,1,0,0:0:0:0:
256,192,30273,1,8,0:0:0:0:
256,192,30423,1,0,0:0:0:0:
256,192,30573,1,8,0:0:0:0:
256,192,30873,1,0,0:0:0:0:
256,192,31023,1,8,0:0:0:0:
256,192,31173,1,0,0:0:0:0:
256,192,31323,1,0,0:0:0:0:
256,192,31473,1,8,0:0:0:0:
256,192,31623,1,0,0:0:0:0:
256,192,31773,1,8,0:0:0:0:
256,192,32073,1,8,0:0:0:0:
256,192,32223,1,8,0:0:0:0:
256,192,32373,1,0,0:0:0:0:
256,192,32673,1,0,0:0:0:0:
256,192,32973,1,8,0:0:0:0:
256,192,33273,1,0,0:0:0:0:
256,192,33423,1,8,0:0:0:0:
256,192,33573,1,0,0:0:0:0:
256,192,33723,1,8,0:0:0:0:
256,192,33873,1,0,0:0:0:0:
256,192,34173,1,8,0:0:0:0:
256,192,34473,1,0,0:0:0:0:
256,192,34773,1,8,0:0:0:0:
256,192,36873,1,8,0:0:0:0:
256,192,37173,1,4,0:0:0:0:
256,192,37398,1,0,0:0:0:0:
256,192,37473,1,8,0:0:0:0:
256,192,37623,1,8,0:0:0:0:
256,192,37773,1,0,0:0:0:0:
256,192,37848,1,8,0:0:0:0:
256,192,37998,1,8,0:0:0:0:
256,192,38073,1,0,0:0:0:0:
256,192,38148,1,8,0:0:0:0:
256,192,38223,1,0,0:0:0:0:
256,192,38298,1,0,0:0:0:0:
256,192,38373,1,8,0:0:0:0:
256,192,38523,1,0,0:0:0:0:
256,192,38598,1,8,0:0:0:0:
256,192,38673,1,0,0:0:0:0:
256,192,38823,1,8,0:0:0:0:
256,192,38973,1,0,0:0:0:0:
256,192,39048,1,0,0:0:0:0:
256,192,39123,1,0,0:0:0:0:
256,192,39198,1,8,0:0:0:0:
256,192,39273,1,0,0:0:0:0:
256,192,39348,1,0,0:0:0:0:
256,192,39423,1,0,0:0:0:0:
256,192,39498,1,8,0:0:0:0:
256,192,39573,1,0,0:0:0:0:
256,192,39723,1,0,0:0:0:0:
256,192,39873,1,8,0:0:0:0:
256,192,39948,1,8,0:0:0:0:
256,192,40023,1,8,0:0:0:0:
256,192,40173,1,0,0:0:0:0:
256,192,40248,1,8,0:0:0:0:
256,192,40398,1,8,0:0:0:0:
256,192,40473,1,0,0:0:0:0:
256,192,40548,1,8,0:0:0:0:
256,192,40623,1,8,0:0:0:0:
256,192,40698,1,8,0:0:0:0:
256,192,40773,1,0,0:0:0:0:
256,192,40848,1,8,0:0:0:0:
256,192,41073,1,0,0:0:0:0:
256,192,41148,1,8,0:0:0:0:
256,192,41373,1,0,0:0:0:0:
256,192,41448,1,8,0:0:0:0:
256,192,41523,1,8,0:0:0:0:
256,192,41598,1,8,0:0:0:0:
256,192,41673,1,0,0:0:0:0:
256,192,41748,1,8,0:0:0:0:
256,192,41823,1,8,0:0:0:0:
256,192,41898,1,8,0:0:0:0:
256,192,41973,1,0,0:0:0:0:
256,192,42123,1,0,0:0:0:0:
256,192,42198,1,0,0:0:0:0:
256,192,42273,1,8,0:0:0:0:
256,192,42423,1,8,0:0:0:0:
256,192,42573,1,0,0:0:0:0:
256,192,42648,1,8,0:0:0:0:
256,192,42798,1,8,0:0:0:0:
256,192,42873,1,0,0:0:0:0:
256,192,42948,1,8,0:0:0:0:
256,192,43023,1,0,0:0:0:0:
256,192,43098,1,0,0:0:0:0:
256,192,43173,1,8,0:0:0:0:
256,192,43323,1,0,0:0:0:0:
256,192,43398,1,8,0:0:0:0:
256,192,43473,1,0,0:0:0:0:
256,192,43548,1,0,0:0:0:0:
256,192,43623,1,8,0:0:0:0:
256,192,43773,1,8,0:0:0:0:
256,192,43848,1,8,0:0:0:0:
256,192,43923,1,0,0:0:0:0:
256,192,44073,1,8,0:0:0:0:
256,192,44148,1,0,0:0:0:0:
256,192,44223,1,8,0:0:0:0:
256,192,44298,1,8,0:0:0:0:
256,192,44373,1,0,0:0:0:0:
256,192,44523,1,0,0:0:0:0:
256,192,44598,1,8,0:0:0:0:
256,192,44673,1,0,0:0:0:0:
256,192,44748,1,8,0:0:0:0:
256,192,44823,1,0,0:0:0:0:
256,192,44898,1,8,0:0:0:0:
256,192,44973,1,0,0:0:0:0:
256,192,45048,1,0,0:0:0:0:
256,192,45123,1,8,0:0:0:0:
256,192,45273,1,8,0:0:0:0:
256,192,45573,1,8,0:0:0:0:
256,192,45648,1,8,0:0:0:0:
256,192,45723,1,8,0:0:0:0:
256,192,45873,1,8,0:0:0:0:
256,192,46023,1,8,0:0:0:0:
256,192,46173,1,0,0:0:0:0:
256,192,46248,1,0,0:0:0:0:
256,192,46323,1,8,0:0:0:0:
256,192,46398,1,0,0:0:0:0:
256,192,46473,1,8,0:0:0:0:
256,192,46548,1,0,0:0:0:0:
256,192,46623,1,8,0:0:0:0:
256,192,46773,1,4,0:0:0:0:
256,192,46998,1,0,0:0:0:0:
256,192,47073,1,8,0:0:0:0:
256,192,47223,1,8,0:0:0:0:
256,192,47298,1,8,0:0:0:0:
256,192,47373,1,0,0:0:0:0:
256,192,47448,1,8,0:0:0:0:
256,192,47598,1,8,0:0:0:0:
256,192,47673,1,0,0:0:0:0:
256,192,47748,1,8,0:0:0:0:
256,192,47823,1,0,0:0:0:0:
256,192,47898,1,0,0:0:0:0:
256,192,47973,1,8,0:0:0:0:
256,192,48123,1,0,0:0:0:0:
256,192,48198,1,8,0:0:0:0:
256,192,48273,1,0,0:0:0:0:
256,192,48423,1,8,0:0:0:0:
256,192,48573,1,0,0:0:0:0:
256,192,48648,1,8,0:0:0:0:
256,192,48723,1,8,0:0:0:0:
256,192,48873,1,0,0:0:0:0:
256,192,48948,1,8,0:0:0:0:
256,192,49023,1,8,0:0:0:0:
256,192,49098,1,8,0:0:0:0:
256,192,49173,1,0,0:0:0:0:
256,192,49323,1,0,0:0:0:0:
256,192,49473,1,8,0:0:0:0:
256,192,49548,1,8,0:0:0:0:
256,192,49623,1,8,0:0:0:0:
256,192,49773,1,0,0:0:0:0:
256,192,49848,1,8,0:0:0:0:
256,192,49998,1,8,0:0:0:0:
256,192,50148,1,0,0:0:0:0:
256,192,50223,1,8,0:0:0:0:
256,192,50298,1,8,0:0:0:0:
256,192,50373,1,0,0:0:0:0:
256,192,50448,1,8,0:0:0:0:
256,192,50673,1,0,0:0:0:0:
256,192,50748,1,8,0:0:0:0:
256,192,50973,1,8,0:0:0:0:
256,192,51048,1,8,0:0:0:0:
256,192,51123,1,8,0:0:0:0:
256,192,51198,1,0,0:0:0:0:
256,192,51273,1,8,0:0:0:0:
256,192,51348,1,8,0:0:0:0:
256,192,51423,1,8,0:0:0:0:
256,192,51498,1,8,0:0:0:0:
256,192,51573,1,0,0:0:0:0:
256,192,51723,1,0,0:0:0:0:
256,192,51873,1,8,0:0:0:0:
256,192,51948,1,0,0:0:0:0:
256,192,52023,1,8,0:0:0:0:
256,192,52098,1,8,0:0:0:0:
256,192,52173,1,0,0:0:0:0:
256,192,52248,1,8,0:0:0:0:
256,192,52398,1,8,0:0:0:0:
256,192,52548,1,0,0:0:0:0:
256,192,52623,1,8,0:0:0:0:
256,192,52698,1,0,0:0:0:0:
256,192,52773,1,8,0:0:0:0:
256,192,52923,1,0,0:0:0:0:
256,192,52998,1,8,0:0:0:0:
256,192,53073,1,0,0:0:0:0:
256,192,53223,1,8,0:0:0:0:
256,192,53373,1,8,0:0:0:0:
256,192,53448,1,8,0:0:0:0:
256,192,53523,1,0,0:0:0:0:
256,192,53673,1,8,0:0:0:0:
256,192,53748,1,0,0:0:0:0:
256,192,53823,1,8,0:0:0:0:
256,192,53898,1,8,0:0:0:0:
256,192,53973,1,0,0:0:0:0:
256,192,54123,1,0,0:0:0:0:
256,192,54198,1,8,0:0:0:0:
256,192,54273,1,0,0:0:0:0:
256,192,54348,1,8,0:0:0:0:
256,192,54423,1,0,0:0:0:0:
256,192,54498,1,8,0:0:0:0:
256,192,54573,1,0,0:0:0:0:
256,192,54648,1,0,0:0:0:0:
256,192,54723,1,8,0:0:0:0:
256,192,54798,1,0,0:0:0:0:
256,192,54873,1,8,0:0:0:0:
256,192,55023,1,0,0:0:0:0:
256,192,55173,1,8,0:0:0:0:
256,192,55248,1,8,0:0:0:0:
256,192,55323,1,8,0:0:0:0:
256,192,55473,1,8,0:0:0:0:
256,192,55623,1,8,0:0:0:0:
256,192,55773,1,0,0:0:0:0:
256,192,55848,1,0,0:0:0:0:
256,192,55923,1,8,0:0:0:0:
256,192,55998,1,8,0:0:0:0:
256,192,56073,1,0,0:0:0:0:
256,192,56148,1,0,0:0:0:0:
256,192,56223,1,8,0:0:0:0:
256,192,56373,1,4,0:0:0:0:
256,192,56673,1,8,0:0:0:0:
256,192,56823,1,8,0:0:0:0:
256,192,56973,1,0,0:0:0:0:
256,192,57123,1,8,0:0:0:0:
256,192,57273,1,0,0:0:0:0:
256,192,57348,1,8,0:0:0:0:
256,192,57423,1,0,0:0:0:0:
256,192,57498,1,0,0:0:0:0:
256,192,57573,1,8,0:0:0:0:
256,192,57723,1,0,0:0:0:0:
256,192,57873,1,8,0:0:0:0:
256,192,58023,1,8,0:0:0:0:
256,192,58173,1,0,0:0:0:0:
256,192,58248,1,0,0:0:0:0:
256,192,58323,1,0,0:0:0:0:
256,192,58473,1,0,0:0:0:0:
256,192,58548,1,0,0:0:0:0:
256,192,58623,1,0,0:0:0:0:
256,192,58773,1,8,0:0:0:0:
256,192,58923,1,0,0:0:0:0:
256,192,59073,1,8,0:0:0:0:
256,192,59223,1,8,0:0:0:0:
256,192,59373,1,0,0:0:0:0:
256,192,59448,1,8,0:0:0:0:
256,192,59523,1,0,0:0:0:0:
256,192,59673,1,8,0:0:0:0:
256,192,59748,1,8,0:0:0:0:
256,192,59823,1,8,0:0:0:0:
256,192,59898,1,8,0:0:0:0:
256,192,59973,1,0,0:0:0:0:
256,192,60123,1,8,0:0:0:0:
256,192,60273,1,0,0:0:0:0:
256,192,60423,1,0,0:0:0:0:
256,192,60573,1,8,0:0:0:0:
256,192,60648,1,8,0:0:0:0:
256,192,60723,1,8,0:0:0:0:
256,192,60873,1,8,0:0:0:0:
256,192,60948,1,8,0:0:0:0:
256,192,61023,1,8,0:0:0:0:
256,192,61173,1,0,0:0:0:0:
256,192,61323,1,0,0:0:0:0:
256,192,61398,1,0,0:0:0:0:
256,192,61473,1,8,0:0:0:0:
256,192,61623,1,8,0:0:0:0:
256,192,61773,1,0,0:0:0:0:
256,192,61923,1,8,0:0:0:0:
256,192,62073,1,0,0:0:0:0:
256,192,62148,1,8,0:0:0:0:
256,192,62223,1,0,0:0:0:0:
256,192,62298,1,0,0:0:0:0:
256,192,62373,1,8,0:0:0:0:
256,192,62523,1,0,0:0:0:0:
256,192,62598,1,8,0:0:0:0:
256,192,62748,1,0,0:0:0:0:
256,192,62823,1,8,0:0:0:0:
256,192,62973,1,8,0:0:0:0:
256,192,63048,1,8,0:0:0:0:
256,192,63123,1,0,0:0:0:0:
256,192,63273,1,8,0:0:0:0:
256,192,63348,1,8,0:0:0:0:
256,192,63423,1,8,0:0:0:0:
256,192,63573,1,0,0:0:0:0:
256,192,63723,1,8,0:0:0:0:
256,192,63798,1,0,0:0:0:0:
256,192,63873,1,8,0:0:0:0:
256,192,63948,1,0,0:0:0:0:
256,192,64023,1,8,0:0:0:0:
256,192,64173,1,0,0:0:0:0:
256,192,64323,1,8,0:0:0:0:
256,192,64473,1,8,0:0:0:0:
256,192,64773,1,8,0:0:0:0:
256,192,64848,1,8,0:0:0:0:
256,192,64923,1,8,0:0:0:0:
256,192,65073,1,8,0:0:0:0:
256,192,65223,1,8,0:0:0:0:
256,192,65373,1,0,0:0:0:0:
256,192,65523,1,8,0:0:0:0:
256,192,65598,1,0,0:0:0:0:
256,192,65673,1,0,0:0:0:0:
256,192,65823,1,8,0:0:0:0:
256,192,65973,1,4,0:0:0:0:
256,192,66273,1,8,0:0:0:0:
256,192,66423,1,0,0:0:0:0:
256,192,66498,1,0,0:0:0:0:
256,192,66573,1,0,0:0:0:0:
256,192,66723,1,8,0:0:0:0:
256,192,66873,1,0,0:0:0:0:
256,192,66948,1,0,0:0:0:0:
256,192,67023,1,8,0:0:0:0:
256,192,67098,1,8,0:0:0:0:
256,192,67173,1,0,0:0:0:0:
256,192,67323,1,0,0:0:0:0:
256,192,67473,1,8,0:0:0:0:
256,192,67623,1,8,0:0:0:0:
256,192,67773,1,0,0:0:0:0:
256,192,67848,1,8,0:0:0:0:
256,192,67923,1,8,0:0:0:0:
256,192,68073,1,0,0:0:0:0:
256,192,68148,1,8,0:0:0:0:
256,192,68223,1,8,0:0:0:0:
256,192,68373,1,0,0:0:0:0:
256,192,68523,1,0,0:0:0:0:
256,192,68673,1,8,0:0:0:0:
256,192,68823,1,8,0:0:0:0:
256,192,68973,1,0,0:0:0:0:
256,192,69048,1,8,0:0:0:0:
256,192,69123,1,0,0:0:0:0:
256,192,69273,1,8,0:0:0:0:
256,192,69423,1,8,0:0:0:0:
256,192,69498,1,8,0:0:0:0:
256,192,69573,1,0,0:0:0:0:
256,192,69723,1,8,0:0:0:0:
256,192,69873,1,0,0:0:0:0:
256,192,70023,1,0,0:0:0:0:
256,192,70173,1,8,0:0:0:0:
256,192,70248,1,8,0:0:0:0:
256,192,70323,1,8,0:0:0:0:
256,192,70473,1,8,0:0:0:0:
256,192,70548,1,8,0:0:0:0:
256,192,70623,1,8,0:0:0:0:
256,192,70773,1,0,0:0:0:0:
256,192,70923,1,0,0:0:0:0:
256,192,70998,1,0,0:0:0:0:
256,192,71073,1,8,0:0:0:0:
256,192,71223,1,8,0:0:0:0:
256,192,71373,1,0,0:0:0:0:
256,192,71523,1,8,0:0:0:0:
256,192,71598,1,8,0:0:0:0:
256,192,71673,1,0,0:0:0:0:
256,192,71748,1,8,0:0:0:0:
256,192,71823,1,0,0:0:0:0:
256,192,71898,1,0,0:0:0:0:
256,192,71973,1,8,0:0:0:0:
256,192,72123,1,0,0:0:0:0:
256,192,72198,1,8,0:0:0:0:
256,192,72348,1,0,0:0:0:0:
256,192,72423,1,8,0:0:0:0:
256,192,72573,1,8,0:0:0:0:
256,192,72648,1,8,0:0:0:0:
256,192,72723,1,0,0:0:0:0:
256,192,72873,1,8,0:0:0:0:
256,192,72948,1,8,0:0:0:0:
256,192,73023,1,8,0:0:0:0:
256,192,73098,1,8,0:0:0:0:
256,192,73173,1,0,0:0:0:0:
256,192,73323,1,8,0:0:0:0:
256,192,73398,1,0,0:0:0:0:
256,192,73473,1,8,0:0:0:0:
256,192,73548,1,0,0:0:0:0:
256,192,73623,1,8,0:0:0:0:
256,192,73773,1,0,0:0:0:0:
256,192,73923,1,8,0:0:0:0:
256,192,74073,1,8,0:0:0:0:
256,192,74373,1,8,0:0:0:0:
256,192,74448,1,8,0:0:0:0:
256,192,74523,1,8,0:0:0:0:
256,192,74673,1,8,0:0:0:0:
256,192,74823,1,8,0:0:0:0:
256,192,74973,1,0,0:0:0:0:
256,192,75048,1,0,0:0:0:0:
256,192,75123,1,8,0:0:0:0:
256,192,75198,1,8,0:0:0:0:
256,192,75273,1,8,0:0:0:0:
256,192,75348,1,8,0:0:0:0:
256,192,75423,1,8,0:0:0:0:
256,192,75573,1,4,0:0:0:0:
256,192,75873,1,0,0:0:0:0:
256,192,76173,1,8,0:0:0:0:
256,192,76773,1,8,0:0:0:0:
256,192,76823,1,8,0:0:0:0:
256,192,77073,1,0,0:0:0:0:
256,192,77373,1,8,0:0:0:0:
256,192,77973,1,0,0:0:0:0:
256,192,78273,1,0,0:0:0:0:
256,192,78573,1,8,0:0:0:0:
256,192,79173,1,8,0:0:0:0:
256,192,79223,1,8,0:0:0:0:
256,192,79473,1,0,0:0:0:0:
256,192,79773,1,8,0:0:0:0:
256,192,80373,1,0,0:0:0:0:
256,192,80673,1,0,0:0:0:0:
256,192,80973,1,8,0:0:0:0:
256,192,81573,1,8,0:0:0:0:
256,192,81623,1,8,0:0:0:0:
256,192,81873,1,0,0:0:0:0:
256,192,82173,1,8,0:0:0:0:
256,192,82773,1,0,0:0:0:0:
256,192,83373,1,0,0:0:0:0:
256,192,83973,1,8,0:0:0:0:
256,192,84023,1,8,0:0:0:0:
256,192,84273,1,0,0:0:0:0:
256,192,84573,1,8,0:0:0:0:
256,192,85173,1,0,0:0:0:0:
256,192,85323,1,0,0:0:0:0:
256,192,85623,1,0,0:0:0:0:
256,192,85773,1,8,0:0:0:0:
256,192,86073,1,0,0:0:0:0:
256,192,86373,1,8,0:0:0:0:
256,192,86423,1,8,0:0:0:0:
256,192,86823,1,0,0:0:0:0:
256,192,86973,1,8,0:0:0:0:
256,192,87273,1,0,0:0:0:0:
256,192,87423,1,0,0:0:0:0:
256,192,87573,1,0,0:0:0:0:
256,192,88023,1,0,0:0:0:0:
256,192,88173,1,8,0:0:0:0:
256,192,88473,1,0,0:0:0:0:
256,192,88773,1,8,0:0:0:0:
256,192,88823,1,8,0:0:0:0:
256,192,89223,1,0,0:0:0:0:
256,192,89373,1,8,0:0:0:0:
256,192,89673,1,0,0:0:0:0:
256,192,89823,1,0,0:0:0:0:
256,192,89973,1,0,0:0:0:0:
256,192,90423,1,0,0:0:0:0:
256,192,90573,1,8,0:0:0:0:
256,192,90873,1,0,0:0:0:0:
256,192,91173,1,8,0:0:0:0:
256,192,91223,1,8,0:0:0:0:
256,192,91623,1,0,0:0:0:0:
256,192,91773,1,8,0:0:0:0:
256,192,92073,1,0,0:0:0:0:
256,192,92223,1,0,0:0:0:0:
256,192,92373,1,0,0:0:0:0:
256,192,92823,1,0,0:0:0:0:
256,192,92973,1,8,0:0:0:0:
256,192,93273,1,0,0:0:0:0:
256,192,93573,1,8,0:0:0:0:
256,192,93623,1,8,0:0:0:0:
256,192,94023,1,0,0:0:0:0:
256,192,94173,1,8,0:0:0:0:
256,192,94473,1,0,0:0:0:0:
256,192,94623,1,0,0:0:0:0:
256,192,95223,1,0,0:0:0:0:
256,192,95373,1,8,0:0:0:0:
256,192,95523,1,0,0:0:0:0:
256,192,95673,1,0,0:0:0:0:
256,192,95973,1,0,0:0:0:0:
256,192,96573,1,0,0:0:0:0:
256,192,97173,1,8,0:0:0:0:
256,192,97773,1,8,0:0:0:0:
256,192,98073,1,8,0:0:0:0:
256,192,98373,1,0,0:0:0:0:
256,192,98973,1,8,0:0:0:0:
256,192,99273,1,0,0:0:0:0:
256,192,99423,1,8,0:0:0:0:
256,192,99573,1,0,0:0:0:0:
256,192,99723,1,8,0:0:0:0:
256,192,99873,1,0,0:0:0:0:
256,192,100173,1,8,0:0:0:0:
256,192,100473,1,8,0:0:0:0:
256,192,100623,1,8,0:0:0:0:
256,192,100773,1,0,0:0:0:0:
256,192,101073,1,8,0:0:0:0:
256,192,101223,1,0,0:0:0:0:
256,192,101373,1,8,0:0:0:0:
256,192,101673,1,0,0:0:0:0:
256,192,101823,1,8,0:0:0:0:
256,192,101973,1,0,0:0:0:0:
256,192,102123,1,0,0:0:0:0:
256,192,102273,1,8,0:0:0:0:
256,192,102423,1,0,0:0:0:0:
256,192,102573,1,8,0:0:0:0:
256,192,102873,1,8,0:0:0:0:
256,192,103023,1,8,0:0:0:0:
256,192,103173,1,0,0:0:0:0:
256,192,103473,1,0,0:0:0:0:
256,192,103773,1,8,0:0:0:0:
256,192,104073,1,0,0:0:0:0:
256,192,104223,1,8,0:0:0:0:
256,192,104373,1,0,0:0:0:0:
256,192,104523,1,8,0:0:0:0:
256,192,104673,1,0,0:0:0:0:
256,192,104973,1,8,0:0:0:0:
256,192,105273,1,0,0:0:0:0:
256,192,105573,1,8,0:0:0:0:
256,192,106773,1,0,0:0:0:0:
256,192,107073,1,8,0:0:0:0:
256,192,107373,1,0,0:0:0:0:
256,192,107523,1,0,0:0:0:0:
256,192,107673,1,0,0:0:0:0:
256,192,107973,1,4,0:0:0:0:
256,192,108198,1,0,0:0:0:0:
256,192,108273,1,8,0:0:0:0:
256,192,108423,1,8,0:0:0:0:
256,192,108573,1,0,0:0:0:0:
256,192,108648,1,8,0:0:0:0:
256,192,108723,1,0,0:0:0:0:
256,192,108798,1,8,0:0:0:0:
256,192,108948,1,8,0:0:0:0:
256,192,109023,1,0,0:0:0:0:
256,192,109098,1,0,0:0:0:0:
256,192,109173,1,8,0:0:0:0:
256,192,109323,1,0,0:0:0:0:
256,192,109398,1,8,0:0:0:0:
256,192,109548,1,0,0:0:0:0:
256,192,109623,1,8,0:0:0:0:
256,192,109698,1,0,0:0:0:0:
256,192,109773,1,8,0:0:0:0:
256,192,109848,1,8,0:0:0:0:
256,192,109923,1,0,0:0:0:0:
256,192,110073,1,8,0:0:0:0:
256,192,110148,1,8,0:0:0:0:
256,192,110223,1,0,0:0:0:0:
256,192,110298,1,8,0:0:0:0:
256,192,110373,1,0,0:0:0:0:
256,192,110523,1,0,0:0:0:0:
256,192,110598,1,0,0:0:0:0:
256,192,110673,1,8,0:0:0:0:
256,192,110823,1,8,0:0:0:0:
256,192,110898,1,8,0:0:0:0:
256,192,110973,1,0,0:0:0:0:
256,192,111048,1,8,0:0:0:0:
256,192,111198,1,8,0:0:0:0:
256,192,111348,1,0,0:0:0:0:
256,192,111423,1,8,0:0:0:0:
256,192,111498,1,8,0:0:0:0:
256,192,111573,1,0,0:0:0:0:
256,192,111648,1,8,0:0:0:0:
256,192,111873,1,0,0:0:0:0:
256,192,111948,1,8,0:0:0:0:
256,192,112173,1,0,0:0:0:0:
256,192,112248,1,8,0:0:0:0:
256,192,112323,1,8,0:0:0:0:
256,192,112398,1,8,0:0:0:0:
256,192,112473,1,0,0:0:0:0:
256,192,112548,1,8,0:0:0:0:
256,192,112623,1,8,0:0:0:0:
256,192,112698,1,8,0:0:0:0:
256,192,112773,1,0,0:0:0:0:
256,192,112923,1,0,0:0:0:0:
256,192,113073,1,8,0:0:0:0:
256,192,113148,1,0,0:0:0:0:
256,192,113223,1,8,0:0:0:0:
256,192,113298,1,8,0:0:0:0:
256,192,113373,1,0,0:0:0:0:
256,192,113448,1,8,0:0:0:0:
256,192,113598,1,8,0:0:0:0:
256,192,113748,1,0,0:0:0:0:
256,192,113823,1,0,0:0:0:0:
256,192,113898,1,0,0:0:0:0:
256,192,113973,1,8,0:0:0:0:
256,192,114123,1,0,0:0:0:0:
256,192,114198,1,8,0:0:0:0:
256,192,114273,1,0,0:0:0:0:
256,192,114423,1,8,0:0:0:0:
256,192,114573,1,8,0:0:0:0:
256,192,114648,1,8,0:0:0:0:
256,192,114723,1,0,0:0:0:0:
256,192,114873,1,8,0:0:0:0:
256,192,114948,1,8,0:0:0:0:
256,192,115023,1,8,0:0:0:0:
256,192,115098,1,8,0:0:0:0:
256,192,115173,1,0,0:0:0:0:
256,192,115323,1,0,0:0:0:0:
256,192,115398,1,8,0:0:0:0:
256,192,115473,1,0,0:0:0:0:
256,192,115548,1,8,0:0:0:0:
256,192,115623,1,0,0:0:0:0:
256,192,115698,1,8,0:0:0:0:
256,192,115773,1,0,0:0:0:0:
256,192,115848,1,0,0:0:0:0:
256,192,115923,1,8,0:0:0:0:
256,192,116073,1,8,0:0:0:0:
256,192,116373,1,8,0:0:0:0:
256,192,116448,1,8,0:0:0:0:
256,192,116523,1,8,0:0:0:0:
256,192,116673,1,8,0:0:0:0:
256,192,116823,1,8,0:0:0:0:
256,192,116973,1,0,0:0:0:0:
256,192,117048,1,0,0:0:0:0:
256,192,117123,1,8,0:0:0:0:
256,192,117198,1,8,0:0:0:0:
256,192,117273,1,0,0:0:0:0:
256,192,117348,1,8,0:0:0:0:
256,192,117423,1,8,0:0:0:0:
256,192,117573,1,4,0:0:0:0:
256,192,117798,1,0,0:0:0:0:
256,192,117873,1,8,0:0:0:0:
256,192,118023,1,8,0:0:0:0:
256,192,118173,1,0,0:0:0:0:
256,192,118248,1,8,0:0:0:0:
256,192,118398,1,8,0:0:0:0:
256,192,118548,1,0,0:0:0:0:
256,192,118623,1,0,0:0:0:0:
256,192,118698,1,0,0:0:0:0:
256,192,118773,1,8,0:0:0:0:
256,192,118923,1,0,0:0:0:0:
256,192,118998,1,8,0:0:0:0:
256,192,119073,1,0,0:0:0:0:
256,192,119148,1,0,0:0:0:0:
256,192,119223,1,8,0:0:0:0:
256,192,119373,1,0,0:0:0:0:
256,192,119448,1,8,0:0:0:0:
256,192,119523,1,8,0:0:0:0:
256,192,119673,1,0,0:0:0:0:
256,192,119748,1,8,0:0:0:0:
256,192,119823,1,8,0:0:0:0:
256,192,119898,1,8,0:0:0:0:
256,192,119973,1,0,0:0:0:0:
256,192,120048,1,8,0:0:0:0:
256,192,120123,1,0,0:0:0:0:
256,192,120273,1,8,0:0:0:0:
256,192,120423,1,8,0:0:0:0:
256,192,120573,1,0,0:0:0:0:
256,192,120648,1,8,0:0:0:0:
256,192,120723,1,0,0:0:0:0:
256,192,120798,1,8,0:0:0:0:
256,192,120948,1,0,0:0:0:0:
256,192,121023,1,8,0:0:0:0:
256,192,121098,1,8,0:0:0:0:
256,192,121173,1,0,0:0:0:0:
256,192,121248,1,8,0:0:0:0:
256,192,121473,1,0,0:0:0:0:
256,192,121548,1,8,0:0:0:0:
256,192,121773,1,8,0:0:0:0:
256,192,121848,1,8,0:0:0:0:
256,192,121923,1,8,0:0:0:0:
256,192,121998,1,0,0:0:0:0:
256,192,122073,1,8,0:0:0:0:
256,192,122148,1,8,0:0:0:0:
256,192,122223,1,8,0:0:0:0:
256,192,122298,1,8,0:0:0:0:
256,192,122373,1,0,0:0:0:0:
256,192,122523,1,0,0:0:0:0:
256,192,122598,1,0,0:0:0:0:
256,192,122673,1,8,0:0:0:0:
256,192,122823,1,8,0:0:0:0:
256,192,122898,1,8,0:0:0:0:
256,192,122973,1,0,0:0:0:0:
256,192,123048,1,8,0:0:0:0:
256,192,123198,1,8,0:0:0:0:
256,192,123273,1,0,0:0:0:0:
256,192,123348,1,8,0:0:0:0:
256,192,123423,1,0,0:0:0:0:
256,192,123498,1,0,0:0:0:0:
256,192,123573,1,8,0:0:0:0:
256,192,123723,1,0,0:0:0:0:
256,192,123798,1,8,0:0:0:0:
256,192,123873,1,0,0:0:0:0:
256,192,123948,1,0,0:0:0:0:
256,192,124023,1,8,0:0:0:0:
256,192,124173,1,8,0:0:0:0:
256,192,124248,1,8,0:0:0:0:
256,192,124323,1,0,0:0:0:0:
256,192,124473,1,8,0:0:0:0:
256,192,124548,1,0,0:0:0:0:
256,192,124623,1,8,0:0:0:0:
256,192,124698,1,8,0:0:0:0:
256,192,124773,1,0,0:0:0:0:
256,192,124923,1,0,0:0:0:0:
256,192,124998,1,8,0:0:0:0:
256,192,125073,1,0,0:0:0:0:
256,192,125148,1,8,0:0:0:0:
256,192,125223,1,0,0:0:0:0:
256,192,125298,1,8,0:0:0:0:
256,192,125373,1,0,0:0:0:0:
256,192,125448,1,0,0:0:0:0:
256,192,125523,1,8,0:0:0:0:
256,192,125673,1,8,0:0:0:0:
256,192,125748,1,8,0:0:0:0:
256,192,125823,1,0,0:0:0:0:
256,192,125973,1,8,0:0:0:0:
256,192,126048,1,8,0:0:0:0:
256,192,126123,1,8,0:0:0:0:
256,192,126273,1,8,0:0:0:0:
256,192,126423,1,8,0:0:0:0:
256,192,126573,1,0,0:0:0:0:
256,192,126648,1,0,0:0:0:0:
256,192,126723,1,8,0:0:0:0:
256,192,126798,1,8,0:0:0:0:
256,192,126873,1,0,0:0:0:0:
256,192,126948,1,0,0:0:0:0:
256,192,127023,1,8,0:0:0:0:
256,192,127173,1,4,0:0:0:0:
256,192,127473,1,8,0:0:0:0:
256,192,127623,1,0,0:0:0:0:
256,192,127773,1,12,0:0:0:0:
256,192,128073,1,8,0:0:0:0:
256,192,128223,1,8,0:0:0:0:
256,192,128373,1,0,0:0:0:0:
256,192,128523,1,0,0:0:0:0:
256,192,128673,1,8,0:0:0:0:
256,192,128823,1,0,0:0:0:0:
256,192,128973,1,12,0:0:0:0:
256,192,129273,1,8,0:0:0:0:
256,192,129573,1,0,0:0:0:0:
256,192,129723,1,0,0:0:0:0:
256,192,129873,1,8,0:0:0:0:
256,192,130173,1,12,0:0:0:0:
256,192,130473,1,0,0:0:0:0:
256,192,130623,1,8,0:0:0:0:
256,192,130773,1,0,0:0:0:0:
256,192,130923,1,8,0:0:0:0:
256,192,131073,1,0,0:0:0:0:
256,192,131223,1,0,0:0:0:0:
256,192,131373,1,12,0:0:0:0:
256,192,131673,1,8,0:0:0:0:
256,192,131973,1,0,0:0:0:0:
256,192,132273,1,8,0:0:0:0:
256,192,132423,1,0,0:0:0:0:
256,192,132573,1,12,0:0:0:0:
256,192,132873,1,8,0:0:0:0:
256,192,133023,1,8,0:0:0:0:
256,192,133173,1,0,0:0:0:0:
256,192,133248,1,0,0:0:0:0:
256,192,133323,1,0,0:0:0:0:
256,192,133473,1,8,0:0:0:0:
256,192,133773,1,12,0:0:0:0:
256,192,134073,1,8,0:0:0:0:
256,192,134223,1,8,0:0:0:0:
256,192,134373,1,0,0:0:0:0:
256,192,134673,1,0,0:0:0:0:
256,192,134823,1,8,0:0:0:0:
256,192,134973,1,12,0:0:0:0:
256,192,135273,1,0,0:0:0:0:
256,192,135573,1,8,0:0:0:0:
256,192,135648,1,0,0:0:0:0:
256,192,135723,1,0,0:0:0:0:
256,192,135798,1,0,0:0:0:0:
256,192,135873,1,8,0:0:0:0:
256,192,135948,1,0,0:0:0:0:
256,192,136023,1,0,0:0:0:0:
256,192,136173,1,12,0:0:0:0:
256,192,136473,1,8,0:0:0:0:
256,192,136623,1,8,0:0:0:0:
256,192,136773,1,4,0:0:0:0:
256,192,137073,1,8,0:0:0:0:
256,192,137223,1,0,0:0:0:0:
256,192,137373,1,12,0:0:0:0:
256,192,137673,1,8,0:0:0:0:
256,192,137823,1,0,0:0:0:0:
256,192,137898,1,0,0:0:0:0:
256,192,137973,1,8,0:0:0:0:
256,192,138123,1,8,0:0:0:0:
256,192,138273,1,0,0:0:0:0:
256,192,138348,1,8,0:0:0:0:
256,192,138423,1,0,0:0:0:0:
256,192,138573,1,12,0:0:0:0:
256,192,138873,1,8,0:0:0:0:
256,192,139023,1,8,0:0:0:0:
256,192,139173,1,0,0:0:0:0:
256,192,139248,1,0,0:0:0:0:
256,192,139323,1,0,0:0:0:0:
256,192,139473,1,8,0:0:0:0:
256,192,139623,1,0,0:0:0:0:
256,192,139773,1,12,0:0:0:0:
256,192,140073,1,0,0:0:0:0:
256,192,140223,1,8,0:0:0:0:
256,192,140373,1,0,0:0:0:0:
256,192,140448,1,0,0:0:0:0:
256,192,140523,1,8,0:0:0:0:
256,192,140598,1,8,0:0:0:0:
256,192,140673,1,0,0:0:0:0:
256,192,140823,1,0,0:0:0:0:
256,192,140973,1,12,0:0:0:0:
256,192,141273,1,8,0:0:0:0:
256,192,141348,1,8,0:0:0:0:
256,192,141423,1,8,0:0:0:0:
256,192,141573,1,0,0:0:0:0:
256,192,141723,1,0,0:0:0:0:
256,192,141873,1,8,0:0:0:0:
256,192,142023,1,0,0:0:0:0:
256,192,142173,1,12,0:0:0:0:
256,192,142473,1,8,0:0:0:0:
256,192,142623,1,8,0:0:0:0:
256,192,142773,1,0,0:0:0:0:
256,192,142848,1,0,0:0:0:0:
256,192,142923,1,0,0:0:0:0:
256,192,143073,1,8,0:0:0:0:
256,192,143223,1,0,0:0:0:0:
256,192,143373,1,12,0:0:0:0:
256,192,143673,1,8,0:0:0:0:
256,192,143823,1,8,0:0:0:0:
256,192,143973,1,0,0:0:0:0:
256,192,144273,1,0,0:0:0:0:
256,192,144423,1,8,0:0:0:0:
256,192,144573,1,12,0:0:0:0:
256,192,144873,1,0,0:0:0:0:
256,192,145173,1,8,0:0:0:0:
256,192,145248,1,0,0:0:0:0:
256,192,145323,1,0,0:0:0:0:
256,192,145398,1,0,0:0:0:0:
256,192,145473,1,8,0:0:0:0:
256,192,145548,1,0,0:0:0:0:
256,192,145623,1,0,0:0:0:0:
256,192,145773,1,12,0:0:0:0:
256,192,146073,1,0,0:0:0:0:
256,192,146223,1,0,0:0:0:0:
256,192,146373,1,8,0:0:0:0:
256,192,151173,1,0,0:0:0:0:
256,192,151773,1,0,0:0:0:0:
256,192,152373,1,8,0:0:0:0:
256,192,152973,1,8,0:0:0:0:
256,192,153273,1,8,0:0:0:0:
256,192,153573,1,0,0:0:0:0:
256,192,154173,1,8,0:0:0:0:
256,192,154473,1,0,0:0:0:0:
256,192,154623,1,8,0:0:0:0:
256,192,154773,1,0,0:0:0:0:
256,192,154923,1,8,0:0:0:0:
256,192,155073,1,0,0:0:0:0:
256,192,155373,1,8,0:0:0:0:
256,192,155673,1,8,0:0:0:0:
256,192,155823,1,8,0:0:0:0:
256,192,155973,1,0,0:0:0:0:
256,192,156273,1,8,0:0:0:0:
256,192,156423,1,0,0:0:0:0:
256,192,156573,1,8,0:0:0:0:
256,192,156873,1,0,0:0:0:0:
256,192,157023,1,8,0:0:0:0:
256,192,157173,1,0,0:0:0:0:
256,192,157323,1,0,0:0:0:0:
256,192,157473,1,8,0:0:0:0:
256,192,157623,1,0,0:0:0:0:
256,192,157773,1,8,0:0:0:0:
256,192,158073,1,8,0:0:0:0:
256,192,158223,1,8,0:0:0:0:
256,192,158373,1,0,0:0:0:0:
256,192,158673,1,0,0:0:0:0:
256,192,158973,1,8,0:0:0:0:
256,192,159273,1,0,0:0:0:0:
256,192,159423,1,8,0:0:0:0:
256,192,159573,1,0,0:0:0:0:
256,192,159723,1,8,0:0:0:0:
256,192,159873,1,0,0:0:0:0:
256,192,160173,1,8,0:0:0:0:
256,192,160473,1,0,0:0:0:0:
256,192,160773,12,0,165273,0:0:0:0:
256,192,165573,5,0,0:0:0:0:
256,192,165873,1,0,0:0:0:0:
256,192,166173,1,8,0:0:0:0:
256,192,166473,1,0,0:0:0:0:
256,192,166623,1,8,0:0:0:0:
256,192,166923,1,8,0:0:0:0:
256,192,167073,1,0,0:0:0:0:
256,192,167373,1,8,0:0:0:0:
256,192,167973,1,0,0:0:0:0:
256,192,168273,1,0,0:0:0:0:
256,192,168573,1,8,0:0:0:0:
256,192,168873,1,0,0:0:0:0:
256,192,169023,1,8,0:0:0:0:
256,192,169173,1,0,0:0:0:0:
256,192,169323,1,8,0:0:0:0:
256,192,169473,1,0,0:0:0:0:
256,192,169773,1,8,0:0:0:0:
256,192,170373,1,0,0:0:0:0:
256,192,170673,1,0,0:0:0:0:
256,192,170973,1,8,0:0:0:0:
256,192,171273,1,0,0:0:0:0:
256,192,171423,1,8,0:0:0:0:
256,192,171573,1,0,0:0:0:0:
256,192,171723,1,8,0:0:0:0:
256,192,171873,1,0,0:0:0:0:
256,192,172173,1,8,0:0:0:0:
256,192,172473,1,8,0:0:0:0:
256,192,172773,1,0,0:0:0:0:
256,192,173073,1,0,0:0:0:0:
256,192,173373,1,8,0:0:0:0:
256,192,173673,1,4,0:0:0:0:
256,192,174273,1,8,0:0:0:0:
256,192,174573,1,0,0:0:0:0:
256,192,174648,1,0,0:0:0:0:
256,192,174723,1,0,0:0:0:0:
256,192,174798,1,0,0:0:0:0:
256,192,174873,1,0,0:0:0:0:
256,192,174948,1,0,0:0:0:0:
256,192,175023,1,0,0:0:0:0:
256,192,175173,1,4,0:0:0:0:
256,192,175398,1,0,0:0:0:0:
256,192,175473,1,8,0:0:0:0:
256,192,175623,1,8,0:0:0:0:
256,192,175773,1,0,0:0:0:0:
256,192,175848,1,8,0:0:0:0:
256,192,175998,1,8,0:0:0:0:
256,192,176073,1,0,0:0:0:0:
256,192,176148,1,8,0:0:0:0:
256,192,176223,1,0,0:0:0:0:
256,192,176298,1,0,0:0:0:0:
256,192,176373,1,8,0:0:0:0:
256,192,176523,1,0,0:0:0:0:
256,192,176598,1,8,0:0:0:0:
256,192,176673,1,0,0:0:0:0:
256,192,176748,1,0,0:0:0:0:
256,192,176823,1,8,0:0:0:0:
256,192,176973,1,0,0:0:0:0:
256,192,177048,1,0,0:0:0:0:
256,192,177123,1,0,0:0:0:0:
256,192,177198,1,8,0:0:0:0:
256,192,177273,1,0,0:0:0:0:
256,192,177348,1,0,0:0:0:0:
256,192,177423,1,0,0:0:0:0:
256,192,177498,1,8,0:0:0:0:
256,192,177573,1,0,0:0:0:0:
256,192,177723,1,0,0:0:0:0:
256,192,177873,1,8,0:0:0:0:
256,192,177948,1,0,0:0:0:0:
256,192,178023,1,8,0:0:0:0:
256,192,178098,1,8,0:0:0:0:
256,192,178173,1,0,0:0:0:0:
256,192,178248,1,8,0:0:0:0:
256,192,178398,1,8,0:0:0:0:
256,192,178473,1,0,0:0:0:0:
256,192,178548,1,8,0:0:0:0:
256,192,178623,1,8,0:0:0:0:
256,192,178698,1,8,0:0:0:0:
256,192,178773,1,0,0:0:0:0:
256,192,178848,1,8,0:0:0:0:
256,192,179073,1,0,0:0:0:0:
256,192,179148,1,8,0:0:0:0:
256,192,179373,1,0,0:0:0:0:
256,192,179448,1,8,0:0:0:0:
256,192,179523,1,8,0:0:0:0:
256,192,179598,1,8,0:0:0:0:
256,192,179673,1,0,0:0:0:0:
256,192,179748,1,8,0:0:0:0:
256,192,179823,1,8,0:0:0:0:
256,192,179898,1,8,0:0:0:0:
256,192,179973,1,0,0:0:0:0:
256,192,180123,1,0,0:0:0:0:
256,192,180198,1,0,0:0:0:0:
256,192,180273,1,8,0:0:0:0:
256,192,180348,1,0,0:0:0:0:
256,192,180423,1,8,0:0:0:0:
256,192,180573,1,0,0:0:0:0:
256,192,180648,1,8,0:0:0:0:
256,192,180798,1,8,0:0:0:0:
256,192,180873,1,0,0:0:0:0:
256,192,180948,1,8,0:0:0:0:
256,192,181023,1,0,0:0:0:0:
256,192,181098,1,0,0:0:0:0:
256,192,181173,1,8,0:0:0:0:
256,192,181323,1,0,0:0:0:0:
256,192,181398,1,8,0:0:0:0:
256,192,181473,1,0,0:0:0:0:
256,192,181548,1,0,0:0:0:0:
256,192,181623,1,8,0:0:0:0:
256,192,181773,1,8,0:0:0:0:
256,192,181848,1,8,0:0:0:0:
256,192,181923,1,0,0:0:0:0:
256,192,182073,1,8,0:0:0:0:
256,192,182148,1,0,0:0:0:0:
256,192,182223,1,8,0:0:0:0:
256,192,182298,1,8,0:0:0:0:
256,192,182373,1,0,0:0:0:0:
256,192,182523,1,0,0:0:0:0:
256,192,182598,1,8,0:0:0:0:
256,192,182673,1,0,0:0:0:0:
256,192,182748,1,8,0:0:0:0:
256,192,182823,1,0,0:0:0:0:
256,192,182898,1,8,0:0:0:0:
256,192,182973,1,0,0:0:0:0:
256,192,183048,1,0,0:0:0:0:
256,192,183123,1,8,0:0:0:0:
256,192,183198,1,0,0:0:0:0:
256,192,183273,1,8,0:0:0:0:
256,192,183423,1,0,0:0:0:0:
256,192,183573,1,8,0:0:0:0:
256,192,183648,1,8,0:0:0:0:
256,192,183723,1,8,0:0:0:0:
256,192,183873,1,8,0:0:0:0:
256,192,184023,1,8,0:0:0:0:
256,192,184173,1,0,0:0:0:0:
256,192,184248,1,0,0:0:0:0:
256,192,184323,1,8,0:0:0:0:
256,192,184398,1,8,0:0:0:0:
256,192,184473,1,0,0:0:0:0:
256,192,184548,1,8,0:0:0:0:
256,192,184623,1,8,0:0:0:0:
256,192,184773,1,4,0:0:0:0:
256,192,185073,1,4,0:0:0:0:
256,192,185373,1,12,0:0:0:0:
256,192,185673,1,4,0:0:0:0:
256,192,185823,1,8,0:0:0:0:
256,192,185973,1,4,0:0:0:0:
256,192,186273,1,12,0:0:0:0:
256,192,186573,1,0,0:0:0:0:
256,192,186648,1,0,0:0:0:0:
256,192,186723,1,0,0:0:0:0:
256,192,186873,1,0,0:0:0:0:
256,192,186948,1,0,0:0:0:0:
256,192,187023,1,0,0:0:0:0:
256,192,187173,1,12,0:0:0:0:
256,192,187473,1,4,0:0:0:0:
256,192,187773,1,12,0:0:0:0:
256,192,188073,1,12,0:0:0:0:
256,192,188223,1,8,0:0:0:0:
256,192,188373,1,4,0:0:0:0:
256,192,188673,1,4,0:0:0:0:
256,192,188973,1,12,0:0:0:0:
256,192,189123,1,0,0:0:0:0:
256,192,189273,1,12,0:0:0:0:
256,192,189423,1,0,0:0:0:0:
256,192,189573,1,12,0:0:0:0:
256,192,189873,1,4,0:0:0:0:
256,192,190173,1,12,0:0:0:0:
256,192,190473,1,4,0:0:0:0:
256,192,190623,1,8,0:0:0:0:
256,192,190773,1,4,0:0:0:0:
256,192,191073,1,4,0:0:0:0:
256,192,191373,1,8,0:0:0:0:
256,192,191448,1,8,0:0:0:0:
256,192,191523,1,8,0:0:0:0:
256,192,191673,1,8,0:0:0:0:
256,192,191748,1,8,0:0:0:0:
256,192,191823,1,8,0:0:0:0:
256,192,191973,1,4,0:0:0:0:
256,192,192273,1,12,0:0:0:0:
256,192,192423,1,8,0:0:0:0:
256,192,192573,1,4,0:0:0:0:
256,192,192873,1,12,0:0:0:0:
256,192,193173,1,0,0:0:0:0:
256,192,193248,1,0,0:0:0:0:
256,192,193323,1,0,0:0:0:0:
256,192,193473,1,8,0:0:0:0:
256,192,193623,1,0,0:0:0:0:
256,192,193773,1,8,0:0:0:0:
256,192,193848,1,8,0:0:0:0:
256,192,193923,1,8,0:0:0:0:
256,192,193998,1,8,0:0:0:0:
256,192,194073,1,8,0:0:0:0:
256,192,194148,1,8,0:0:0:0:
256,192,194223,1,8,0:0:0:0:
256,192,194373,1,4,0:0:0:0:
256,192,194673,1,8,0:0:0:0:
256,192,194823,1,0,0:0:0:0:
256,192,194898,1,0,0:0:0:0:
256,192,194973,1,0,0:0:0:0:
256,192,195123,1,8,0:0:0:0:
256,192,195273,1,0,0:0:0:0:
256,192,195348,1,0,0:0:0:0:
256,192,195423,1,8,0:0:0:0:
256,192,195498,1,8,0:0:0:0:
256,192,195573,1,0,0:0:0:0:
256,192,195723,1,0,0:0:0:0:
256,192,195873,1,8,0:0:0:0:
256,192,196023,1,8,0:0:0:0:
256,192,196173,1,0,0:0:0:0:
256,192,196248,1,8,0:0:0:0:
256,192,196323,1,8,0:0:0:0:
256,192,196473,1,0,0:0:0:0:
256,192,196548,1,8,0:0:0:0:
256,192,196623,1,8,0:0:0:0:
256,192,196773,1,0,0:0:0:0:
256,192,196923,1,0,0:0:0:0:
256,192,197073,1,8,0:0:0:0:
256,192,197223,1,8,0:0:0:0:
256,192,197373,1,0,0:0:0:0:
256,192,197448,1,8,0:0:0:0:
256,192,197523,1,0,0:0:0:0:
256,192,197673,1,8,0:0:0:0:
256,192,197823,1,8,0:0:0:0:
256,192,197898,1,8,0:0:0:0:
256,192,197973,1,0,0:0:0:0:
256,192,198123,1,8,0:0:0:0:
256,192,198273,1,0,0:0:0:0:
256,192,198423,1,0,0:0:0:0:
256,192,198573,1,8,0:0:0:0:
256,192,198648,1,8,0:0:0:0:
256,192,198723,1,8,0:0:0:0:
256,192,198873,1,8,0:0:0:0:
256,192,198948,1,8,0:0:0:0:
256,192,199023,1,8,0:0:0:0:
256,192,199173,1,0,0:0:0:0:
256,192,199323,1,0,0:0:0:0:
256,192,199398,1,0,0:0:0:0:
256,192,199473,1,8,0:0:0:0:
256,192,199623,1,8,0:0:0:0:
256,192,199773,1,0,0:0:0:0:
256,192,199923,1,8,0:0:0:0:
256,192,199998,1,8,0:0:0:0:
256,192,200073,1,0,0:0:0:0:
256,192,200148,1,8,0:0:0:0:
256,192,200223,1,0,0:0:0:0:
256,192,200298,1,0,0:0:0:0:
256,192,200373,1,8,0:0:0:0:
256,192,200523,1,0,0:0:0:0:
256,192,200598,1,8,0:0:0:0:
256,192,200748,1,0,0:0:0:0:
256,192,200823,1,8,0:0:0:0:
256,192,200973,1,8,0:0:0:0:
256,192,201048,1,8,0:0:0:0:
256,192,201123,1,0,0:0:0:0:
256,192,201273,1,8,0:0:0:0:
256,192,201348,1,8,0:0:0:0:
256,192,201423,1,8,0:0:0:0:
256,192,201498,1,8,0:0:0:0:
256,192,201573,1,0,0:0:0:0:
256,192,201723,1,8,0:0:0:0:
256,192,201798,1,0,0:0:0:0:
256,192,201873,1,8,0:0:0:0:
256,192,201948,1,0,0:0:0:0:
256,192,202023,1,8,0:0:0:0:
256,192,202173,1,0,0:0:0:0:
256,192,202323,1,8,0:0:0:0:
256,192,202473,1,8,0:0:0:0:
256,192,202773,1,8,0:0:0:0:
256,192,202848,1,8,0:0:0:0:
256,192,202923,1,8,0:0:0:0:
256,192,203073,1,8,0:0:0:0:
256,192,203223,1,8,0:0:0:0:
256,192,203373,1,0,0:0:0:0:
256,192,203448,1,0,0:0:0:0:
256,192,203523,1,8,0:0:0:0:
256,192,203673,1,0,0:0:0:0:
256,192,203748,1,8,0:0:0:0:
256,192,203823,1,8,0:0:0:0:
256,192,203973,1,0,0:0:0:0:
256,192,204123,1,0,0:0:0:0:
256,192,204273,1,8,0:0:0:0:
256,192,204423,1,8,0:0:0:0:
256,192,204573,1,0,0:0:0:0:
256,192,204648,1,8,0:0:0:0:
256,192,204798,1,8,0:0:0:0:
256,192,204948,1,8,0:0:0:0:
256,192,205023,1,8,0:0:0:0:
256,192,205173,1,8,0:0:0:0:
256,192,205323,1,0,0:0:0:0:
256,192,205398,1,8,0:0:0:0:
256,192,205548,1,0,0:0:0:0:
256,192,205623,1,8,0:0:0:0:
256,192,205773,12,0,206223,0:0:0:0:
256,192,206373,5,0,0:0:0:0:
256,192,206673,1,0,0:0:0:0:
256,192,206973,1,8,0:0:0:0:
256,192,207573,1,0,0:0:0:0:
256,192,207873,1,0,0:0:0:0:
256,192,208173,1,8,0:0:0:0:
256,192,208773,1,0,0:0:0:0:
256,192,209073,1,8,0:0:0:0:
256,192,209373,1,0,0:0:0:0:
256,192,209973,1,0,0:0:0:0:
256,192,210273,1,8,0:0:0:0:
256,192,210573,1,0,0:0:0:0:
275,193,211173,1,0,0:0:0:0:
275,193,211473,1,0,0:0:0:0:
275,193,211773,1,8,0:0:0:0:
275,193,212373,1,0,0:0:0:0:
275,193,212673,1,0,0:0:0:0:
275,193,212973,1,8,0:0:0:0:
275,193,213573,1,0,0:0:0:0:
275,193,213873,1,0,0:0:0:0:
275,193,214023,1,0,0:0:0:0:
275,193,214173,1,8,0:0:0:0:
275,193,214473,1,8,0:0:0:0:
275,193,214773,1,0,0:0:0:0:
275,193,214923,1,8,0:0:0:0:
275,193,215073,1,0,0:0:0:0:
275,193,215223,1,0,0:0:0:0:
275,193,215373,1,8,0:0:0:0:
