osu file format v14

[General]
AudioFilename: Tarpey - Close Call.mp3
AudioLeadIn: 0
PreviewTime: 68364
Countdown: 0
SampleSet: Soft
StackLeniency: 0.5
Mode: 0
LetterboxInBreaks: 0
WidescreenStoryboard: 0

[Editor]
Bookmarks: 12643,23805,33573,44736,67061,68457,90782,113108,135433
DistanceSpacing: 1.1
BeatDivisor: 4
GridSize: 4
TimelineZoom: 1.6

[Metadata]
Title:Close Call
TitleUnicode:Close Call
Artist:Tarpey
ArtistUnicode:Tarpey
Creator:xChorse
Version:Squirrel's Easy
Source:
Tags:Drum and Bass DnB D&B Diversity Promotions Glitch Hop Spork Lover Strategas Squirrel
BeatmapID:920991
BeatmapSetID:403612

[Difficulty]
HPDrainRate:2
CircleSize:3
OverallDifficulty:2.5
ApproachRate:3.5
SliderMultiplier:0.8
SliderTickRate:1

[Events]
//Background and Video events
0,0,"bg.png",0,0
//Break Periods
2,24000,26606
2,29381,32188
2,34963,37769
2,40544,43350
2,90977,91839
2,113302,114513
//Storyboard Layer 0 (Background)
//Storyboard Layer 1 (Fail)
//Storyboard Layer 2 (Pass)
//Storyboard Layer 3 (Foreground)
//Storyboard Sound Samples

[TimingPoints]
1475,348.837209302326,4,2,1,65,1,0
12637,-100,4,2,25,55,0,0
22405,-100,4,2,1,65,0,0
23800,-100,4,2,2,65,0,0
27986,-100,4,2,25,65,0,0
44730,-100,4,3,1,45,0,0
45777,-100,4,3,1,75,0,0
46126,-100,4,2,25,65,0,0
47521,-100,4,2,25,45,0,0
51707,-100,4,2,25,65,0,0
53102,-100,4,2,25,45,0,0
55893,-100,4,2,25,65,0,0
57288,-100,4,2,25,75,0,0
58684,-100,4,2,25,55,0,0
62870,-100,4,2,25,75,0,0
64265,-100,4,2,25,55,0,0
67056,-100,4,2,25,60,0,0
68451,-100,4,3,25,60,0,1
90777,-100,4,3,25,80,0,0
93219,-100,4,3,25,60,0,0
93568,-100,4,3,25,60,0,1
113102,-100,4,3,25,80,0,0
115893,-100,4,3,1,80,0,0
135428,-100,4,2,25,60,0,0
139614,-100,4,2,25,80,0,0

[Colours]
Combo1 : 0,78,155
Combo2 : 128,128,255
Combo3 : 18,124,255
Combo4 : 232,138,255

[HitObjects]
122,284,1475,6,0,B|189:280|189:280|292:310|292:310|357:301,1,240,0|0,1:0|3:0,0:0:0:0:
486,181,3219,2,0,P|471:106|402:71,1,160,0|0,3:0|3:0,0:0:0:0:
226,83,4614,6,0,B|179:103|179:103|60:104,1,160,0|0,3:0|3:0,0:0:0:0:
24,274,6009,2,0,P|86:319|162:302,1,160,0|0,3:0|3:0,0:0:0:0:
230,246,7056,6,0,P|339:220|419:312,1,240,0|0,1:0|3:0,0:0:0:0:
243,335,8800,2,0,P|169:314|139:243,1,160,0|0,3:0|3:0,0:0:0:0:
168,69,10195,6,0,B|218:62|218:62|275:78|275:78|324:69,1,160,0|0,3:0|3:0,0:0:0:0:
411,86,11242,2,0,P|453:170|414:272,1,200,0|0,1:0|0:0,0:0:0:0:
317,182,12637,5,4,0:3:0:0:
265,110,12986,2,0,B|235:136|232:164|232:164|176:144|125:173,1,160,8|0,0:3|0:0,0:0:0:0:
185,336,14381,2,0,P|257:367|332:345,1,160,8|0,0:3|0:0,0:0:0:0:
395,282,15428,5,4,0:3:0:0:
419,197,15777,2,0,L|427:36,1,160,8|0,0:3|0:0,0:0:0:0:
258,87,17172,2,0,L|265:246,1,160,8|0,0:3|0:0,0:0:0:0:
303,326,18219,5,4,0:3:0:0:
389,344,18568,2,0,P|461:320|477:245,1,160,8|0,0:3|0:0,0:0:0:0:
367,108,19963,2,0,B|326:113|326:113|254:96|254:96|209:103,1,160,8|0,0:3|0:0,0:0:0:0:
138,154,21009,5,4,0:3:0:0:
96,231,21358,2,0,P|120:303|191:336,1,160,8|0,0:3|0:0,0:0:0:0:
279,321,22405,2,0,B|271:282|299:240|299:240|288:210|288:210|291:168|262:125,1,200,0|0,1:0|0:0,0:0:0:0:
155,206,23800,5,2,0:0:0:0:
155,206,27986,6,0,B|188:226|232:214|232:214|272:235|272:235|310:218|359:233,1,200,2|0,0:0|0:0,0:0:0:0:
345,229,33568,6,0,P|380:143|303:77,1,200,2|0,0:0|0:0,0:0:0:0:
310,77,39149,6,0,B|311:115|299:140|299:140|316:182|316:182|299:232|319:284,1,200,2|0,0:0|0:0,0:0:0:0:
314,270,44730,6,0,P|260:283|195:251,2,120,2|0|2,0:0|0:0|0:0,0:0:0:0:
391,227,46126,6,0,L|381:141,1,80,2|0,0:0|0:0,0:0:0:0:
304,106,46823,2,0,L|314:20,1,80
398,3,47521,1,2,0:0:0:0:
468,57,47870,2,0,P|492:89|468:199,1,160,8|0,0:0|0:0,0:0:0:0:
388,235,48916,6,0,B|312:237|312:237|235:274|235:274|156:276,1,240,2|0,0:0|0:0,0:0:0:0:
83,227,50312,2,0,P|75:195|215:90,1,240,2|0,0:0|0:0,0:0:0:0:
292,126,51707,6,0,L|305:217,1,80,2|0,0:0|0:0,0:0:0:0:
355,276,52405,2,0,L|342:367,1,80
258,376,53102,1,2,0:0:0:0:
194,314,53451,2,0,B|161:293|119:303|119:303|84:268|33:277,1,160,8|0,0:0|0:0,0:0:0:0:
57,362,54498,6,0,L|122:122,1,240,2|0,0:0|0:0,0:0:0:0:
187,73,55893,2,0,P|226:74|262:92,1,80,2|0,0:0|0:0,0:0:0:0:
315,162,56591,2,0,P|354:161|390:143,1,80
468,103,57288,6,0,P|478:142|470:181,1,80,2|0,0:0|0:0,0:0:0:0:
416,250,57986,2,0,P|406:288|414:327,1,80
493,288,58684,2,0,L|239:322,1,240,2|0,0:0|0:0,0:0:0:0:
232,234,60079,6,0,L|469:202,1,240,2|0,0:0|0:0,0:0:0:0:
450,115,61475,2,0,L|213:147,1,240,2|0,0:0|0:0,0:0:0:0:
144,203,62870,6,0,P|132:241|138:291,1,80,2|0,0:0|0:0,0:0:0:0:
187,351,63568,2,0,P|225:363|275:357,1,80
336,309,64265,2,0,B|343:247|343:247|408:152|408:152|416:90,1,240,2|0,0:0|0:0,0:0:0:0:
346,33,65661,6,0,P|236:46|223:157,1,240,2|0,0:0|0:0,0:0:0:0:
274,228,67056,2,0,P|261:338|150:351,1,240,2|0,0:3|0:0,0:0:0:0:
83,293,68451,6,0,L|75:165,1,120,6|0,0:0|0:0,0:0:0:0:
124,50,69498,1,8,0:0:0:0:
205,83,69847,2,0,P|263:96|321:83,2,120,2|2|8,0:0|0:0|0:0,0:0:0:0:
124,50,71242,5,6,0:0:0:0:
40,82,71591,2,0,P|14:134|21:193,1,120,8|0,0:0|0:0,0:0:0:0:
108,293,72637,2,0,L|187:295,1,80,2|0,0:0|0:0,0:0:0:0:
274,316,73335,2,0,L|353:313,1,80,2|0,0:0|0:0,0:0:0:0:
437,283,74033,6,0,P|453:250|447:162,1,120,6|0,0:0|0:0,0:0:0:0:
337,100,75079,1,8,0:0:0:0:
254,130,75428,2,0,B|208:142|208:142|123:133,2,120,2|2|8,0:0|0:0|0:0,0:0:0:0:
337,100,76824,5,6,0:0:0:0:
418,131,77172,2,0,P|445:204|426:280,1,160,8|0,0:0|0:0,0:0:0:0:
372,351,78219,2,0,B|292:335|292:335|216:353|216:353|136:340,1,240,6|0,0:0|0:0,0:0:0:0:
122,253,79614,6,0,P|154:210|226:197,1,120,6|8,0:0|0:0,0:0:0:0:
348,203,80661,1,8,0:0:0:0:
419,150,81009,2,0,P|419:91|385:43,2,120,2|2|8,0:0|0:0|0:0,0:0:0:0:
336,118,82405,5,6,0:0:0:0:
252,90,82754,2,0,B|241:129|259:160|259:160|237:177|228:205,1,120,8|0,0:0|0:0,0:0:0:0:
320,297,83800,2,0,L|404:291,1,80,2|0,0:0|0:0,0:0:0:0:
411,204,84498,2,0,L|331:209,1,80,2|0,0:0|0:0,0:0:0:0:
246,231,85195,6,0,P|223:280|234:348,1,120,6|0,0:0|0:0,0:0:0:0:
359,376,86242,1,8,0:0:0:0:
446,366,86591,2,0,P|469:317|458:249,2,120,2|2|8,0:0|0:0|0:0,0:0:0:0:
359,376,87986,5,6,0:0:0:0:
287,324,88335,2,0,B|280:270|280:270|298:216|298:216|291:167,1,160,8|0,0:0|0:0,0:0:0:0:
232,102,89381,2,0,P|121:108|106:218,1,240,6|0,0:0|0:0,0:0:0:0:
183,175,90777,5,6,0:0:0:0:
183,175,93219,5,8,0:0:0:0:
117,233,93568,6,0,L|108:358,2,120,2|2|8,0:0|0:0|0:0,0:0:0:0:
146,149,94963,2,0,P|248:103|323:186,1,240,6|0,0:0|0:0,0:0:0:0:
363,265,96358,6,0,P|417:287|474:274,1,120,6|0,0:0|0:0,0:0:0:0:
506,145,97405,1,8,0:0:0:0:
445,81,97754,2,0,L|316:74,2,120,2|2|8,0:0|0:0|0:0,0:0:0:0:
506,145,99149,5,6,0:0:0:0:
494,232,99498,2,0,P|471:252|346:230,1,160,8|0,0:0|0:0,0:0:0:0:
306,161,100544,2,0,P|288:113|143:155,1,240,6|0,0:0|0:0,0:0:0:0:
145,239,101940,6,0,L|158:368,1,120,6|0,0:0|0:0,0:0:0:0:
287,379,102986,1,8,0:0:0:0:
369,347,103335,2,0,P|389:311|381:227,2,120,2|2|8,0:0|0:0|0:0,0:0:0:0:
287,379,104730,5,6,0:0:0:0:
200,363,105079,2,0,B|157:345|157:345|83:347,1,120,8|0,0:0|0:0,0:0:0:0:
11,236,106126,2,0,L|107:231,1,80,2|0,0:0|0:0,0:0:0:0:
176,210,106823,2,0,P|198:178|202:138,1,80,2|0,0:0|0:0,0:0:0:0:
159,60,107521,6,0,P|95:51|33:80,1,120,6|0,0:0|0:0,0:0:0:0:
29,200,108568,1,8,0:0:0:0:
54,283,108916,2,0,L|179:296,2,120,2|2|8,0:0|0:0|0:0,0:0:0:0:
29,200,110312,6,0,P|39:174|81:133,1,80,2|0,0:0|0:0,0:0:0:0:
162,130,111009,2,0,P|188:140|229:182,1,80,2|0,0:0|0:0,0:0:0:0:
269,252,111707,2,0,P|377:278|435:182,1,240,6|0,0:0|0:0,0:0:0:0:
409,98,113102,5,6,0:0:0:0:
409,98,115893,6,0,B|345:103|345:103|252:171|252:171|191:178,1,240,6|0,0:0|0:0,0:0:0:0:
130,241,117288,2,0,P|127:273|148:323,1,80,6|0,0:0|0:0,0:0:0:0:
223,355,117986,2,0,P|255:358|305:337,1,80
350,269,118684,5,6,0:0:0:0:
297,198,119033,2,0,P|286:168|338:59,1,160,8|0,0:0|0:0,0:0:0:0:
423,44,120079,1,6,0:0:0:0:
483,107,120428,2,0,L|476:284,1,160,8|0,0:0|0:0,0:0:0:0:
423,337,121475,5,6,0:0:0:0:
336,320,121823,2,0,L|329:160,1,160,8|0,0:0|0:0,0:0:0:0:
285,83,122870,1,6,0:0:0:0:
209,37,123219,2,0,P|168:35|118:133,1,160,8|0,0:0|0:0,0:0:0:0:
155,205,124265,6,0,P|175:244|47:333,1,240,6|0,0:0|0:0,0:0:0:0:
9,255,125661,2,0,L|2:166,1,80,6|0,0:0|0:0,0:0:0:0:
58,107,126358,2,0,L|65:18,1,80
152,14,127056,5,6,0:0:0:0:
235,41,127405,2,0,P|254:70|202:184,1,160,8|0,0:0|0:0,0:0:0:0:
142,226,128451,1,6,0:0:0:0:
151,313,128800,2,0,P|172:349|279:338,1,160,8|0,0:0|0:0,0:0:0:0:
327,268,129847,5,6,0:0:0:0:
307,182,130195,2,0,L|141:167,1,160,8|0,0:0|0:0,0:0:0:0:
130,81,131242,2,0,L|382:105,1,240,6|0,0:0|0:0,0:0:0:0:
428,168,132637,5,6,0:0:0:0:
425,255,132986,2,0,P|377:317|299:322,1,160,8|0,0:0|0:0,0:0:0:0:
221,282,134033,1,6,0:0:0:0:
163,216,134381,2,0,P|84:193|17:240,1,160,8|0,0:0|0:0,0:0:0:0:
22,320,135428,5,2,0:3:0:0:
93,370,135777,2,0,L|253:361,1,160,8|0,0:0|0:0,0:0:0:0:
331,321,136823,1,2,0:3:0:0:
388,254,137172,2,0,P|392:174|335:117,1,160,8|0,0:0|0:0,0:0:0:0:
258,84,138219,5,2,0:3:0:0:
170,89,138568,2,0,B|128:97|128:97|71:146|71:146|26:155,1,160,8|0,0:0|0:0,0:0:0:0:
0,235,139614,2,0,P|37:317|121:283,1,200,2|0,0:3|0:3,0:3:0:0:
