osu file format v14

[General]
AudioFilename: Tarpey - Close Call.mp3
AudioLeadIn: 0
PreviewTime: 68364
Countdown: 0
SampleSet: None
StackLeniency: 0.5
Mode: 0
LetterboxInBreaks: 0
WidescreenStoryboard: 0

[Editor]
Bookmarks: 12643,23805,33573,44736,67061,68457,90782,113108,135433
DistanceSpacing: 1
BeatDivisor: 4
GridSize: 4
TimelineZoom: 0.9999999

[Metadata]
Title:Close Call
TitleUnicode:Close Call
Artist:Tarpey
ArtistUnicode:Tarpey
Creator:xChorse
Version:Normal
Source:
Tags:Drum and Bass DnB D&B Diversity Promotions Glitch Hop Spork Lover Strategas Squirrel
BeatmapID:893357
BeatmapSetID:403612

[Difficulty]
HPDrainRate:3
CircleSize:3
OverallDifficulty:3
ApproachRate:5
SliderMultiplier:1
SliderTickRate:1

[Events]
//Background and Video events
0,0,"bg.png",0,0
//Break Periods
2,24000,26786
2,29381,32368
2,34639,37949
2,40220,43530
2,90977,92019
2,113302,114693
//Storyboard Layer 0 (Background)
//Storyboard Layer 1 (Fail)
//Storyboard Layer 2 (Pass)
//Storyboard Layer 3 (Foreground)
//Storyboard Sound Samples

[TimingPoints]
1475,348.837209302326,4,2,1,65,1,0
12637,-100,4,3,1,80,0,0
27986,-100,4,3,1,75,0,0
44730,-100,4,3,1,30,0,0
45777,-100,4,3,1,100,0,0
45864,-100,4,3,1,80,0,0
67056,-100,4,3,1,80,0,0
67230,-100,4,3,1,85,0,0
67405,-100,4,3,1,90,0,0
67579,-100,4,3,1,95,0,0
67754,-100,4,3,1,100,0,0
68451,-100,4,3,3,50,0,1
68626,-100,4,3,2,100,0,1
74033,-100,4,3,3,60,0,1
74120,-100,4,3,2,100,0,1
79614,-100,4,3,3,70,0,1
79963,-100,4,3,2,100,0,1
85195,-100,4,3,3,80,0,1
85283,-100,4,3,2,100,0,1
90777,-100,4,3,3,80,0,0
90951,-100,4,3,1,80,0,0
93219,-100,4,3,2,80,0,0
93568,-100,4,3,3,90,0,1
93742,-100,4,3,2,100,0,1
96358,-100,4,3,3,100,0,1
96533,-100,4,3,2,95,0,1
99149,-100,4,3,3,100,0,1
99323,-100,4,3,2,100,0,1
101940,-100,4,3,3,100,0,1
102114,-100,4,3,2,100,0,1
104730,-100,4,3,3,100,0,1
104905,-100,4,3,2,100,0,1
107521,-100,4,3,3,100,0,1
107695,-100,4,3,2,100,0,1
110312,-100,4,3,3,100,0,1
110486,-100,4,3,2,100,0,1
113102,-100,4,3,1,80,0,0

[Colours]
Combo1 : 0,78,155
Combo2 : 128,128,255
Combo3 : 18,124,255
Combo4 : 232,138,255

[HitObjects]
29,241,1475,6,0,P|153:311|244:196,1,300,0|2,1:0|0:0,0:0:0:0:
133,200,2870,2,0,P|228:98|347:169,1,300,0|2,0:0|0:0,0:0:0:0:
436,220,4266,6,0,L|492:112,1,100
472,32,4963,1,0,0:0:0:0:
472,32,5312,1,2,0:0:0:0:
376,60,5661,2,0,P|284:52|248:72,1,100
180,76,6359,2,0,P|130:83|83:69,1,100
56,164,7056,6,0,P|164:248|56:360,1,300,0|2,0:0|0:0,0:0:0:0:
68,260,8452,2,0,L|392:268,1,300,0|2,0:0|0:0,0:0:0:0:
464,248,9847,6,0,P|332:176|284:316,1,300,0|2,0:0|0:0,0:0:0:0:
344,348,11242,2,0,L|484:352,2,100,2|2|2,0:3|0:3|0:3,0:3:0:0:
271,278,12289,1,2,0:3:0:0:
204,204,12638,6,0,P|120:208|84:240,2,100,0|8|0,1:0|0:0|0:0,0:0:0:0:
256,120,13684,1,4,0:0:0:0:
344,76,14033,2,0,L|468:48,1,100,0|8,0:0|0:0,0:0:0:0:
414,148,14731,2,0,L|290:176,1,100,0|4,0:0|0:0,0:0:0:0:
280,264,15428,6,0,P|432:256|404:140,1,300,0|4,1:0|0:0,0:0:0:0:
344,76,16824,2,0,P|276:60|212:80,1,100,0|8,0:0|0:0,0:0:0:0:
148,72,17521,2,0,P|98:75|51:60,1,100,0|8,0:0|0:0,0:0:0:0:
60,160,18219,6,0,L|60:288,1,100,0|8,1:0|0:0,0:0:0:0:
64,360,18916,1,0,0:0:0:0:
64,360,19265,1,4,0:0:0:0:
148,312,19614,2,0,P|208:320|280:292,1,100,0|8,0:0|0:0,0:0:0:0:
340,272,20312,2,0,P|388:262|437:271,1,100,0|4,0:0|0:0,0:0:0:0:
472,176,21009,6,0,L|472:4,1,100,0|8,1:0|0:0,0:0:0:0:
380,36,21707,1,0,0:0:0:0:
280,44,22056,1,4,0:0:0:0:
204,108,22405,2,0,L|116:228,1,100,0|8,0:0|0:0,0:0:0:0:
44,184,23103,2,0,L|132:64,1,100,0|4,0:0|0:0,0:0:0:0:
156,20,23800,5,0,0:0:0:0:
344,216,27986,6,0,L|359:263,2,50,0|2|0,0:0|0:0|0:0,0:0:0:0:
304,188,28509,2,0,L|288:140,2,50,2|0|2,0:0|0:0|0:0,0:0:0:0:
168,216,33568,6,0,L|152:263,2,50,0|2|0,0:0|0:0|0:0,0:0:0:0:
208,188,34091,2,0,L|223:140,2,50,2|0|2,0:0|0:0|0:0,0:0:0:0:
280,272,39149,6,0,L|340:276,2,50,0|2|0,0:0|0:0|0:0,0:0:0:0:
232,272,39672,2,0,L|172:276,2,50,2|0|2,0:0|0:0|0:0,0:0:0:0:
296,332,44730,6,0,P|412:268|304:180,1,300,0|4,0:0|0:0,0:0:0:0:
240,228,46126,6,0,P|192:242|144:232,1,100,2|4,0:0|0:0,0:0:0:0:
52,192,46823,2,0,L|56:72,1,100,2|4,0:0|0:0,0:0:0:0:
148,52,47521,2,0,P|228:44|276:68,1,100
336,92,48219,2,0,P|384:100|433:89,1,100
464,184,48917,6,0,L|468:304,2,100
364,184,49963,1,0,0:0:0:0:
280,240,50312,2,0,L|284:360,2,100
192,192,51358,1,0,0:0:0:0:
120,260,51707,6,0,P|64:260|28:232,1,100,2|4,0:0|0:0,0:0:0:0:
8,136,52405,2,0,P|57:134|97:162,1,100,2|4,0:0|0:0,0:0:0:0:
120,260,53102,2,0,L|116:376,2,100
192,192,54149,1,0,0:0:0:0:
268,124,54498,6,0,P|320:128|368:108,1,100
440,48,55195,1,0,0:0:0:0:
440,48,55544,1,0,0:0:0:0:
468,144,55893,2,0,P|462:193|482:238,1,100,2|4,0:0|0:0,0:0:0:0:
416,312,56591,2,0,P|370:292|341:252,1,100,2|4,0:0|0:0,0:0:0:0:
280,176,57288,6,0,L|160:172,2,100,2|4|2,0:0|0:0|0:0,0:0:0:0:
341,252,58335,1,4,0:0:0:0:
260,308,58684,2,0,P|196:308|160:292,1,100
84,232,59382,2,0,L|60:128,1,100
124,56,60080,6,0,P|180:40|256:64,1,100
316,76,60777,1,0,0:0:0:0:
412,48,61126,1,0,0:0:0:0:
420,148,61475,2,0,L|412:280,1,100
320,284,62173,2,0,L|328:152,1,100
230,153,62870,6,0,P|182:133|129:141,1,100,2|4,0:0|0:0,0:0:0:0:
74,221,63568,2,0,P|119:241|169:236,1,100,2|4,0:0|0:0,0:0:0:0:
230,153,64265,2,0,L|241:53,2,100
326,184,65312,1,0,0:0:0:0:
412,234,65661,5,0,0:0:0:0:
452,144,66010,1,0,0:0:0:0:
452,144,66359,2,0,L|480:24,1,100
376,36,67056,2,0,B|356:124|356:124|312:92|240:104|216:172,1,250,0|6,1:0|0:0,0:0:0:0:
168,300,68452,6,0,L|42:306,1,100,6|8,0:0|0:0,0:0:0:0:
52,204,69149,1,0,0:0:0:0:
28,108,69498,1,8,0:0:0:0:
88,28,69847,2,0,L|214:34,1,100,0|8,0:0|0:0,0:0:0:0:
226,63,70370,2,0,P|234:119|210:175,1,100,0|4,0:0|0:0,0:0:0:0:
188,200,70893,1,8,0:0:0:0:
252,276,71242,6,0,P|301:290|361:271,1,100,4|8,0:0|0:0,0:0:0:0:
403,195,71940,1,0,0:0:0:0:
303,185,72288,1,8,0:0:0:0:
252,276,72637,2,0,L|222:336,2,50,0|4|8,0:0|0:0|0:0,0:0:0:0:
152,292,73335,2,0,L|122:352,2,50,0|4|8,0:0|0:0|0:0,0:0:0:0:
188,200,74033,6,0,P|140:164|92:160,1,100,6|8,0:0|0:0,0:0:0:0:
4,184,74731,1,0,0:0:0:0:
76,252,75080,1,8,0:0:0:0:
101,158,75428,2,0,L|176:80,1,100,4|8,0:0|0:0,0:0:0:0:
220,92,75951,2,0,P|272:104|328:92,1,100,0|4,0:0|0:0,0:0:0:0:
364,76,76475,1,8,0:0:0:0:
464,88,76824,5,4,0:0:0:0:
460,188,77172,2,0,P|404:266|308:266,1,200,8|8,0:0|0:0,0:0:0:0:
264,176,78219,2,0,L|339:98,1,100,4|8,0:0|0:0,0:0:0:0:
260,32,78916,2,0,L|190:104,1,100,0|8,0:0|0:0,0:0:0:0:
168,204,79614,6,0,P|160:260|178:303,1,100,6|8,0:0|0:0,0:0:0:0:
260,352,80312,1,0,0:0:0:0:
360,344,80661,1,8,0:0:0:0:
412,260,81009,2,0,L|418:160,1,100,4|8,0:0|0:0,0:0:0:0:
408,112,81533,2,0,P|358:114|314:137,1,100,0|4,0:0|0:0,0:0:0:0:
276,168,82056,1,8,0:0:0:0:
180,140,82405,6,0,P|100:156|68:188,1,100,4|8,0:0|0:0,0:0:0:0:
36,252,83103,1,0,0:0:0:0:
96,332,83452,1,8,0:0:0:0:
196,320,83800,2,0,L|216:380,2,50,4|0|8,0:0|0:0|0:0,0:0:0:0:
296,304,84498,2,0,L|316:364,2,50,0|4|8,0:0|0:0|0:0,0:0:0:0:
396,312,85196,6,0,P|448:324|508:304,1,100,6|8,0:0|0:0,0:0:0:0:
446,224,85893,1,0,0:0:0:0:
512,152,86242,1,8,0:0:0:0:
416,132,86591,2,0,P|348:128|284:144,1,100,4|8,0:0|0:0,0:0:0:0:
268,136,87114,2,0,P|218:142|168:137,1,100,0|4,0:0|0:0,0:0:0:0:
120,124,87638,1,8,0:0:0:0:
20,124,87986,6,0,L|12:268,1,100,4|8,0:0|0:0,0:0:0:0:
112,248,88684,2,0,L|104:392,1,100,0|8,0:0|0:0,0:0:0:0:
204,324,89382,2,0,P|308:316|324:324,1,100,4|8,0:0|0:0,0:0:0:0:
400,328,90080,2,0,P|453:333|500:317,1,100,0|8,0:0|0:0,0:0:0:0:
476,220,90777,5,2,0:0:0:0:
488,316,93219,5,8,0:0:0:0:
472,220,93568,6,0,P|384:172|360:176,1,100,6|8,0:0|0:0,0:0:0:0:
292,188,94266,1,0,0:0:0:0:
204,140,94614,1,8,0:0:0:0:
108,172,94963,2,0,L|68:220,2,50,4|0|8,0:0|0:0|0:0,0:0:0:0:
48,92,95661,2,0,L|8:140,2,50,0|4|8,0:0|0:0|0:0,0:0:0:0:
140,52,96358,6,0,P|188:43|236:55,1,100,6|8,0:0|0:0,0:0:0:0:
328,100,97056,2,0,P|388:112|440:96,1,100,0|8,0:0|0:0,0:0:0:0:
492,176,97754,2,0,L|488:288,1,100,4|8,0:0|0:0,0:0:0:0:
464,320,98277,2,0,P|415:328|367:316,1,100,0|4,0:0|0:0,0:0:0:0:
324,292,98800,1,8,0:0:0:0:
228,256,99149,6,0,L|92:288,1,100,6|8,0:0|0:0,0:0:0:0:
32,288,99847,1,0,0:0:0:0:
92,368,100196,1,8,0:0:0:0:
130,278,100544,2,0,P|140:230|127:183,1,100,4|8,0:0|0:0,0:0:0:0:
71,99,101242,2,0,L|191:99,1,100,0|8,0:0|0:0,0:0:0:0:
257,48,101940,6,0,P|270:95|260:143,1,100,6|8,0:0|0:0,0:0:0:0:
235,240,102638,1,0,0:0:0:0:
284,326,102986,1,8,0:0:0:0:
375,284,103335,2,0,L|378:184,1,100,4|8,0:0|0:0,0:0:0:0:
357,141,103858,2,0,P|307:134|259:144,1,100,0|4,0:0|0:0,0:0:0:0:
214,164,104381,1,8,0:0:0:0:
145,237,104731,6,0,L|151:336,1,100,6|8,0:0|0:0,0:0:0:0:
251,324,105428,2,0,P|298:309|346:322,1,100,0|8,0:0|0:0,0:0:0:0:
446,315,106126,2,0,L|542:307,2,50,4|0|8,0:0|0:0|0:0,0:0:0:0:
442,214,106824,2,0,L|538:206,2,50,0|4|8,0:0|0:0|0:0,0:0:0:0:
413,118,107521,6,0,L|393:18,1,100,6|8,0:0|0:0,0:0:0:0:
304,66,108219,2,0,P|220:90|172:70,1,100,0|8,0:0|0:0,0:0:0:0:
114,59,108916,2,0,P|74:111|74:163,1,100,4|8,0:0|0:0,0:0:0:0:
90,190,109440,2,0,L|194:190,1,100,0|4,0:0|0:0,0:0:0:0:
239,181,109963,1,8,0:0:0:0:
324,232,110312,6,0,P|379:146|372:118,2,100,6|8|0,0:0|0:0|0:0,0:0:0:0:
232,273,111359,1,8,0:0:0:0:
151,333,111707,2,0,P|49:338|29:318,2,100,4|8|0,0:0|0:0|0:0,0:0:0:0:
232,273,112754,2,0,L|247:209,2,50,8|0|0,0:0|0:0|0:0,0:0:0:0:
255,255,115893,6,0,L|122:239,2,100,0|8|0,1:0|0:0|0:0,0:0:0:0:
354,243,116940,1,4,0:0:0:0:
407,158,117288,2,0,P|417:109|401:62,1,100,0|8,1:0|0:0,0:0:0:0:
302,45,117986,2,0,L|158:45,1,100
103,65,118684,6,0,P|87:117|103:169,1,100,0|8,1:0|0:0,0:0:0:0:
171,227,119382,1,0,0:0:0:0:
270,223,119731,1,4,0:0:0:0:
354,275,120080,2,0,P|410:275|450:243,1,100,0|8,1:0|0:0,0:0:0:0:
474,155,120777,1,0,0:0:0:0:
422,71,121126,1,4,0:0:0:0:
326,51,121475,6,0,L|202:47,2,100,0|8|0,1:0|0:0|0:0,0:0:0:0:
422,71,122521,1,4,0:0:0:0:
354,143,122870,2,0,P|318:191|318:251,2,100,0|8|0,1:0|0:0|0:0,0:0:0:0:
454,159,123916,1,0,0:0:0:0:
478,255,124265,6,0,P|440:286|391:295,1,100,0|8,1:0|0:0,0:0:0:0:
313,229,124963,1,0,0:0:0:0:
238,299,125312,1,4,0:0:0:0:
154,247,125661,2,0,L|166:135,1,100,0|8,1:0|0:0,0:0:0:0:
146,47,126359,1,0,0:0:0:0:
246,59,126707,1,4,0:0:0:0:
346,31,127056,6,0,P|426:31|462:43,2,100,0|8|0,1:0|0:0|0:0,0:0:0:0:
246,59,128102,1,4,0:0:0:0:
302,142,128452,2,0,P|306:191|296:240,1,100,0|8,1:0|0:0,0:0:0:0:
224,310,129149,1,0,0:0:0:0:
133,267,129498,1,0,0:0:0:0:
108,168,129847,6,0,P|32:148|4:156,2,100,0|8|0,1:0|0:0|0:0,0:0:0:0:
204,200,130893,1,4,0:0:0:0:
295,240,131242,2,0,L|404:245,1,100,0|8,1:0|0:0,0:0:0:0:
484,196,131940,1,0,0:0:0:0:
476,96,132288,1,4,0:0:0:0:
386,47,132637,6,0,L|286:51,1,100,0|8,1:0|0:0,0:0:0:0:
188,60,133335,1,0,0:0:0:0:
108,120,133684,1,4,0:0:0:0:
136,216,134033,2,0,P|64:280|36:284,2,100,0|8|0,1:0|0:0|0:0,0:0:0:0:
228,176,135079,1,0,0:0:0:0:
328,172,135428,5,0,1:0:0:0:
408,232,135777,2,0,P|452:260|504:264,2,100,2|2|2,0:0|0:0|0:0,0:0:0:0:
328,172,136823,1,0,1:0:0:0:
316,271,137172,2,0,P|313:323|336:370,2,100,2|2|2,0:0|0:0|0:0,0:0:0:0:
328,172,138219,5,0,1:0:0:0:
236,211,138567,2,0,P|189:235|160:278,2,100,2|2|2,0:0|0:0|0:0,0:0:0:0:
328,172,139614,2,0,L|412:192,2,50,0|2|0,0:0|0:0|0:0,0:0:0:0:
304,128,140137,2,0,L|255:116,2,50,2|0|2,0:0|0:0|0:0,0:0:0:0:
