osu file format v14

[General]
AudioFilename: audio.mp3
AudioLeadIn: 0
PreviewTime: 52314
Countdown: 0
SampleSet: Soft
StackLeniency: 0.7
Mode: 0
LetterboxInBreaks: 0
WidescreenStoryboard: 0

[Editor]
Bookmarks: 2830,22623,32520,44891,54788,62211
DistanceSpacing: 0.3
BeatDivisor: 8
GridSize: 16
TimelineZoom: 2

[Metadata]
Title:Simarik
TitleUnicode:Şımarık
Artist:Tarkan
ArtistUnicode:Tarkan
Creator:Sotarks
Version:Yakalarsam
Source:
Tags:turkish pop Ozan Çolakoğlu Sezen Aksu Istanbul Plak Polygram Universal Mehmet Söğütoğlu cd single cut edit short version Ölürüm Sana kiss smack-smack nymphe kiyoshi guarden Colakoglu Sogutoglu Olurum turkey
BeatmapID:2609731
BeatmapSetID:1255746

[Difficulty]
HPDrainRate:5.2
CircleSize:3.8
OverallDifficulty:9.2
ApproachRate:9.2
SliderMultiplier:2.92
SliderTickRate:1

[Events]
//Background and Video events
0,0,"bg.jpg",0,0
//Break Periods
//Storyboard Layer 0 (Background)
//Storyboard Layer 1 (Fail)
//Storyboard Layer 2 (Pass)
//Storyboard Layer 3 (Foreground)
//Storyboard Layer 4 (Overlay)
//Storyboard Sound Samples

[TimingPoints]
2830,618.556701030928,4,2,22,62,1,0
2830,-121.951219512195,4,2,22,62,0,0
7778,-108.695652173913,4,2,22,72,0,0
12726,-108.695652173913,4,2,22,82,0,0
13654,-98.0392156862744,4,2,22,82,0,0
21386,-98.0392156862744,4,2,22,62,0,0
22005,-121.951219512195,4,2,22,62,0,0
22623,-108.695652173913,4,2,22,62,0,0
32520,-98.0392156862745,4,2,22,72,0,0
42417,-98.0392156862745,4,2,22,82,0,0
43964,-98.0392156862745,4,2,22,52,0,0
44582,-161.290322580645,4,2,22,52,0,0
44891,-161.290322580645,4,2,22,92,0,0
45510,-89.2857142857143,4,2,22,92,0,0
53860,-89.2857142857143,4,2,22,52,0,0
54479,-89.2857142857143,4,2,22,82,0,0
54788,-89.2857142857143,4,2,22,92,0,0

[Colours]
Combo1 : 239,188,118
Combo2 : 198,240,238

[HitObjects]
117,95,2830,6,0,P|123:131|131:180,1,59.9677489133911,2|0,3:2|2:0,2:0:0:0:
219,308,3139,2,0,P|223:278|228:248,1,59.9677489133911,0|0,2:0|3:2,2:0:0:0:
293,110,3448,1,0,2:0:0:0:
151,180,3603,1,0,2:0:0:0:
316,265,3757,2,0,P|311:235|306:205,1,59.9677489133911,0|0,3:2|2:0,2:0:0:0:
411,64,4067,2,0,P|404:126|392:218,1,119.935497826782,2|0,3:2|2:0,2:0:0:0:
416,300,4531,2,0,P|370:259|293:284,1,119.935497826782,0|0,3:2|2:0,2:0:0:0:
218,223,4994,2,0,P|213:252|208:282,1,59.9677489133911,0|0,3:2|2:0,2:0:0:0:
69,170,5304,6,0,P|104:160|143:150,1,59.9677489133911,2|0,3:2|2:0,2:0:0:0:
233,50,5613,2,0,P|198:40|159:30,1,59.9677489133911,0|0,2:0|3:2,2:0:0:0:
292,170,5922,1,0,2:0:0:0:
341,13,6077,1,0,2:0:0:0:
157,172,6232,2,0,P|128:179|99:187,1,59.9677489133911,0|0,3:2|2:0,2:0:0:0:
0,72,6541,2,0,P|61:80|141:90,1,119.935497826782,2|0,3:2|2:0,2:0:0:0:
250,61,7005,2,0,P|194:103|214:192,1,119.935497826782,0|0,3:2|2:0,2:0:0:0:
243,244,7469,1,0,3:2:0:0:
303,151,7623,1,8,2:0:0:0:
303,151,7701,1,8,2:0:0:0:
303,151,7778,6,0,B|339:129|375:157|364:167|400:200|468:163,1,134.561771490967,10|0,3:2|2:0,2:0:0:0:
512,106,8242,2,0,P|460:164|475:245,1,134.561771490967,8|0,3:2|2:0,2:0:0:0:
509,314,8706,1,8,3:2:0:0:
509,314,9015,2,0,P|471:321|427:331,1,67.2808857454835,10|0,3:2|2:0,2:0:0:0:
284,255,9324,1,0,3:2:0:0:
284,255,9479,2,0,P|317:261|350:269,1,67.2808857454835,8|0,3:2|2:0,2:0:0:0:
181,320,9788,1,0,3:2:0:0:
294,163,9943,1,8,3:2:0:0:
352,357,10098,1,8,2:0:0:0:
352,357,10175,1,8,2:0:0:0:
352,357,10252,6,0,P|424:351|451:291,1,134.561771490967,10|0,3:2|2:0,2:0:0:0:
512,189,10716,2,0,B|474:168|440:198|451:208|417:243|347:209,1,134.561771490967,8|0,3:2|2:0,2:0:0:0:
294,163,11180,1,8,3:2:0:0:
294,163,11489,2,0,P|301:121|307:83,1,67.2808857454835,10|0,3:2|2:0,2:0:0:0:
148,27,11799,1,0,3:2:0:0:
148,27,11953,2,0,P|153:60|158:93,1,67.2808857454835,8|0,3:2|2:0,2:0:0:0:
99,234,12262,1,0,3:2:0:0:
269,123,12417,2,0,P|264:156|259:189,1,67.2808857454835,8|0,3:2|1:2,2:0:0:0:
83,72,12726,5,6,1:2:0:0:
188,277,12881,1,0,3:2:0:0:
304,57,13036,1,2,3:2:0:0:
119,207,13190,1,8,3:2:0:0:
249,0,13345,1,2,1:2:0:0:
336,230,13500,1,2,3:0:0:0:
155,53,13654,2,0,P|114:63|73:74,1,74.5940284544678,8|0,3:0|3:2,3:2:0:0:
256,346,13964,5,2,1:2:0:0:
151,144,14118,1,0,3:2:0:0:
62,384,14273,1,2,3:2:0:0:
291,259,14427,1,8,3:2:0:0:
62,148,14582,1,2,1:2:0:0:
316,273,14737,1,0,3:2:0:0:
164,70,14891,2,0,P|155:119|146:164,1,74.5940284544678,10|0,3:2|3:2,3:2:0:0:
256,346,15201,5,2,1:2:0:0:
20,237,15355,1,0,3:2:0:0:
263,117,15510,1,2,3:2:0:0:
43,240,15665,1,8,3:2:0:0:
275,364,15819,1,2,1:2:0:0:
150,143,15974,1,2,3:0:0:0:
60,366,16128,2,0,P|96:374|132:384,1,74.5940284544678,10|0,3:0|3:2,3:2:0:0:
392,188,16438,5,2,1:2:0:0:
151,279,16592,1,0,3:2:0:0:
422,205,16747,1,2,3:2:0:0:
205,66,16902,1,8,3:2:0:0:
340,322,17056,1,2,1:2:0:0:
452,55,17211,1,0,3:2:0:0:
246,169,17366,1,10,3:0:0:0:
474,294,17520,1,0,3:2:0:0:
321,64,17675,6,0,P|238:82|142:104,1,149.188056908936,2|0,1:2|3:2,3:2:0:0:
23,214,18139,1,10,3:2:0:0:
99,25,18293,1,2,1:2:0:0:
196,274,18448,1,0,3:2:0:0:
0,122,18603,2,0,P|35:112|72:103,1,74.5940284544678,10|0,3:0|3:2,3:2:0:0:
301,225,18912,5,2,1:2:0:0:
218,0,19067,1,0,3:2:0:0:
186,304,19221,1,2,3:2:0:0:
216,26,19376,1,8,3:2:0:0:
327,297,19531,1,2,1:2:0:0:
122,177,19685,1,0,3:2:0:0:
349,67,19840,2,0,P|340:116|331:161,1,74.5940284544678,10|0,3:2|3:2,3:2:0:0:
427,304,20149,5,2,1:2:0:0:
207,181,20304,1,2,3:2:0:0:
438,82,20458,1,2,3:2:0:0:
279,352,20613,1,8,3:2:0:0:
376,39,20768,1,2,1:2:0:0:
486,361,20922,1,2,3:2:0:0:
281,136,21077,2,0,P|197:153|115:169,1,149.188056908936,14|0,3:2|2:0,3:2:0:0:
134,165,21695,5,8,3:0:0:0:
174,72,21850,1,8,3:0:0:0:
243,222,22005,2,0,P|276:215|309:207,1,59.9677489133911,4|0,3:0|2:0,2:0:0:0:
396,92,22314,1,8,3:0:0:0:
466,246,22469,1,0,1:2:0:0:
466,246,22546,1,0,1:2:0:0:
466,246,22623,6,0,P|461:281|455:330,1,67.2808857454835,2|0,3:2|2:0,2:0:0:0:
331,384,22933,2,0,P|326:350|322:317,1,67.2808857454835,2|0,2:0|2:0,2:0:0:0:
237,175,23242,1,2,1:2:0:0:
386,226,23397,1,0,2:0:0:0:
197,344,23551,2,0,P|201:310|205:277,1,67.2808857454835,2|0,3:2|2:0,2:0:0:0:
281,58,23860,5,2,1:2:0:0:
147,188,24015,1,0,2:0:0:0:
372,116,24170,1,2,2:0:0:0:
196,3,24324,1,0,3:2:0:0:
284,223,24479,1,2,1:2:0:0:
388,0,24634,1,2,2:0:0:0:
138,121,24788,2,0,P|142:154|146:187,1,67.2808857454835,2|0,3:2|2:0,2:0:0:0:
349,283,25098,6,0,P|404:231|393:174,1,134.561771490967,2|2,1:2|2:0,2:0:0:0:
217,300,25561,1,2,3:2:0:0:
311,378,25716,2,0,P|350:369|403:357,1,67.2808857454835,2|0,1:2|2:0,2:0:0:0:
296,203,26025,2,0,P|257:194|204:182,1,67.2808857454835,2|0,2:0|2:0,2:0:0:0:
0,312,26335,6,0,B|35:295|74:320|59:335|90:355|146:346,1,134.561771490967,2|2,3:2|2:0,2:0:0:0:
217,300,26799,1,2,2:0:0:0:
123,183,26953,2,0,P|118:216|114:249,1,67.2808857454835,6|0,2:3|2:0,2:0:0:0:
285,179,27262,2,0,P|280:145|276:112,1,67.2808857454835,8|0,2:3|2:0,2:0:0:0:
141,0,27572,6,0,B|186:27|186:27|168:117,1,134.561771490967,2|2,1:2|2:0,2:0:0:0:
105,241,28036,1,0,3:2:0:0:
9,99,28190,2,0,P|48:90|101:78,1,67.2808857454835,2|0,1:2|2:0,2:0:0:0:
244,213,28500,2,0,P|205:204|152:192,1,67.2808857454835,2|0,3:2|2:0,2:0:0:0:
52,327,28809,5,2,1:2:0:0:
169,107,28964,1,2,2:0:0:0:
66,307,29118,2,0,P|61:273|57:240,1,67.2808857454835,2|0,2:0|3:2,2:0:0:0:
53,67,29427,1,2,1:2:0:0:
164,291,29582,1,2,2:0:0:0:
63,86,29737,2,0,P|58:119|54:152,1,67.2808857454835,2|0,3:2|2:0,2:0:0:0:
264,243,30046,6,0,P|335:230|437:210,1,134.561771490967,2|2,1:2|2:0,2:0:0:0:
445,107,30510,1,0,3:2:0:0:
490,304,30665,2,0,P|494:270|498:237,1,67.2808857454835,2|0,1:2|2:0,2:0:0:0:
328,63,30974,2,0,P|332:96|336:129,1,67.2808857454835,2|0,3:2|2:0,2:0:0:0:
279,338,31283,6,0,B|238:318|209:333|219:351|177:368|132:352,1,134.561771490967,2|2,3:2|2:0,2:0:0:0:
70,263,31747,1,2,2:0:0:0:
188,190,31902,2,0,P|183:223|179:256,1,67.2808857454835,4|0,2:3|2:0,2:0:0:0:
110,361,32211,1,8,3:0:0:0:
264,243,32366,1,8,3:0:0:0:
47,114,32520,6,0,P|88:103|135:91,1,74.5940284544678,2|0,1:2|3:2,3:2:0:0:
331,18,32830,2,0,P|290:7|243:-5,1,74.5940284544678,2|8,3:2|3:2,3:2:0:0:
378,178,33139,1,2,1:2:0:0:
477,6,33293,1,2,3:2:0:0:
268,107,33448,2,0,P|274:145|281:183,1,74.5940284544678,10|0,3:2|3:2,3:2:0:0:
476,295,33757,6,0,P|482:258|488:221,1,74.5940284544678,2|0,1:2|3:2,3:2:0:0:
372,73,34067,1,2,3:2:0:0:
298,269,34221,1,10,3:2:0:0:
479,116,34376,2,0,P|438:105|391:93,1,74.5940284544678,2|0,1:2|3:2,3:2:0:0:
319,298,34685,2,0,P|354:288|390:279,1,74.5940284544678,10|0,3:2|3:2,3:2:0:0:
205,123,34994,5,2,1:2:0:0:
115,299,35149,1,0,3:2:0:0:
219,99,35304,1,2,3:2:0:0:
309,275,35458,1,8,3:2:0:0:
100,148,35613,1,2,1:2:0:0:
285,37,35768,1,0,3:2:0:0:
192,234,35922,2,0,P|185:197|179:160,1,74.5940284544678,10|0,3:2|3:2,3:2:0:0:
353,353,36232,5,2,1:2:0:0:
353,353,36386,2,0,P|276:369|200:385,1,149.188056908936,2|8,3:2|3:2,3:2:0:0:
339,224,36850,2,0,P|375:233|410:242,1,74.5940284544678,2|0,1:2|3:2,3:2:0:0:
354,86,37159,2,0,P|317:95|282:104,1,74.5940284544678,10|0,3:2|3:2,3:2:0:0:
80,236,37469,5,2,1:2:0:0:
172,37,37623,1,2,3:2:0:0:
263,276,37778,2,0,P|256:239|250:202,1,74.5940284544678,2|8,3:2|3:2,3:2:0:0:
388,44,38087,2,0,P|382:80|375:117,1,74.5940284544678,2|0,1:2|3:2,3:2:0:0:
237,299,38397,2,0,P|230:262|224:225,1,74.5940284544678,10|0,3:2|3:2,3:2:0:0:
102,97,38706,5,2,1:2:0:0:
321,271,38860,2,0,P|408:210|459:234,1,149.188056908936,2|10,3:2|3:2,3:2:0:0:
289,107,39324,1,2,1:2:0:0:
403,317,39479,1,2,3:2:0:0:
447,98,39634,2,0,P|410:107|375:116,1,74.5940284544678,10|0,3:2|3:2,3:2:0:0:
115,224,39943,6,0,P|121:187|128:150,1,74.5940284544678,2|0,1:2|3:2,3:2:0:0:
275,33,40252,2,0,P|281:69|288:106,1,74.5940284544678,2|8,3:2|3:2,3:2:0:0:
301,184,40484,1,2,3:2:0:0:
301,184,40561,2,0,P|264:174|228:165,1,74.5940284544678,2|0,1:2|3:2,3:2:0:0:
85,65,40871,2,0,P|121:55|157:46,1,74.5940284544678,10|0,3:2|3:2,3:2:0:0:
26,262,41180,5,2,1:2:0:0:
26,262,41335,2,0,P|13:188|-2:98,1,149.188056908936,0|8,3:2|3:2,3:2:0:0:
191,334,41799,2,0,P|204:260|219:170,1,149.188056908936,2|8,1:2|3:2,3:2:0:0:
216,187,42262,1,0,3:2:0:0:
351,343,42417,5,2,1:2:0:0:
119,222,42572,1,8,3:2:0:0:
358,86,42726,1,2,1:2:0:0:
191,334,42881,1,8,3:2:0:0:
306,27,43036,1,2,1:2:0:0:
391,349,43190,1,8,3:2:0:0:
298,0,43345,1,2,1:2:0:0:
179,361,43500,1,8,3:2:0:0:
408,11,43654,1,2,1:2:0:0:
179,361,43964,5,8,3:2:0:0:
225,296,44118,1,8,3:2:0:0:
261,370,44273,1,8,3:2:0:0:
279,366,44350,1,0,3:2:0:0:
297,362,44427,1,0,3:2:0:0:
315,359,44505,1,0,3:2:0:0:
334,355,44582,2,0,L|386:344,1,45.3414662044068,8|4,2:3|2:3,2:0:0:0:
446,119,44891,5,2,1:2:0:0:
323,248,45046,1,0,3:2:0:0:
512,192,45201,1,2,3:2:0:0:
383,48,45355,1,10,3:2:0:0:
419,281,45510,2,0,L|432:183,1,81.907168998047,2|0,1:2|3:2,3:2:0:0:
273,37,45819,2,0,L|283:118,1,81.907168998047,10|0,3:2|3:2,3:2:0:0:
190,294,46128,5,2,1:2:0:0:
403,171,46283,1,0,3:2:0:0:
192,85,46438,1,2,3:2:0:0:
343,301,46592,1,8,3:2:0:0:
408,41,46747,2,0,L|511:19,1,81.907168998047,2|0,1:2|3:2,3:2:0:0:
330,212,47056,1,10,3:2:0:0:
215,0,47211,1,2,3:2:0:0:
451,172,47366,6,0,L|440:253,1,81.907168998047,2|0,1:2|3:2,3:2:0:0:
344,373,47675,1,2,3:2:0:0:
512,304,47830,1,10,3:2:0:0:
319,130,47984,2,0,L|329:211,1,81.907168998047,2|0,1:2|3:2,3:2:0:0:
177,354,48293,2,0,L|272:319,1,81.907168998047,10|0,3:2|3:2,3:2:0:0:
440,253,48603,5,2,1:2:0:0:
195,162,48757,1,2,3:2:0:0:
412,243,48912,1,2,3:2:0:0:
273,49,49067,1,8,3:2:0:0:
331,348,49221,2,0,L|341:266,1,81.907168998047,2|0,1:2|3:2,3:2:0:0:
463,82,49531,2,0,L|473:163,1,81.907168998047,10|0,3:2|3:2,3:2:0:0:
427,359,49840,5,2,1:2:0:0:
209,230,49994,1,2,3:2:0:0:
396,145,50149,1,2,3:2:0:0:
311,372,50304,1,8,3:2:0:0:
313,84,50458,2,0,L|298:178,1,81.9071689980469,2|0,1:2|3:2,3:2:0:0:
167,357,50768,2,0,L|154:276,1,81.907168998047,10|0,3:2|3:2,3:2:0:0:
66,104,51077,5,2,1:2:0:0:
290,199,51232,1,2,3:2:0:0:
35,328,51386,1,2,3:2:0:0:
227,49,51541,1,8,3:2:0:0:
285,347,51695,1,2,1:2:0:0:
84,135,51850,1,0,3:2:0:0:
370,271,52005,2,0,L|382:190,1,81.907168998047,8|0,3:2|3:2,3:2:0:0:
242,26,52314,6,0,L|359:8,1,81.907168998047,2|0,1:2|3:2,3:2:0:0:
189,245,52623,1,2,3:2:0:0:
105,26,52778,1,10,3:2:0:0:
302,147,52933,2,0,L|290:255,1,81.907168998047,2|0,1:2|3:2,3:2:0:0:
171,362,53242,2,0,L|161:280,1,81.907168998047,10|0,3:2|3:2,3:2:0:0:
235,73,53860,6,0,B|214:73|195:62|195:62|174:75|140:79,1,81.907168998047,2|0,2:0|2:0,2:0:0:0:
157,149,54170,2,0,B|178:149|197:160|197:160|218:147|252:143,1,81.907168998047,2|0,2:0|2:0,2:0:0:0:
394,52,54479,1,8,2:3:0:0:
307,234,54634,1,4,2:3:0:0:
234,0,54788,5,2,1:2:0:0:
414,190,54943,1,0,3:2:0:0:
157,149,55098,1,2,3:2:0:0:
420,34,55252,1,10,3:2:0:0:
136,157,55407,2,0,L|148:76,1,81.907168998047,2|0,1:2|3:2,3:2:0:0:
389,215,55716,2,0,L|376:134,1,81.907168998047,10|0,3:2|3:2,3:2:0:0:
214,301,56025,5,2,1:2:0:0:
309,68,56180,1,0,3:2:0:0:
403,323,56335,1,2,3:2:0:0:
223,136,56489,1,8,3:2:0:0:
157,384,56644,2,0,L|62:349,1,81.907168998047,2|0,1:2|3:2,3:2:0:0:
216,164,56953,1,10,3:2:0:0:
323,383,57108,1,2,3:2:0:0:
91,211,57262,6,0,L|103:130,1,81.907168998047,2|0,1:2|3:2,3:2:0:0:
230,0,57572,1,2,3:2:0:0:
5,81,57726,1,10,3:2:0:0:
228,244,57881,2,0,L|215:163,1,81.907168998047,2|0,1:2|3:2,3:2:0:0:
426,23,58190,2,0,L|413:103,1,81.907168998047,10|0,3:2|3:2,3:2:0:0:
507,256,58500,5,2,1:2:0:0:
302,156,58654,1,2,3:2:0:0:
512,58,58809,1,2,3:2:0:0:
365,296,58964,1,8,3:2:0:0:
253,56,59118,1,2,1:2:0:0:
480,237,59273,1,0,3:2:0:0:
186,140,59427,2,0,L|109:168,1,81.907168998047,8|0,3:2|3:2,3:2:0:0:
243,318,59737,5,2,1:2:0:0:
119,75,59891,1,2,3:2:0:0:
31,326,60046,1,2,3:2:0:0:
186,140,60201,1,8,3:2:0:0:
302,382,60355,2,0,L|378:353,1,81.907168998047,2|0,1:2|3:2,3:2:0:0:
432,76,60665,2,0,L|355:104,1,81.907168998047,10|0,3:2|3:2,3:2:0:0:
197,265,60974,5,2,1:2:0:0:
297,28,61128,1,2,3:2:0:0:
401,270,61283,1,2,3:2:0:0:
186,140,61438,1,8,3:2:0:0:
421,45,61592,1,2,1:2:0:0:
283,318,61747,1,0,3:2:0:0:
415,19,61902,1,10,3:2:0:0:
489,344,62056,1,0,3:2:0:0:
308,70,62211,5,2,1:2:0:0:
