osu file format v14

[General]
AudioFilename: audio.mp3
AudioLeadIn: 0
PreviewTime: 52314
Countdown: 0
SampleSet: Soft
StackLeniency: 0.7
Mode: 0
LetterboxInBreaks: 0
WidescreenStoryboard: 0

[Editor]
Bookmarks: 2830,22623,32520,44891,54788,62211
DistanceSpacing: 0.5
BeatDivisor: 8
GridSize: 16
TimelineZoom: 2.599999

[Metadata]
Title:Simarik
TitleUnicode:Şımarık
Artist:Tarkan
ArtistUnicode:Tarkan
Creator:Sotarks
Version:Uzman
Source:
Tags:turkish pop Ozan Çolakoğlu Sezen Aksu Istanbul Plak Polygram Universal Mehmet Söğütoğlu cd single cut edit short version Ölürüm Sana kiss smack-smack nymphe kiyoshi guarden Colakoglu Sogutoglu Olurum turkey
BeatmapID:2609733
BeatmapSetID:1255746

[Difficulty]
HPDrainRate:5.2
CircleSize:3.8
OverallDifficulty:9
ApproachRate:9
SliderMultiplier:2.92
SliderTickRate:1

[Events]
//Background and Video events
0,0,"bg.jpg",0,0
//Break Periods
//Storyboard Layer 0 (Background)
//Storyboard Layer 1 (Fail)
//Storyboard Layer 2 (Pass)
//Storyboard Layer 3 (Foreground)
//Storyboard Layer 4 (Overlay)
//Storyboard Sound Samples

[TimingPoints]
2830,618.556701030928,4,2,22,62,1,0
2830,-121.951219512195,4,2,22,62,0,0
7778,-108.695652173913,4,2,22,72,0,0
12726,-98.0392156862744,4,2,22,82,0,0
21386,-98.0392156862744,4,2,22,62,0,0
22623,-108.695652173913,4,2,22,62,0,0
32520,-98.0392156862745,4,2,22,72,0,0
42417,-98.0392156862745,4,2,22,82,0,0
43964,-98.0392156862745,4,2,22,52,0,0
44582,-161.290322580645,4,2,22,52,0,0
44891,-89.2857142857143,4,2,22,92,0,0
53860,-89.2857142857143,4,2,22,52,0,0
54479,-89.2857142857143,4,2,22,82,0,0
54788,-89.2857142857143,4,2,22,92,0,0

[Colours]
Combo1 : 239,188,118
Combo2 : 198,240,238

[HitObjects]
35,335,2830,6,0,P|73:330|118:322,1,59.9677489133911,2|0,3:2|2:0,2:0:0:0:
217,268,3139,2,0,P|180:262|134:255,1,59.9677489133911,0|0,2:0|3:2,2:0:0:0:
58,114,3448,1,0,2:0:0:0:
10,240,3603,1,0,2:0:0:0:
169,177,3757,2,0,P|140:182|110:187,1,59.9677489133911,0|0,3:2|2:0,2:0:0:0:
227,43,4067,2,0,B|248:56|269:67|269:67|262:104|253:154,1,119.935497826782,2|0,3:2|2:0,2:0:0:0:
217,268,4531,2,0,B|254:250|283:264|275:273|295:287|332:282,1,119.935497826782,0|0,3:2|2:0,2:0:0:0:
422,229,4994,1,0,3:2:0:0:
422,229,5149,1,0,2:0:0:0:
339,112,5304,6,0,P|331:163|326:199,1,59.9677489133911,2|0,3:2|2:0,2:0:0:0:
226,327,5613,2,0,P|221:297|216:267,1,59.9677489133911,0|0,2:0|3:2,2:0:0:0:
146,126,5922,1,0,2:0:0:0:
249,172,6077,1,0,2:0:0:0:
130,280,6232,2,0,P|134:250|139:220,1,59.9677489133911,0|0,3:2|2:0,2:0:0:0:
72,56,6541,2,0,B|28:83|28:83|51:177,1,119.935497826782,2|0,3:2|2:0,2:0:0:0:
251,40,7005,2,0,P|212:-6|137:6,1,119.935497826782,0|0,3:2|2:0,2:0:0:0:
157,139,7469,1,0,3:2:0:0:
252,201,7623,1,8,2:0:0:0:
252,201,7701,1,8,2:0:0:0:
252,201,7778,6,0,P|296:205|339:175,1,67.2808857454835,10|0,3:2|2:0,2:0:0:0:
447,99,8087,2,0,P|403:95|360:125,1,67.2808857454835,0|8,2:0|3:2,2:0:0:0:
476,260,8397,1,0,2:0:0:0:
512,156,8551,1,0,2:0:0:0:
390,246,8706,2,0,P|399:284|409:325,1,67.2808857454835,8|0,3:2|2:0,2:0:0:0:
288,360,9015,2,0,B|243:337|212:353|220:367|187:386|144:370,1,134.561771490967,10|0,3:2|3:2,2:0:0:0:
138,157,9479,2,0,B|189:187|189:187|164:286,1,134.561771490967,8|0,3:2|3:2,2:0:0:0:
63,347,9943,1,8,3:2:0:0:
1,253,10098,1,8,2:0:0:0:
1,253,10175,1,8,2:0:0:0:
1,253,10252,6,0,P|38:249|76:246,1,67.2808857454835,10|0,3:2|2:0,2:0:0:0:
204,163,10561,2,0,P|167:160|129:156,1,67.2808857454835,0|8,2:0|3:2,2:0:0:0:
0,61,10871,1,0,2:0:0:0:
41,169,11025,1,0,2:0:0:0:
114,0,11180,2,0,P|108:41|102:85,1,67.2808857454835,8|0,3:2|2:0,2:0:0:0:
189,187,11489,2,0,L|338:162,1,134.561771490967,10|0,3:2|3:2,2:0:0:0:
506,240,11953,2,0,B|464:218|423:236|439:257|410:282|360:267,1,134.561771490967,8|0,3:2|3:2,2:0:0:0:
263,358,12417,2,0,L|353:373,1,67.2808857454835,8|0,3:2|1:2,2:0:0:0:
359,111,12726,6,0,P|365:153|372:197,1,74.5940284544678,6|0,1:2|3:2,3:0:0:0:
184,310,13036,2,0,P|187:264|190:223,1,74.5940284544678,2|8,3:2|3:2,3:0:0:0:
252,28,13345,1,2,1:2:0:0:
100,92,13500,1,2,3:0:0:0:
282,257,13654,2,0,P|276:215|270:183,1,74.5940284544678,8|0,3:0|3:2,3:2:0:0:
265,153,13886,1,0,3:0:0:0:
265,153,13964,1,2,1:2:0:0:
184,310,14118,1,0,3:2:0:0:
370,223,14273,1,2,3:2:0:0:
176,117,14427,1,8,3:2:0:0:
311,330,14582,2,0,P|356:323|406:315,1,74.5940284544678,2|0,1:2|3:2,3:0:0:0:
494,158,14891,2,0,P|452:152|399:143,1,74.5940284544678,10|0,3:2|3:2,3:2:0:0:
235,183,15201,5,2,1:2:0:0:
323,5,15355,1,0,3:2:0:0:
332,233,15510,1,2,3:2:0:0:
176,117,15665,1,8,3:2:0:0:
390,64,15819,2,0,P|385:107|380:146,1,74.5940284544678,2|2,1:2|3:0,3:0:0:0:
233,293,16128,2,0,P|228:248|223:219,1,74.5940284544678,10|0,3:0|3:2,3:2:0:0:
115,51,16438,1,2,1:2:0:0:
270,148,16592,1,0,3:2:0:0:
63,118,16747,1,2,3:2:0:0:
225,4,16902,1,8,3:2:0:0:
120,217,17056,1,2,1:2:0:0:
51,0,17211,1,0,3:2:0:0:
234,145,17366,2,0,P|228:186|220:243,1,74.5940284544678,10|0,3:0|3:2,3:0:0:0:
331,368,17675,6,0,P|287:360|223:348,1,74.5940284544678,2|0,1:2|3:0,3:2:0:0:
93,261,17984,1,0,3:2:0:0:
234,145,18139,1,10,3:2:0:0:
157,347,18293,1,2,1:2:0:0:
40,175,18448,1,0,3:2:0:0:
229,270,18603,2,0,L|331:253,1,74.5940284544678,10|0,3:0|3:2,3:2:0:0:
476,177,18912,1,2,1:2:0:0:
387,355,19067,1,0,3:2:0:0:
308,126,19221,1,2,3:2:0:0:
484,261,19376,1,8,3:2:0:0:
294,341,19531,1,2,1:2:0:0:
389,150,19685,1,0,3:2:0:0:
481,370,19840,2,0,L|465:265,1,74.5940284544678,10|0,3:2|3:2,3:2:0:0:
384,55,20149,5,2,1:2:0:0:
276,240,20304,1,2,3:2:0:0:
312,12,20458,1,2,3:2:0:0:
407,224,20613,1,8,3:2:0:0:
239,62,20768,2,0,L|145:72,1,74.5940284544678,2|2,1:2|3:2,3:0:0:0:
28,190,21077,2,0,L|122:200,1,74.5940284544678,14|0,3:2|3:0,3:2:0:0:
249,298,21386,5,0,2:0:0:0:
249,298,22623,6,0,P|255:258|260:226,1,67.2808857454835,2|0,3:2|2:0,2:0:0:0:
123,120,22933,2,0,P|128:153|133:186,1,67.2808857454835,2|0,2:0|2:0,2:0:0:0:
80,307,23242,1,2,1:2:0:0:
224,212,23397,1,0,2:0:0:0:
29,164,23551,2,0,P|23:197|18:230,1,67.2808857454835,2|0,3:2|2:0,2:0:0:0:
143,98,23860,2,0,P|182:88|218:80,1,67.2808857454835,2|0,1:2|2:0,2:0:0:0:
289,227,24170,2,0,P|256:218|223:211,1,67.2808857454835,2|0,2:0|3:2,2:0:0:0:
347,128,24479,1,2,1:2:0:0:
389,307,24634,1,2,2:0:0:0:
225,184,24788,2,0,P|257:191|290:199,1,67.2808857454835,2|0,3:2|2:0,2:0:0:0:
168,350,25098,6,0,P|172:316|178:283,1,67.2808857454835,2|0,1:2|2:0,2:0:0:0:
32,209,25407,2,0,P|37:242|42:275,1,67.2808857454835,2|2,2:0|3:2,2:0:0:0:
205,145,25716,2,0,P|172:136|139:129,1,67.2808857454835,2|0,1:2|2:0,2:0:0:0:
178,283,26025,2,0,P|210:274|243:267,1,67.2808857454835,2|0,2:0|2:0,2:0:0:0:
346,145,26335,2,0,P|414:149|432:327,1,268.689241648601,2|6,3:2|2:3,2:0:0:0:
377,240,27108,1,0,2:0:0:0:
338,337,27262,1,8,2:3:0:0:
338,337,27572,6,0,P|305:344|272:352,1,67.2808857454835,2|0,1:2|2:0,2:0:0:0:
197,217,27881,2,0,P|229:224|262:232,1,67.2808857454835,2|0,2:0|3:2,2:0:0:0:
147,362,28190,1,2,1:2:0:0:
90,206,28345,1,0,2:0:0:0:
243,330,28500,2,0,P|275:321|308:314,1,67.2808857454835,2|0,3:2|2:0,2:0:0:0:
451,160,28809,1,2,1:2:0:0:
419,347,28964,1,2,2:0:0:0:
464,179,29118,2,0,P|469:212|474:245,1,67.2808857454835,2|0,2:0|3:2,2:0:0:0:
320,378,29427,1,2,1:2:0:0:
288,191,29582,1,2,2:0:0:0:
333,359,29737,2,0,P|338:325|343:292,1,67.2808857454835,2|0,3:2|2:0,2:0:0:0:
434,70,30046,6,0,P|387:112|317:109,1,134.561771490967,2|2,1:2|2:0,2:0:0:0:
318,109,30510,1,0,3:2:0:0:
210,23,30665,2,0,P|205:56|199:89,1,67.2808857454835,2|0,1:2|2:0,2:0:0:0:
85,145,30974,2,0,P|79:111|74:78,1,67.2808857454835,2|0,3:2|2:0,2:0:0:0:
215,225,31283,2,0,B|258:176|327:264|228:305|185:244|185:239|185:234|115:198|62:276,1,268.689241648601,2|4,3:2|2:3,2:0:0:0:
152,325,32056,1,0,2:0:0:0:
103,154,32211,2,0,P|70:161|37:169,1,67.2808857454835,8|8,3:0|3:0,2:0:0:0:
203,39,32520,6,0,P|209:83|216:136,1,74.5940284544678,2|0,1:2|3:2,3:2:0:0:
337,277,32830,2,0,P|339:233|341:201,1,74.5940284544678,2|8,3:2|3:2,3:2:0:0:
373,55,33139,1,2,1:2:0:0:
239,137,33293,1,2,3:2:0:0:
437,239,33448,2,0,P|432:195|427:163,1,74.5940284544678,10|0,3:2|3:2,3:2:0:0:
286,37,33757,2,0,P|331:29|381:18,1,74.5940284544678,2|0,1:2|3:2,3:2:0:0:
229,228,34067,1,2,3:2:0:0:
164,82,34221,1,10,3:2:0:0:
337,132,34376,2,0,P|333:173|330:222,1,74.5940284544678,2|0,1:2|3:2,3:2:0:0:
205,343,34685,2,0,P|202:305|198:268,1,74.5940284544678,10|0,3:2|3:2,3:2:0:0:
164,82,34994,5,2,1:2:0:0:
91,217,35149,1,0,3:2:0:0:
246,128,35304,1,2,3:2:0:0:
71,44,35458,1,8,3:2:0:0:
196,228,35613,2,0,P|239:221|285:214,1,74.5940284544678,2|0,1:2|3:2,3:0:0:0:
393,88,35922,2,0,P|350:81|304:73,1,74.5940284544678,10|0,3:2|3:2,3:2:0:0:
165,16,36232,6,0,L|176:103,2,74.5940284544678,2|2|0,1:2|3:2|3:0,3:0:0:0:
106,187,36695,1,8,3:2:0:0:
282,82,36850,2,0,P|278:125|274:181,1,74.5940284544678,2|0,1:2|3:2,3:2:0:0:
388,289,37159,2,0,P|383:251|378:216,1,74.5940284544678,10|0,3:2|3:2,3:2:0:0:
309,357,37469,5,2,1:2:0:0:
475,264,37623,1,2,3:2:0:0:
293,185,37778,2,0,P|253:193|197:204,1,74.5940284544678,2|8,3:2|3:2,3:2:0:0:
112,315,38087,2,0,P|116:269|121:211,1,74.5940284544678,2|0,1:2|3:2,3:2:0:0:
14,101,38397,2,0,P|17:138|20:175,1,74.5940284544678,10|0,3:2|3:2,3:2:0:0:
170,51,38706,2,0,P|134:0|30:11,1,149.188056908936,2|0,1:2|3:0,3:0:0:0:
138,174,39170,1,10,3:2:0:0:
138,174,39324,2,0,P|181:167|239:157,1,74.5940284544678,2|2,1:2|3:2,3:0:0:0:
341,53,39634,2,0,P|298:45|240:36,1,74.5940284544678,10|0,3:2|3:2,3:2:0:0:
426,200,39943,6,0,P|430:155|435:90,1,74.5940284544678,2|0,1:2|3:2,3:2:0:0:
306,263,40252,1,2,3:2:0:0:
439,334,40407,1,8,3:2:0:0:
322,156,40561,2,0,L|227:170,1,74.5940284544678,2|0,1:2|3:2,3:2:0:0:
128,285,40871,2,0,L|223:299,1,74.5940284544678,10|0,3:2|3:2,3:2:0:0:
383,218,41180,5,2,1:2:0:0:
214,58,41335,2,0,L|226:150,1,74.5940284544678,0|0,3:2|3:0,3:2:0:0:
297,314,41644,1,8,3:2:0:0:
414,104,41799,2,0,L|402:196,1,74.5940284544678,2|0,1:2|3:0,3:2:0:0:
276,340,42108,2,0,L|266:266,1,74.5940284544678,8|0,3:2|3:2,3:0:0:0:
185,78,42417,5,2,1:2:0:0:
122,257,42572,1,8,3:2:0:0:
196,53,42726,1,2,1:2:0:0:
266,266,42881,1,8,3:2:0:0:
308,40,43036,5,2,1:2:0:0:
257,294,43190,1,8,3:2:0:0:
314,18,43345,1,2,1:2:0:0:
384,296,43500,1,8,3:2:0:0:
232,4,43654,5,2,1:2:0:0:
232,4,43964,1,8,3:2:0:0:
182,86,44118,1,8,3:2:0:0:
98,0,44273,2,0,L|105:68,3,37.2300002272339,8|0|0|0,3:2|3:2|3:2|3:2,3:0:0:0:
16,2,44582,2,0,L|21:61,1,45.3414662044068,8|4,2:3|2:3,2:0:0:0:
0,254,44891,6,0,P|42:243|85:233,1,81.907168998047,2|0,1:2|3:2,3:0:0:0:
205,150,45201,1,2,3:2:0:0:
125,319,45355,1,10,3:2:0:0:
27,133,45510,2,0,P|66:143|106:152,1,81.907168998047,2|0,1:2|3:2,3:2:0:0:
288,252,45819,2,0,P|248:262|208:271,1,81.907168998047,10|0,3:2|3:2,3:2:0:0:
379,141,46128,5,2,1:2:0:0:
329,343,46283,1,0,3:2:0:0:
384,122,46438,1,2,3:2:0:0:
473,322,46592,1,8,3:2:0:0:
292,231,46747,2,0,P|252:241|212:250,1,81.907168998047,2|0,1:2|3:2,3:2:0:0:
76,339,47056,1,10,3:2:0:0:
155,163,47211,1,2,3:2:0:0:
257,365,47366,6,0,P|217:355|177:345,1,81.907168998047,2|0,1:2|3:2,3:2:0:0:
0,234,47675,2,0,P|39:224|79:214,1,81.907168998047,2|10,3:2|3:2,3:0:0:0:
209,68,47984,2,0,P|199:120|189:174,1,81.907168998047,2|0,1:2|3:2,3:2:0:0:
314,282,48293,2,0,P|306:241|298:201,1,81.907168998047,10|0,3:2|3:2,3:2:0:0:
475,102,48603,5,2,1:2:0:0:
414,314,48757,1,2,3:2:0:0:
483,81,48912,1,2,3:2:0:0:
301,205,49067,1,8,3:2:0:0:
512,311,49221,1,2,1:2:0:0:
379,108,49376,1,0,3:2:0:0:
300,315,49531,2,0,P|292:274|284:234,1,81.907168998047,10|0,3:2|3:2,3:2:0:0:
133,62,49840,5,2,1:2:0:0:
336,114,49994,1,2,3:2:0:0:
154,243,50149,2,0,P|161:202|169:162,1,81.907168998047,2|8,3:2|3:2,3:0:0:0:
288,10,50458,2,0,P|295:50|303:90,1,81.907168998047,2|0,1:2|3:2,3:2:0:0:
129,226,50768,2,0,P|136:185|144:145,1,81.907168998047,10|0,3:2|3:2,3:2:0:0:
239,304,51077,5,2,1:2:0:0:
21,202,51232,1,2,3:2:0:0:
253,90,51386,1,2,3:2:0:0:
44,192,51541,1,8,3:2:0:0:
260,316,51695,1,2,1:2:0:0:
151,81,51850,1,0,3:2:0:0:
55,301,52005,2,0,P|62:341|70:381,1,81.907168998047,8|0,3:2|3:2,3:2:0:0:
239,122,52314,6,0,B|292:100|326:135|311:142|346:185|422:157,1,163.814337996094,2|2,1:2|3:2,3:0:0:0:
486,101,52778,1,10,3:2:0:0:
273,294,52933,2,0,P|265:253|257:213,1,81.907168998047,2|0,1:2|3:2,3:2:0:0:
484,341,53242,1,10,3:2:0:0:
484,341,53860,6,0,B|459:335|440:348|440:348|420:333|375:334,1,81.907168998047,2|0,2:0|2:0,2:0:0:0:
405,247,54170,2,0,B|430:253|449:240|449:240|469:255|514:254,1,81.907168998047,2|0,2:0|2:0,2:0:0:0:
222,291,54479,1,8,2:3:0:0:
311,167,54634,1,4,2:3:0:0:
323,361,54788,6,0,L|313:249,1,81.907168998047,2|0,1:2|3:2,3:0:0:0:
222,128,55098,1,2,3:2:0:0:
394,201,55252,1,10,3:2:0:0:
212,316,55407,2,0,L|222:204,1,81.907168998047,2|0,1:2|3:2,3:2:0:0:
318,45,55716,2,0,L|328:157,1,81.907168998047,10|0,3:2|3:2,3:2:0:0:
406,313,56025,5,2,1:2:0:0:
228,206,56180,1,0,3:2:0:0:
426,138,56335,1,2,3:2:0:0:
319,328,56489,1,8,3:2:0:0:
278,126,56644,2,0,L|182:106,1,81.907168998047,2|0,1:2|3:2,3:2:0:0:
41,126,56953,1,10,3:2:0:0:
121,5,57108,1,2,3:2:0:0:
142,179,57262,6,0,L|126:287,1,81.907168998047,2|0,1:2|3:2,3:2:0:0:
284,357,57572,2,0,L|272:276,1,81.907168998047,2|10,3:2|3:2,3:0:0:0:
333,119,57881,2,0,L|228:138,1,81.907168998047,2|0,1:2|3:2,3:2:0:0:
374,258,58190,2,0,L|479:277,1,81.907168998047,10|0,3:2|3:2,3:2:0:0:
410,57,58500,5,2,1:2:0:0:
259,195,58654,1,2,3:2:0:0:
415,40,58809,1,2,3:2:0:0:
378,279,58964,1,8,3:2:0:0:
277,51,59118,1,2,1:2:0:0:
481,162,59273,1,0,3:2:0:0:
268,281,59427,2,0,L|151:260,1,81.907168998047,8|0,3:2|3:2,3:2:0:0:
36,208,59737,5,2,1:2:0:0:
104,348,59891,1,2,3:2:0:0:
227,176,60046,2,0,L|110:197,1,81.907168998047,2|8,3:2|3:2,3:0:0:0:
242,360,60355,2,0,L|322:374,1,81.907168998047,2|0,1:2|3:2,3:2:0:0:
407,179,60665,2,0,L|389:299,1,81.907168998047,10|0,3:2|3:2,3:2:0:0:
302,102,60974,5,2,1:2:0:0:
500,210,61128,1,2,3:2:0:0:
260,275,61283,1,2,3:2:0:0:
408,69,61438,1,8,3:2:0:0:
442,340,61592,1,2,1:2:0:0:
404,42,61747,1,0,3:2:0:0:
289,363,61902,1,10,3:2:0:0:
312,62,62056,1,0,3:2:0:0:
430,360,62211,5,2,1:2:0:0:
