osu file format v14

[General]
AudioFilename: audio.mp3
AudioLeadIn: 0
PreviewTime: 52314
Countdown: 0
SampleSet: Soft
StackLeniency: 0.7
Mode: 0
LetterboxInBreaks: 0
WidescreenStoryboard: 1

[Editor]
Bookmarks: 2830,12726,22623,62211
DistanceSpacing: 0.8
BeatDivisor: 4
GridSize: 16
TimelineZoom: 2.599999

[Metadata]
Title:Simarik
TitleUnicode:Şımarık
Artist:Tarkan
ArtistUnicode:Tarkan
Creator:Sotarks
Version:Orta
Source:
Tags:turkish pop Ozan Çolakoğlu Sezen Aksu Istanbul Plak Polygram Universal Mehmet Söğütoğlu cd single cut edit short version Ölürüm Sana kiss smack-smack nymphe kiyoshi guarden Colakoglu Sogutoglu Olurum turkey
BeatmapID:2609732
BeatmapSetID:1255746

[Difficulty]
HPDrainRate:3
CircleSize:3
OverallDifficulty:4
ApproachRate:5
SliderMultiplier:2.22
SliderTickRate:1

[Events]
//Background and Video events
0,0,"bg.jpg",0,0
//Break Periods
//Storyboard Layer 0 (Background)
//Storyboard Layer 1 (Fail)
//Storyboard Layer 2 (Pass)
//Storyboard Layer 3 (Foreground)
//Storyboard Layer 4 (Overlay)
//Storyboard Sound Samples

[TimingPoints]
2830,618.556701030928,4,2,22,62,1,0
2830,-98.0392156862745,4,2,22,62,0,0
7778,-98.0392156862745,4,2,22,72,0,0
12726,-98.0392156862745,4,2,22,82,0,0
22623,-98.0392156862745,4,2,22,62,0,0
32520,-98.0392156862745,4,2,22,72,0,0
43654,-98.0392156862745,4,2,22,82,0,0
44891,-98.0392156862745,4,2,22,92,0,0
54788,-89.2857142857143,4,2,22,92,0,0

[Colours]
Combo1 : 239,188,118
Combo2 : 198,240,238

[HitObjects]
87,157,2830,6,0,P|100:253|114:357,2,169.95265603656,2|0|0,3:2|3:2|3:2,2:0:0:0:
124,74,4067,2,0,P|196:68|231:100,1,113.42379669104,2|0,3:2|2:0,2:0:0:0:
254,125,4531,2,0,P|301:153|355:142,1,113.42379669104,0|0,3:2|2:0,2:0:0:0:
389,111,4994,1,0,3:2:0:0:
475,83,5304,6,0,P|462:179|448:283,2,169.95265603656,2|0|0,3:2|3:2|3:2,2:0:0:0:
407,22,6541,2,0,P|324:37|287:48,1,113.42379669104,2|0,3:2|2:0,2:0:0:0:
266,79,7005,2,0,P|177:56|90:48,1,170.13569503656,0|0,3:2|3:2,2:0:0:0:
29,105,7778,5,10,3:2:0:0:
82,229,8242,1,8,3:2:0:0:
199,160,8706,1,8,3:2:0:0:
262,224,9015,2,0,P|295:178|291:105,1,113.42379669104,10|0,3:2|3:2,2:0:0:0:
271,85,9479,2,0,P|336:48|392:59,1,113.42379669104,8|0,3:2|3:2,2:0:0:0:
404,83,9943,1,8,3:2:0:0:
455,157,10252,5,10,3:2:0:0:
320,176,10716,1,8,3:2:0:0:
428,257,11180,1,8,3:2:0:0:
359,316,11489,2,0,P|292:347|231:323,1,113.42379669104,10|0,3:2|3:2,2:0:0:0:
230,301,11953,2,0,P|163:270|102:294,1,113.42379669104,8|0,3:2|3:2,2:0:0:0:
94,309,12417,1,8,3:2:0:0:
19,258,12726,6,0,P|45:207|112:193,1,113.42379669104,6|2,1:2|3:2,3:0:0:0:
77,101,13345,2,0,P|131:83|188:120,1,113.42379669104,2|8,1:2|3:0,3:0:0:0:
215,190,13964,2,0,B|246:197|268:214|268:214|289:196|343:181,1,113.42379669104,2|2,1:2|3:2,3:0:0:0:
362,176,14427,1,8,3:2:0:0:
362,176,14582,2,0,L|353:84,1,56.71189834552,2|0,1:2|3:2,3:0:0:0:
350,74,14891,1,10,3:2:0:0:
431,34,15201,6,0,L|445:169,1,113.42379669104,2|2,1:2|3:2,3:0:0:0:
471,232,15819,2,0,L|457:367,1,113.42379669104,2|10,1:2|3:0,3:0:0:0:
372,366,16438,2,0,B|334:370|312:378|312:378|290:359|248:342,1,113.42379669104,2|2,1:2|3:2,3:0:0:0:
232,307,16902,1,8,3:2:0:0:
232,307,17056,2,0,L|146:315,1,56.71189834552,2|0,1:2|3:2,3:0:0:0:
119,320,17366,1,10,3:0:0:0:
43,270,17675,6,0,P|26:212|50:146,1,113.42379669104,2|0,1:2|3:2,3:2:0:0:
75,79,18293,2,0,P|114:115|125:207,1,113.42379669104,2|10,1:2|3:0,3:0:0:0:
185,243,18912,2,0,B|218:236|240:224|240:224|267:239|300:243,1,113.42379669104,2|2,1:2|3:2,3:0:0:0:
327,277,19376,1,8,3:2:0:0:
327,277,19531,2,0,L|320:354,1,56.71189834552,2|0,1:2|3:2,3:0:0:0:
316,378,19840,1,10,3:2:0:0:
225,382,20149,6,0,L|96:366,1,113.42379669104,2|2,1:2|3:2,3:0:0:0:
71,349,20613,1,8,3:2:0:0:
71,349,20768,2,0,L|80:261,2,56.71189834552,2|2|14,1:2|3:2|3:2,3:0:0:0:
415,55,22623,6,0,P|408:122|401:206,1,113.42379669104,2|2,3:2|2:0,2:0:0:0:
323,209,23242,2,0,P|317:152|311:96,1,113.42379669104,2|2,1:2|3:2,2:0:0:0:
243,37,23860,1,2,1:2:0:0:
82,121,24479,1,2,1:2:0:0:
190,266,25098,2,0,P|247:298|301:283,1,113.42379669104,2|2,1:2|2:0,2:0:0:0:
337,210,25716,2,0,P|394:178|448:193,1,113.42379669104,2|2,1:2|2:0,2:0:0:0:
502,251,26335,1,2,3:2:0:0:
207,40,27572,6,0,P|145:51|42:71,1,113.42379669104,2|2,1:2|2:0,2:0:0:0:
84,150,28190,2,0,P|139:139|195:129,1,113.42379669104,2|2,1:2|3:2,2:0:0:0:
284,112,28809,1,2,1:2:0:0:
160,244,29427,1,2,1:2:0:0:
293,366,30046,2,0,P|321:307|316:254,1,113.42379669104,2|2,1:2|2:0,2:0:0:0:
408,260,30665,2,0,P|386:198|345:164,1,113.42379669104,2|2,1:2|3:2,2:0:0:0:
260,175,31283,1,2,3:2:0:0:
260,175,32520,6,0,P|190:205|133:191,1,113.42379669104,2|2,1:2|3:2,3:2:0:0:
71,165,33139,2,0,L|58:220,1,56.71189834552,2|2,1:2|3:2,3:0:0:0:
47,264,33448,1,10,3:2:0:0:
102,335,33757,2,0,P|172:305|229:319,1,113.42379669104,2|2,1:2|3:2,3:2:0:0:
277,366,34376,1,2,1:2:0:0:
359,328,34685,1,10,3:2:0:0:
442,291,34994,6,0,P|447:227|453:147,1,113.42379669104,2|2,1:2|3:2,3:0:0:0:
461,87,35613,2,0,P|410:47|345:59,1,113.42379669104,2|10,1:2|3:2,3:0:0:0:
290,101,36232,1,2,1:2:0:0:
109,104,36850,2,0,L|119:48,2,56.71189834552,2|0|8,1:2|3:2|3:2,3:2:0:0:
34,158,37469,6,0,P|83:202|140:195,1,113.42379669104,2|2,1:2|3:2,3:0:0:0:
215,219,38087,2,0,P|264:175|321:182,1,113.42379669104,2|10,1:2|3:2,3:2:0:0:
383,227,38706,1,2,1:2:0:0:
490,81,39324,2,0,L|402:96,1,56.71189834552,2|2,1:2|3:2,3:0:0:0:
389,100,39634,1,10,3:2:0:0:
331,30,39943,6,0,P|263:25|218:71,1,113.42379669104,2|2,1:2|3:2,3:2:0:0:
180,126,40561,1,2,1:2:0:0:
108,70,40871,1,10,3:2:0:0:
53,142,41180,2,0,P|66:212|80:298,1,113.42379669104,2|0,1:2|3:0,3:0:0:0:
159,225,41799,2,0,P|148:280|138:336,1,113.42379669104,2|8,1:2|3:2,3:2:0:0:
256,192,42417,12,2,43654,1:2:0:0:
415,59,44891,6,0,P|423:118|431:185,1,113.42379669104,2|2,1:2|3:2,3:0:0:0:
391,196,45355,1,8,3:2:0:0:
349,214,45510,2,0,P|342:157|334:101,1,113.42379669104,2|10,1:2|3:2,3:2:0:0:
275,33,46128,2,0,L|329:17,2,56.71189834552,2|0|2,1:2|3:2|3:2,3:0:0:0:
188,61,46747,1,2,1:2:0:0:
15,116,47366,2,0,P|67:165|71:225,1,113.42379669104,2|2,1:2|3:2,3:2:0:0:
50,242,47830,1,8,3:2:0:0:
23,278,47984,2,0,B|52:288|77:300|77:300|104:286|133:277,1,113.42379669104,2|10,1:2|3:2,3:2:0:0:
213,249,48603,2,0,L|207:318,2,56.71189834552,2|2|2,1:2|3:2|3:2,3:0:0:0:
221,158,49221,1,2,1:2:0:0:
346,27,49840,6,0,L|339:105,1,56.71189834552,2|2,1:2|3:2,3:0:0:0:
334,128,50149,1,2,3:2:0:0:
391,197,50458,2,0,P|331:225|281:206,1,113.42379669104,2|10,1:2|3:2,3:2:0:0:
221,158,51077,2,0,L|230:87,2,56.71189834552,2|2|2,1:2|3:2|3:2,3:0:0:0:
212,248,51695,1,2,1:2:0:0:
80,373,52314,2,0,P|35:311|47:268,1,113.42379669104,2|2,1:2|3:2,3:0:0:0:
66,242,52778,1,10,3:2:0:0:
66,242,52933,2,0,L|53:177,1,56.71189834552,2|0,1:2|3:2,3:2:0:0:
43,142,53242,1,10,3:2:0:0:
483,38,54788,6,0,P|439:84|434:149,1,124.69888069104,2|2,1:2|3:2,3:0:0:0:
388,115,55252,1,8,3:2:0:0:
345,99,55407,2,0,P|346:162|388:212,1,124.69888069104,2|10,1:2|3:2,3:2:0:0:
362,291,56025,2,0,P|392:292|428:274,2,62.34944034552,2|0|2,1:2|3:2|3:2,3:0:0:0:
288,237,56644,1,2,1:2:0:0:
141,342,57262,2,0,P|135:274|129:208,1,124.69888069104,2|2,1:2|3:2,3:2:0:0:
89,247,57726,1,8,3:2:0:0:
46,261,57881,2,0,P|52:193|58:127,1,124.69888069104,2|10,1:2|3:2,3:2:0:0:
72,58,58500,2,0,P|42:57|6:75,2,62.34944034552,2|2|2,1:2|3:2|3:2,3:0:0:0:
142,114,59118,1,2,1:2:0:0:
298,22,59737,6,0,L|307:93,1,62.34944034552,2|2,1:2|3:2,3:0:0:0:
313,122,60046,1,2,3:2:0:0:
388,171,60355,2,0,P|352:204|283:205,1,124.69888069104,2|10,1:2|3:2,3:2:0:0:
199,215,60974,2,0,P|216:150|228:140,2,62.34944034552,2|2|2,1:2|3:2|3:2,3:0:0:0:
251,288,61592,1,2,1:2:0:0:
313,122,62211,5,2,1:2:0:0:
