osu file format v14

[General]
AudioFilename: audio.mp3
AudioLeadIn: 0
PreviewTime: 48209
Countdown: 0
SampleSet: Normal
StackLeniency: 0.7
Mode: 1
LetterboxInBreaks: 0
WidescreenStoryboard: 1

[Editor]
Bookmarks: 78631
DistanceSpacing: 0.5
BeatDivisor: 4
GridSize: 16
TimelineZoom: 1

[Metadata]
Title:Bing Chilling-ish
TitleUnicode:Bing Chillingぽいな
Artist:Tarako
ArtistUnicode:Tarako
Creator:KennethBBG
Version:iRedi's Muzukashii
Source:
Tags:BlackBN BlackBq Aurorance iRedi kanpakyin 趙喜娜 速度與激情9 兩個禮拜以後 冰淇淋 ice cream fast and furious nine ピノキオピー PINOCCHIOP chinese tarako_official official pop 神っぽいな god-ish godish kami ppoi poi na cover male vocal meme novelty john cena WWE wrestling wrestler professional 音mad otomad
BeatmapID:3838341
BeatmapSetID:1866031

[Difficulty]
HPDrainRate:6.5
CircleSize:5
OverallDifficulty:4.5
ApproachRate:3
SliderMultiplier:1.4
SliderTickRate:1

[Events]
//Background and Video events
Video,0,"output.mp4"
0,0,"Background.jpg",0,70
//Break Periods
//Storyboard Layer 0 (Background)
//Storyboard Layer 1 (Fail)
//Storyboard Layer 2 (Pass)
//Storyboard Layer 3 (Foreground)
//Storyboard Layer 4 (Overlay)
//Storyboard Sound Samples

[TimingPoints]
875,422.535211267606,4,1,0,40,1,0
7635,422.535211267606,4,1,0,40,1,8
7646,422.535211267606,4,1,0,40,1,0
7646,-100,4,1,0,40,0,0
21061,-100,4,1,0,50,0,0
48315,-100,4,1,0,30,0,0
51061,-100,4,1,0,50,0,0
51484,-100,4,1,0,60,0,0
51589,422.535211267606,4,1,0,60,1,1
51589,-100,4,1,0,60,0,1
57504,-100,4,1,0,60,0,0
58349,-100,4,1,0,60,0,1
63419,-100,4,1,0,60,0,0
68490,-100,4,1,0,60,0,1
71870,-100,4,1,0,60,0,0
75250,-100,4,1,0,60,0,1
78525,-100,4,1,0,50,0,1
78631,-100,4,1,0,50,0,0
92047,-100,4,1,0,40,0,0

[HitObjects]
48,144,7646,5,0,0:0:0:0:
48,176,7857,1,0,0:0:0:0:
48,208,7962,1,2,0:0:0:0:
48,240,8279,1,0,0:0:0:0:
64,272,8491,1,2,0:0:0:0:
128,272,8702,1,0,0:0:0:0:
128,272,8913,1,0,0:0:0:0:
144,240,9124,1,2,0:0:0:0:
144,176,9336,1,2,0:0:0:0:
144,144,9653,1,0,0:0:0:0:
64,112,9969,1,0,0:0:0:0:
128,112,10815,1,0,0:0:0:0:
128,64,11026,1,2,0:0:0:0:
144,32,11237,1,2,0:0:0:0:
176,16,11659,1,0,0:0:0:0:
208,16,11871,1,2,0:0:0:0:
208,16,12082,1,0,0:0:0:0:
240,16,12293,1,2,0:0:0:0:
288,16,12504,1,2,0:0:0:0:
352,32,12716,1,0,0:0:0:0:
368,64,13033,1,2,0:0:0:0:
320,96,13349,1,0,0:0:0:0:
384,96,14406,1,2,0:0:0:0:
416,112,14617,1,2,0:0:0:0:
416,160,14829,1,0,0:0:0:0:
384,176,15040,1,0,0:0:0:0:
352,176,15251,1,2,0:0:0:0:
320,176,15674,1,0,0:0:0:0:
288,176,15885,1,2,0:0:0:0:
256,160,15991,1,2,0:0:0:0:
256,112,16096,1,2,0:0:0:0:
96,272,16307,1,0,0:0:0:0:
96,112,16413,1,0,0:0:0:0:
288,96,16519,1,0,0:0:0:0:
128,304,16730,1,0,0:0:0:0:
128,336,16941,1,2,0:0:0:0:
128,336,17364,1,2,0:0:0:0:
144,368,17786,1,0,0:0:0:0:
208,368,17998,1,2,0:0:0:0:
224,336,18209,1,2,0:0:0:0:
224,304,18420,1,0,0:0:0:0:
272,304,18631,1,0,0:0:0:0:
272,336,19054,1,0,0:0:0:0:
288,368,19265,1,2,0:0:0:0:
512,0,19476,1,0,0:0:0:0:
320,368,20533,1,0,0:0:0:0:
352,368,20638,1,0,0:0:0:0:
368,336,20744,1,2,0:0:0:0:
512,0,21167,1,4,0:0:0:0:
368,304,21378,1,2,0:0:0:0:
256,16,21589,1,0,0:0:0:0:
368,272,21695,1,0,0:0:0:0:
368,240,21906,1,2,0:0:0:0:
368,208,22117,1,2,0:0:0:0:
144,208,22329,1,0,0:0:0:0:
512,384,22434,1,0,0:0:0:0:
512,384,22646,1,0,0:0:0:0:
512,384,23068,1,2,0:0:0:0:
512,384,23279,1,0,0:0:0:0:
512,384,23385,1,0,0:0:0:0:
512,384,23596,1,2,0:0:0:0:
512,384,23807,1,0,0:0:0:0:
512,384,24019,1,0,0:0:0:0:
512,384,24124,1,0,0:0:0:0:
512,384,24336,1,2,0:0:0:0:
512,384,24758,1,0,0:0:0:0:
512,384,24969,1,0,0:0:0:0:
512,384,25075,1,0,0:0:0:0:
512,384,25286,1,0,0:0:0:0:
512,384,25497,1,2,0:0:0:0:
512,384,25709,1,0,0:0:0:0:
512,384,25814,1,0,0:0:0:0:
512,384,26026,1,0,0:0:0:0:
512,384,26237,1,2,0:0:0:0:
512,384,26448,1,2,0:0:0:0:
512,384,26871,1,0,0:0:0:0:
512,384,27082,1,2,0:0:0:0:
512,384,27293,1,2,0:0:0:0:
512,384,27927,1,2,0:0:0:0:
512,384,28138,1,0,0:0:0:0:
512,384,28349,1,2,0:0:0:0:
512,384,28455,1,2,0:0:0:0:
512,384,28666,1,0,0:0:0:0:
512,384,28877,1,0,0:0:0:0:
512,384,29089,1,2,0:0:0:0:
512,384,29194,1,2,0:0:0:0:
512,384,29406,1,2,0:0:0:0:
512,384,29828,1,0,0:0:0:0:
512,384,30039,1,2,0:0:0:0:
512,384,30145,1,2,0:0:0:0:
512,384,30356,1,0,0:0:0:0:
512,384,30567,1,2,0:0:0:0:
512,384,30779,1,2,0:0:0:0:
512,384,30885,1,2,0:0:0:0:
512,384,31096,1,0,0:0:0:0:
512,384,31518,1,2,0:0:0:0:
512,384,31729,1,2,0:0:0:0:
512,384,31835,1,2,0:0:0:0:
512,384,32046,1,2,0:0:0:0:
512,384,32257,1,0,0:0:0:0:
512,384,32469,1,2,0:0:0:0:
512,384,32574,1,2,0:0:0:0:
512,384,32786,1,2,0:0:0:0:
512,384,32997,1,0,0:0:0:0:
512,384,34054,1,0,0:0:0:0:
512,384,34160,1,0,0:0:0:0:
512,384,34265,1,2,0:0:0:0:
512,384,34688,1,0,0:0:0:0:
512,384,34793,1,0,0:0:0:0:
512,384,34899,1,0,0:0:0:0:
512,384,35322,1,0,0:0:0:0:
512,384,35427,1,0,0:0:0:0:
512,384,35533,1,0,0:0:0:0:
512,384,35955,1,2,0:0:0:0:
512,384,36061,1,2,0:0:0:0:
512,384,36167,1,2,0:0:0:0:
512,384,36378,1,0,0:0:0:0:
512,384,36800,1,0,0:0:0:0:
512,384,36906,1,0,0:0:0:0:
512,384,37012,1,0,0:0:0:0:
512,384,37434,1,0,0:0:0:0:
512,384,37645,1,2,0:0:0:0:
512,384,37857,1,0,0:0:0:0:
512,384,38068,1,2,0:0:0:0:
512,384,38491,1,2,0:0:0:0:
512,384,38913,1,0,0:0:0:0:
512,384,39124,1,2,0:0:0:0:
512,384,39230,1,2,0:0:0:0:
512,384,39336,1,2,0:0:0:0:
512,384,39547,1,0,0:0:0:0:
512,384,39758,1,2,0:0:0:0:
512,384,40181,1,0,0:0:0:0:
512,384,40603,1,0,0:0:0:0:
512,384,40815,1,2,0:0:0:0:
512,384,41026,1,0,0:0:0:0:
512,384,41131,1,0,0:0:0:0:
512,384,41237,1,0,0:0:0:0:
512,384,41448,1,2,0:0:0:0:
512,384,42082,1,2,0:0:0:0:
512,384,42505,1,0,0:0:0:0:
512,384,42716,1,2,0:0:0:0:
512,384,42822,1,2,0:0:0:0:
512,384,42927,1,2,0:0:0:0:
512,384,43138,1,0,0:0:0:0:
512,384,43772,1,2,0:0:0:0:
512,384,44195,1,0,0:0:0:0:
512,384,44406,1,2,0:0:0:0:
512,384,44617,1,0,0:0:0:0:
512,384,44829,1,2,0:0:0:0:
512,384,45251,1,2,0:0:0:0:
512,384,45674,1,2,0:0:0:0:
512,384,45885,1,0,0:0:0:0:
512,384,46096,1,0,0:0:0:0:
512,384,46307,1,2,0:0:0:0:
512,384,46519,1,2,0:0:0:0:
512,384,46730,1,0,0:0:0:0:
512,384,46836,1,0,0:0:0:0:
512,384,46941,1,0,0:0:0:0:
512,384,47153,1,2,0:0:0:0:
512,384,47364,1,0,0:0:0:0:
512,384,47575,1,2,0:0:0:0:
512,384,47681,1,2,0:0:0:0:
512,384,47786,1,2,0:0:0:0:
512,384,47998,1,0,0:0:0:0:
512,384,48209,1,6,0:0:0:0:
256,192,48420,8,0,49476,0:0:0:0:
512,384,51167,5,2,0:0:0:0:
512,384,51378,1,0,0:0:0:0:
512,0,51589,1,6,0:0:0:0:
512,384,51800,1,0,0:0:0:0:
512,384,51906,1,0,0:0:0:0:
512,384,52012,1,0,0:0:0:0:
512,384,52223,1,2,0:0:0:0:
512,384,52434,1,0,0:0:0:0:
512,384,52857,1,0,0:0:0:0:
512,384,53068,1,0,0:0:0:0:
512,384,53279,1,2,0:0:0:0:
512,384,53491,1,0,0:0:0:0:
512,384,53596,1,0,0:0:0:0:
512,384,53702,1,0,0:0:0:0:
512,384,53913,1,2,0:0:0:0:
512,384,54124,1,0,0:0:0:0:
512,384,54758,1,0,0:0:0:0:
512,384,54969,1,2,0:0:0:0:
512,384,55181,1,2,0:0:0:0:
512,384,55392,1,0,0:0:0:0:
512,384,55815,1,2,0:0:0:0:
512,384,56026,1,2,0:0:0:0:
512,384,56237,1,0,0:0:0:0:
512,384,56343,1,0,0:0:0:0:
512,384,56448,1,0,0:0:0:0:
512,384,56660,1,0,0:0:0:0:
512,384,56871,1,2,0:0:0:0:
512,384,56976,1,2,0:0:0:0:
512,384,57082,1,2,0:0:0:0:
512,384,57293,1,0,0:0:0:0:
512,384,57505,1,2,0:0:0:0:
512,384,57927,1,0,0:0:0:0:
512,384,58138,1,2,0:0:0:0:
512,0,58350,1,4,0:0:0:0:
512,384,58561,1,2,0:0:0:0:
512,384,58667,1,2,0:0:0:0:
512,384,58773,1,2,0:0:0:0:
512,384,58984,1,0,0:0:0:0:
512,384,59195,1,2,0:0:0:0:
512,384,59618,1,2,0:0:0:0:
512,384,59829,1,2,0:0:0:0:
512,384,60040,1,0,0:0:0:0:
512,384,60250,1,2,0:0:0:0:
512,384,60356,1,2,0:0:0:0:
512,384,60462,1,2,0:0:0:0:
512,384,60674,1,0,0:0:0:0:
512,384,60885,1,2,0:0:0:0:
512,384,61519,1,0,0:0:0:0:
512,384,61730,1,0,0:0:0:0:
512,384,61942,1,2,0:0:0:0:
512,384,62153,1,2,0:0:0:0:
512,384,62574,1,2,0:0:0:0:
512,384,62787,1,0,0:0:0:0:
512,384,62998,1,2,0:0:0:0:
512,384,63103,1,2,0:0:0:0:
512,384,63209,1,2,0:0:0:0:
512,384,63419,1,0,0:0:0:0:
512,384,63843,1,0,0:0:0:0:
512,384,64266,1,2,0:0:0:0:
512,384,64688,1,2,0:0:0:0:
512,384,64793,1,2,0:0:0:0:
512,384,64899,1,2,0:0:0:0:
512,0,65111,1,4,0:0:0:0:
512,384,65533,1,2,0:0:0:0:
512,384,65744,1,0,0:0:0:0:
512,384,65955,1,2,0:0:0:0:
512,384,66061,1,2,0:0:0:0:
512,384,66167,1,2,0:0:0:0:
512,384,66378,1,0,0:0:0:0:
512,384,66800,1,2,0:0:0:0:
512,384,67223,1,0,0:0:0:0:
512,384,67434,1,2,0:0:0:0:
512,384,67646,1,0,0:0:0:0:
512,384,67751,1,0,0:0:0:0:
512,384,67857,1,0,0:0:0:0:
512,384,68068,1,2,0:0:0:0:
512,0,68491,1,6,0:0:0:0:
512,384,68702,1,0,0:0:0:0:
512,384,68808,1,0,0:0:0:0:
512,384,68912,1,0,0:0:0:0:
512,384,69125,1,2,0:0:0:0:
512,384,69336,1,2,0:0:0:0:
512,384,69759,1,0,0:0:0:0:
512,384,69970,1,2,0:0:0:0:
512,384,70181,1,2,0:0:0:0:
512,384,70391,1,0,0:0:0:0:
512,384,70498,1,0,0:0:0:0:
512,384,70604,1,0,0:0:0:0:
512,384,70815,1,0,0:0:0:0:
512,384,71026,1,2,0:0:0:0:
512,384,71871,1,0,0:0:0:0:
512,384,72082,1,0,0:0:0:0:
512,384,72293,1,2,0:0:0:0:
512,384,72505,1,2,0:0:0:0:
512,384,72716,1,0,0:0:0:0:
512,384,72822,1,0,0:0:0:0:
512,384,72927,1,0,0:0:0:0:
512,384,73138,1,2,0:0:0:0:
512,384,73561,1,0,0:0:0:0:
512,384,73772,1,2,0:0:0:0:
512,384,73878,1,2,0:0:0:0:
512,384,73984,1,2,0:0:0:0:
512,384,74195,1,2,0:0:0:0:
512,384,74406,1,0,0:0:0:0:
512,384,74512,1,0,0:0:0:0:
512,384,74617,1,0,0:0:0:0:
512,384,74829,1,2,0:0:0:0:
512,0,75251,1,4,0:0:0:0:
512,384,75462,1,2,0:0:0:0:
512,384,75568,1,2,0:0:0:0:
512,384,75674,1,2,0:0:0:0:
512,384,75885,1,0,0:0:0:0:
512,384,76096,1,2,0:0:0:0:
512,384,76307,1,0,0:0:0:0:
512,384,76519,1,2,0:0:0:0:
512,384,76941,1,0,0:0:0:0:
512,384,77364,1,0,0:0:0:0:
512,384,77786,1,2,0:0:0:0:
512,384,77892,1,2,0:0:0:0:
512,384,77998,1,2,0:0:0:0:
512,384,78209,1,0,0:0:0:0:
512,384,78420,1,0,0:0:0:0:
512,0,78631,1,6,0:0:0:0:
512,384,78842,1,0,0:0:0:0:
512,384,79053,1,0,0:0:0:0:
512,384,79159,1,2,0:0:0:0:
512,384,79370,1,0,0:0:0:0:
512,384,79581,1,0,0:0:0:0:
512,384,79793,1,2,0:0:0:0:
512,384,79898,1,0,0:0:0:0:
512,384,80110,1,2,0:0:0:0:
512,384,80532,1,0,0:0:0:0:
512,384,80743,1,0,0:0:0:0:
512,384,80849,1,2,0:0:0:0:
512,384,81060,1,0,0:0:0:0:
512,384,81271,1,2,0:0:0:0:
512,384,81483,1,2,0:0:0:0:
512,384,81588,1,0,0:0:0:0:
512,384,81800,1,0,0:0:0:0:
512,384,82222,1,2,0:0:0:0:
512,384,82433,1,0,0:0:0:0:
512,384,82539,1,2,0:0:0:0:
512,384,82750,1,2,0:0:0:0:
512,384,82961,1,0,0:0:0:0:
512,384,83173,1,2,0:0:0:0:
512,384,83278,1,0,0:0:0:0:
512,384,83490,1,2,0:0:0:0:
512,384,83701,1,0,0:0:0:0:
512,384,83913,1,0,0:0:0:0:
512,384,84336,1,2,0:0:0:0:
512,384,84546,1,0,0:0:0:0:
512,384,84758,1,0,0:0:0:0:
512,384,85391,1,4,0:0:0:0:
512,384,85602,1,2,0:0:0:0:
512,384,85815,1,2,0:0:0:0:
512,384,85920,1,0,0:0:0:0:
512,384,86131,1,2,0:0:0:0:
512,384,86343,1,2,0:0:0:0:
512,384,86554,1,0,0:0:0:0:
512,384,86660,1,2,0:0:0:0:
512,384,86870,1,0,0:0:0:0:
512,384,87292,1,2,0:0:0:0:
512,384,87505,1,2,0:0:0:0:
512,384,87610,1,0,0:0:0:0:
512,384,87822,1,2,0:0:0:0:
512,384,88033,1,0,0:0:0:0:
512,384,88244,1,0,0:0:0:0:
512,384,88350,1,2,0:0:0:0:
512,384,88561,1,2,0:0:0:0:
512,384,88984,1,0,0:0:0:0:
512,384,89195,1,2,0:0:0:0:
512,384,89300,5,0,0:0:0:0:
512,384,89512,1,0,0:0:0:0:
512,384,89723,1,2,0:0:0:0:
512,384,89934,1,0,0:0:0:0:
512,384,90040,1,2,0:0:0:0:
512,384,90251,1,0,0:0:0:0:
512,384,90462,1,2,0:0:0:0:
512,384,91730,1,2,0:0:0:0:
512,384,92153,5,0,0:0:0:0:
512,384,92364,1,0,0:0:0:0:
512,384,92469,1,2,0:0:0:0:
512,384,92786,1,2,0:0:0:0:
512,384,92998,1,0,0:0:0:0:
512,384,93209,1,2,0:0:0:0:
512,384,93420,1,0,0:0:0:0:
512,384,93631,1,0,0:0:0:0:
512,384,93843,1,2,0:0:0:0:
512,384,94160,1,0,0:0:0:0:
512,384,94476,1,0,0:0:0:0:
512,384,95322,1,2,0:0:0:0:
512,384,95533,1,0,0:0:0:0:
512,384,95744,1,0,0:0:0:0:
512,384,96166,1,2,0:0:0:0:
512,384,96378,1,0,0:0:0:0:
512,384,96589,1,2,0:0:0:0:
512,384,96800,1,0,0:0:0:0:
512,384,97011,1,2,0:0:0:0:
512,384,97223,1,2,0:0:0:0:
512,384,97540,1,0,0:0:0:0:
512,384,97856,1,2,0:0:0:0:
512,384,98913,1,0,0:0:0:0:
512,384,99124,1,2,0:0:0:0:
512,384,99336,1,0,0:0:0:0:
512,384,99441,1,2,0:0:0:0:
512,384,99758,1,0,0:0:0:0:
512,384,100075,1,2,0:0:0:0:
512,384,100392,1,2,0:0:0:0:
512,384,100603,1,2,0:0:0:0:
512,384,100814,1,0,0:0:0:0:
512,384,101026,1,0,0:0:0:0:
512,384,101131,1,2,0:0:0:0:
512,384,101448,1,0,0:0:0:0:
512,384,101765,1,2,0:0:0:0:
512,384,102293,1,2,0:0:0:0:
512,384,102504,1,0,0:0:0:0:
512,384,102716,1,2,0:0:0:0:
512,384,102821,1,0,0:0:0:0:
512,384,103138,1,2,0:0:0:0:
512,384,103455,1,2,0:0:0:0:
512,384,103772,1,0,0:0:0:0:
512,384,103984,1,2,0:0:0:0:
