osu file format v14

[General]
AudioFilename: audio.mp3
AudioLeadIn: 0
PreviewTime: 48209
Countdown: 0
SampleSet: Normal
StackLeniency: 0.7
Mode: 1
LetterboxInBreaks: 0
WidescreenStoryboard: 0

[Editor]
DistanceSpacing: 0.5
BeatDivisor: 4
GridSize: 16
TimelineZoom: 1.7

[Metadata]
Title:Bing Chilling-ish
TitleUnicode:Bing Chillingぽいな
Artist:Tarako
ArtistUnicode:Tarako
Creator:KennethBBG
Version:Oni
Source:
Tags:BlackBN BlackBq Aurorance iRedi kanpakyin 趙喜娜 速度與激情9 兩個禮拜以後 冰淇淋 ice cream fast and furious nine ピノキオピー PINOCCHIOP chinese tarako_official official pop 神っぽいな god-ish godish kami ppoi poi na cover male vocal meme novelty john cena WWE wrestling wrestler professional 音mad otomad
BeatmapID:3838342
BeatmapSetID:1866031

[Difficulty]
HPDrainRate:5.5
CircleSize:5
OverallDifficulty:5
ApproachRate:5
SliderMultiplier:1.4
SliderTickRate:1

[Events]
//Background and Video events
Video,0,"output.mp4"
0,0,"Background.jpg",0,70
//Break Periods
//Storyboard Layer 0 (Background)
//Storyboard Layer 1 (Fail)
//Storyboard Layer 2 (Pass)
//Storyboard Layer 3 (Foreground)
//Storyboard Layer 4 (Overlay)
//Storyboard Sound Samples

[TimingPoints]
875,422.535211267606,4,1,0,40,1,0
7635,422.535211267606,4,1,0,40,1,8
7646,422.535211267606,4,1,0,40,1,0
7646,-100,4,1,0,40,0,0
21061,-100,4,1,0,50,0,0
48315,-100,4,1,0,30,0,0
51061,-100,4,1,0,50,0,0
51484,-100,4,1,0,60,0,0
51589,422.535211267606,4,1,0,60,1,1
51589,-100,4,1,0,60,0,1
57504,-100,4,1,0,60,0,0
58349,-100,4,1,0,60,0,1
63419,-100,4,1,0,60,0,0
68490,-100,4,1,0,60,0,1
71870,-100,4,1,0,60,0,0
75250,-100,4,1,0,60,0,1
78526,-100,4,1,0,50,0,1
78631,-100,4,1,0,50,0,0
92047,-100,4,1,0,40,0,0

[HitObjects]
409,82,7646,5,8,0:0:0:0:
317,150,7857,1,0,0:0:0:0:
315,159,7962,1,0,0:0:0:0:
247,215,8279,1,0,0:0:0:0:
307,158,8491,1,0,0:0:0:0:
235,204,8702,1,0,0:0:0:0:
301,159,8807,1,8,0:0:0:0:
235,204,8913,1,0,0:0:0:0:
299,159,9124,1,8,0:0:0:0:
299,159,9336,1,0,0:0:0:0:
294,163,9547,1,0,0:0:0:0:
289,165,9864,1,8,0:0:0:0:
283,203,9969,1,0,0:0:0:0:
309,150,10181,1,8,0:0:0:0:
257,200,10392,1,0,0:0:0:0:
262,180,10498,1,8,0:0:0:0:
264,201,10603,1,0,0:0:0:0:
229,203,10815,1,0,0:0:0:0:
408,62,11026,1,8,0:0:0:0:
317,150,11237,1,0,0:0:0:0:
231,198,11554,1,8,0:0:0:0:
239,221,11660,1,0,0:0:0:0:
307,158,11871,1,8,0:0:0:0:
301,159,12082,1,0,0:0:0:0:
193,218,12188,1,0,0:0:0:0:
193,218,12293,1,0,0:0:0:0:
299,159,12504,1,8,0:0:0:0:
299,159,12716,1,8,0:0:0:0:
294,163,12927,1,0,0:0:0:0:
289,165,13244,1,8,0:0:0:0:
321,219,13561,1,0,0:0:0:0:
321,219,13667,1,0,0:0:0:0:
302,205,13772,1,8,0:0:0:0:
288,164,13878,1,8,0:0:0:0:
229,190,13984,1,0,0:0:0:0:
387,80,14406,1,8,0:0:0:0:
227,205,14617,1,0,0:0:0:0:
272,230,14829,1,0,0:0:0:0:
221,203,14935,1,8,0:0:0:0:
191,233,15040,1,0,0:0:0:0:
215,199,15252,1,0,0:0:0:0:
215,199,15462,1,0,0:0:0:0:
215,199,15674,1,8,0:0:0:0:
148,170,15885,1,8,0:0:0:0:
148,170,15991,1,8,0:0:0:0:
148,170,16096,1,0,0:0:0:0:
241,147,16307,1,0,0:0:0:0:
221,203,16413,1,0,0:0:0:0:
272,230,16519,1,8,0:0:0:0:
235,180,16624,1,0,0:0:0:0:
191,233,16730,1,8,0:0:0:0:
215,199,16942,1,8,0:0:0:0:
259,205,17153,1,8,0:0:0:0:
275,227,17364,1,0,0:0:0:0:
423,49,17786,1,8,0:0:0:0:
368,205,17998,1,0,0:0:0:0:
310,235,18209,1,8,0:0:0:0:
214,169,18420,1,8,0:0:0:0:
214,169,18526,1,8,0:0:0:0:
214,169,18631,1,0,0:0:0:0:
247,222,18843,1,8,0:0:0:0:
247,222,19054,1,0,0:0:0:0:
403,67,19265,1,0,0:0:0:0:
245,222,19476,1,8,0:0:0:0:
260,205,19793,1,0,0:0:0:0:
260,205,20110,1,8,0:0:0:0:
280,189,20533,1,0,0:0:0:0:
223,213,20744,1,8,0:0:0:0:
427,83,21167,1,12,0:0:0:0:
230,170,21378,1,0,0:0:0:0:
239,169,21590,1,0,0:0:0:0:
239,169,21695,1,8,0:0:0:0:
239,169,21906,1,0,0:0:0:0:
303,156,22012,1,8,0:0:0:0:
248,211,22117,1,0,0:0:0:0:
248,211,22329,1,8,0:0:0:0:
248,211,22435,1,0,0:0:0:0:
248,211,22646,1,8,0:0:0:0:
242,194,22857,1,8,0:0:0:0:
230,170,23069,1,0,0:0:0:0:
239,169,23280,1,8,0:0:0:0:
239,169,23386,1,0,0:0:0:0:
239,169,23596,1,8,0:0:0:0:
303,156,23702,1,0,0:0:0:0:
248,211,23807,1,8,0:0:0:0:
248,211,24019,1,8,0:0:0:0:
248,211,24124,1,0,0:0:0:0:
248,211,24336,1,0,0:0:0:0:
427,83,24548,1,8,0:0:0:0:
230,170,24759,1,0,0:0:0:0:
239,169,24970,1,8,0:0:0:0:
239,169,25076,1,8,0:0:0:0:
239,169,25286,1,8,0:0:0:0:
303,156,25393,1,0,0:0:0:0:
248,211,25499,1,8,0:0:0:0:
248,211,25710,1,0,0:0:0:0:
248,211,25815,1,8,0:0:0:0:
248,211,26026,1,8,0:0:0:0:
387,76,26237,1,0,0:0:0:0:
217,209,26449,1,8,0:0:0:0:
217,209,26554,1,0,0:0:0:0:
233,210,26660,1,8,0:0:0:0:
217,209,26872,1,0,0:0:0:0:
387,76,27082,1,8,0:0:0:0:
207,204,27294,1,0,0:0:0:0:
207,204,27400,1,8,0:0:0:0:
226,259,27505,1,0,0:0:0:0:
427,83,27927,1,0,0:0:0:0:
230,170,28138,1,0,0:0:0:0:
239,169,28350,1,8,0:0:0:0:
239,169,28456,1,8,0:0:0:0:
239,169,28667,1,8,0:0:0:0:
303,156,28773,1,0,0:0:0:0:
248,211,28879,1,8,0:0:0:0:
248,211,29090,1,0,0:0:0:0:
248,211,29196,1,0,0:0:0:0:
248,211,29406,1,8,0:0:0:0:
427,83,29617,1,8,0:0:0:0:
230,170,29829,1,0,0:0:0:0:
239,169,30040,1,0,0:0:0:0:
239,169,30146,1,0,0:0:0:0:
239,169,30358,1,8,0:0:0:0:
303,156,30463,1,0,0:0:0:0:
248,211,30569,1,8,0:0:0:0:
248,211,30780,1,8,0:0:0:0:
248,211,30885,1,8,0:0:0:0:
248,211,31096,1,0,0:0:0:0:
427,83,31308,1,8,0:0:0:0:
230,170,31519,1,0,0:0:0:0:
239,169,31730,1,8,0:0:0:0:
239,169,31836,1,8,0:0:0:0:
239,169,32048,1,8,0:0:0:0:
303,156,32153,1,0,0:0:0:0:
248,211,32259,1,8,0:0:0:0:
248,211,32470,1,0,0:0:0:0:
248,211,32575,1,8,0:0:0:0:
248,211,32786,1,8,0:0:0:0:
403,67,32998,1,0,0:0:0:0:
260,205,33315,1,0,0:0:0:0:
260,205,33632,1,8,0:0:0:0:
200,261,34054,1,0,0:0:0:0:
200,261,34160,1,0,0:0:0:0:
200,261,34265,1,8,0:0:0:0:
420,68,34688,1,0,0:0:0:0:
267,191,34793,1,0,0:0:0:0:
267,191,34899,1,0,0:0:0:0:
267,191,35110,1,8,0:0:0:0:
251,179,35322,1,0,0:0:0:0:
228,232,35427,1,0,0:0:0:0:
228,232,35533,1,0,0:0:0:0:
287,219,35744,1,8,0:0:0:0:
289,130,35955,1,8,0:0:0:0:
299,189,36378,1,0,0:0:0:0:
260,216,36589,1,0,0:0:0:0:
289,130,36800,1,8,0:0:0:0:
275,230,36906,1,0,0:0:0:0:
211,171,37012,1,8,0:0:0:0:
247,236,37223,1,0,0:0:0:0:
241,179,37434,1,8,0:0:0:0:
221,258,37646,1,8,0:0:0:0:
444,48,38068,1,0,0:0:0:0:
177,204,38491,1,8,0:0:0:0:
177,204,38702,1,0,0:0:0:0:
144,199,38913,1,8,0:0:0:0:
156,258,39124,1,0,0:0:0:0:
142,198,39230,1,8,0:0:0:0:
142,198,39336,1,0,0:0:0:0:
175,197,39547,1,0,0:0:0:0:
163,203,39758,1,8,0:0:0:0:
177,215,39969,1,0,0:0:0:0:
177,215,40075,1,0,0:0:0:0:
223,202,40181,1,8,0:0:0:0:
130,245,40392,1,0,0:0:0:0:
171,302,40603,1,0,0:0:0:0:
161,267,40815,1,8,0:0:0:0:
153,265,41026,1,8,0:0:0:0:
142,283,41131,1,8,0:0:0:0:
147,283,41237,1,8,0:0:0:0:
147,283,41343,1,8,0:0:0:0:
340,108,41448,1,8,0:0:0:0:
257,226,41660,1,0,0:0:0:0:
257,226,41765,1,0,0:0:0:0:
257,226,41871,1,8,0:0:0:0:
257,226,42082,1,0,0:0:0:0:
257,226,42293,1,0,0:0:0:0:
257,226,42398,1,0,0:0:0:0:
257,226,42504,1,8,0:0:0:0:
247,246,42716,1,8,0:0:0:0:
267,227,42822,1,8,0:0:0:0:
262,225,42927,1,0,0:0:0:0:
378,73,43138,1,8,0:0:0:0:
257,226,43350,1,0,0:0:0:0:
257,226,43455,1,0,0:0:0:0:
257,226,43561,1,8,0:0:0:0:
378,73,43772,1,0,0:0:0:0:
180,173,43984,1,0,0:0:0:0:
179,168,44195,1,0,0:0:0:0:
179,168,44300,1,0,0:0:0:0:
179,168,44406,1,8,0:0:0:0:
173,170,44617,1,8,0:0:0:0:
165,168,44829,1,0,0:0:0:0:
218,210,45251,1,8,0:0:0:0:
155,169,45462,1,0,0:0:0:0:
155,169,45568,1,0,0:0:0:0:
155,169,45674,1,0,0:0:0:0:
225,214,45885,1,0,0:0:0:0:
189,219,46096,1,8,0:0:0:0:
211,213,46307,1,8,0:0:0:0:
210,213,46519,1,0,0:0:0:0:
197,211,46730,1,8,0:0:0:0:
197,211,46836,1,8,0:0:0:0:
197,211,46941,1,0,0:0:0:0:
217,170,47153,1,8,0:0:0:0:
209,172,47364,1,0,0:0:0:0:
209,172,47575,1,8,0:0:0:0:
214,212,47681,1,8,0:0:0:0:
214,212,47786,1,0,0:0:0:0:
229,245,47998,1,8,0:0:0:0:
411,80,48209,1,6,0:0:0:0:
256,192,48315,12,0,49476,0:0:0:0:
255,189,51167,5,8,0:0:0:0:
255,189,51378,1,8,0:0:0:0:
255,189,51589,5,4,0:0:0:0:
255,189,51800,1,0,0:0:0:0:
255,189,51906,1,0,0:0:0:0:
255,189,52012,1,8,0:0:0:0:
255,189,52117,1,8,0:0:0:0:
255,189,52223,1,0,0:0:0:0:
255,189,52434,1,8,0:0:0:0:
256,184,52646,1,0,0:0:0:0:
246,186,52857,1,8,0:0:0:0:
268,193,53068,1,8,0:0:0:0:
268,193,53174,1,8,0:0:0:0:
401,75,53279,1,0,0:0:0:0:
246,186,53491,1,8,0:0:0:0:
256,184,53596,1,8,0:0:0:0:
246,186,53702,1,0,0:0:0:0:
246,186,53807,1,0,0:0:0:0:
246,186,53913,1,8,0:0:0:0:
246,186,54124,1,0,0:0:0:0:
256,184,54336,1,8,0:0:0:0:
255,189,54547,1,8,0:0:0:0:
249,196,54758,1,8,0:0:0:0:
249,196,54864,1,8,0:0:0:0:
246,199,54969,1,0,0:0:0:0:
246,199,55181,1,8,0:0:0:0:
255,200,55392,1,0,0:0:0:0:
248,206,55603,1,8,0:0:0:0:
247,206,55815,1,8,0:0:0:0:
247,206,56026,1,0,0:0:0:0:
247,206,56237,1,8,0:0:0:0:
247,206,56343,1,0,0:0:0:0:
244,208,56448,1,8,0:0:0:0:
379,79,56660,1,0,0:0:0:0:
252,196,56871,1,0,0:0:0:0:
247,197,57082,1,8,0:0:0:0:
255,201,57293,1,0,0:0:0:0:
255,201,57505,1,8,0:0:0:0:
242,200,57610,1,0,0:0:0:0:
247,197,57716,1,8,0:0:0:0:
242,200,57822,1,8,0:0:0:0:
255,201,57927,1,0,0:0:0:0:
396,77,58350,1,12,0:0:0:0:
255,189,58561,1,0,0:0:0:0:
255,189,58667,1,0,0:0:0:0:
255,189,58772,1,8,0:0:0:0:
258,196,58878,1,8,0:0:0:0:
255,189,58984,1,0,0:0:0:0:
255,189,59195,1,8,0:0:0:0:
256,184,59406,1,8,0:0:0:0:
255,189,59617,1,0,0:0:0:0:
259,188,59829,1,8,0:0:0:0:
264,191,59935,1,8,0:0:0:0:
397,80,60040,1,0,0:0:0:0:
255,189,60251,1,8,0:0:0:0:
255,189,60356,1,8,0:0:0:0:
255,189,60462,1,0,0:0:0:0:
247,189,60568,1,0,0:0:0:0:
255,189,60674,1,8,0:0:0:0:
255,189,60885,1,8,0:0:0:0:
256,184,61096,1,0,0:0:0:0:
255,189,61308,1,8,0:0:0:0:
249,196,61519,1,8,0:0:0:0:
249,196,61624,1,8,0:0:0:0:
246,199,61730,1,0,0:0:0:0:
248,206,61941,1,0,0:0:0:0:
248,206,62153,1,8,0:0:0:0:
248,206,62364,1,0,0:0:0:0:
247,206,62575,1,0,0:0:0:0:
247,206,62786,1,8,0:0:0:0:
247,206,62998,1,0,0:0:0:0:
247,206,63103,1,8,0:0:0:0:
247,206,63209,1,0,0:0:0:0:
391,64,63420,1,8,0:0:0:0:
251,214,63631,1,0,0:0:0:0:
238,200,63737,1,0,0:0:0:0:
413,47,63843,1,8,0:0:0:0:
247,206,64054,1,0,0:0:0:0:
247,206,64160,1,0,0:0:0:0:
418,40,64265,1,8,0:0:0:0:
251,214,64688,1,0,0:0:0:0:
247,206,64793,1,0,0:0:0:0:
248,192,64899,1,8,0:0:0:0:
254,210,65005,1,8,0:0:0:0:
432,42,65110,1,0,0:0:0:0:
280,194,65322,1,0,0:0:0:0:
242,201,65533,1,8,0:0:0:0:
255,188,65638,1,8,0:0:0:0:
256,175,65744,1,0,0:0:0:0:
249,201,65955,1,0,0:0:0:0:
249,201,66061,1,0,0:0:0:0:
249,201,66167,1,0,0:0:0:0:
249,201,66272,1,0,0:0:0:0:
249,201,66378,1,8,0:0:0:0:
249,201,66589,1,8,0:0:0:0:
431,41,66800,1,8,0:0:0:0:
263,206,67012,1,0,0:0:0:0:
256,148,67223,1,8,0:0:0:0:
256,148,67328,1,8,0:0:0:0:
250,179,67434,1,0,0:0:0:0:
243,205,67645,1,0,0:0:0:0:
243,205,67751,1,0,0:0:0:0:
243,205,67857,1,8,0:0:0:0:
243,205,67962,1,8,0:0:0:0:
243,205,68068,1,0,0:0:0:0:
243,205,68279,1,0,0:0:0:0:
409,58,68491,1,12,0:0:0:0:
256,183,68702,1,0,0:0:0:0:
255,193,68807,1,0,0:0:0:0:
255,199,68913,1,8,0:0:0:0:
249,191,69124,1,0,0:0:0:0:
249,191,69336,1,8,0:0:0:0:
248,191,69547,1,8,0:0:0:0:
220,185,69653,1,8,0:0:0:0:
265,185,69758,1,0,0:0:0:0:
260,163,69969,1,0,0:0:0:0:
368,59,70181,1,8,0:0:0:0:
250,163,70392,1,0,0:0:0:0:
250,163,70498,1,0,0:0:0:0:
250,163,70603,1,8,0:0:0:0:
252,199,70815,1,0,0:0:0:0:
229,206,71026,1,8,0:0:0:0:
240,189,71448,1,0,0:0:0:0:
240,189,71554,1,0,0:0:0:0:
240,189,71660,1,8,0:0:0:0:
240,189,71765,1,8,0:0:0:0:
372,72,71871,1,0,0:0:0:0:
240,189,72082,1,0,0:0:0:0:
256,203,72293,1,0,0:0:0:0:
244,195,72399,1,8,0:0:0:0:
238,204,72505,1,0,0:0:0:0:
256,193,72716,1,0,0:0:0:0:
256,193,72822,1,0,0:0:0:0:
246,190,72927,1,0,0:0:0:0:
256,193,73033,1,0,0:0:0:0:
246,190,73138,1,8,0:0:0:0:
241,190,73350,1,0,0:0:0:0:
227,191,73561,1,8,0:0:0:0:
235,191,73772,1,8,0:0:0:0:
235,191,73983,1,8,0:0:0:0:
223,183,74089,1,0,0:0:0:0:
249,205,74195,1,8,0:0:0:0:
267,194,74406,1,8,0:0:0:0:
267,194,74512,1,8,0:0:0:0:
277,158,74617,1,8,0:0:0:0:
200,194,74723,1,8,0:0:0:0:
277,158,74829,1,0,0:0:0:0:
215,200,75040,1,0,0:0:0:0:
397,90,75251,5,12,0:0:0:0:
220,187,75462,1,0,0:0:0:0:
220,187,75568,1,0,0:0:0:0:
220,187,75674,1,8,0:0:0:0:
248,192,75779,1,0,0:0:0:0:
220,187,75885,1,8,0:0:0:0:
220,187,76096,1,8,0:0:0:0:
268,170,76307,1,0,0:0:0:0:
270,194,76519,1,8,0:0:0:0:
270,194,76730,1,8,0:0:0:0:
265,199,76941,1,0,0:0:0:0:
265,199,77153,1,8,0:0:0:0:
263,202,77364,1,0,0:0:0:0:
261,202,77575,1,8,0:0:0:0:
261,185,77786,1,8,0:0:0:0:
261,185,77892,1,8,0:0:0:0:
261,185,77998,1,0,0:0:0:0:
261,185,78103,1,0,0:0:0:0:
261,185,78209,1,8,0:0:0:0:
261,183,78420,1,8,0:0:0:0:
427,83,78631,1,4,0:0:0:0:
239,169,79054,1,0,0:0:0:0:
239,169,79160,1,8,0:0:0:0:
239,169,79371,1,8,0:0:0:0:
303,156,79476,1,0,0:0:0:0:
248,211,79582,1,8,0:0:0:0:
248,211,79793,1,0,0:0:0:0:
248,211,79899,1,8,0:0:0:0:
248,211,80110,1,8,0:0:0:0:
427,83,80322,1,0,0:0:0:0:
230,170,80533,1,8,0:0:0:0:
239,169,80744,1,8,0:0:0:0:
239,169,80850,1,0,0:0:0:0:
239,169,81060,1,8,0:0:0:0:
303,156,81166,1,0,0:0:0:0:
248,211,81272,1,8,0:0:0:0:
248,211,81484,1,8,0:0:0:0:
248,211,81590,1,8,0:0:0:0:
248,211,81800,1,0,0:0:0:0:
427,83,82012,1,8,0:0:0:0:
230,170,82223,1,0,0:0:0:0:
239,169,82434,1,8,0:0:0:0:
239,169,82540,1,8,0:0:0:0:
239,169,82750,1,8,0:0:0:0:
303,156,82856,1,0,0:0:0:0:
248,211,82963,1,8,0:0:0:0:
248,211,83174,1,0,0:0:0:0:
248,211,83280,1,8,0:0:0:0:
248,211,83490,1,0,0:0:0:0:
387,76,83702,1,0,0:0:0:0:
217,209,83912,1,8,0:0:0:0:
217,209,84019,1,0,0:0:0:0:
217,209,84125,1,8,0:0:0:0:
233,210,84336,1,8,0:0:0:0:
226,259,84547,1,0,0:0:0:0:
207,204,84758,1,0,0:0:0:0:
207,204,84864,1,8,0:0:0:0:
226,259,84969,1,0,0:0:0:0:
226,259,85181,1,8,0:0:0:0:
427,83,85392,1,4,0:0:0:0:
239,169,85815,1,0,0:0:0:0:
239,169,85920,1,8,0:0:0:0:
239,169,86131,1,8,0:0:0:0:
303,156,86237,1,0,0:0:0:0:
248,211,86343,1,8,0:0:0:0:
248,211,86554,1,0,0:0:0:0:
248,211,86660,1,0,0:0:0:0:
248,211,86871,1,8,0:0:0:0:
427,83,87082,1,8,0:0:0:0:
230,170,87293,1,0,0:0:0:0:
239,169,87504,1,0,0:0:0:0:
239,169,87610,1,0,0:0:0:0:
239,169,87822,1,8,0:0:0:0:
303,156,87927,1,0,0:0:0:0:
248,211,88033,1,8,0:0:0:0:
248,211,88244,1,8,0:0:0:0:
248,211,88350,1,0,0:0:0:0:
248,211,88560,1,0,0:0:0:0:
427,83,88772,1,8,0:0:0:0:
230,170,88983,1,0,0:0:0:0:
239,169,89194,1,8,0:0:0:0:
239,169,89300,1,8,0:0:0:0:
239,169,89512,1,8,0:0:0:0:
303,156,89617,1,0,0:0:0:0:
248,211,89723,1,8,0:0:0:0:
248,211,89934,1,0,0:0:0:0:
248,211,90040,1,8,0:0:0:0:
248,211,90250,1,8,0:0:0:0:
239,237,90462,1,0,0:0:0:0:
200,205,91519,1,0,0:0:0:0:
200,205,91730,1,8,0:0:0:0:
409,82,92153,1,8,0:0:0:0:
312,155,92364,1,0,0:0:0:0:
292,175,92469,1,0,0:0:0:0:
278,192,92786,1,0,0:0:0:0:
284,174,92998,1,8,0:0:0:0:
266,181,93209,1,0,0:0:0:0:
278,175,93314,1,8,0:0:0:0:
266,181,93420,1,8,0:0:0:0:
276,175,93631,1,0,0:0:0:0:
276,175,93843,1,8,0:0:0:0:
271,179,94054,1,0,0:0:0:0:
292,175,94371,1,8,0:0:0:0:
278,192,94476,1,0,0:0:0:0:
284,174,94688,1,8,0:0:0:0:
266,181,94899,1,0,0:0:0:0:
278,175,95004,1,8,0:0:0:0:
266,181,95110,1,8,0:0:0:0:
229,203,95322,1,0,0:0:0:0:
408,62,95533,1,8,0:0:0:0:
317,150,95744,1,0,0:0:0:0:
315,159,96061,1,8,0:0:0:0:
239,221,96167,1,0,0:0:0:0:
307,158,96378,1,8,0:0:0:0:
301,159,96589,1,0,0:0:0:0:
193,218,96695,1,8,0:0:0:0:
193,218,96800,1,0,0:0:0:0:
299,159,97011,1,8,0:0:0:0:
299,159,97223,1,8,0:0:0:0:
294,163,97434,1,0,0:0:0:0:
289,165,97751,1,8,0:0:0:0:
321,219,98068,1,0,0:0:0:0:
321,219,98174,1,0,0:0:0:0:
302,205,98279,1,8,0:0:0:0:
288,164,98385,1,8,0:0:0:0:
107,211,98491,1,0,0:0:0:0:
148,292,98913,1,8,0:0:0:0:
202,297,99124,1,0,0:0:0:0:
171,232,99336,1,0,0:0:0:0:
171,232,99441,1,8,0:0:0:0:
171,232,99547,1,0,0:0:0:0:
167,232,99758,1,0,0:0:0:0:
141,270,99969,1,0,0:0:0:0:
141,270,100075,1,8,0:0:0:0:
141,270,100181,1,8,0:0:0:0:
133,235,100603,1,8,0:0:0:0:
142,234,100709,1,8,0:0:0:0:
141,234,100815,1,0,0:0:0:0:
148,242,101026,1,8,0:0:0:0:
141,234,101237,1,0,0:0:0:0:
207,234,101448,1,8,0:0:0:0:
211,262,101660,1,0,0:0:0:0:
211,262,101765,1,8,0:0:0:0:
172,232,101871,1,0,0:0:0:0:
236,240,102293,1,0,0:0:0:0:
219,267,102399,1,0,0:0:0:0:
277,246,102505,1,0,0:0:0:0:
206,271,102716,1,8,0:0:0:0:
284,257,102927,1,0,0:0:0:0:
294,229,103138,1,8,0:0:0:0:
294,229,103244,1,8,0:0:0:0:
294,229,103350,1,0,0:0:0:0:
294,229,103455,1,0,0:0:0:0:
278,199,103561,1,8,0:0:0:0:
278,199,103772,1,0,0:0:0:0:
183,226,103984,1,8,0:0:0:0:
196,205,104406,1,0,0:0:0:0:
196,205,104512,1,8,0:0:0:0:
