osu file format v14

[General]
AudioFilename: audio.mp3
AudioLeadIn: 0
PreviewTime: 48209
Countdown: 0
SampleSet: Normal
StackLeniency: 0.7
Mode: 1
LetterboxInBreaks: 0
WidescreenStoryboard: 1

[Editor]
DistanceSpacing: 0.5
BeatDivisor: 4
GridSize: 16
TimelineZoom: 0.6999988

[Metadata]
Title:Bing Chilling-ish
TitleUnicode:Bing Chillingぽいな
Artist:Tarako
ArtistUnicode:Tarako
Creator:KennethBBG
Version:Kanpakyin's Kantan
Source:
Tags:BlackBN BlackBq Aurorance iRedi kanpakyin 趙喜娜 速度與激情9 兩個禮拜以後 冰淇淋 ice cream fast and furious nine ピノキオピー PINOCCHIOP chinese tarako_official official pop 神っぽいな god-ish godish kami ppoi poi na cover male vocal meme novelty john cena WWE wrestling wrestler professional 音mad otomad
BeatmapID:3850595
BeatmapSetID:1866031

[Difficulty]
HPDrainRate:8.5
CircleSize:3
OverallDifficulty:2.5
ApproachRate:1
SliderMultiplier:1.4
SliderTickRate:1

[Events]
//Background and Video events
Video,0,"output.mp4"
0,0,"Background.jpg",0,70
//Break Periods
//Storyboard Layer 0 (Background)
//Storyboard Layer 1 (Fail)
//Storyboard Layer 2 (Pass)
//Storyboard Layer 3 (Foreground)
//Storyboard Layer 4 (Overlay)
//Storyboard Sound Samples

[TimingPoints]
875,422.535211267606,4,1,0,40,1,0
7635,422.535211267606,4,1,0,40,1,8
7646,422.535211267606,4,1,0,40,1,0
7646,-100,4,1,0,40,0,0
21061,-100,4,1,0,50,0,0
48315,-100,4,1,0,30,0,0
51061,-100,4,1,0,50,0,0
51484,-100,4,1,0,60,0,0
51589,422.535211267606,4,1,0,60,1,1
51589,-100,4,1,0,60,0,1
57504,-100,4,1,0,60,0,0
58349,-100,4,1,0,60,0,1
63419,-100,4,1,0,60,0,0
68490,-100,4,1,0,60,0,1
71870,-100,4,1,0,60,0,0
75250,-100,4,1,0,60,0,1
78525,-100,4,1,0,50,0,1
78631,-100,4,1,0,50,0,0
92047,-100,4,1,0,40,0,0

[HitObjects]
381,113,7646,5,8,0:0:0:0:
381,113,8279,1,8,0:0:0:0:
381,113,8913,1,8,0:0:0:0:
381,113,9336,1,0,0:0:0:0:
381,113,9969,1,0,0:0:0:0:
387,109,11026,1,8,0:0:0:0:
387,109,11660,1,0,0:0:0:0:
387,109,12293,1,8,0:0:0:0:
387,109,12716,1,0,0:0:0:0:
393,111,13350,1,8,0:0:0:0:
393,111,14406,1,0,0:0:0:0:
393,111,15040,1,0,0:0:0:0:
393,111,15674,1,8,0:0:0:0:
393,111,16096,1,0,0:0:0:0:
393,111,16730,1,8,0:0:0:0:
393,111,17364,1,0,0:0:0:0:
393,111,17786,1,0,0:0:0:0:
393,111,18420,1,0,0:0:0:0:
393,111,19054,1,8,0:0:0:0:
393,111,19476,1,0,0:0:0:0:
402,118,21167,1,4,0:0:0:0:
402,118,22012,1,0,0:0:0:0:
402,118,22434,1,8,0:0:0:0:
402,118,22857,1,0,0:0:0:0:
389,134,23279,1,0,0:0:0:0:
389,134,24124,1,8,0:0:0:0:
373,118,24547,1,0,0:0:0:0:
373,118,24969,1,0,0:0:0:0:
373,118,25815,1,8,0:0:0:0:
373,118,26237,1,0,0:0:0:0:
373,118,27505,1,0,0:0:0:0:
373,118,27927,1,0,0:0:0:0:
373,118,28772,1,0,0:0:0:0:
373,118,29195,1,0,0:0:0:0:
373,118,29617,1,8,0:0:0:0:
373,118,30462,1,0,0:0:0:0:
373,118,30885,1,8,0:0:0:0:
373,118,31307,1,0,0:0:0:0:
352,110,32153,1,0,0:0:0:0:
360,106,32575,1,0,0:0:0:0:
352,110,32998,1,8,0:0:0:0:
354,96,34265,1,8,0:0:0:0:
346,106,34688,1,4,0:0:0:0:
346,106,35322,1,0,0:0:0:0:
346,106,35955,1,8,0:0:0:0:
346,106,36378,1,0,0:0:0:0:
346,106,37012,1,0,0:0:0:0:
346,106,37646,1,8,0:0:0:0:
346,106,38068,1,0,0:0:0:0:
346,106,38491,1,8,0:0:0:0:
346,106,38913,1,0,0:0:0:0:
346,106,39336,1,8,0:0:0:0:
352,104,39758,1,0,0:0:0:0:
346,104,40815,1,8,0:0:0:0:
346,104,41448,1,0,0:0:0:0:
328,104,42082,1,0,0:0:0:0:
328,104,42716,1,8,0:0:0:0:
328,104,43138,1,0,0:0:0:0:
328,104,43772,1,0,0:0:0:0:
328,104,44406,5,8,0:0:0:0:
328,104,44829,1,0,0:0:0:0:
321,116,45251,1,8,0:0:0:0:
328,104,45674,1,0,0:0:0:0:
321,116,46096,1,8,0:0:0:0:
321,116,46519,1,0,0:0:0:0:
321,109,47364,1,0,0:0:0:0:
321,109,48209,1,0,0:0:0:0:
256,192,48420,12,0,49899,0:0:0:0:
321,111,51167,5,12,0:0:0:0:
321,111,51589,1,0,0:0:0:0:
325,118,52012,1,0,0:0:0:0:
326,118,52434,1,0,0:0:0:0:
326,118,53279,1,8,0:0:0:0:
325,118,53702,1,8,0:0:0:0:
326,118,54124,1,0,0:0:0:0:
325,118,54969,1,0,0:0:0:0:
326,118,55815,1,0,0:0:0:0:
333,109,56237,1,8,0:0:0:0:
326,118,56660,1,8,0:0:0:0:
325,118,57082,1,8,0:0:0:0:
326,118,57505,1,8,0:0:0:0:
312,117,58350,1,0,0:0:0:0:
321,107,58772,1,8,0:0:0:0:
321,107,59195,1,8,0:0:0:0:
321,107,60040,1,0,0:0:0:0:
321,107,60462,1,8,0:0:0:0:
321,107,60885,1,8,0:0:0:0:
321,107,61307,1,8,0:0:0:0:
321,107,61730,1,0,0:0:0:0:
309,107,62153,1,8,0:0:0:0:
321,107,63420,1,4,0:0:0:0:
321,107,63843,1,12,0:0:0:0:
321,107,64265,1,4,0:0:0:0:
311,95,65110,1,0,0:0:0:0:
317,101,65533,1,8,0:0:0:0:
317,102,65955,1,0,0:0:0:0:
317,102,66378,1,0,0:0:0:0:
317,102,66800,1,8,0:0:0:0:
317,102,67646,1,0,0:0:0:0:
317,102,68491,1,8,0:0:0:0:
317,102,68913,1,8,0:0:0:0:
317,102,69336,1,0,0:0:0:0:
317,102,69758,1,8,0:0:0:0:
317,102,70181,1,0,0:0:0:0:
307,104,70603,1,8,0:0:0:0:
317,102,71026,1,0,0:0:0:0:
335,113,71871,1,4,0:0:0:0:
309,115,73138,1,8,0:0:0:0:
308,104,73561,1,0,0:0:0:0:
308,104,74406,1,8,0:0:0:0:
308,104,74829,1,0,0:0:0:0:
308,104,75251,1,8,0:0:0:0:
308,104,76096,1,0,0:0:0:0:
308,104,76519,1,0,0:0:0:0:
308,104,76941,1,8,0:0:0:0:
318,109,77364,1,8,0:0:0:0:
308,104,77786,1,0,0:0:0:0:
308,104,78209,1,8,0:0:0:0:
308,104,78631,1,4,0:0:0:0:
324,103,79899,1,8,0:0:0:0:
324,103,80322,1,0,0:0:0:0:
314,104,80744,1,0,0:0:0:0:
324,103,81589,1,8,0:0:0:0:
324,103,82012,1,0,0:0:0:0:
314,107,82857,1,0,0:0:0:0:
328,101,83279,1,8,0:0:0:0:
328,101,83702,1,0,0:0:0:0:
334,99,84124,1,8,0:0:0:0:
334,99,85392,1,4,0:0:0:0:
331,118,85815,1,8,0:0:0:0:
331,118,86660,1,8,0:0:0:0:
331,118,87082,1,0,0:0:0:0:
331,118,87505,1,8,0:0:0:0:
331,118,88350,1,8,0:0:0:0:
331,118,88772,1,0,0:0:0:0:
340,107,89195,1,8,0:0:0:0:
342,115,89617,1,0,0:0:0:0:
340,107,90040,1,0,0:0:0:0:
340,107,90462,1,4,0:0:0:0:
336,109,92153,1,8,0:0:0:0:
336,109,92786,1,8,0:0:0:0:
341,106,93420,1,0,0:0:0:0:
341,106,93843,1,0,0:0:0:0:
341,106,94476,1,8,0:0:0:0:
342,112,95533,1,8,0:0:0:0:
342,112,96167,1,8,0:0:0:0:
342,112,96800,1,0,0:0:0:0:
351,109,97223,1,8,0:0:0:0:
351,109,97857,1,8,0:0:0:0:
351,109,98913,1,8,0:0:0:0:
351,109,100181,1,0,0:0:0:0:
351,109,100603,1,8,0:0:0:0:
346,129,101237,1,0,0:0:0:0:
346,129,102293,1,8,0:0:0:0:
346,129,102927,1,0,0:0:0:0:
346,129,103984,1,8,0:0:0:0:
