osu file format v14

[General]
AudioFilename: audio.mp3
AudioLeadIn: 0
PreviewTime: 48209
Countdown: 0
SampleSet: Normal
StackLeniency: 0.7
Mode: 1
LetterboxInBreaks: 0
WidescreenStoryboard: 1

[Editor]
Bookmarks: 21167,34688,78631
DistanceSpacing: 0.5
BeatDivisor: 4
GridSize: 32
TimelineZoom: 2.1

[Metadata]
Title:Bing Chilling-ish
TitleUnicode:Bing Chillingぽいな
Artist:Tarako
ArtistUnicode:Tarako
Creator:KennethBBG
Version:Black's Bing Chilling
Source:
Tags:BlackBN BlackBq Aurorance iRedi kanpakyin 趙喜娜 速度與激情9 兩個禮拜以後 冰淇淋 ice cream fast and furious nine ピノキオピー PINOCCHIOP chinese tarako_official official pop 神っぽいな god-ish godish kami ppoi poi na cover male vocal meme novelty john cena WWE wrestling wrestler professional 音mad otomad
BeatmapID:3838340
BeatmapSetID:1866031

[Difficulty]
HPDrainRate:6
CircleSize:2
OverallDifficulty:5.5
ApproachRate:10
SliderMultiplier:1.4
SliderTickRate:1

[Events]
//Background and Video events
Video,0,"output.mp4"
0,0,"Background.jpg",0,70
//Break Periods
//Storyboard Layer 0 (Background)
//Storyboard Layer 1 (Fail)
//Storyboard Layer 2 (Pass)
//Storyboard Layer 3 (Foreground)
//Storyboard Layer 4 (Overlay)
//Storyboard Sound Samples

[TimingPoints]
875,422.535211267606,4,1,0,40,1,0
7635,422.535211267606,4,1,0,40,1,8
7646,422.535211267606,4,1,0,40,1,0
7646,-111.111111111111,4,1,0,40,0,0
19475,-111.111111111111,4,1,0,40,0,0
19792,-114.275414563807,4,1,0,40,0,0
20109,-117.636144354764,4,1,0,40,0,0
20533,-90.9090909090909,4,1,0,40,0,0
21061,-100,4,1,0,50,0,0
22645,-90.9090909090909,4,1,0,50,0,0
22715,-93.7361172812084,4,1,0,50,0,0
22785,-96.7446125630445,4,1,0,50,0,0
22856,-100,4,1,0,50,0,0
24335,-90.9090909090909,4,1,0,50,0,0
24405,-93.7361172812084,4,1,0,50,0,0
24475,-96.7446125630445,4,1,0,50,0,0
24546,-100,4,1,0,50,0,0
26025,-90.9090909090909,4,1,0,50,0,0
26095,-93.7223695844385,4,1,0,50,0,0
26166,-96.7594705613875,4,1,0,50,0,0
26236,-99.9528524280999,4,1,0,50,0,0
26447,-98.3695652173913,4,1,0,50,0,0
26659,-96.7766575007638,4,1,0,50,0,0
26764,-96.0066681821626,4,1,0,50,0,0
26870,-95.2416748101932,4,1,0,50,0,0
27081,-93.754624833506,4,1,0,50,0,0
27187,-93.0249632892805,4,1,0,50,0,0
27292,-92.3132969034608,4,1,0,50,0,0
27398,-91.6058130287036,4,1,0,50,0,0
27504,-90.9090909090909,4,1,0,50,0,0
27715,-90.9090909090909,4,1,0,50,0,0
27785,-93.7223695844385,4,1,0,50,0,0
27856,-96.7594705613875,4,1,0,50,0,0
27926,-99.9528524280999,4,1,0,50,0,0
29405,-90.9090909090909,4,1,0,50,0,0
29475,-93.6944937833037,4,1,0,50,0,0
29546,-96.7446125630445,4,1,0,50,0,0
29616,-99.9526290857413,4,1,0,50,0,0
31095,-90.9090909090909,4,1,0,50,0,0
31166,-93.7361172812084,4,1,0,50,0,0
31236,-96.7446125630445,4,1,0,50,0,0
31306,-99.9526290857413,4,1,0,50,0,0
32785,-90.9090909090909,4,1,0,50,0,0
32856,-93.7361172812084,4,1,0,50,0,0
32926,-96.7446125630445,4,1,0,50,0,0
32997,-100,4,1,0,50,0,0
33314,-102.564102564103,4,1,0,50,0,0
33630,-105.254420187599,4,1,0,50,0,0
34054,-83.3333333333333,4,1,0,50,0,0
34688,-90.9090909090909,4,1,0,50,0,0
34792,-93.0079155672823,4,1,0,50,0,0
34898,-95.2273750562809,4,1,0,50,0,0
35004,-97.5553505535055,4,1,0,50,0,0
35109,-99.9763649255495,4,1,0,50,0,0
35321,-90.9090909090909,4,1,0,50,0,0
35426,-93.0079155672823,4,1,0,50,0,0
35532,-95.2273750562809,4,1,0,50,0,0
35637,-97.5328568134655,4,1,0,50,0,0
35743,-99.9763649255495,4,1,0,50,0,0
35954,-90.9090909090909,4,1,0,50,0,0
36060,-92.2987334400932,4,1,0,50,0,0
36166,-93.7453792695549,4,1,0,50,0,0
36377,-96.7643467643468,4,1,0,50,0,0
36588,-99.9842296167797,4,1,0,50,0,0
36799,-90.9090909090909,4,1,0,50,0,0
36905,-93.0130041877893,4,1,0,50,0,0
37011,-95.2380952380952,4,1,0,50,0,0
37116,-97.5496994914471,4,1,0,50,0,0
37222,-100,4,1,0,50,0,0
37433,-100,4,1,0,50,0,0
37645,-96.7791176919554,4,1,0,50,0,0
37750,-95.2524038461538,4,1,0,50,0,0
37856,-93.7592428275658,4,1,0,50,0,0
38067,-90.9221282088054,4,1,0,50,0,0
40814,-90.9090909090909,4,1,0,50,0,0
40919,-92.2987334400932,4,1,0,50,0,0
41025,-93.7453792695549,4,1,0,50,0,0
41130,-95.2237909282067,4,1,0,50,0,0
41236,-96.7643467643468,4,1,0,50,0,0
41342,-98.3555693453304,4,1,0,50,0,0
41448,-100,4,1,0,50,0,0
41659,-95.2380952380952,4,1,0,50,0,0
41764,-97.5496994914471,4,1,0,50,0,0
41870,-100,4,1,0,50,0,0
42292,-95.2380952380952,4,1,0,50,0,0
42398,-97.5496994914471,4,1,0,50,0,0
42504,-100,4,1,0,50,0,0
42715,-90.9090909090909,4,1,0,50,0,0
42821,-93.0283703540796,4,1,0,50,0,0
42926,-95.2273750562809,4,1,0,50,0,0
43032,-97.5553505535055,4,1,0,50,0,0
43137,-99.9763649255495,4,1,0,50,0,0
43350,-95.2380952380952,4,1,0,50,0,0
43455,-97.5609756097561,4,1,0,50,0,0
43561,-99.9764206555058,4,1,0,50,0,0
43984,-95.2380952380952,4,1,0,50,0,0
44088,-97.538532321141,4,1,0,50,0,0
44195,-99.9764206555058,4,1,0,50,0,0
44406,-100.023702299123,4,1,0,50,0,0
44512,-97.5722543352601,4,1,0,50,0,0
44617,-95.2595936794582,4,1,0,50,0,0
44828,-90.9090909090909,4,1,0,50,0,0
45250,-89.8888357002287,4,1,0,50,0,0
45461,-89.3872477719303,4,1,0,50,0,0
45567,-89.1373717661331,4,1,0,50,0,0
45673,-88.8888888888889,4,1,0,50,0,0
45884,-88.3983680301287,4,1,0,50,0,0
46095,-87.9132312013941,4,1,0,50,0,0
46201,-87.6715171322595,4,1,0,50,0,0
46306,-87.4333902426406,4,1,0,50,0,0
46412,-87.1943039933959,4,1,0,50,0,0
46518,-86.9565217391304,4,1,0,50,0,0
46729,-86.4870397379801,4,1,0,50,0,0
46835,-86.2530941383622,4,1,0,50,0,0
46940,-86.0226000203604,4,1,0,50,0,0
47152,-85.5609558525719,4,1,0,50,0,0
47257,-85.3341412305284,4,1,0,50,0,0
47363,-85.1063829787234,4,1,0,50,0,0
47574,-84.6566147372639,4,1,0,50,0,0
47680,-84.4324540367706,4,1,0,50,0,0
47785,-84.2115753544111,4,1,0,50,0,0
47997,-83.7691144761952,4,1,0,50,0,0
48102,-83.5516883373708,4,1,0,50,0,0
48208,-83.3333333333333,4,1,0,50,0,0
48315,-66.6666666666667,4,1,0,30,0,0
49793,-100,4,1,0,30,0,0
51061,-76.9230769230769,4,1,0,50,0,0
51484,-76.9230769230769,4,1,0,60,0,0
51589,422.535211267606,4,1,0,60,1,1
51589,-90.9090909090909,4,1,0,60,0,1
56659,-90.9090909090909,4,1,0,60,0,1
56870,-93.0206957287539,4,1,0,60,0,1
56975,-94.1084753313287,4,1,0,60,0,1
57081,-95.2327285021977,4,1,0,60,0,1
57292,-97.5525282844609,4,1,0,60,0,1
57504,-100,4,1,0,60,0,0
57609,-98.7726475745178,4,1,0,60,0,0
57715,-97.5637917099642,4,1,0,60,0,0
57821,-96.3841679023611,4,1,0,60,0,0
57926,-95.2434625788999,4,1,0,60,0,0
58032,-94.1189574515482,4,1,0,60,0,0
58137,-93.0309369151161,4,1,0,60,0,0
58208,-92.3093729517151,4,1,0,60,0,0
58278,-91.6088464874241,4,1,0,60,0,0
58349,-90.9090909090909,4,1,0,60,0,1
63419,-90.9090909090909,4,1,0,60,0,0
63842,-95.2327285021977,4,1,0,60,0,0
64264,-99.9881670808188,4,1,0,60,0,0
64687,-99.9900009999,4,1,0,60,0,0
64792,-97.5706972360505,4,1,0,60,0,0
64898,-95.2442711584135,4,1,0,60,0,0
65004,-93.0262017203909,4,1,0,60,0,0
65109,-90.9286132999542,4,1,0,60,0,0
65954,-83.3333333333333,4,1,0,60,0,0
66060,-85.0978019762049,4,1,0,60,0,0
66166,-86.9565217391304,4,1,0,60,0,0
66271,-88.8795282224094,4,1,0,60,0,0
66377,-90.9090909090909,4,1,0,60,0,0
67645,-83.3333333333333,4,1,0,60,0,0
67750,-84.4995335199254,4,1,0,60,0,0
67856,-85.710423144518,4,1,0,60,0,0
67961,-86.9445968184312,4,1,0,60,0,0
68067,-88.2271082660729,4,1,0,60,0,0
68173,-89.54802259887,4,1,0,60,0,0
68278,-90.8960573476703,4,1,0,60,0,0
68490,-90.9090909090909,4,1,0,60,0,1
70180,-90.9090909090909,4,1,0,60,0,1
70391,-93.0206957287539,4,1,0,60,0,1
70497,-94.1189574515482,4,1,0,60,0,1
70602,-95.2327285021977,4,1,0,60,0,1
70814,-97.5637917099642,4,1,0,60,0,1
71025,-100,4,1,0,60,0,1
71130,-98.7726475745178,4,1,0,60,0,1
71236,-97.5637917099642,4,1,0,60,0,1
71342,-96.3841679023611,4,1,0,60,0,1
71447,-95.2434625788999,4,1,0,60,0,1
71553,-94.1189574515482,4,1,0,60,0,1
71659,-93.0206957287539,4,1,0,60,0,1
71729,-92.3093729517151,4,1,0,60,0,1
71799,-91.6088464874241,4,1,0,60,0,1
71870,-90.9090909090909,4,1,0,60,0,0
72715,-83.3333333333333,4,1,0,60,0,0
72821,-85.1106639839034,4,1,0,60,0,0
72926,-86.9475847893114,4,1,0,60,0,0
73032,-88.884219373818,4,1,0,60,0,0
73137,-90.8895573700043,4,1,0,60,0,0
74405,-83.3333333333333,4,1,0,60,0,0
74511,-84.5014016820184,4,1,0,60,0,0
74616,-85.7026807473599,4,1,0,60,0,0
74722,-86.9505494505495,4,1,0,60,0,0
74828,-88.2352941176471,4,1,0,60,0,0
74933,-89.5459046541236,4,1,0,60,0,0
75039,-90.9090909090909,4,1,0,60,0,0
75250,-90.9090909090909,4,1,0,60,0,1
76307,-86.9565217391304,4,1,0,60,0,1
76412,-88.8795282224094,4,1,0,60,0,1
76518,-90.9090909090909,4,1,0,60,0,1
76729,-83.3168805528134,4,1,0,60,0,1
76835,-85.0978019762049,4,1,0,60,0,1
76940,-86.9386073341574,4,1,0,60,0,1
77152,-80,4,1,0,60,0,1
77257,-81.6247582205029,4,1,0,60,0,1
77363,-83.3333333333333,4,1,0,60,0,1
77574,-79.9848513539102,4,1,0,60,0,1
77680,-81.6231884057971,4,1,0,60,0,1
77785,-83.3136094674556,4,1,0,60,0,1
77891,-85.0926672038678,4,1,0,60,0,1
77997,-86.9493618773158,4,1,0,60,0,1
78102,-88.8701872501578,4,1,0,60,0,1
78208,-90.8973531310523,4,1,0,60,0,1
78419,-95.2209197475203,4,1,0,60,0,1
78526,-90.2234239362459,4,1,0,50,0,1
78631,-99.9763313609467,4,1,0,50,0,0
80109,-90.9090909090909,4,1,0,50,0,0
80179,-93.6944937833037,4,1,0,50,0,0
80249,-96.7002749770852,4,1,0,50,0,0
80320,-99.9526290857413,4,1,0,50,0,0
81799,-90.9090909090909,4,1,0,50,0,0
81869,-93.6944937833037,4,1,0,50,0,0
81939,-96.7002749770852,4,1,0,50,0,0
82010,-99.9526290857413,4,1,0,50,0,0
83489,-90.9090909090909,4,1,0,50,0,0
83559,-93.6944937833037,4,1,0,50,0,0
83630,-96.7446125630445,4,1,0,50,0,0
83700,-99.9526290857413,4,1,0,50,0,0
83911,-98.3708301008534,4,1,0,50,0,0
84123,-96.7791176919554,4,1,0,50,0,0
84228,-96.0096918300901,4,1,0,50,0,0
84334,-95.2452490047322,4,1,0,50,0,0
84545,-93.7592428275658,4,1,0,50,0,0
84651,-93.0300807043287,4,1,0,50,0,0
84756,-92.3188933381871,4,1,0,50,0,0
84862,-91.6118777544975,4,1,0,50,0,0
84968,-90.9156090915609,4,1,0,50,0,0
85179,-90.9090909090909,4,1,0,50,0,0
85249,-93.6944937833037,4,1,0,50,0,0
85320,-96.7446125630445,4,1,0,50,0,0
85390,-99.9526290857413,4,1,0,50,0,0
86869,-90.9090909090909,4,1,0,50,0,0
86939,-93.6809544851967,4,1,0,50,0,0
87010,-96.7153284671533,4,1,0,50,0,0
87080,-99.9057492931197,4,1,0,50,0,0
88559,-90.9090909090909,4,1,0,50,0,0
88630,-93.7223695844385,4,1,0,50,0,0
88700,-96.7153284671533,4,1,0,50,0,0
88770,-99.9057492931197,4,1,0,50,0,0
90250,-90.9090909090909,4,1,0,50,0,0
90320,-93.6944937833037,4,1,0,50,0,0
90390,-96.7002749770852,4,1,0,50,0,0
90461,-99.9921141865783,4,1,0,50,0,0
90778,-102.555807182142,4,1,0,50,0,0
91094,-105.245683930943,4,1,0,50,0,0
91414,-90.9090909090909,4,1,0,50,0,0
92047,-111.111111111111,4,1,0,40,0,0

[HitObjects]
256,192,7646,5,8,0:0:0:0:
256,192,7857,1,0,0:0:0:0:
256,192,7962,1,0,0:0:0:0:
256,192,8279,1,8,0:0:0:0:
256,192,8491,1,8,0:0:0:0:
256,192,8596,1,0,0:0:0:0:
256,192,8807,1,0,0:0:0:0:
256,192,8913,1,0,0:0:0:0:
256,192,9124,1,0,0:0:0:0:
256,192,9336,1,8,0:0:0:0:
256,192,9653,1,8,0:0:0:0:
256,192,9864,1,0,0:0:0:0:
256,192,9969,1,0,0:0:0:0:
256,192,10181,1,8,0:0:0:0:
256,192,10286,1,0,0:0:0:0:
256,192,10498,1,0,0:0:0:0:
256,192,10603,1,0,0:0:0:0:
256,192,10815,1,8,0:0:0:0:
256,192,11026,1,0,0:0:0:0:
256,192,11237,1,8,0:0:0:0:
256,192,11343,1,0,0:0:0:0:
256,192,11554,1,0,0:0:0:0:
256,192,11660,1,8,0:0:0:0:
256,192,11871,1,0,0:0:0:0:
256,192,12082,1,0,0:0:0:0:
256,192,12188,1,8,0:0:0:0:
256,192,12293,1,0,0:0:0:0:
256,192,12505,1,8,0:0:0:0:
256,192,12716,1,0,0:0:0:0:
256,192,12927,1,8,0:0:0:0:
256,192,13033,1,0,0:0:0:0:
256,192,13244,1,8,0:0:0:0:
256,192,13350,1,0,0:0:0:0:
256,192,13561,1,8,0:0:0:0:
256,192,13667,1,0,0:0:0:0:
256,192,13772,1,8,0:0:0:0:
256,192,13878,1,8,0:0:0:0:
256,192,13984,1,0,0:0:0:0:
256,192,14195,1,0,0:0:0:0:
256,192,14406,1,8,0:0:0:0:
256,192,14617,1,0,0:0:0:0:
256,192,14829,1,0,0:0:0:0:
256,192,14934,1,8,0:0:0:0:
256,192,15040,1,0,0:0:0:0:
256,192,15146,1,0,0:0:0:0:
256,192,15251,1,8,0:0:0:0:
256,192,15462,1,8,0:0:0:0:
256,192,15674,1,8,0:0:0:0:
256,192,15885,1,0,0:0:0:0:
256,192,15991,1,0,0:0:0:0:
256,192,16096,1,0,0:0:0:0:
256,192,16307,1,8,0:0:0:0:
256,192,16413,1,8,0:0:0:0:
256,192,16519,1,0,0:0:0:0:
256,192,16624,1,8,0:0:0:0:
256,192,16730,1,0,0:0:0:0:
256,192,16836,1,8,0:0:0:0:
256,192,16941,1,0,0:0:0:0:
256,192,17153,1,0,0:0:0:0:
256,192,17364,1,8,0:0:0:0:
256,192,17575,1,0,0:0:0:0:
256,192,17681,1,0,0:0:0:0:
256,192,17786,1,0,0:0:0:0:
256,192,17998,1,8,0:0:0:0:
256,192,18209,1,8,0:0:0:0:
256,192,18420,1,8,0:0:0:0:
256,192,18526,1,8,0:0:0:0:
256,192,18631,1,0,0:0:0:0:
256,192,18843,1,0,0:0:0:0:
256,192,19054,1,8,0:0:0:0:
256,192,19265,1,0,0:0:0:0:
256,192,19476,1,0,0:0:0:0:
256,192,19793,1,0,0:0:0:0:
256,192,20110,1,8,0:0:0:0:
256,192,20533,1,0,0:0:0:0:
256,192,20638,1,0,0:0:0:0:
256,192,20744,1,8,0:0:0:0:
256,192,21167,1,0,0:0:0:0:
256,192,21378,1,8,0:0:0:0:
256,192,21589,1,0,0:0:0:0:
256,192,21695,1,0,0:0:0:0:
256,192,21906,1,8,0:0:0:0:
256,192,22117,1,0,0:0:0:0:
256,192,22329,1,0,0:0:0:0:
256,192,22434,1,8,0:0:0:0:
256,192,22646,1,8,0:0:0:0:
256,192,22716,1,8,0:0:0:0:
256,192,22786,1,8,0:0:0:0:
256,192,22857,1,0,0:0:0:0:
256,192,23068,1,0,0:0:0:0:
256,192,23279,1,8,0:0:0:0:
256,192,23385,1,0,0:0:0:0:
256,192,23596,1,0,0:0:0:0:
256,192,23807,1,8,0:0:0:0:
256,192,24019,1,0,0:0:0:0:
256,192,24124,1,8,0:0:0:0:
256,192,24336,1,0,0:0:0:0:
256,192,24406,1,0,0:0:0:0:
256,192,24476,1,0,0:0:0:0:
256,192,24547,1,8,0:0:0:0:
256,192,24758,1,0,0:0:0:0:
256,192,24969,1,0,0:0:0:0:
256,192,25075,1,0,0:0:0:0:
256,192,25286,1,8,0:0:0:0:
256,192,25498,1,0,0:0:0:0:
256,192,25709,1,0,0:0:0:0:
256,192,25815,1,8,0:0:0:0:
256,192,26026,1,8,0:0:0:0:
256,192,26096,1,8,0:0:0:0:
256,192,26167,1,8,0:0:0:0:
256,192,26237,1,0,0:0:0:0:
256,192,26448,1,0,0:0:0:0:
256,192,26660,1,0,0:0:0:0:
256,192,26765,1,8,0:0:0:0:
256,192,26871,1,0,0:0:0:0:
256,192,27082,1,0,0:0:0:0:
256,192,27188,1,0,0:0:0:0:
256,192,27293,1,8,0:0:0:0:
256,192,27399,1,8,0:0:0:0:
256,192,27505,1,0,0:0:0:0:
256,192,27716,1,0,0:0:0:0:
256,192,27786,1,8,0:0:0:0:
256,192,27857,1,8,0:0:0:0:
256,192,27927,1,0,0:0:0:0:
256,192,28138,1,0,0:0:0:0:
256,192,28350,1,8,0:0:0:0:
256,192,28455,1,0,0:0:0:0:
256,192,28667,1,0,0:0:0:0:
256,192,28878,1,8,0:0:0:0:
256,192,29089,1,0,0:0:0:0:
256,192,29195,1,8,0:0:0:0:
256,192,29406,1,8,0:0:0:0:
256,192,29476,1,8,0:0:0:0:
256,192,29547,1,8,0:0:0:0:
256,192,29617,1,0,0:0:0:0:
256,192,29829,1,0,0:0:0:0:
256,192,30040,1,0,0:0:0:0:
256,192,30146,1,0,0:0:0:0:
256,192,30357,1,0,0:0:0:0:
256,192,30568,1,8,0:0:0:0:
256,192,30779,1,0,0:0:0:0:
256,192,30885,1,8,0:0:0:0:
256,192,31096,1,0,0:0:0:0:
256,192,31167,1,0,0:0:0:0:
256,192,31237,1,0,0:0:0:0:
256,192,31307,1,8,0:0:0:0:
256,192,31519,1,0,0:0:0:0:
256,192,31730,1,8,0:0:0:0:
256,192,31836,1,0,0:0:0:0:
256,192,32047,1,0,0:0:0:0:
256,192,32258,1,8,0:0:0:0:
256,192,32469,1,0,0:0:0:0:
256,192,32575,1,8,0:0:0:0:
256,192,32786,1,8,0:0:0:0:
256,192,32857,1,0,0:0:0:0:
256,192,32927,1,0,0:0:0:0:
256,192,32998,1,8,0:0:0:0:
256,192,33315,1,0,0:0:0:0:
256,192,33631,1,0,0:0:0:0:
256,192,34054,1,8,0:0:0:0:
256,192,34160,1,0,0:0:0:0:
256,192,34265,1,8,0:0:0:0:
256,192,34688,1,8,0:0:0:0:
256,192,34793,1,8,0:0:0:0:
256,192,34899,1,0,0:0:0:0:
256,192,35005,1,0,0:0:0:0:
256,192,35110,1,8,0:0:0:0:
256,192,35322,1,8,0:0:0:0:
256,192,35427,1,0,0:0:0:0:
256,192,35533,1,8,0:0:0:0:
256,192,35638,1,0,0:0:0:0:
256,192,35744,1,8,0:0:0:0:
256,192,35955,1,0,0:0:0:0:
256,192,36061,1,8,0:0:0:0:
256,192,36167,1,8,0:0:0:0:
256,192,36378,1,0,0:0:0:0:
256,192,36589,1,8,0:0:0:0:
256,192,36800,1,0,0:0:0:0:
256,192,36906,1,8,0:0:0:0:
256,192,37012,1,8,0:0:0:0:
256,192,37117,1,0,0:0:0:0:
256,192,37223,1,8,0:0:0:0:
256,192,37434,1,0,0:0:0:0:
256,192,37646,1,8,0:0:0:0:
256,192,37751,1,0,0:0:0:0:
256,192,37857,1,8,0:0:0:0:
256,192,38068,1,0,0:0:0:0:
256,192,38385,1,0,0:0:0:0:
256,192,38491,1,8,0:0:0:0:
256,192,38702,1,8,0:0:0:0:
256,192,38913,1,0,0:0:0:0:
256,192,39124,1,0,0:0:0:0:
256,192,39230,1,0,0:0:0:0:
256,192,39336,1,8,0:0:0:0:
256,192,39547,1,0,0:0:0:0:
256,192,39758,1,8,0:0:0:0:
256,192,39969,1,8,0:0:0:0:
256,192,40075,1,0,0:0:0:0:
256,192,40181,1,8,0:0:0:0:
256,192,40392,1,8,0:0:0:0:
256,192,40498,1,8,0:0:0:0:
256,192,40603,1,0,0:0:0:0:
256,192,40815,1,8,0:0:0:0:
256,192,40920,1,0,0:0:0:0:
256,192,41026,1,8,0:0:0:0:
256,192,41131,1,8,0:0:0:0:
256,192,41237,1,8,0:0:0:0:
256,192,41343,1,8,0:0:0:0:
256,192,41448,1,0,0:0:0:0:
256,192,41660,1,8,0:0:0:0:
256,192,41765,1,0,0:0:0:0:
256,192,41871,1,0,0:0:0:0:
256,192,42082,1,0,0:0:0:0:
256,192,42293,1,0,0:0:0:0:
256,192,42399,1,8,0:0:0:0:
256,192,42505,1,0,0:0:0:0:
256,192,42716,1,8,0:0:0:0:
256,192,42822,1,0,0:0:0:0:
256,192,42927,1,8,0:0:0:0:
256,192,43033,1,8,0:0:0:0:
256,192,43138,1,0,0:0:0:0:
256,192,43350,1,0,0:0:0:0:
256,192,43455,1,8,0:0:0:0:
256,192,43561,1,8,0:0:0:0:
256,192,43772,1,0,0:0:0:0:
256,192,43984,1,0,0:0:0:0:
256,192,44088,1,8,0:0:0:0:
256,192,44195,1,0,0:0:0:0:
256,192,44406,1,8,0:0:0:0:
256,192,44512,1,0,0:0:0:0:
256,192,44617,1,8,0:0:0:0:
256,192,44829,1,0,0:0:0:0:
256,192,45251,1,8,0:0:0:0:
256,192,45462,1,8,0:0:0:0:
256,192,45568,1,8,0:0:0:0:
256,192,45674,1,0,0:0:0:0:
256,192,45885,1,0,0:0:0:0:
256,192,46096,1,8,0:0:0:0:
256,192,46202,1,0,0:0:0:0:
256,192,46307,1,0,0:0:0:0:
256,192,46413,1,8,0:0:0:0:
256,192,46519,1,0,0:0:0:0:
256,192,46730,1,8,0:0:0:0:
256,192,46836,1,8,0:0:0:0:
256,192,46941,1,0,0:0:0:0:
256,192,47153,1,0,0:0:0:0:
256,192,47258,1,0,0:0:0:0:
256,192,47364,1,8,0:0:0:0:
256,192,47575,1,0,0:0:0:0:
256,192,47681,1,8,0:0:0:0:
256,192,47786,1,8,0:0:0:0:
256,192,47998,1,8,0:0:0:0:
256,192,48103,1,0,0:0:0:0:
256,192,48209,1,8,0:0:0:0:
256,192,48315,8,0,49476,0:0:0:0:
256,192,51167,5,8,0:0:0:0:
384,96,51589,1,4,0:0:0:0:
256,192,51800,1,0,0:0:0:0:
256,192,51906,1,0,0:0:0:0:
256,192,52012,1,8,0:0:0:0:
256,192,52223,1,8,0:0:0:0:
256,192,52434,1,0,0:0:0:0:
256,192,52646,1,8,0:0:0:0:
256,192,52751,1,0,0:0:0:0:
256,192,52857,1,8,0:0:0:0:
256,192,52962,1,8,0:0:0:0:
256,192,53068,1,0,0:0:0:0:
256,192,53279,1,8,0:0:0:0:
256,192,53491,1,0,0:0:0:0:
256,192,53596,1,0,0:0:0:0:
256,192,53702,1,8,0:0:0:0:
256,192,53913,1,8,0:0:0:0:
256,192,54019,1,8,0:0:0:0:
256,192,54124,1,0,0:0:0:0:
256,192,54336,1,8,0:0:0:0:
256,192,54547,1,8,0:0:0:0:
256,192,54758,1,0,0:0:0:0:
256,192,54864,1,8,0:0:0:0:
256,192,54969,1,0,0:0:0:0:
256,192,55181,1,0,0:0:0:0:
256,192,55392,1,8,0:0:0:0:
256,192,55603,1,0,0:0:0:0:
256,192,55709,1,0,0:0:0:0:
256,192,55815,1,8,0:0:0:0:
256,192,56026,1,0,0:0:0:0:
256,192,56237,1,8,0:0:0:0:
256,192,56343,1,0,0:0:0:0:
256,192,56448,1,0,0:0:0:0:
256,192,56554,1,8,0:0:0:0:
256,192,56660,1,0,0:0:0:0:
256,192,56871,1,0,0:0:0:0:
256,192,56976,1,0,0:0:0:0:
256,192,57082,1,0,0:0:0:0:
256,192,57293,1,8,0:0:0:0:
256,192,57505,1,8,0:0:0:0:
256,192,57610,1,8,0:0:0:0:
256,192,57716,1,0,0:0:0:0:
256,192,57822,1,8,0:0:0:0:
256,192,57927,1,0,0:0:0:0:
256,192,58033,1,0,0:0:0:0:
256,192,58138,1,8,0:0:0:0:
256,192,58209,1,8,0:0:0:0:
256,192,58279,1,8,0:0:0:0:
256,192,58350,1,0,0:0:0:0:
256,192,58561,1,0,0:0:0:0:
256,192,58667,1,0,0:0:0:0:
256,192,58772,1,8,0:0:0:0:
256,192,58984,1,0,0:0:0:0:
256,192,59195,1,8,0:0:0:0:
256,192,59406,1,0,0:0:0:0:
256,192,59512,1,8,0:0:0:0:
256,192,59617,1,8,0:0:0:0:
256,192,59723,1,8,0:0:0:0:
256,192,59829,1,0,0:0:0:0:
256,192,60040,1,8,0:0:0:0:
256,192,60251,1,0,0:0:0:0:
256,192,60357,1,8,0:0:0:0:
256,192,60462,1,8,0:0:0:0:
256,192,60674,1,8,0:0:0:0:
256,192,60885,1,0,0:0:0:0:
256,192,61096,1,0,0:0:0:0:
256,192,61202,1,0,0:0:0:0:
256,192,61307,1,8,0:0:0:0:
256,192,61519,1,0,0:0:0:0:
256,192,61624,1,8,0:0:0:0:
256,192,61730,1,0,0:0:0:0:
256,192,61941,1,0,0:0:0:0:
256,192,62153,1,8,0:0:0:0:
256,192,62364,1,0,0:0:0:0:
256,192,62469,1,8,0:0:0:0:
256,192,62575,1,8,0:0:0:0:
256,192,62786,1,0,0:0:0:0:
256,192,62892,1,0,0:0:0:0:
256,192,62998,1,8,0:0:0:0:
256,192,63103,1,8,0:0:0:0:
256,192,63209,1,8,0:0:0:0:
256,192,63420,1,0,0:0:0:0:
256,192,63843,1,0,0:0:0:0:
256,192,64265,1,8,0:0:0:0:
256,192,64688,1,0,0:0:0:0:
256,192,64793,1,8,0:0:0:0:
256,192,64899,1,8,0:0:0:0:
256,192,65005,1,8,0:0:0:0:
256,192,65110,1,0,0:0:0:0:
256,192,65322,1,0,0:0:0:0:
256,192,65427,1,8,0:0:0:0:
256,192,65533,1,0,0:0:0:0:
256,192,65744,1,0,0:0:0:0:
256,192,65955,1,8,0:0:0:0:
256,192,66061,1,8,0:0:0:0:
256,192,66167,1,8,0:0:0:0:
256,192,66272,1,8,0:0:0:0:
256,192,66378,1,0,0:0:0:0:
256,192,66589,1,8,0:0:0:0:
256,192,66800,1,0,0:0:0:0:
256,192,67012,1,0,0:0:0:0:
256,192,67117,1,0,0:0:0:0:
256,192,67223,1,8,0:0:0:0:
256,192,67434,1,0,0:0:0:0:
256,192,67646,1,0,0:0:0:0:
256,192,67751,1,0,0:0:0:0:
256,192,67857,1,0,0:0:0:0:
256,192,67962,1,0,0:0:0:0:
256,192,68068,1,8,0:0:0:0:
256,192,68174,1,8,0:0:0:0:
256,192,68279,1,0,0:0:0:0:
384,96,68491,1,12,0:0:0:0:
256,192,68702,1,0,0:0:0:0:
256,192,68807,1,0,0:0:0:0:
256,192,68913,1,8,0:0:0:0:
256,192,69124,1,8,0:0:0:0:
256,192,69336,1,0,0:0:0:0:
256,192,69547,1,8,0:0:0:0:
256,192,69653,1,8,0:0:0:0:
256,192,69758,1,0,0:0:0:0:
256,192,69864,1,0,0:0:0:0:
256,192,69969,1,0,0:0:0:0:
256,192,70181,1,8,0:0:0:0:
256,192,70392,1,0,0:0:0:0:
256,192,70498,1,8,0:0:0:0:
256,192,70603,1,8,0:0:0:0:
256,192,70815,1,0,0:0:0:0:
256,192,71026,1,8,0:0:0:0:
256,192,71131,1,0,0:0:0:0:
256,192,71237,1,8,0:0:0:0:
256,192,71343,1,0,0:0:0:0:
256,192,71448,1,0,0:0:0:0:
256,192,71554,1,8,0:0:0:0:
256,192,71660,1,0,0:0:0:0:
256,192,71730,1,0,0:0:0:0:
256,192,71800,1,0,0:0:0:0:
256,192,71871,1,8,0:0:0:0:
256,192,72082,1,0,0:0:0:0:
256,192,72188,1,0,0:0:0:0:
256,192,72293,1,8,0:0:0:0:
256,192,72505,1,0,0:0:0:0:
256,192,72716,1,0,0:0:0:0:
256,192,72822,1,8,0:0:0:0:
256,192,72927,1,8,0:0:0:0:
256,192,73033,1,0,0:0:0:0:
256,192,73138,1,8,0:0:0:0:
256,192,73350,1,8,0:0:0:0:
256,192,73561,1,0,0:0:0:0:
256,192,73772,1,8,0:0:0:0:
256,192,73878,1,0,0:0:0:0:
256,192,73984,1,8,0:0:0:0:
256,192,74195,1,0,0:0:0:0:
256,192,74406,1,0,0:0:0:0:
256,192,74512,1,0,0:0:0:0:
256,192,74617,1,0,0:0:0:0:
256,192,74723,1,0,0:0:0:0:
256,192,74829,1,8,0:0:0:0:
256,192,74934,1,0,0:0:0:0:
256,192,75040,1,8,0:0:0:0:
384,96,75251,1,4,0:0:0:0:
256,192,75462,1,0,0:0:0:0:
256,192,75568,1,0,0:0:0:0:
256,192,75674,1,8,0:0:0:0:
256,192,75885,1,8,0:0:0:0:
256,192,76096,1,0,0:0:0:0:
256,192,76307,1,8,0:0:0:0:
256,192,76413,1,8,0:0:0:0:
256,192,76519,1,0,0:0:0:0:
256,192,76730,1,8,0:0:0:0:
256,192,76836,1,8,0:0:0:0:
256,192,76941,1,0,0:0:0:0:
256,192,77153,1,8,0:0:0:0:
256,192,77258,1,8,0:0:0:0:
256,192,77364,1,0,0:0:0:0:
256,192,77575,1,0,0:0:0:0:
256,192,77681,1,0,0:0:0:0:
256,192,77786,1,8,0:0:0:0:
256,192,77892,1,8,0:0:0:0:
256,192,77998,1,8,0:0:0:0:
256,192,78103,1,8,0:0:0:0:
256,192,78209,1,0,0:0:0:0:
256,192,78420,1,0,0:0:0:0:
384,96,78631,1,4,0:0:0:0:
256,192,78842,1,8,0:0:0:0:
256,192,79053,1,0,0:0:0:0:
256,192,79159,1,0,0:0:0:0:
256,192,79370,1,8,0:0:0:0:
256,192,79581,1,0,0:0:0:0:
256,192,79793,1,0,0:0:0:0:
256,192,79898,1,8,0:0:0:0:
256,192,80110,1,8,0:0:0:0:
256,192,80180,1,8,0:0:0:0:
256,192,80250,1,8,0:0:0:0:
256,192,80321,1,0,0:0:0:0:
256,192,80532,1,0,0:0:0:0:
256,192,80743,1,8,0:0:0:0:
256,192,80849,1,0,0:0:0:0:
256,192,81060,1,0,0:0:0:0:
256,192,81271,1,8,0:0:0:0:
256,192,81483,1,0,0:0:0:0:
256,192,81588,1,8,0:0:0:0:
256,192,81800,1,0,0:0:0:0:
256,192,81870,1,0,0:0:0:0:
256,192,81940,1,0,0:0:0:0:
256,192,82011,1,8,0:0:0:0:
256,192,82222,1,0,0:0:0:0:
256,192,82433,1,0,0:0:0:0:
256,192,82539,1,0,0:0:0:0:
256,192,82750,1,8,0:0:0:0:
256,192,82962,1,0,0:0:0:0:
256,192,83173,1,0,0:0:0:0:
256,192,83279,1,8,0:0:0:0:
256,192,83490,1,8,0:0:0:0:
256,192,83560,1,8,0:0:0:0:
256,192,83631,1,8,0:0:0:0:
256,192,83701,1,0,0:0:0:0:
256,192,83912,1,0,0:0:0:0:
256,192,84124,1,0,0:0:0:0:
256,192,84229,1,8,0:0:0:0:
256,192,84335,1,0,0:0:0:0:
256,192,84546,1,0,0:0:0:0:
256,192,84652,1,0,0:0:0:0:
256,192,84757,1,8,0:0:0:0:
256,192,84863,1,8,0:0:0:0:
256,192,84969,1,0,0:0:0:0:
256,192,85180,1,0,0:0:0:0:
256,192,85250,1,8,0:0:0:0:
256,192,85321,1,8,0:0:0:0:
256,192,85391,1,0,0:0:0:0:
256,192,85602,1,0,0:0:0:0:
256,192,85814,1,8,0:0:0:0:
256,192,85919,1,0,0:0:0:0:
256,192,86131,1,0,0:0:0:0:
256,192,86342,1,8,0:0:0:0:
256,192,86553,1,0,0:0:0:0:
256,192,86659,1,8,0:0:0:0:
256,192,86870,1,8,0:0:0:0:
256,192,86940,1,8,0:0:0:0:
256,192,87011,1,8,0:0:0:0:
256,192,87081,1,0,0:0:0:0:
256,192,87293,1,0,0:0:0:0:
256,192,87504,1,0,0:0:0:0:
256,192,87610,1,0,0:0:0:0:
256,192,87821,1,0,0:0:0:0:
256,192,88032,1,8,0:0:0:0:
256,192,88243,1,0,0:0:0:0:
256,192,88349,1,8,0:0:0:0:
256,192,88560,1,0,0:0:0:0:
256,192,88631,1,0,0:0:0:0:
256,192,88701,1,0,0:0:0:0:
256,192,88771,1,8,0:0:0:0:
256,192,88983,1,0,0:0:0:0:
256,192,89194,1,8,0:0:0:0:
256,192,89300,1,0,0:0:0:0:
256,192,89511,1,0,0:0:0:0:
256,192,89722,1,8,0:0:0:0:
256,192,89933,1,0,0:0:0:0:
256,192,90039,1,8,0:0:0:0:
256,192,90250,1,8,0:0:0:0:
256,192,90321,1,0,0:0:0:0:
256,192,90391,1,0,0:0:0:0:
256,192,90462,1,8,0:0:0:0:
256,192,90779,1,0,0:0:0:0:
256,192,91095,1,0,0:0:0:0:
256,192,91518,1,8,0:0:0:0:
256,192,91624,1,0,0:0:0:0:
256,192,91729,1,8,0:0:0:0:
256,192,92153,1,8,0:0:0:0:
256,192,92364,1,0,0:0:0:0:
256,192,92469,1,0,0:0:0:0:
256,192,92786,1,8,0:0:0:0:
256,192,92998,1,8,0:0:0:0:
256,192,93103,1,0,0:0:0:0:
256,192,93314,1,0,0:0:0:0:
256,192,93420,1,0,0:0:0:0:
256,192,93631,1,0,0:0:0:0:
256,192,93843,1,8,0:0:0:0:
256,192,94160,1,8,0:0:0:0:
256,192,94371,1,0,0:0:0:0:
256,192,94476,1,0,0:0:0:0:
256,192,94688,1,8,0:0:0:0:
256,192,94793,1,0,0:0:0:0:
256,192,95005,1,0,0:0:0:0:
256,192,95110,1,0,0:0:0:0:
256,192,95322,1,8,0:0:0:0:
256,192,95533,1,0,0:0:0:0:
256,192,95744,1,8,0:0:0:0:
256,192,95850,1,0,0:0:0:0:
256,192,96061,1,0,0:0:0:0:
256,192,96167,1,8,0:0:0:0:
256,192,96378,1,0,0:0:0:0:
256,192,96589,1,0,0:0:0:0:
256,192,96695,1,8,0:0:0:0:
256,192,96800,1,0,0:0:0:0:
256,192,97012,1,8,0:0:0:0:
256,192,97223,1,0,0:0:0:0:
256,192,97434,1,8,0:0:0:0:
256,192,97540,1,0,0:0:0:0:
256,192,97751,1,8,0:0:0:0:
256,192,97857,1,0,0:0:0:0:
256,192,98068,1,8,0:0:0:0:
256,192,98174,1,0,0:0:0:0:
256,192,98279,1,8,0:0:0:0:
256,192,98385,1,8,0:0:0:0:
256,192,98491,1,0,0:0:0:0:
256,192,98702,1,0,0:0:0:0:
256,192,98913,1,8,0:0:0:0:
256,192,99124,1,8,0:0:0:0:
256,192,99230,1,8,0:0:0:0:
256,192,99336,1,0,0:0:0:0:
256,192,99547,1,0,0:0:0:0:
256,192,99758,1,8,0:0:0:0:
256,192,99864,1,0,0:0:0:0:
256,192,99969,1,8,0:0:0:0:
256,192,100181,1,0,0:0:0:0:
256,192,100286,1,8,0:0:0:0:
256,192,100603,1,0,0:0:0:0:
256,192,100709,1,0,0:0:0:0:
256,192,100815,1,8,0:0:0:0:
256,192,101026,1,0,0:0:0:0:
256,192,101237,1,8,0:0:0:0:
256,192,101343,1,0,0:0:0:0:
256,192,101554,1,8,0:0:0:0:
256,192,101660,1,8,0:0:0:0:
256,192,101871,1,0,0:0:0:0:
256,192,102293,1,8,0:0:0:0:
256,192,102399,1,8,0:0:0:0:
256,192,102505,1,8,0:0:0:0:
256,192,103138,1,0,0:0:0:0:
256,192,103244,1,8,0:0:0:0:
256,192,103350,1,0,0:0:0:0:
256,192,103455,1,0,0:0:0:0:
256,192,103561,1,8,0:0:0:0:
256,192,103984,1,0,0:0:0:0:
256,192,104406,1,8,0:0:0:0:
256,192,104512,1,8,0:0:0:0:
